osu file format v14

[General]
AudioFilename: audio.mp3
AudioLeadIn: 0
PreviewTime: 63630
Countdown: 0
SampleSet: Drum
StackLeniency: 0.7
Mode: 0
LetterboxInBreaks: 0
WidescreenStoryboard: 1

[Editor]
DistanceSpacing: 1.3
BeatDivisor: 4
GridSize: 16
TimelineZoom: 2.7

[Metadata]
Title:FREEDOM DiVE
TitleUnicode:FREEDOM DiVE↓
Artist:xi
ArtistUnicode:xi
Creator:Aistre
Version:NOViCE
Source:MAXBEAT
Tags:VOEZ cytus ii CHUNITHM PLUS BMS parousia video rhythm game happy hardcore electronic featured artist mpg mappers mapper's guild alphabet venax deviouspanda paradogi lukas seolv [_l_u_k_a_s_] xi baddies uberfazz instrumental SOUND VOLTEX IV HEAVENLY HAVEN 太鼓の達人 セッションでドドンがドン! Taiko no Tatsujin Drum Session! CHUNITHM PLUS WACCA Muse Dash fd
BeatmapID:3407101
BeatmapSetID:1667560

[Difficulty]
HPDrainRate:3
CircleSize:3
OverallDifficulty:3
ApproachRate:4
SliderMultiplier:0.620000005960464
SliderTickRate:1

[Events]
//Background and Video events
0,0,"EykD9SkXIAA7R16.jpg",0,0
//Break Periods
2,27178,34298
2,81178,87218
//Storyboard Layer 0 (Background)
//Storyboard Layer 1 (Fail)
//Storyboard Layer 2 (Pass)
//Storyboard Layer 3 (Foreground)
//Storyboard Layer 4 (Overlay)
//Storyboard Sound Samples

[TimingPoints]
1058,270.000000027,4,3,0,65,1,0
5378,-100,4,3,0,65,0,0
26978,-100,4,2,0,65,0,0
41018,-100,4,2,0,65,0,0
44258,-100,4,3,0,70,0,0
63698,-100,4,3,0,75,0,0
76658,-100,4,3,0,75,0,0
88538,-100,4,3,0,65,0,0
98258,-100,4,3,0,80,0,1
130658,-100,4,3,0,75,0,1
131738,-100,4,3,0,70,0,0
132818,-100,4,3,0,70,0,0
139298,-100,4,3,0,40,0,0

[Colours]
Combo1 : 191,116,220
Combo2 : 210,200,196
Combo3 : 211,188,173
Combo4 : 241,67,128
Combo5 : 236,177,113
Combo6 : 228,235,101
Combo7 : 159,235,126
Combo8 : 128,198,236

[HitObjects]
112,374,1058,6,0,P|213:301|192:187,1,248.000002384186,4|0,1:2|1:0,0:0:0:0:
35,177,2678,2,0,P|30:143|34:103,1,62.0000005960464,0|0,1:0|1:0,0:0:0:0:
67,43,3218,2,0,B|132:16|182:44|177:105|243:122|299:91,1,248.000002384186,4|0,1:1|1:0,0:0:0:0:
449,61,4838,2,0,P|455:34|458:22,2,31.0000002980232,0|0|0,1:0|1:0|1:0,0:0:0:0:
472,138,5378,6,0,P|448:166|443:230,1,93.0000008940696,4|0,1:1|1:0,0:0:0:0:
455,340,6188,1,0,1:0:0:0:
455,340,6458,2,0,P|383:309|326:321,1,124.000001192093,0|0,1:0|1:0,0:0:0:0:
184,358,7538,2,0,L|172:222,1,124.000001192093,4|4,1:1|0:2,0:0:0:0:
154,74,8618,2,0,L|143:4,2,62.0000005960464,4|4|4,1:1|1:1|1:1,0:0:0:0:
27,174,9698,102,0,P|15:239|12:374,1,186.000001788139,4|8,1:2|0:2,0:0:0:0:
90,370,10778,2,0,P|123:363|156:360,2,62.0000005960464,0|8|0,1:0|0:2|1:0,0:0:0:0:
122,212,11858,2,0,P|175:242|302:240,1,186.000001788139,4|8,1:1|0:2,0:0:0:0:
358,294,12938,2,0,P|361:327|362:360,2,62.0000005960464,0|12|4,1:0|0:2|1:1,0:0:0:0:
510,242,14018,6,0,P|503:182|511:43,1,186.000001788139,4|4,1:2|1:2,0:0:0:0:
357,113,15368,1,4,1:1:0:0:
303,52,15638,2,0,P|261:39|226:35,1,62.0000005960464,0|4,1:0|1:2,0:0:0:0:
175,79,16178,102,0,B|111:74|125:111|44:107,2,124.000001192093,4|4|4,1:2|1:1|1:2,0:0:0:0:
288,192,17798,1,4,1:2:0:0:
183,314,18338,1,4,1:2:0:0:
256,192,18608,12,4,23603,1:1:0:0:
66,66,24818,6,0,P|71:114|65:195,2,124.000001192093,4|6|6,1:2|0:2|0:2,0:0:0:0:
220,19,26438,1,6,0:2:0:0:
289,59,26708,1,2,0:2:0:0:
364,31,26978,1,6,2:2:0:0:
450,331,35618,101,6,2:2:0:0:
132,273,36698,1,2,2:2:0:0:
283,217,37238,1,2,2:2:0:0:
210,73,37778,2,0,P|130:68|80:59,2,124.000001192093,6|2|2,2:2|2:2|2:2,0:0:0:0:
362,21,39398,1,2,2:2:0:0:
484,126,39938,5,2,1:2:0:0:
484,126,41018,2,0,P|434:145|423:219,1,124.000001192093,2|2,1:2|1:2,0:0:0:0:
269,268,42098,2,0,P|225:232|234:152,1,124.000001192093,2|2,1:2|1:2,0:0:0:0:
262,98,42908,1,2,1:2:0:0:
210,36,43178,2,0,P|152:29|126:24,2,62.0000005960464,2|6|6,2:2|1:2|1:2,0:0:0:0:
75,124,44258,101,2,1:2:0:0:
14,273,44798,1,6,1:2:0:0:
146,364,45338,2,0,P|181:355|216:353,1,62.0000005960464,6|6,1:2|1:2,0:0:0:0:
261,293,45878,2,0,P|296:284|331:282,1,62.0000005960464,6|6,1:2|1:2,0:0:0:0:
384,230,46418,6,0,B|408:209|427:199|427:199|409:132|399:51,1,186.000001788139,4|10,1:1|0:2,0:0:0:0:
453,7,47498,2,0,P|499:11|527:30,2,62.0000005960464,2|10|2,1:2|0:2|1:2,0:0:0:0:
294,35,48578,2,0,P|223:20|94:13,1,186.000001788139,2|10,1:2|0:2,0:0:0:0:
46,62,49658,2,0,P|23:91|11:119,2,62.0000005960464,2|10|2,1:2|0:2|1:2,0:0:0:0:
188,137,50738,101,2,1:2:0:0:
77,254,51278,1,2,1:2:0:0:
201,356,51818,2,0,P|232:358|265:364,2,62.0000005960464,2|10|2,1:2|0:2|1:2,0:0:0:0:
305,232,52898,2,0,P|341:265|417:278,1,124.000001192093,2|2,1:2|1:2,0:0:0:0:
476,228,53708,1,10,0:2:0:0:
465,148,53978,2,0,P|454:105|452:75,2,62.0000005960464,0|14|4,1:2|0:2|1:1,0:0:0:0:
323,69,55058,6,0,B|225:53|235:133|127:105,1,186.000001788139,4|10,1:1|0:2,0:0:0:0:
72,78,56138,2,0,P|40:55|26:26,2,62.0000005960464,2|10|2,1:2|0:2|1:2,0:0:0:0:
173,203,57218,2,0,P|155:268|130:394,1,186.000001788139,2|10,1:2|0:2,0:0:0:0:
212,378,58298,2,0,P|246:365|279:358,2,62.0000005960464,2|10|2,1:2|0:2|1:2,0:0:0:0:
87,275,59378,101,2,1:2:0:0:
204,164,59918,1,2,1:2:0:0:
76,65,60458,2,0,P|26:70|4:69,2,62.0000005960464,2|10|2,1:2|0:2|1:2,0:0:0:0:
226,8,61538,6,0,B|280:-16|370:16|383:105|367:143|367:143|418:143|446:210|398:248,1,372.000003576278,2|6,1:2|1:2,0:0:0:0:
270,322,63698,6,0,P|226:318|202:317,2,62.0000005960464,4|8|2,1:2|0:2|1:2,0:0:0:0:
229,165,64778,2,0,P|221:124|218:91,2,62.0000005960464,2|8|2,1:2|0:2|1:2,0:0:0:0:
164,213,65588,1,10,0:2:0:0:
84,226,65858,2,0,P|35:198|46:129,1,124.000001192093,2|2,1:2|1:2,0:0:0:0:
163,34,66938,1,2,1:2:0:0:
310,99,67478,1,6,1:2:0:0:
465,142,68018,6,0,P|460:191|447:287,1,124.000001192093,6|2,1:2|1:2,0:0:0:0:
388,316,68828,1,8,0:2:0:0:
307,323,69098,2,0,P|302:354|297:398,2,62.0000005960464,2|10|2,1:2|0:2|1:2,0:0:0:0:
147,297,70178,2,0,P|103:291|80:291,2,62.0000005960464,2|10|2,1:2|0:2|1:2,0:0:0:0:
184,225,70988,1,10,0:2:0:0:
182,144,71258,1,2,1:2:0:0:
483,30,72338,6,0,P|491:90|469:147,1,124.000001192093,6|2,0:2|1:2,0:0:0:0:
402,193,73148,1,10,0:2:0:0:
335,238,73418,2,0,P|337:270|337:306,2,62.0000005960464,2|10|2,1:2|0:2|1:2,0:0:0:0:
315,77,74498,2,0,P|267:76|186:55,1,124.000001192093,2|2,1:2|1:2,0:0:0:0:
47,127,75578,2,0,P|55:168|62:195,1,62.0000005960464,2|10,1:2|0:2,0:0:0:0:
11,250,76118,2,0,P|19:291|26:318,1,62.0000005960464,6|14,1:2|0:2,0:0:0:0:
86,361,76658,5,4,1:1:0:0:
293,236,77468,1,10,0:2:0:0:
339,302,77738,2,0,P|379:338|449:335,1,124.000001192093,2|2,1:2|1:2,0:0:0:0:
506,186,78818,2,0,B|519:164|513:133|504:129|495:125|477:98|496:64,1,124.000001192093,2|2,1:2|1:2,0:0:0:0:
419,37,79628,1,2,1:2:0:0:
344,68,79898,2,0,P|307:81|279:93,2,62.0000005960464,6|6|6,1:2|1:2|1:2,0:0:0:0:
400,219,80978,5,4,1:1:0:0:
59,365,88538,22,0,P|57:265|175:201,1,248.000002384186,2|2,1:1|1:1,0:0:0:0:
453,365,90698,2,0,P|455:265|337:201,1,248.000002384186,2|2,1:1|1:1,0:0:0:0:
53,46,92858,6,0,P|117:80|238:54,1,186.000001788139,2|0,1:1|1:2,0:0:0:0:
290,110,93938,2,0,P|354:76|475:102,1,186.000001788139,2|0,1:1|1:2,0:0:0:0:
490,169,95018,1,2,1:1:0:0:
244,384,96098,1,2,1:0:0:0:
274,225,96638,1,2,1:0:0:0:
308,67,97178,1,6,1:0:0:0:
48,247,98258,6,0,P|39:281|27:317,2,62.0000005960464,4|8|2,1:2|0:2|1:2,0:0:0:0:
159,130,99338,2,0,P|149:100|141:70,2,62.0000005960464,2|8|2,1:2|0:2|1:2,0:0:0:0:
228,172,100148,1,10,0:2:0:0:
295,127,100418,2,0,P|342:107|405:161,1,124.000001192093,2|2,1:2|1:2,0:0:0:0:
429,301,101498,1,2,1:2:0:0:
282,367,102038,1,6,1:2:0:0:
126,324,102578,6,0,B|108:307|98:300|98:300|106:245|106:202,1,124.000001192093,6|2,1:2|1:2,0:0:0:0:
78,137,103388,1,8,0:2:0:0:
47,62,103658,2,0,P|51:34|62:0,2,62.0000005960464,2|10|2,1:2|0:2|1:2,0:0:0:0:
201,109,104738,2,0,P|241:99|286:90,2,62.0000005960464,2|10|2,1:2|0:2|1:2,0:0:0:0:
156,176,105548,1,10,0:2:0:0:
162,256,105818,1,2,1:2:0:0:
473,339,106898,6,0,P|501:285|487:217,1,124.000001192093,6|2,0:2|1:2,0:0:0:0:
432,168,107708,1,10,0:2:0:0:
354,145,107978,2,0,P|324:132|297:113,2,62.0000005960464,2|10|2,1:2|0:2|1:2,0:0:0:0:
366,305,109058,2,0,P|290:308|231:333,1,124.000001192093,2|2,1:2|1:2,0:0:0:0:
85,300,110138,2,0,P|86:267|92:233,1,62.0000005960464,2|10,1:2|0:2,0:0:0:0:
150,183,110678,2,0,P|151:150|157:116,1,62.0000005960464,6|14,1:2|0:2,0:0:0:0:
133,43,111218,5,4,1:1:0:0:
372,8,112028,1,10,0:2:0:0:
446,39,112298,2,0,P|467:64|450:151,1,124.000001192093,2|2,1:2|1:2,0:0:0:0:
351,273,113378,2,0,P|286:278|213:288,1,124.000001192093,0|0,1:2|1:2,0:0:0:0:
169,229,114188,1,2,1:2:0:0:
93,199,114458,2,0,P|54:186|25:178,1,62.0000005960464,6|6,1:2|1:2,0:0:0:0:
32,99,114998,1,6,1:2:0:0:
188,60,115538,6,0,P|206:27|225:-5,2,62.0000005960464,4|8|2,1:2|0:2|1:2,0:0:0:0:
268,199,116618,2,0,P|274:229|281:272,2,62.0000005960464,2|8|2,1:2|0:2|1:2,0:0:0:0:
200,155,117428,1,10,0:2:0:0:
121,175,117698,2,0,B|85:226|85:226|115:285,1,124.000001192093,2|2,1:2|1:2,0:0:0:0:
257,353,118778,2,0,B|323:349|306:331|377:327,1,124.000001192093,2|6,1:2|1:2,0:0:0:0:
449,290,119588,1,6,1:2:0:0:
501,228,119858,5,6,1:2:0:0:
499,66,120398,1,2,1:2:0:0:
338,74,120938,2,0,P|321:52|319:15,2,62.0000005960464,2|10|2,1:2|0:2|1:2,0:0:0:0:
290,139,121748,1,10,0:2:0:0:
335,205,122018,2,0,P|386:220|389:300,1,124.000001192093,2|2,1:2|1:2,0:0:0:0:
367,357,122828,1,10,0:2:0:0:
286,358,123098,1,2,1:2:0:0:
179,53,124178,38,0,P|139:61|37:78,1,124.000001192093,6|2,0:2|1:2,0:0:0:0:
37,153,124988,1,10,0:2:0:0:
69,227,125258,2,0,P|62:257|46:295,2,62.0000005960464,2|10|2,1:2|0:2|1:2,0:0:0:0:
230,227,126338,2,0,P|273:233|325:177,1,124.000001192093,2|2,1:2|1:2,0:0:0:0:
373,22,127418,2,0,P|403:18|432:8,1,62.0000005960464,2|10,1:2|0:2,0:0:0:0:
487,67,127958,2,0,P|490:97|500:126,1,62.0000005960464,6|14,1:2|0:2,0:0:0:0:
455,193,128498,5,4,1:1:0:0:
262,339,129308,1,10,0:2:0:0:
210,277,129578,2,0,P|211:236|217:145,1,124.000001192093,2|2,1:2|1:2,0:0:0:0:
338,48,130658,6,0,P|392:61|391:134,1,124.000001192093,2|2,1:2|1:2,0:0:0:0:
340,271,131738,2,0,P|292:282|267:290,1,62.0000005960464,6|6,1:2|1:2,0:0:0:0:
206,251,132278,2,0,P|158:262|133:270,1,62.0000005960464,6|6,1:2|1:2,0:0:0:0:
66,248,132818,5,6,1:1:0:0:
26,91,133358,1,6,1:1:0:0:
174,27,133898,2,0,P|206:24|243:22,2,62.0000005960464,6|2|6,1:1|1:1|1:1,0:0:0:0:
184,187,134978,5,6,1:1:0:0:
318,275,135518,1,6,1:1:0:0:
424,154,136058,2,0,P|429:113|432:79,2,62.0000005960464,6|2|2,1:1|1:1|1:1,0:0:0:0:
465,223,136868,1,2,1:1:0:0:
439,299,137138,5,6,1:2:0:0:
256,192,137408,12,4,139298,0:1:0:0:
