osu file format v14

[General]
AudioFilename: audio.mp3
AudioLeadIn: 0
PreviewTime: 63630
Countdown: 0
SampleSet: Drum
StackLeniency: 0.2
Mode: 0
LetterboxInBreaks: 0
WidescreenStoryboard: 1

[Editor]
DistanceSpacing: 0.5
BeatDivisor: 4
GridSize: 16
TimelineZoom: 2.7

[Metadata]
Title:FREEDOM DiVE
TitleUnicode:FREEDOM DiVE↓
Artist:xi
ArtistUnicode:xi
Creator:Aistre
Version:HiDDEN SPECiAL
Source:MAXBEAT
Tags:VOEZ cytus ii CHUNITHM PLUS BMS parousia video rhythm game happy hardcore electronic featured artist mpg mappers mapper's guild alphabet venax deviouspanda paradogi lukas seolv [_l_u_k_a_s_] xi baddies uberfazz instrumental SOUND VOLTEX IV HEAVENLY HAVEN 太鼓の達人 セッションでドドンがドン! Taiko no Tatsujin Drum Session! CHUNITHM PLUS WACCA Muse Dash fd
BeatmapID:3407177
BeatmapSetID:1667560

[Difficulty]
HPDrainRate:5
CircleSize:5
OverallDifficulty:8
ApproachRate:8
SliderMultiplier:2.22000000596046
SliderTickRate:1

[Events]
//Background and Video events
0,0,"EykD9SkXIAA7R16.jpg",0,0
//Break Periods
2,27178,34733
2,81178,87653
//Storyboard Layer 0 (Background)
//Storyboard Layer 1 (Fail)
//Storyboard Layer 2 (Pass)
//Storyboard Layer 3 (Foreground)
//Storyboard Layer 4 (Overlay)
//Storyboard Sound Samples

[TimingPoints]
1058,270.000000027,4,3,0,65,1,0
1058,-200,4,3,0,65,0,0
9698,-133.333333333333,4,3,0,65,0,0
25358,-100,4,3,0,65,0,0
25898,-80,4,3,0,65,0,0
26438,-66.6666666666667,4,3,0,65,0,0
26978,-66.6666666666667,4,2,0,65,0,0
35483,-133.333333333333,4,2,0,65,0,0
43178,-66.6666666666667,4,2,0,65,0,0
44123,-133.333333333333,4,2,0,65,0,0
44258,-133.333333333333,4,3,0,70,0,0
45203,-100,4,3,0,70,0,0
46418,-133.333333333333,4,3,0,70,0,0
54788,-66.6666666666667,4,3,0,70,0,0
55058,-133.333333333333,4,3,0,70,0,0
62078,-100,4,3,0,70,0,0
62618,-66.6666666666667,4,3,0,70,0,0
63158,-44.4444444444445,4,3,0,70,0,0
63698,-100,4,3,0,75,0,0
66938,-66.6666666666667,4,3,0,75,0,0
67478,-38.4615384615385,4,3,0,75,0,0
68018,-80,4,3,0,75,0,0
69098,-66.6666666666667,4,3,0,75,0,0
70178,-80,4,3,0,75,0,0
79898,-50,4,3,0,75,0,0
88538,-133.333333333333,4,3,0,65,0,0
98258,-100,4,3,0,80,0,1
101498,-66.6666666666667,4,3,0,80,0,1
102038,-38.4615384615385,4,3,0,80,0,1
102578,-80,4,3,0,80,0,1
103658,-66.6666666666667,4,3,0,80,0,1
104738,-80,4,3,0,80,0,1
114458,-50,4,3,0,80,0,1
115538,-100,4,3,0,80,0,1
118778,-66.6666666666667,4,3,0,80,0,1
119318,-38.4615384615385,4,3,0,80,0,1
119858,-80,4,3,0,80,0,1
120938,-66.6666666666667,4,3,0,80,0,1
122018,-80,4,3,0,80,0,1
130658,-100,4,3,0,75,0,1
131738,-80,4,3,0,70,0,1
132818,-200,4,3,0,70,0,0
133358,-133.333333333333,4,3,0,70,0,0
134438,-100,4,3,0,70,0,0
134978,-80,4,3,0,70,0,0
135518,-66.6666666666667,4,3,0,70,0,0
136058,-57.1428571428571,4,3,0,70,0,0
136598,-50,4,3,0,70,0,0
139298,-50,4,3,0,40,0,0

[Colours]
Combo1 : 191,116,220
Combo2 : 210,200,196
Combo3 : 211,188,173
Combo4 : 241,67,128
Combo5 : 236,177,113
Combo6 : 228,235,101
Combo7 : 159,235,126
Combo8 : 128,198,236

[HitObjects]
330,51,1058,6,0,L|425:40,2,83.2500002235172,4|0|0,1:2|1:0|1:0,0:0:0:0:
330,51,1733,1,0,1:0:0:0:
266,57,1868,1,0,1:0:0:0:
202,64,2003,1,2,0:3:0:0:
139,71,2138,2,0,L|43:81,2,83.2500002235172,0|0|0,1:0|1:0|1:0,0:0:0:0:
202,64,2678,1,0,1:0:0:0:
266,57,2813,1,0,1:0:0:0:
330,51,2948,1,0,1:0:0:0:
338,127,3218,6,0,L|433:116,2,83.2500002235172,4|0|0,1:1|1:0|1:0,0:0:0:0:
338,127,3893,1,0,1:0:0:0:
274,134,4028,1,0,1:0:0:0:
210,140,4163,1,2,0:3:0:0:
147,147,4298,2,0,L|51:157,2,83.2500002235172,0|0|0,1:0|1:0|1:0,0:0:0:0:
210,140,4838,1,0,1:0:0:0:
242,137,4905,1,0,1:0:0:0:
274,134,4973,1,0,1:0:0:0:
338,127,5108,1,0,1:0:0:0:
420,118,5243,1,2,0:3:0:0:
346,204,5378,102,0,L|441:193,2,83.2500002235172,4|0|0,1:1|1:0|1:0,0:0:0:0:
346,204,6053,1,0,1:0:0:0:
282,210,6188,1,0,1:0:0:0:
218,217,6323,1,2,0:3:0:0:
155,224,6458,2,0,L|59:234,2,83.2500002235172,0|0|0,1:0|1:0|1:0,0:0:0:0:
218,217,6998,1,0,1:0:0:0:
282,210,7133,1,0,1:0:0:0:
346,204,7268,1,0,1:0:0:0:
438,272,7538,6,0,L|318:284,1,111.000000298023,4|0,1:2|0:0,0:0:0:0:
15,317,8078,2,0,L|134:304,1,111.000000298023,4|0,0:2|1:0,0:0:0:0:
328,284,8618,102,0,L|268:291,1,55.5000001490115,4|0,1:2|0:0,0:0:0:0:
125,305,8888,2,0,L|184:299,1,55.5000001490115,4|0,1:1|0:0,0:0:0:0:
383,277,9158,2,0,L|323:284,1,55.5000001490115,4|2,1:2|0:2,0:0:0:0:
69,310,9428,2,0,L|128:304,1,55.5000001490115,4|2,1:2|0:2,0:0:0:0:
221,235,9698,6,0,B|235:153|235:153|191:76,1,166.500006798506,4|8,1:2|0:2,0:0:0:0:
194,81,10238,1,0,1:0:0:0:
276,25,10373,1,0,0:0:0:0:
363,72,10508,2,0,L|531:97,2,166.500006798506,8|0|8,0:2|1:0|0:2,0:0:0:0:
194,81,11183,2,0,L|26:56,2,166.500006798506,2|2|0,0:2|0:2|1:0,0:0:0:0:
363,72,11858,101,4,1:1:0:0:
443,254,12128,1,8,0:2:0:0:
259,333,12398,1,0,1:0:0:0:
215,243,12533,1,0,0:0:0:0:
303,197,12668,1,8,0:2:0:0:
259,333,12938,6,0,L|86:354,1,166.500006798506,0|12,1:0|0:2,0:0:0:0:
36,160,13478,2,0,B|79:162|79:162|101:261,2,124.875005098879,4|4|4,1:1|1:1|1:1,0:0:0:0:
22,226,14018,101,4,1:2:0:0:
216,179,14288,1,8,0:2:0:0:
412,217,14558,1,0,1:0:0:0:
479,28,14828,1,4,1:2:0:0:
445,123,14963,1,4,1:1:0:0:
412,217,15233,1,0,0:0:0:0:
412,217,15300,1,0,1:0:0:0:
412,217,15368,1,4,1:1:0:0:
372,308,15503,1,0,1:0:0:0:
272,295,15638,6,0,L|171:284,1,83.2500033992528,0|0,1:0|1:0,0:0:0:0:
148,279,15840,1,0,1:0:0:0:
148,279,15908,1,4,1:2:0:0:
272,295,16043,1,0,1:0:0:0:
37,147,16178,102,0,B|136:129|136:129|176:61,1,166.500006798506,4|8,1:2|0:2,0:0:0:0:
350,87,16718,2,0,B|251:105|251:105|211:173,1,166.500006798506,4|8,1:2|0:2,0:0:0:0:
217,161,17123,1,0,1:0:0:0:
169,72,17258,2,0,L|207:-2,1,83.2500033992528,4|0,1:2|1:0,0:0:0:0:
223,168,17528,2,0,L|185:242,1,83.2500033992528,4|0,1:1|1:0,0:0:0:0:
124,334,17798,6,0,L|103:374,3,41.6250016996264,4|2|2|2,1:1|0:2|0:2|0:2,0:0:0:0:
185,242,18068,2,0,L|206:202,3,41.6250016996264,4|2|2|2,1:1|0:2|0:2|0:2,0:0:0:0:
262,73,18338,102,0,B|325:97|325:97|351:84|351:84|421:109,1,166.500006798506,4|8,1:2|0:2,0:0:0:0:
417,108,18878,1,0,1:0:0:0:
453,200,19013,1,0,0:0:0:0:
388,276,19148,2,0,L|363:359,1,83.2500033992528,8|0,0:2|0:0,0:0:0:0:
303,193,19418,6,0,L|250:354,1,166.500006798506,0|8,1:0|0:2,0:0:0:0:
188,207,19823,2,0,L|135:368,2,166.500006798506,2|2|0,0:2|0:2|1:0,0:0:0:0:
59,18,20498,102,0,B|23:39|23:39|26:97,1,83.2500033992528,4|0,1:1|0:0,0:0:0:0:
89,158,20768,1,8,0:2:0:0:
280,100,21038,1,0,1:0:0:0:
203,35,21173,1,0,0:0:0:0:
298,5,21308,1,8,0:2:0:0:
280,100,21443,1,0,1:0:0:0:
376,73,21578,5,0,1:0:0:0:
338,214,21848,2,0,L|427:234,1,83.2500033992528,12|0,0:2|0:0,0:0:0:0:
376,73,22118,2,0,L|510:103,2,124.875005098879,4|4|4,1:1|1:1|1:1,0:0:0:0:
338,214,22658,102,0,B|290:204|290:204|193:291,1,166.500006798506,4|8,1:2|0:2,0:0:0:0:
102,291,23198,1,0,1:0:0:0:
28,223,23333,1,0,0:0:0:0:
43,124,23468,1,4,1:2:0:0:
124,65,23603,1,4,1:1:0:0:
102,291,23873,5,0,0:0:0:0:
102,291,23940,1,0,1:0:0:0:
102,291,24008,1,4,1:1:0:0:
28,223,24143,1,0,1:0:0:0:
43,124,24278,1,0,1:0:0:0:
124,65,24413,1,0,1:0:0:0:
124,65,24481,1,0,1:0:0:0:
124,65,24548,1,4,1:2:0:0:
222,50,24683,1,0,1:0:0:0:
319,73,24818,102,0,L|299:158,1,83.2500033992528,4|0,1:2|1:0,0:0:0:0:
400,125,25088,2,0,L|380:210,1,83.2500033992528,2|0,0:2|1:0,0:0:0:0:
230,122,25358,6,0,L|200:243,1,111.000000298023,6|0,0:2|1:0,0:0:0:0:
447,224,25628,2,0,L|417:345,1,111.000000298023,2|0,0:2|1:0,0:0:0:0:
331,384,25898,102,0,L|315:240,1,138.750000372529,6|0,0:2|1:0,0:0:0:0:
137,296,26168,2,0,L|121:152,1,138.750000372529,2|0,0:2|1:0,0:0:0:0:
380,206,26438,6,0,L|364:27,1,166.500006798506,6|0,0:2|1:0,0:0:0:0:
58,266,26708,2,0,L|42:87,1,166.500006798506,2|2,0:2|1:2,0:0:0:0:
37,25,26978,5,6,2:2:0:0:
256,368,35483,85,0,1:0:0:0:
189,306,35618,2,0,B|256:256|256:256|322:306,1,166.500006798506,6|2,2:2|2:2,0:0:0:0:
148,180,36158,2,0,B|216:228|216:228|189:306,1,166.500006798506,2|2,2:2|2:2,0:0:0:0:
255,102,36698,2,0,B|230:182|230:182|147:180,2,166.500006798506,2|2|2,2:2|2:2|2:2,0:0:0:0:
256,16,37643,5,2,2:2:0:0:
363,180,37778,2,0,B|279:181|279:181|255:102,1,166.500006798506,6|2,2:2|2:2,0:0:0:0:
323,306,38318,2,0,B|295:226|295:226|363:179,1,166.500006798506,2|2,2:2|2:2,0:0:0:0:
148,180,38858,2,0,B|216:228|216:228|189:306,1,166.500006798506,2|2,2:2|2:2,0:0:0:0:
322,306,39398,2,0,B|256:256|256:256|189:306,1,166.500006798506,2|2,2:2|2:2,0:0:0:0:
508,192,39938,101,2,1:2:0:0:
436,193,40883,1,2,1:2:0:0:
436,193,40950,1,0,1:0:0:0:
436,193,41018,2,0,B|385:201|385:201|354:331,1,166.500006798506,2|2,1:2|2:2,0:0:0:0:
331,154,41558,2,0,B|313:113|313:113|223:90,2,124.875005098879,2|2|2,1:2|2:2|2:2,0:0:0:0:
311,224,42098,6,0,B|245:241|245:241|232:257|232:257|146:277,1,166.500006798506,2|0,1:2|0:0,0:0:0:0:
161,384,42638,2,0,B|179:343|179:343|269:320,1,124.875005098879,2|0,1:2|0:0,0:0:0:0:
256,323,42908,2,0,B|268:369|268:369|241:393,1,83.2500033992528,2|2,1:2|2:2,0:0:0:0:
61,314,43178,101,2,2:2:0:0:
61,314,43448,2,0,B|123:110|123:110|-1:24,2,333.000013597011,6|6|6,1:2|1:2|1:2,0:0:0:0:
4,137,44123,5,0,1:0:0:0:
4,137,44190,1,0,1:0:0:0:
4,137,44258,2,0,L|87:121,1,83.2500033992528,2|0,1:2|0:0,0:0:0:0:
152,107,44528,1,2,1:2:0:0:
225,27,44663,101,0,0:0:0:0:
225,27,44730,1,0,0:0:0:0:
225,27,44798,2,0,L|308:43,1,83.2500033992528,6|0,1:2|0:0,0:0:0:0:
373,57,45068,1,2,1:2:0:0:
504,92,45203,5,0,0:0:0:0:
504,92,45270,1,0,0:0:0:0:
504,92,45338,2,0,B|522:140|522:140|491:192,1,111.000000298023,6|0,1:2|1:0,0:0:0:0:
349,174,45608,2,0,B|318:226|318:226|336:274,1,111.000000298023,6|0,1:2|1:0,0:0:0:0:
476,324,45878,102,0,B|484:348|484:348|473:380,3,55.5000001490115,6|0|0|0,1:2|1:0|1:0|1:0,0:0:0:0:
421,283,46148,2,0,B|413:259|413:259|424:227,3,55.5000001490115,6|0|0|0,1:2|1:0|1:0|1:0,0:0:0:0:
360,336,46418,6,0,P|296:307|248:382,1,166.500006798506,4|10,1:1|0:2,0:0:0:0:
246,374,46823,1,0,0:0:0:0:
152,338,46958,2,0,P|98:308|100:279,1,83.2500033992528,2|0,1:2|0:0,0:0:0:0:
149,235,47228,2,0,P|203:265|201:294,1,83.2500033992528,10|0,0:2|0:0,0:0:0:0:
77,203,47498,102,0,P|88:142|117:135,1,83.2500033992528,2|0,1:2|0:0,0:0:0:0:
175,169,47768,2,0,P|163:229|134:236,1,83.2500033992528,10|0,0:2|0:0,0:0:0:0:
24,117,48038,2,0,P|93:110|101:17,1,166.500006798506,2|10,1:2|0:2,0:0:0:0:
107,25,48443,1,0,1:0:0:0:
271,53,48578,6,0,L|168:38,1,83.2500033992528,2|0,1:2|0:0,0:0:0:0:
25,13,48848,2,0,L|128:28,1,83.2500033992528,10|0,0:2|0:0,0:0:0:0:
271,53,49118,102,0,L|353:64,1,83.2500033992528,2|0,1:2|0:0,0:0:0:0:
512,89,49388,2,0,L|429:77,1,83.2500033992528,10|0,0:2|0:0,0:0:0:0:
378,133,49658,2,0,B|347:167|347:167|371:286,1,166.500006798506,2|10,1:2|0:2,0:0:0:0:
370,285,50063,1,0,0:0:0:0:
455,231,50198,2,0,B|474:196|474:196|450:157,1,83.2500033992528,2|0,1:2|0:0,0:0:0:0:
378,133,50468,2,0,B|359:168|359:168|383:207,1,83.2500033992528,10|0,0:2|1:2,0:0:0:0:
331,345,50738,6,0,P|278:322|272:291,1,83.2500033992528,2|0,1:2|0:0,0:0:0:0:
194,266,51008,2,0,P|199:208|227:193,1,83.2500033992528,10|0,0:2|0:0,0:0:0:0:
226,111,51278,2,0,P|282:98|305:120,1,83.2500033992528,2|0,1:2|0:0,0:0:0:0:
287,227,51548,101,10,0:2:0:0:
287,227,51683,1,0,0:0:0:0:
285,67,51818,6,0,P|232:90|226:121,1,83.2500033992528,2|0,1:2|0:0,0:0:0:0:
171,196,52088,2,0,P|176:253|204:268,1,83.2500033992528,10|0,0:2|0:0,0:0:0:0:
257,345,52358,2,0,P|313:357|336:335,1,83.2500033992528,2|0,1:2|0:0,0:0:0:0:
287,227,52628,101,10,0:2:0:0:
287,227,52763,1,0,0:0:0:0:
390,378,52898,6,0,P|360:329|443:299,1,166.500006798506,2|10,1:2|0:2,0:0:0:0:
438,295,53303,1,0,0:0:0:0:
487,149,53438,2,0,P|491:196|458:211,1,83.2500033992528,2|0,1:2|0:0,0:0:0:0:
393,184,53708,2,0,P|389:137|422:122,1,83.2500033992528,10|0,0:2|1:2,0:0:0:0:
454,0,53978,102,0,P|462:51|471:90,1,83.2500033992528,0|0,1:2|0:0,0:0:0:0:
407,265,54248,2,0,P|399:214|390:175,1,83.2500033992528,14|0,0:2|1:0,0:0:0:0:
300,56,54518,5,4,1:1:0:0:
300,56,54585,1,0,1:0:0:0:
300,56,54653,1,0,1:0:0:0:
300,56,54720,1,0,1:0:0:0:
300,56,54788,2,0,B|236:41|236:41|224:21|224:21|147:4,1,166.500006798506,14|0,0:2|1:0,0:0:0:0:
45,124,55058,102,0,P|111:139|130:231,1,166.500006798506,4|10,1:1|0:2,0:0:0:0:
132,226,55463,1,0,0:0:0:0:
206,360,55598,2,0,P|162:341|155:302,1,83.2500033992528,2|0,1:2|0:0,0:0:0:0:
204,253,55868,2,0,P|248:272|255:311,1,83.2500033992528,10|0,0:2|0:0,0:0:0:0:
52,344,56138,6,0,P|56:296|91:277,1,83.2500033992528,2|0,1:2|0:0,0:0:0:0:
154,310,56408,2,0,P|149:357|114:376,1,83.2500033992528,10|0,0:2|0:0,0:0:0:0:
313,354,56678,2,0,P|280:308|347:219,1,166.500006798506,2|10,1:2|0:2,0:0:0:0:
329,222,57083,1,0,1:0:0:0:
375,67,57218,102,0,L|391:161,1,83.2500033992528,2|0,1:2|0:0,0:0:0:0:
329,222,57488,2,0,L|313:128,1,83.2500033992528,10|0,0:2|0:0,0:0:0:0:
389,149,57758,6,0,L|471:166,1,83.2500033992528,2|0,1:2|0:0,0:0:0:0:
233,124,58028,2,0,L|333:144,1,83.2500033992528,10|0,0:2|0:0,0:0:0:0:
79,73,58298,2,0,B|134:89|134:89|210:-2,1,166.500006798506,2|10,1:2|0:2,0:0:0:0:
204,5,58703,1,0,0:0:0:0:
79,73,58838,2,0,B|51:105|51:105|66:148,1,83.2500033992528,2|0,1:2|0:0,0:0:0:0:
150,246,59108,2,0,B|178:214|178:214|163:171,1,83.2500033992528,10|0,0:2|1:2,0:0:0:0:
61,312,59378,102,0,P|28:346|30:387,1,83.2500033992528,2|0,1:2|0:0,0:0:0:0:
150,246,59648,2,0,P|107:225|69:239,1,83.2500033992528,10|0,0:2|0:0,0:0:0:0:
240,310,59918,2,0,P|246:263|220:231,1,83.2500033992528,2|0,1:2|0:0,0:0:0:0:
153,368,60188,5,10,0:2:0:0:
153,368,60323,1,0,0:0:0:0:
27,379,60458,102,0,P|2:345|14:301,1,83.2500033992528,2|0,1:2|0:0,0:0:0:0:
75,234,60728,2,0,P|99:199|145:197,1,83.2500033992528,10|0,0:2|0:0,0:0:0:0:
227,235,60998,2,0,P|267:247|283:290,1,83.2500033992528,2|0,1:2|0:0,0:0:0:0:
156,371,61268,5,10,0:2:0:0:
156,371,61538,102,0,L|167:288,3,83.2500033992528,2|2|2|2,1:2|1:2|1:2|1:2,0:0:0:0:
212,241,62078,6,0,L|198:130,3,111.000000298023,2|2|2|0,1:2|1:2|1:2|1:0,0:0:0:0:
141,90,62618,102,0,B|90:106|90:106|32:203,3,166.500006798506,0|2|6|2,1:0|1:2|1:2|1:2,0:0:0:0:
43,27,63158,6,0,B|63:64|63:64|295:118,3,249.750010197759,6|2|6|2,1:2|1:2|1:2|1:2,0:0:0:0:
462,21,63698,6,0,B|413:44|413:44|426:107,1,111.000000298023,4|2,1:2|0:2,0:0:0:0:
473,150,63900,2,0,B|498:247|498:247|454:296,1,166.500000447034,2|2,0:2|0:2,0:0:0:0:
320,368,64238,1,2,1:2:0:0:
320,368,64305,2,0,L|301:247,1,111.000000298023,2|0,0:2|0:0,0:0:0:0:
360,206,64508,2,0,L|379:327,1,111.000000298023,10|0,0:2|1:2,0:0:0:0:
303,259,64778,6,0,B|240:246|240:246|200:289,1,111.000000298023,2|2,1:2|0:2,0:0:0:0:
197,344,64980,2,0,B|174:233|174:233|113:210,1,166.500000447034,2|2,0:2|0:2,0:0:0:0:
6,247,65318,1,2,1:2:0:0:
6,247,65385,2,0,L|110:287,1,111.000000298023,2|0,0:2|0:0,0:0:0:0:
124,214,65588,2,0,L|9:172,1,111.000000298023,10|2,0:2|1:2,0:0:0:0:
17,71,65858,6,0,B|50:57|50:57|133:98|133:98|168:84,2,166.500000447034,2|2|2,1:2|0:2|0:2,0:0:0:0:
142,8,66398,1,2,1:2:0:0:
142,8,66465,2,0,L|290:36,1,111.000000298023,2|0,0:2|0:0,0:0:0:0:
288,87,66668,2,0,B|316:109|316:109|280:200,1,111.000000298023,10|2,0:2|0:2,0:0:0:0:
357,332,66938,2,0,B|327:258|327:258|400:80,2,249.750010197759,2|2|2,1:2|1:2|1:2,0:0:0:0:
432,277,67478,6,0,L|97:215,3,288.599987563801,6|2|6|2,1:2|1:2|1:2|1:2,0:0:0:0:
91,186,68018,6,0,B|110:192|110:192|123:291|123:291|169:301,1,138.750000372529,6|2,1:2|0:2,0:0:0:0:
84,340,68220,2,0,B|115:322|115:322|157:200,1,138.750000372529,2|2,0:2|0:2,0:0:0:0:
168,160,68423,1,2,0:2:0:0:
24,82,68558,6,0,B|56:107|56:107|169:84,1,138.750000372529,2|2,1:2|0:2,0:0:0:0:
280,93,68828,2,0,B|248:68|248:68|135:91,1,138.750000372529,8|2,0:2|1:2,0:0:0:0:
11,12,69098,2,0,B|45:10|45:10|163:96,1,166.500006798506,2|2,1:2|0:2,0:0:0:0:
293,163,69368,2,0,B|259:165|259:165|141:79,1,166.500006798506,10|2,0:2|0:2,0:0:0:0:
176,8,69638,38,0,L|124:183,2,166.500006798506,2|2|10,1:2|1:2|0:2,0:0:0:0:
176,8,70043,1,2,0:2:0:0:
373,202,70178,6,0,B|396:171|396:171|514:153,1,138.750000372529,2|2,1:2|0:2,0:0:0:0:
373,202,70448,2,0,B|350:233|350:233|232:251,1,138.750000372529,10|2,0:2|0:2,0:0:0:0:
373,202,70718,2,0,L|400:361,1,138.750000372529,2|2,1:2|0:2,0:0:0:0:
373,202,70988,2,0,L|346:43,1,138.750000372529,10|2,0:2|1:2,0:0:0:0:
340,1,71258,5,2,1:2:0:0:
207,125,71393,1,2,1:2:0:0:
207,125,71460,1,2,0:2:0:0:
207,125,71528,2,0,B|235:143|235:143|253:261,1,138.750000372529,4|2,0:1|0:2,0:0:0:0:
277,370,71798,6,0,L|209:359,1,69.3750001862644,6|0,1:2|1:0,0:0:0:0:
195,291,71933,2,0,L|127:280,1,69.3750001862644,0|0,1:0|1:0,0:0:0:0:
84,335,72068,2,0,B|18:320|18:320|-10:218,1,138.750000372529,6|2,1:2|1:2,0:0:0:0:
27,187,72338,6,0,L|319:165,1,277.500000745057,6|10,0:2|0:2,0:0:0:0:
303,166,72743,1,2,0:2:0:0:
412,90,72878,2,0,B|439:119|439:119|423:224,1,138.750000372529,2|2,1:2|0:2,0:0:0:0:
315,293,73148,2,0,B|288:264|288:264|304:159,1,138.750000372529,10|2,0:2|0:2,0:0:0:0:
325,8,73418,5,2,1:2:0:0:
285,36,73508,1,2,0:2:0:0:
235,34,73598,1,2,0:2:0:0:
196,5,73688,2,0,B|161:2|161:2|75:108|75:108|26:103,1,208.125000558793,10|0,0:2|0:0,0:0:0:0:
8,38,73958,38,0,L|148:50,1,138.750000372529,2|2,1:2|0:2,0:0:0:0:
106,122,74160,2,0,L|244:133,1,138.750000372529,2|2,0:2|0:2,0:0:0:0:
302,166,74363,1,0,1:2:0:0:
132,367,74498,6,0,B|146:338|146:338|106:234,1,138.750000372529,2|2,1:2|0:2,0:0:0:0:
240,320,74768,2,0,B|210:307|210:307|171:208,1,138.750000372529,10|2,0:2|0:2,0:0:0:0:
132,367,75038,2,0,B|76:350|76:350|56:359|56:359|-7:344,1,138.750000372529,2|2,1:2|0:2,0:0:0:0:
240,320,75308,2,0,B|296:337|296:337|316:328|316:328|379:343,1,138.750000372529,10|0,0:2|1:0,0:0:0:0:
490,222,75578,6,0,B|454:208|454:208|401:245|401:245|397:288,1,138.750000372529,2|2,1:2|0:2,0:0:0:0:
250,164,75848,2,0,B|287:155|287:155|334:200|334:200|331:243,1,138.750000372529,10|2,0:2|0:2,0:0:0:0:
479,95,76118,2,0,B|441:86|441:86|394:131|394:131|397:174,1,138.750000372529,6|2,1:2|1:2,0:0:0:0:
249,24,76388,2,0,B|286:15|286:15|333:60|333:60|330:103,1,138.750000372529,14|2,0:2|0:2,0:0:0:0:
250,164,76658,6,0,B|217:179|217:179|123:138,1,138.750000372529,4|2,1:1|0:2,0:0:0:0:
93,80,76860,2,0,B|126:65|126:65|220:106,1,138.750000372529,2|2,0:2|0:2,0:0:0:0:
123,138,77063,1,2,0:2:0:0:
13,185,77198,1,2,1:2:0:0:
13,185,77265,1,2,0:2:0:0:
13,185,77333,2,0,L|24:340,2,138.750000372529,2|10|2,1:2|0:2|0:2,0:0:0:0:
123,138,77738,6,0,L|135:289,1,138.750000372529,2|2,1:2|0:2,0:0:0:0:
236,173,78008,2,0,L|248:324,1,138.750000372529,10|2,0:2|0:2,0:0:0:0:
431,359,78278,2,0,B|464:331|464:331|411:241,1,138.750000372529,2|2,1:2|1:2,0:0:0:0:
357,203,78480,2,0,B|324:231|324:231|377:321,1,138.750000372529,2|2,0:2|0:2,0:0:0:0:
416,249,78683,1,2,0:2:0:0:
492,149,78818,5,2,1:2:0:0:
492,149,78885,2,0,L|319:123,1,138.750000372529,0|2,0:0|1:2,0:0:0:0:
436,70,79088,2,0,L|263:44,1,138.750000372529,8|2,0:2|1:2,0:0:0:0:
90,17,79358,1,2,1:2:0:0:
90,17,79425,2,0,L|227:37,1,138.750000372529,2|2,0:2|1:2,0:0:0:0:
250,102,79628,2,0,B|271:169|271:169|227:231,1,138.750000372529,2|2,1:2|1:2,0:0:0:0:
0,277,79898,38,0,B|42:252|42:252|211:321,3,222.000000596046,6|2|6|2,1:2|1:2|1:2|1:2,0:0:0:0:
512,277,80438,6,0,B|470:252|470:252|309:317,3,222.000000596046,6|2|6|2,1:2|1:2|1:2|1:2,0:0:0:0:
256,368,80978,5,4,1:1:0:0:
26,153,88403,53,0,1:2:0:0:
26,153,88470,1,0,1:2:0:0:
26,153,88538,2,0,L|82:147,15,41.6250016996264,2|0|0|0|0|0|0|0|0|0|0|0|0|0|0|0,1:1|0:0|0:0|0:0|1:2|0:0|0:0|0:0|1:2|0:0|0:0|0:0|1:2|0:0|0:0|0:0,0:0:0:0:
120,59,89618,2,0,L|176:53,15,41.6250016996264,2|0|0|0|0|0|0|0|0|0|0|0|0|0|0|0,1:1|0:0|0:0|0:0|1:2|0:0|0:0|0:0|1:2|0:0|0:0|0:0|1:2|0:0|0:0|0:0,0:0:0:0:
237,169,90698,2,0,L|293:163,15,41.6250016996264,2|0|0|0|0|0|0|0|0|0|0|0|0|0|0|0,1:1|0:0|0:0|0:0|1:2|0:0|0:0|0:0|1:2|0:0|0:0|0:0|1:2|0:0|0:0|0:0,0:0:0:0:
330,28,91778,2,0,L|386:22,15,41.6250016996264,2|0|0|0|0|0|0|0|0|0|0|0|0|0|0|0,1:1|0:0|0:0|0:0|1:2|0:0|0:0|0:0|1:2|0:0|0:0|0:0|1:2|0:0|1:2|0:0,0:0:0:0:
496,91,92858,6,0,L|482:141,7,41.6250016996264,2|0|0|0|0|0|0|0,1:1|0:0|0:0|0:0|1:2|0:0|0:0|0:0,0:0:0:0:
386,164,93398,2,0,L|372:214,7,41.6250016996264,0|0|0|0|0|0|0|0,1:2|0:0|0:0|0:0|1:2|0:0|0:0|0:0,0:0:0:0:
465,266,93938,2,0,L|451:316,7,41.6250016996264,2|0|0|0|0|0|0|0,1:1|0:0|0:0|0:0|1:2|0:0|0:0|0:0,0:0:0:0:
321,325,94478,2,0,L|307:375,7,41.6250016996264,0|0|0|0|0|0|0|0,1:2|0:0|0:0|0:0|1:2|0:0|0:0|0:0,0:0:0:0:
249,267,95018,102,0,B|233:252|233:252|201:250,3,41.6250016996264,2|0|0|0,1:1|0:0|1:2|1:2,0:0:0:0:
182,340,95288,2,0,B|166:355|166:355|134:357,3,41.6250016996264,0|0|0|0,1:2|0:0|1:2|0:0,0:0:0:0:
86,288,95558,2,0,B|70:273|70:273|38:271,3,41.6250016996264,0|0|0|0,1:2|0:0|1:2|0:0,0:0:0:0:
156,186,95828,2,0,B|140:201|140:201|108:203,3,41.6250016996264,0|0|0|0,1:2|0:0|1:2|0:0,0:0:0:0:
194,57,96098,6,0,L|187:115,1,41.6250016996264,2|0,1:1|0:0,0:0:0:0:
252,144,96233,2,0,L|259:86,1,41.6250016996264,0|0,1:2|0:0,0:0:0:0:
263,32,96368,2,0,L|321:39,1,41.6250016996264,0|0,1:2|0:0,0:0:0:0:
363,116,96503,2,0,L|305:109,1,41.6250016996264,0|0,1:2|0:0,0:0:0:0:
402,38,96638,2,0,L|460:45,1,41.6250016996264,2|0,1:1|0:0,0:0:0:0:
487,138,96773,2,0,L|429:131,1,41.6250016996264,0|0,1:2|0:0,0:0:0:0:
355,206,96908,2,0,L|396:210,1,41.6250016996264,0|0,1:2|0:0,0:0:0:0:
478,296,97043,2,0,L|436:291,1,41.6250016996264,0|0,1:2|0:0,0:0:0:0:
345,354,97178,101,6,1:1:0:0:
345,354,98258,22,0,B|309:376|309:376|221:357,1,111.000000298023,4|2,1:2|0:2,0:0:0:0:
183,324,98460,2,0,B|172:274|172:274|296:299,1,166.500000447034,2|2,0:2|0:2,0:0:0:0:
432,224,98798,1,2,1:2:0:0:
432,224,98865,2,0,B|419:170|419:170|421:167|421:167|406:110,1,111.000000298023,2|0,0:2|0:0,0:0:0:0:
340,137,99068,2,0,B|353:191|353:191|351:194|351:194|366:251,1,111.000000298023,10|0,0:2|1:2,0:0:0:0:
279,49,99338,6,0,L|169:82,1,111.000000298023,2|2,1:2|0:2,0:0:0:0:
98,65,99540,2,0,B|144:51|144:51|210:170,1,166.500000447034,2|2,0:2|0:2,0:0:0:0:
79,281,99878,1,2,1:2:0:0:
79,281,99945,2,0,L|100:160,1,111.000000298023,2|0,0:2|0:0,0:0:0:0:
34,139,100148,2,0,L|15:248,1,111.000000298023,10|2,0:2|1:2,0:0:0:0:
98,172,100418,6,0,B|136:179|136:179|187:255|187:255|231:263,1,166.500000447034,2|2,1:2|0:2,0:0:0:0:
244,324,100688,2,0,B|268:319|268:319|301:270|301:270|329:265,1,111.000000298023,8|2,0:2|0:2,0:0:0:0:
239,151,100958,1,2,1:2:0:0:
239,151,101025,2,0,L|219:281,1,111.000000298023,2|0,0:2|0:0,0:0:0:0:
244,324,101228,2,0,L|374:344,1,111.000000298023,10|2,0:2|0:2,0:0:0:0:
453,228,101498,6,0,B|417:200|417:200|219:261,2,249.750010197759,2|2|2,1:2|1:2|1:2,0:0:0:0:
392,54,102038,6,0,L|351:357,3,288.599987563801,6|2|6|2,1:2|1:2|1:2|1:2,0:0:0:0:
507,346,102578,6,0,B|489:315|489:315|367:273,1,138.750000372529,6|2,1:2|0:2,0:0:0:0:
353,339,102780,2,0,B|359:320|359:320|458:307|458:307|468:261,1,138.750000372529,2|2,0:2|0:2,0:0:0:0:
433,381,102983,1,2,0:2:0:0:
278,261,103118,38,0,B|252:275|252:275|132:243,1,138.750000372529,2|2,1:2|0:2,0:0:0:0:
26,193,103388,2,0,B|41:218|41:218|161:250,1,138.750000372529,8|2,0:2|1:2,0:0:0:0:
287,177,103658,2,0,B|257:168|257:168|133:255,1,166.500006798506,2|2,1:2|0:2,0:0:0:0:
33,354,103928,2,0,B|35:323|35:323|158:236,1,166.500006798506,10|2,0:2|0:2,0:0:0:0:
124,166,104198,6,0,L|174:342,2,166.500006798506,2|2|10,1:2|1:2|0:2,0:0:0:0:
124,166,104603,1,2,0:2:0:0:
314,62,104738,6,0,B|365:44|365:44|376:26|376:26|439:1,1,138.750000372529,2|2,1:2|0:2,0:0:0:0:
314,62,105008,2,0,B|262:79|262:79|251:97|251:97|188:122,1,138.750000372529,10|2,0:2|0:2,0:0:0:0:
314,62,105278,2,0,B|287:28|287:28|171:8,1,138.750000372529,2|2,1:2|0:2,0:0:0:0:
314,62,105548,2,0,B|341:96|341:96|457:116,1,138.750000372529,10|2,0:2|1:2,0:0:0:0:
501,122,105818,1,2,1:2:0:0:
476,318,105953,5,2,1:2:0:0:
476,318,106020,1,2,0:2:0:0:
476,318,106088,2,0,L|455:163,1,138.750000372529,4|2,0:1|0:2,0:0:0:0:
314,62,106358,2,0,L|295:138,1,69.3750001862644,6|0,1:2|1:0,0:0:0:0:
364,155,106493,2,0,L|345:231,1,69.3750001862644,0|0,1:0|1:0,0:0:0:0:
279,232,106628,2,0,B|244:241|244:241|216:349,1,138.750000372529,6|2,1:2|1:2,0:0:0:0:
353,383,106898,6,0,L|75:320,1,277.500000745057,6|10,0:2|0:2,0:0:0:0:
82,321,107303,1,2,0:2:0:0:
39,256,107438,2,0,B|69:214|69:214|36:134,1,138.750000372529,2|2,1:2|0:2,0:0:0:0:
120,45,107708,2,0,B|90:87|90:87|123:167,1,138.750000372529,10|2,0:2|0:2,0:0:0:0:
258,260,107978,5,2,1:2:0:0:
298,237,108068,1,2,0:2:0:0:
308,191,108158,1,2,0:2:0:0:
279,154,108248,2,0,B|418:132|418:132|452:72,1,208.125000558793,10|0,0:2|0:0,0:0:0:0:
389,0,108518,38,0,B|354:62|354:62|393:141,1,138.750000372529,2|2,1:2|0:2,0:0:0:0:
445,195,108720,2,0,B|480:133|480:133|451:73,1,138.750000372529,2|2,0:2|0:2,0:0:0:0:
383,122,108923,1,0,1:2:0:0:
257,25,109058,6,0,L|106:46,1,138.750000372529,2|2,1:2|0:2,0:0:0:0:
35,133,109328,2,0,L|186:112,1,138.750000372529,10|2,0:2|0:2,0:0:0:0:
119,45,109598,2,0,B|95:113|95:113|124:194,1,138.750000372529,2|2,1:2|0:2,0:0:0:0:
170,244,109868,2,0,B|194:176|194:176|165:95,1,138.750000372529,10|0,0:2|1:0,0:0:0:0:
0,219,110138,6,0,B|31:211|31:211|97:243|97:243|108:278,1,138.750000372529,2|2,1:2|0:2,0:0:0:0:
269,373,110408,2,0,B|238:381|238:381|172:349|172:349|161:314,1,138.750000372529,10|2,0:2|0:2,0:0:0:0:
0,333,110678,2,0,B|-6:307|-6:307|101:351,1,138.750000372529,6|2,1:2|1:2,0:0:0:0:
327,292,110948,2,0,B|333:318|333:318|226:274,1,138.750000372529,14|2,0:2|0:2,0:0:0:0:
348,86,111218,6,0,B|387:98|387:98|411:208,1,138.750000372529,4|2,1:1|0:2,0:0:0:0:
473,217,111420,2,0,B|434:205|434:205|410:95,1,138.750000372529,2|2,0:2|0:2,0:0:0:0:
457,56,111623,1,2,0:2:0:0:
407,193,111758,1,2,1:2:0:0:
407,193,111825,2,0,L|261:218,1,138.750000372529,2|0,0:2|0:0,0:0:0:0:
215,177,112028,2,0,B|179:115|179:115|229:45,1,138.750000372529,10|2,0:2|0:2,0:0:0:0:
7,29,112298,5,2,1:2:0:0:
7,29,112365,1,2,0:2:0:0:
7,29,112433,2,0,L|145:50,2,138.750000372529,2|10|2,0:2|0:2|0:2,0:0:0:0:
12,148,112838,2,0,L|161:120,1,138.750000372529,2|2,1:2|1:2,0:0:0:0:
157,128,113040,2,0,B|196:187|196:187|171:250,1,138.750000372529,2|2,0:2|0:2,0:0:0:0:
170,250,113243,1,2,0:2:0:0:
146,347,113378,5,2,1:2:0:0:
146,347,113445,2,0,L|304:327,1,138.750000372529,0|2,0:0|1:2,0:0:0:0:
308,264,113648,2,0,B|343:278|343:278|368:336|368:336|424:351,1,138.750000372529,8|2,0:2|1:2,0:0:0:0:
479,217,113918,37,2,1:2:0:0:
479,217,113985,2,0,L|321:197,1,138.750000372529,2|2,0:2|1:2,0:0:0:0:
308,264,114188,2,0,B|273:250|273:250|248:192|248:192|192:177,1,138.750000372529,2|2,1:2|1:2,0:0:0:0:
69,49,114458,6,0,B|14:83|14:83|55:250,3,222.000000596046,6|2|6|2,1:2|1:2|1:2|1:2,0:0:0:0:
362,93,114998,2,0,B|264:87|264:87|242:95|242:95|143:86,3,222.000000596046,6|2|6|2,1:2|1:2|1:2|1:2,0:0:0:0:
421,26,115538,6,0,B|464:22|464:22|495:99,1,111.000000298023,4|2,1:2|0:2,0:0:0:0:
429,131,115740,2,0,B|400:243|400:243|447:291,1,166.500000447034,2|2,0:2|0:2,0:0:0:0:
286,372,116078,1,2,1:2:0:0:
286,372,116145,2,0,L|269:254,1,111.000000298023,2|0,0:2|0:0,0:0:0:0:
332,220,116348,2,0,L|349:338,1,111.000000298023,10|0,0:2|1:2,0:0:0:0:
270,262,116618,6,0,B|195:272|195:272|156:307,1,111.000000298023,2|2,1:2|0:2,0:0:0:0:
140,359,116820,2,0,B|107:353|107:353|82:248|82:248|31:239,1,166.500000447034,2|2,0:2|0:2,0:0:0:0:
21,72,117158,1,2,1:2:0:0:
21,72,117225,2,0,L|3:187,1,111.000000298023,2|0,0:2|0:0,0:0:0:0:
78,154,117428,2,0,L|96:39,1,111.000000298023,10|2,0:2|1:2,0:0:0:0:
3,181,117698,6,0,B|124:171|124:171|162:203,1,166.500000447034,2|2,1:2|0:2,0:0:0:0:
188,136,117968,2,0,B|231:171|231:171|285:148,1,111.000000298023,8|2,0:2|0:2,0:0:0:0:
382,25,118238,1,2,1:2:0:0:
382,25,118305,2,0,L|271:10,1,111.000000298023,2|0,0:2|0:0,0:0:0:0:
237,73,118508,2,0,L|348:88,1,111.000000298023,10|2,0:2|0:2,0:0:0:0:
458,7,118778,6,0,L|506:258,2,249.750010197759,2|2|2,1:2|1:2|1:2,0:0:0:0:
512,128,119318,38,0,B|298:173|298:173|258:234,3,288.599987563801,6|2|6|2,1:2|1:2|1:2|1:2,0:0:0:0:
220,170,119858,6,0,L|252:332,1,138.750000372529,6|2,1:2|0:2,0:0:0:0:
286,367,120060,2,0,L|254:205,1,138.750000372529,2|2,0:2|0:2,0:0:0:0:
333,240,120263,1,2,0:2:0:0:
231,100,120398,6,0,B|162:125|162:125|134:192,1,138.750000372529,2|2,1:2|0:2,0:0:0:0:
43,271,120668,2,0,B|112:246|112:246|137:185,1,138.750000372529,8|2,0:2|1:2,0:0:0:0:
30,79,120938,2,0,B|48:69|48:69|145:196,1,166.500006798506,2|2,1:2|0:2,0:0:0:0:
243,290,121208,2,0,B|225:300|225:300|128:173,1,166.500006798506,10|2,0:2|0:2,0:0:0:0:
54,193,121478,6,0,L|241:172,2,166.500006798506,2|2|10,1:2|1:2|0:2,0:0:0:0:
54,193,121883,1,2,0:2:0:0:
231,100,122018,6,0,L|380:81,1,138.750000372529,2|2,1:2|0:2,0:0:0:0:
231,100,122288,2,0,L|82:119,1,138.750000372529,10|2,0:2|0:2,0:0:0:0:
231,100,122558,2,0,B|295:134|295:134|301:212,1,138.750000372529,2|2,1:2|0:2,0:0:0:0:
231,100,122828,2,0,B|167:66|167:66|161:0,1,138.750000372529,10|2,0:2|1:2,0:0:0:0:
368,82,123098,5,2,1:2:0:0:
483,138,123233,1,2,1:2:0:0:
483,138,123300,1,2,0:2:0:0:
483,138,123368,2,0,B|421:159|421:159|399:228,1,138.750000372529,4|2,0:1|0:2,0:0:0:0:
463,345,123638,2,0,L|484:268,1,69.3750001862644,6|0,1:2|1:0,0:0:0:0:
398,228,123773,2,0,L|379:294,1,69.3750001862644,0|0,1:0|1:0,0:0:0:0:
358,365,123908,2,0,B|292:356|292:356|287:349|287:349|210:339,1,138.750000372529,6|2,1:2|1:2,0:0:0:0:
77,377,124178,38,0,B|29:353|29:353|7:115,1,277.500000745057,6|10,0:2|0:2,0:0:0:0:
9,131,124583,1,2,0:2:0:0:
183,56,124718,2,0,L|134:203,1,138.750000372529,2|2,1:2|0:2,0:0:0:0:
83,134,124988,2,0,L|132:-13,1,138.750000372529,10|2,0:2|0:2,0:0:0:0:
256,179,125258,5,2,1:2:0:0:
301,169,125348,1,2,0:2:0:0:
317,125,125438,1,2,0:2:0:0:
299,82,125528,2,0,B|350:52|350:52|503:96,1,208.125000558793,10|0,0:2|0:0,0:0:0:0:
512,162,125798,2,0,B|484:185|484:185|374:154,1,138.750000372529,2|2,1:2|0:2,0:0:0:0:
353,214,126000,2,0,B|381:191|381:191|491:222,1,138.750000372529,2|2,0:2|0:2,0:0:0:0:
385,157,126203,1,0,1:2:0:0:
512,323,126338,6,0,L|352:277,1,138.750000372529,2|2,1:2|0:2,0:0:0:0:
300,371,126608,2,0,L|140:325,1,138.750000372529,10|2,0:2|0:2,0:0:0:0:
379,285,126878,2,0,B|288:251|288:251|255:277,1,138.750000372529,2|2,1:2|0:2,0:0:0:0:
167,333,127148,2,0,B|134:359|134:359|43:325,1,138.750000372529,10|0,0:2|1:0,0:0:0:0:
26,167,127418,6,0,L|6:93,2,69.3750001862644,2|2|2,1:2|0:2|0:2,0:0:0:0:
102,225,127688,1,10,0:2:0:0:
102,225,127755,1,2,0:2:0:0:
102,225,127823,1,2,0:2:0:0:
142,102,127958,2,0,L|162:28,2,69.3750001862644,6|2|2,1:2|0:2|1:2,0:0:0:0:
231,165,128228,1,14,0:2:0:0:
231,165,128295,1,2,0:2:0:0:
231,165,128363,1,2,0:2:0:0:
274,23,128498,6,0,B|319:14|319:14|396:79,1,138.750000372529,4|2,1:1|0:2,0:0:0:0:
301,85,128700,2,0,B|346:76|346:76|423:141,1,138.750000372529,2|2,0:2|0:2,0:0:0:0:
470,178,128903,1,2,0:2:0:0:
492,306,129038,1,2,1:2:0:0:
492,306,129105,2,0,L|337:330,1,138.750000372529,2|0,0:2|0:0,0:0:0:0:
318,272,129308,2,0,B|256:301|256:301|246:377,1,138.750000372529,10|2,0:2|0:2,0:0:0:0:
174,271,129578,5,2,1:2:0:0:
174,271,129645,1,2,0:2:0:0:
174,271,129713,2,0,L|11:242,2,138.750000372529,2|10|2,0:2|0:2|0:2,0:0:0:0:
246,370,130118,2,0,B|184:341|184:341|174:265,1,138.750000372529,2|2,1:2|1:2,0:0:0:0:
185,203,130320,2,0,B|247:232|247:232|257:308,1,138.750000372529,2|2,0:2|0:2,0:0:0:0:
246,370,130523,1,2,0:2:0:0:
69,346,130658,38,0,L|53:179,1,166.500000447034,2|2,1:2|1:2,0:0:0:0:
53,180,130928,2,0,L|162:120,1,111.000000298023,8|2,0:2|1:2,0:0:0:0:
99,23,131198,2,0,L|276:72,1,166.500000447034,2|2,1:2|1:2,0:0:0:0:
259,67,131468,2,0,L|389:10,1,111.000000298023,2|2,1:2|1:2,0:0:0:0:
426,100,131738,6,0,B|466:133|466:133|449:238,1,138.750000372529,6|2,1:2|1:2,0:0:0:0:
349,268,131940,1,2,1:2:0:0:
349,268,132008,2,0,B|389:235|389:235|372:130,1,138.750000372529,6|2,1:2|1:2,0:0:0:0:
452,218,132210,5,2,1:2:0:0:
452,218,132278,2,0,L|473:376,1,138.750000372529,6|2,1:2|1:2,0:0:0:0:
262,224,132548,2,0,L|283:382,1,138.750000372529,6|2,1:2|1:2,0:0:0:0:
99,324,132818,6,0,L|121:263,3,55.5000001490115,6|0|6|0,1:1|1:0|1:1|0:0,0:0:0:0:
36,159,133358,6,0,L|141:146,1,83.2500033992528,6|0,1:1|1:0,0:0:0:0:
108,73,133628,2,0,L|3:86,1,83.2500033992528,2|0,1:1|1:0,0:0:0:0:
244,17,133898,6,0,B|206:38|206:38|194:86,3,83.2500033992528,6|0|6|0,1:1|1:0|1:1|1:0,0:0:0:0:
251,194,134438,38,0,L|366:175,1,111.000000298023,6|0,1:1|1:0,0:0:0:0:
435,82,134708,2,0,L|320:101,1,111.000000298023,2|0,1:1|1:0,0:0:0:0:
412,236,134978,6,0,L|439:383,3,138.750000372529,6|0|6|0,1:1|1:0|1:0|1:0,0:0:0:0:
251,194,135518,6,0,B|189:239|189:239|218:329,1,166.500006798506,6|0,1:1|1:0,0:0:0:0:
77,384,135788,2,0,B|139:339|139:339|110:249,1,166.500006798506,2|0,1:1|1:0,0:0:0:0:
277,267,136058,6,0,L|487:313,1,194.250002374053,6|0,1:1|1:0,0:0:0:0:
218,122,136328,2,0,L|8:76,1,194.250002374053,6|0,1:1|1:0,0:0:0:0:
272,65,136598,6,0,L|556:13,1,222.000000596046,6|0,1:1|1:0,0:0:0:0:
218,211,136868,2,0,L|-66:263,2,222.000000596046,6|0|6,1:1|1:0|1:1,0:0:0:0:
256,192,137273,12,4,139298,0:1:0:0:
