osu file format v14

[General]
AudioFilename: audio.mp3
AudioLeadIn: 0
PreviewTime: 63630
Countdown: 0
SampleSet: Soft
StackLeniency: 0.3
Mode: 0
LetterboxInBreaks: 0
WidescreenStoryboard: 1

[Editor]
Bookmarks: 26978,35618,80978,88538
DistanceSpacing: 1
BeatDivisor: 4
GridSize: 16
TimelineZoom: 2.7

[Metadata]
Title:FREEDOM DiVE
TitleUnicode:FREEDOM DiVE↓
Artist:xi
ArtistUnicode:xi
Creator:Aistre
Version:DeviousPanda's MAXiMUM
Source:MAXBEAT
Tags:VOEZ cytus ii CHUNITHM PLUS BMS parousia video rhythm game happy hardcore electronic featured artist mpg mappers mapper's guild alphabet venax deviouspanda paradogi lukas seolv [_l_u_k_a_s_] xi baddies uberfazz instrumental SOUND VOLTEX IV HEAVENLY HAVEN 太鼓の達人 セッションでドドンがドン! Taiko no Tatsujin Drum Session! CHUNITHM PLUS WACCA Muse Dash fd
BeatmapID:3503023
BeatmapSetID:1667560

[Difficulty]
HPDrainRate:4.6
CircleSize:3.8
OverallDifficulty:9.3
ApproachRate:9.6
SliderMultiplier:1.8
SliderTickRate:1

[Events]
//Background and Video events
0,0,"EykD9SkXIAA7R16.jpg",0,0
//Break Periods
2,27178,34883
2,81178,87803
//Storyboard Layer 0 (Background)
//Storyboard Layer 1 (Fail)
//Storyboard Layer 2 (Pass)
//Storyboard Layer 3 (Foreground)
//Storyboard Layer 4 (Overlay)
//Storyboard Sound Samples

[TimingPoints]
1058,270.000000027,4,2,0,60,1,0
13208,-76.9230769230769,4,2,0,60,0,0
14018,-100,4,2,0,60,0,0
46418,-66.6666666666667,4,2,0,70,0,0
46688,-90.9090909090909,4,2,0,60,0,0
55058,-66.6666666666667,4,2,0,70,0,0
55328,-90.9090909090909,4,2,0,60,0,0
63698,-76.9230769230769,4,2,0,80,0,1
76658,-71.4285714285714,4,2,0,80,0,1
80978,-100,4,2,0,60,0,0
98258,-66.6666666666667,4,2,0,90,0,1
102578,-62.5,4,2,0,90,0,1
104738,-58.8235294117647,4,2,0,90,0,1
105008,-62.5,4,2,0,90,0,1
111218,-55.5555555555556,4,2,0,90,0,1
113378,-50,4,2,0,90,0,1
113648,-55.5555555555556,4,2,0,90,0,1
115133,-166.666666666667,4,2,0,90,0,1
115268,-100,4,2,0,90,0,1
115403,-62.5,4,2,0,90,0,1
119858,-58.8235294117647,4,2,0,90,0,1
124178,-62.5,4,2,0,90,0,1
125123,-66.6666666666667,4,2,0,90,0,1
125528,-71.4285714285714,4,2,0,90,0,1
125663,-76.9230769230769,4,2,0,90,0,1
125798,-62.5,4,2,0,90,0,1
128498,-58.8235294117647,4,2,0,90,0,1
130658,-125,4,2,0,60,0,0
131738,-100,4,2,0,90,0,1
132818,-166.666666666667,4,2,0,80,0,0
133088,-142.857142857143,4,2,0,80,0,0
133358,-125,4,2,0,80,0,0
133628,-111.111111111111,4,2,0,80,0,0
133898,-100,4,2,0,80,0,0
134168,-90.9090909090909,4,2,0,80,0,0
134438,-83.3333333333333,4,2,0,80,0,0
134708,-76.9230769230769,4,2,0,80,0,0
134978,-71.4285714285714,4,2,0,80,0,0
135248,-66.6666666666667,4,2,0,80,0,0
135518,-62.5,4,2,0,80,0,0
135788,-58.8235294117647,4,2,0,80,0,0
136058,-55.5555555555556,4,2,0,80,0,0
136328,-55.5555555555556,4,2,0,80,0,0
136598,-52.6315789473684,4,2,0,80,0,0
136868,-50,4,2,0,80,0,0
137138,-50,4,2,0,100,0,0
137205,-50,4,2,0,5,0,0
139298,-50,4,2,0,40,0,0

[Colours]
Combo1 : 191,116,220
Combo2 : 210,200,196
Combo3 : 211,188,173
Combo4 : 241,67,128
Combo5 : 236,177,113
Combo6 : 228,235,101
Combo7 : 159,235,126
Combo8 : 128,198,236

[HitObjects]
77,164,1058,6,0,P|22:184|-15:226,1,90,6|0,1:0|0:0,0:0:0:0:
36,134,1260,2,0,P|67:156|104:159,1,45,4|0,1:3|0:0,0:0:0:0:
142,218,1395,5,2,3:2:0:0:
149,224,1463,2,0,P|161:245|154:287,3,45,4|2|2|2,1:3|0:0|0:0|0:0,0:0:0:0:
106,81,1733,102,0,P|127:60|166:55,1,45,4|0,1:3|0:0,0:0:0:0:
227,5,1868,1,8,1:3:0:0:
255,15,1935,1,2,3:2:0:0:
249,34,2003,1,12,1:3:0:0:
261,41,2070,1,2,3:2:0:0:
259,49,2138,2,0,P|251:92|253:111,1,45,4|0,1:3|0:0,0:0:0:0:
97,78,2273,5,0,0:0:0:0:
89,73,2340,2,0,P|82:39|73:20,1,45,4|2,1:3|3:2,0:0:0:0:
285,160,2475,1,0,0:0:0:0:
288,178,2543,2,0,P|264:203|247:215,1,45,4|2,1:3|3:2,0:0:0:0:
77,164,2678,102,0,P|49:142|23:133,3,45,4|2|8|2,1:3|3:2|1:3|3:2,0:0:0:0:
330,95,2948,5,8,1:3:0:0:
344,64,3015,1,2,3:2:0:0:
357,76,3083,1,4,1:3:0:0:
362,67,3150,1,2,3:2:0:0:
376,70,3218,102,0,P|392:84|412:95,1,45,6|2,1:2|3:2,0:0:0:0:
478,173,3353,1,0,3:0:0:0:
467,187,3420,2,0,P|437:191|406:205,1,45,4|0,1:3|0:0,0:0:0:0:
206,267,3555,5,0,3:0:0:0:
193,244,3623,2,0,P|223:186|299:183,1,135,4|0,1:3|0:0,0:0:0:0:
372,267,3893,102,0,P|383:301|376:334,1,45,4|0,1:3|0:0,0:0:0:0:
453,384,4028,2,0,P|466:350|493:330,1,45,4|0,1:3|0:0,0:0:0:0:
290,313,4163,2,0,P|311:341|316:374,1,45,4|0,1:3|0:0,0:0:0:0:
504,255,4298,6,0,P|494:201|434:191,1,90,4|0,1:3|1:0,0:0:0:0:
235,348,4500,2,0,P|286:366|325:319,1,90,4|0,1:3|3:0,0:0:0:0:
283,133,4703,2,0,P|281:158|318:205,1,45,4|0,1:3|3:0,0:0:0:0:
380,275,4838,101,4,1:3:0:0:
380,275,4905,1,4,1:3:0:0:
380,275,4973,2,0,L|413:266,2,22.5,8|0|8,1:3|1:3|1:3,0:0:0:0:
218,276,5108,5,4,1:3:0:0:
204,272,5175,1,2,3:2:0:0:
192,288,5243,1,8,1:3:0:0:
167,270,5310,1,2,3:2:0:0:
147,302,5378,102,0,P|141:324|140:357,1,45,6|0,1:0|0:0,0:0:0:0:
84,247,5513,1,2,3:2:0:0:
73,237,5580,2,0,P|70:209|62:183,1,45,4|0,1:3|0:0,0:0:0:0:
196,109,5715,5,2,3:2:0:0:
228,87,5783,2,0,P|277:101|281:183,1,135,4|0,1:3|0:0,0:0:0:0:
386,283,6053,101,4,1:3:0:0:
174,193,6188,1,4,1:3:0:0:
386,283,6323,1,4,1:3:0:0:
188,285,6458,6,0,P|156:296|135:310,1,45,4|0,1:3|0:0,0:0:0:0:
305,283,6593,1,2,3:2:0:0:
297,272,6660,2,0,P|272:261|250:239,1,45,4|0,1:3|0:0,0:0:0:0:
114,59,6795,101,2,3:2:0:0:
125,80,6863,2,0,P|120:107|103:138,1,45,4|0,1:3|0:0,0:0:0:0:
0,189,6998,5,4,1:3:0:0:
28,184,7065,1,2,3:2:0:0:
53,197,7133,1,8,1:3:0:0:
68,222,7200,1,2,3:2:0:0:
73,257,7268,101,8,1:3:0:0:
81,255,7335,1,2,3:2:0:0:
88,253,7403,2,0,P|99:213|119:187,1,45,4|2,1:3|3:2,0:0:0:0:
214,96,7538,6,0,P|249:66|274:17,1,90,6|2,1:2|3:2,0:0:0:0:
180,192,7740,2,0,P|237:173|296:182,1,90,4|2,1:3|3:2,0:0:0:0:
382,133,7943,102,0,P|340:122|309:99,1,45,4|0,1:3|0:0,0:0:0:0:
159,30,8078,5,6,1:2:0:0:
132,11,8145,1,2,3:2:0:0:
94,8,8213,1,4,1:3:0:0:
65,23,8280,1,2,3:2:0:0:
47,52,8348,101,8,1:3:0:0:
50,60,8415,1,2,3:2:0:0:
53,68,8483,2,0,P|52:97|45:124,1,45,4|0,1:3|0:0,0:0:0:0:
0,301,8618,6,0,P|28:270|63:253,1,45,6|0,1:2|0:0,0:0:0:0:
180,192,8753,2,0,P|202:184|212:177,2,22.5,4|0|4,1:3|1:0|1:3,0:0:0:0:
60,191,8888,102,0,P|84:205|121:211,1,45,6|0,1:2|0:0,0:0:0:0:
292,255,9023,2,0,P|314:263|324:270,2,22.5,4|0|4,1:3|1:0|1:3,0:0:0:0:
49,113,9158,5,6,1:2:0:0:
64,78,9225,1,2,1:2:0:0:
99,58,9293,1,2,1:2:0:0:
137,57,9360,1,2,1:2:0:0:
171,76,9428,1,4,1:3:0:0:
212,85,9495,1,2,1:2:0:0:
249,76,9563,1,2,1:2:0:0:
273,46,9630,1,2,1:2:0:0:
282,51,9698,102,0,P|289:21|310:-2,3,45,6|2|2|2,1:2|3:2|3:2|3:2,0:0:0:0:
182,122,9968,2,0,P|175:92|154:69,3,45,8|2|2|2,1:0|3:2|3:2|3:2,0:0:0:0:
345,108,10238,6,0,P|370:91|391:87,3,45,4|2|2|2,1:3|3:2|3:2|3:2,0:0:0:0:
143,0,10508,2,0,P|118:17|97:21,3,45,8|2|2|2,1:0|3:2|3:2|3:2,0:0:0:0:
271,138,10778,101,4,1:3:0:0:
271,138,10845,1,2,3:2:0:0:
271,138,10913,2,0,P|258:160|255:184,1,45,2|2,3:2|3:2,0:0:0:0:
189,259,11048,2,0,P|197:283|200:316,3,45,8|2|2|2,1:0|3:2|3:2|3:2,0:0:0:0:
163,175,11318,5,4,1:3:0:0:
163,175,11385,1,2,3:2:0:0:
163,175,11453,2,0,P|133:162|121:144,1,45,2|2,3:2|3:2,0:0:0:0:
147,62,11588,2,0,P|173:42|194:41,1,45,8|2,1:0|3:2,0:0:0:0:
271,94,11723,2,0,P|274:126|265:145,1,45,4|2,1:3|3:2,0:0:0:0:
93,254,11858,101,6,1:2:0:0:
266,350,11993,2,0,P|299:332|356:320,1,90,2|8,3:0|1:0,0:0:0:0:
83,347,12263,2,0,P|39:337|-1:317,1,90,2|4,3:0|1:3,0:0:0:0:
172,384,12533,5,2,3:2:0:0:
172,384,12600,1,2,3:2:0:0:
172,384,12668,2,0,P|175:354|182:332,1,45,8|2,1:0|3:2,0:0:0:0:
245,266,12803,1,8,1:3:0:0:
263,242,12870,1,2,3:2:0:0:
259,216,12938,1,4,1:3:0:0:
123,146,13073,101,2,3:2:0:0:
123,146,13140,1,2,3:2:0:0:
123,146,13208,2,0,P|89:123|49:-4,1,175.499991966248,6|0,1:2|0:0,0:0:0:0:
144,270,13478,6,0,P|101:220|37:214,1,116.999994644165,6|0,1:2|0:0,0:0:0:0:
286,131,13680,2,0,P|245:172|189:187,1,116.999994644165,6|0,1:2|0:0,0:0:0:0:
0,339,13883,102,0,P|3:307|24:273,1,58.4999973220826,6|0,1:2|0:0,0:0:0:0:
192,82,14018,5,6,1:2:0:0:
56,8,14153,1,2,3:2:0:0:
56,8,14220,1,2,3:2:0:0:
56,8,14288,2,0,P|34:27|9:34,3,45,8|2|2|2,1:0|3:2|3:2|3:2,0:0:0:0:
191,4,14558,102,0,P|238:15|265:57,1,90,4|2,1:3|3:2,0:0:0:0:
279,72,14760,1,2,3:2:0:0:
279,72,14828,2,0,P|271:106|251:125,1,45,8|0,1:0|0:0,0:0:0:0:
114,175,14963,2,0,P|127:121|201:81,1,135,6|0,1:2|0:0,0:0:0:0:
343,18,15233,5,4,1:3:0:0:
343,18,15300,1,2,3:2:0:0:
343,18,15368,2,0,P|369:35|396:39,1,45,8|0,1:0|0:0,0:0:0:0:
455,102,15503,2,0,P|489:83|509:79,1,45,4|0,1:3|0:0,0:0:0:0:
367,120,15638,102,0,P|384:151|387:177,1,45,6|0,1:2|0:0,0:0:0:0:
469,186,15773,1,4,1:3:0:0:
469,186,15840,1,2,3:2:0:0:
469,186,15908,2,0,P|455:214|455:241,1,45,8|0,1:0|0:0,0:0:0:0:
420,317,16043,5,4,1:3:0:0:
420,317,16110,1,0,1:0:0:0:
420,317,16178,2,0,P|422:353|417:378,3,45,6|2|2|2,1:2|3:2|3:2|3:2,0:0:0:0:
324,271,16448,1,8,1:0:0:0:
453,227,16583,1,4,1:3:0:0:
297,114,16718,102,0,P|295:78|300:53,3,45,6|2|2|2,1:2|3:2|3:2|3:2,0:0:0:0:
372,161,16988,1,8,1:0:0:0:
372,161,17055,1,8,1:3:0:0:
372,161,17123,2,0,P|377:190|376:218,1,45,4|2,1:3|3:2,0:0:0:0:
324,271,17258,5,6,1:2:0:0:
292,283,17325,1,2,3:2:0:0:
257,277,17393,1,4,1:3:0:0:
235,254,17460,1,2,3:2:0:0:
231,223,17528,2,0,P|236:199|263:180,1,45,6|0,1:2|0:0,0:0:0:0:
132,117,17663,101,4,1:3:0:0:
132,117,17730,1,2,3:2:0:0:
132,117,17798,1,6,1:2:0:0:
175,126,17865,1,4,1:3:0:0:
216,108,17933,1,4,1:3:0:0:
229,64,18000,1,4,1:3:0:0:
246,20,18068,1,8,1:3:0:0:
289,0,18135,1,8,1:3:0:0:
333,7,18203,1,8,1:3:0:0:
354,48,18270,1,8,1:3:0:0:
348,58,18338,5,6,1:2:0:0:
256,192,18405,12,8,24548,1:0:0:0:
193,332,24683,101,4,1:3:0:0:
193,332,24750,1,0,1:0:0:0:
193,332,24818,2,0,P|225:316|240:296,1,45,6|0,1:2|0:0,0:0:0:0:
306,296,24953,2,0,P|308:260|298:237,1,45,4|0,1:3|0:0,0:0:0:0:
138,106,25088,6,0,P|135:141|145:164,1,45,6|0,1:2|0:0,0:0:0:0:
112,221,25223,2,0,P|141:240|166:243,1,45,4|0,1:3|0:0,0:0:0:0:
364,166,25358,102,0,P|334:146|309:143,1,45,6|0,1:2|0:0,0:0:0:0:
276,86,25493,2,0,P|244:102|229:122,1,45,4|0,1:3|0:0,0:0:0:0:
220,201,25628,5,6,1:2:0:0:
220,201,25695,1,4,3:0:0:0:
220,201,25763,1,4,1:3:0:0:
220,201,25830,1,8,1:3:0:0:
220,201,25898,102,0,P|244:190|275:184,1,45,6|0,1:2|0:0,0:0:0:0:
369,74,26033,2,0,P|393:85|424:91,1,45,4|0,1:3|0:0,0:0:0:0:
196,93,26168,6,0,P|220:104|251:110,1,45,6|0,1:2|0:0,0:0:0:0:
440,208,26303,2,0,P|464:197|495:191,1,45,8|0,1:3|0:0,0:0:0:0:
281,24,26438,101,6,1:2:0:0:
281,24,26505,1,4,1:3:0:0:
281,24,26573,2,0,L|267:-4,2,22.5,4|4|4,1:3|1:3|1:3,0:0:0:0:
378,268,26708,5,6,1:2:0:0:
378,268,26775,1,8,1:3:0:0:
378,268,26843,2,0,L|391:296,2,22.5,8|8|8,1:3|1:3|1:3,0:0:0:0:
325,144,26978,5,6,1:0:0:0:
256,192,35483,85,8,1:3:0:0:
256,192,35550,1,4,1:3:0:0:
256,192,35618,1,6,1:2:0:0:
256,192,35685,12,0,39938,1:0:0:0:
256,192,40883,5,0,1:0:0:0:
256,192,40950,1,0,1:0:0:0:
256,192,41018,1,0,1:0:0:0:
256,192,41558,1,0,1:0:0:0:
256,192,42098,101,0,1:0:0:0:
256,192,42638,6,0,L|260:160,6,22.5,0|2|2|2|2|2|2,1:0|0:0|0:0|0:0|0:0|0:0|0:0,0:0:0:0:
249,268,42908,2,0,L|245:300,6,22.5,0|2|2|2|2|2|2,1:0|0:0|0:0|0:0|0:0|0:0|0:0,0:0:0:0:
348,69,43178,102,0,P|405:100|418:164,1,135,6|0,1:0|0:0,0:0:0:0:
512,162,43448,6,0,P|459:180|409:253,1,135,8|0,1:3|0:0,0:0:0:0:
342,275,43718,102,0,P|359:307|363:333,1,45,4|0,1:3|0:0,0:0:0:0:
430,350,43853,2,0,P|440:322|462:295,1,45,8|0,1:3|0:0,0:0:0:0:
512,162,43988,5,8,1:3:0:0:
356,77,44123,101,4,1:3:0:0:
356,77,44190,1,8,1:3:0:0:
356,77,44258,2,0,P|398:64|440:18,1,90,6|2,1:2|3:2,0:0:0:0:
258,129,44460,1,2,3:2:0:0:
258,129,44528,2,0,P|294:151|344:158,1,90,8|2,1:3|3:2,0:0:0:0:
403,223,44730,5,4,3:0:0:0:
403,223,44798,2,0,P|412:189|423:173,1,45,8|0,1:3|0:0,0:0:0:0:
471,13,44933,2,0,P|443:30|415:35,1,45,4|0,1:3|0:0,0:0:0:0:
275,212,45068,102,0,P|304:171|356:159,1,90,8|2,1:3|3:2,0:0:0:0:
498,205,45270,1,2,3:2:0:0:
498,205,45338,1,6,1:0:0:0:
356,77,45473,5,4,1:3:0:0:
356,77,45540,1,12,1:3:0:0:
356,77,45608,1,8,1:3:0:0:
325,284,45743,101,4,1:3:0:0:
325,284,45810,1,8,1:3:0:0:
325,284,45878,1,4,1:3:0:0:
307,309,45945,1,4,1:3:0:0:
279,325,46013,1,4,1:3:0:0:
247,326,46080,1,4,1:3:0:0:
217,314,46148,1,0,0:0:0:0:
196,290,46215,1,8,1:3:0:0:
188,257,46283,1,8,1:3:0:0:
194,223,46350,1,8,1:3:0:0:
220,199,46418,6,0,P|292:215|421:295,1,202.500007724762,6|0,1:0|0:0,0:0:0:0:
456,335,46688,2,0,P|436:274|435:203,1,99.0000030212403,8|2,1:0|3:2,0:0:0:0:
471,172,46890,1,2,3:2:0:0:
471,172,46958,1,0,1:0:0:0:
413,39,47093,101,2,3:2:0:0:
292,2,47228,5,8,1:0:0:0:
182,23,47363,101,2,3:2:0:0:
112,98,47498,5,8,1:3:0:0:
81,184,47633,101,2,3:2:0:0:
83,269,47768,5,8,1:0:0:0:
132,336,47903,101,2,3:2:0:0:
204,366,48038,5,4,1:3:0:0:
276,360,48173,101,8,3:0:0:0:
281,354,48240,1,4,3:0:0:0:
283,347,48308,2,0,P|274:309|241:275,1,49.5000015106202,8|0,1:0|0:0,0:0:0:0:
272,224,48443,2,0,P|238:207|199:208,1,49.5000015106202,2|0,3:2|0:0,0:0:0:0:
0,384,48578,5,6,1:0:0:0:
73,378,48713,101,2,3:2:0:0:
141,335,48848,5,8,1:0:0:0:
174,256,48983,101,2,3:2:0:0:
199,166,49118,5,8,1:3:0:0:
258,83,49253,101,2,3:2:0:0:
364,40,49388,5,8,1:0:0:0:
488,48,49523,102,0,P|499:75|500:112,1,49.5000015106202,2|0,3:2|0:0,0:0:0:0:
455,336,49658,5,6,1:0:0:0:
315,383,49793,101,2,3:2:0:0:
185,371,49928,5,8,1:0:0:0:
101,294,50063,101,2,3:2:0:0:
58,193,50198,5,4,1:3:0:0:
63,99,50333,101,2,3:2:0:0:
106,26,50468,5,8,1:0:0:0:
176,0,50603,101,8,3:0:0:0:
186,3,50670,1,4,3:0:0:0:
191,12,50738,2,0,P|192:64|160:141,1,99.0000030212403,6|2,1:0|3:2,0:0:0:0:
101,294,51008,2,0,P|130:251|201:207,1,99.0000030212403,8|2,1:0|3:2,0:0:0:0:
373,124,51278,2,0,P|323:141|240:134,1,99.0000030212403,8|2,1:3|3:2,0:0:0:0:
0,107,51548,2,0,P|49:122|113:176,1,99.0000030212403,8|2,1:0|3:2,0:0:0:0:
326,352,51818,6,0,P|294:310|275:229,1,99.0000030212403,6|2,1:0|3:2,0:0:0:0:
278,266,52020,1,2,3:2:0:0:
278,266,52088,1,8,1:0:0:0:
336,214,52223,2,0,P|369:219|395:238,1,49.5000015106202,2|0,3:2|0:0,0:0:0:0:
431,296,52358,101,4,1:3:0:0:
176,384,52493,1,8,3:0:0:0:
176,384,52560,1,4,3:0:0:0:
176,384,52628,2,0,P|199:337|195:273,1,99.0000030212403,8|2,1:0|3:2,0:0:0:0:
148,237,52830,1,2,3:2:0:0:
148,237,52898,2,0,P|114:252|101:273,1,49.5000015106202,6|0,1:0|0:0,0:0:0:0:
93,258,53033,2,0,P|88:294|100:316,1,49.5000015106202,2|0,3:2|0:0,0:0:0:0:
221,211,53168,6,0,P|231:162|272:107,1,99.0000030212403,8|2,1:0|3:2,0:0:0:0:
256,121,53370,1,2,3:2:0:0:
256,121,53438,1,6,1:0:0:0:
339,114,53573,101,2,3:2:0:0:
425,141,53708,5,8,1:0:0:0:
483,227,53843,101,2,3:2:0:0:
495,360,53978,6,0,P|421:383|371:384,1,99.0000030212403,6|2,1:0|3:2,0:0:0:0:
105,267,54180,1,2,3:2:0:0:
105,267,54248,2,0,P|153:274|200:291,1,99.0000030212403,14|2,1:0|3:2,0:0:0:0:
295,279,54450,101,2,3:2:0:0:
295,279,54518,2,0,P|300:257|301:245,2,24.7500007553101,6|2|2,1:0|3:2|3:2,0:0:0:0:
305,357,54653,2,0,P|300:379|299:391,2,24.7500007553101,2|2|2,3:2|3:2|3:2,0:0:0:0:
373,229,54788,5,14,1:0:0:0:
368,194,54855,1,8,3:0:0:0:
345,164,54923,1,12,3:0:0:0:
311,152,54990,1,4,3:0:0:0:
270,158,55058,102,0,P|292:238|305:382,1,202.500007724762,6|0,1:0|0:0,0:0:0:0:
381,384,55328,2,0,P|394:340|404:325,1,49.5000015106202,8|0,1:0|0:0,0:0:0:0:
512,260,55463,5,2,3:2:0:0:
504,238,55530,1,2,3:2:0:0:
483,225,55598,1,8,1:3:0:0:
373,229,55733,101,2,3:2:0:0:
281,284,55868,5,8,1:0:0:0:
190,337,56003,101,2,3:2:0:0:
95,351,56138,5,4,1:3:0:0:
18,316,56273,101,2,3:2:0:0:
0,237,56408,5,8,1:0:0:0:
14,161,56543,101,2,3:2:0:0:
78,123,56678,6,0,P|106:134|126:158,1,49.5000015106202,4|0,1:3|0:0,0:0:0:0:
187,205,56813,1,2,3:2:0:0:
187,205,56880,1,2,3:2:0:0:
187,205,56948,2,0,P|216:196|243:177,1,49.5000015106202,8|0,1:0|0:0,0:0:0:0:
309,79,57083,1,0,0:0:0:0:
307,38,57150,1,2,3:2:0:0:
274,12,57218,101,6,1:0:0:0:
199,3,57353,5,2,3:2:0:0:
124,41,57488,101,8,1:0:0:0:
78,123,57623,5,2,3:2:0:0:
72,220,57758,101,4,1:3:0:0:
124,312,57893,5,2,3:2:0:0:
229,357,58028,101,8,1:0:0:0:
354,359,58163,6,0,P|376:348|395:332,1,49.5000015106202,2|0,3:0|0:0,0:0:0:0:
511,45,58298,101,6,1:0:0:0:
410,0,58433,5,2,3:2:0:0:
295,13,58568,101,8,1:0:0:0:
227,84,58703,5,2,3:2:0:0:
199,173,58838,101,4,1:3:0:0:
163,252,58973,5,2,3:2:0:0:
86,282,59108,101,8,1:0:0:0:
13,264,59243,5,8,3:0:0:0:
3,258,59310,1,4,3:0:0:0:
0,249,59378,2,0,P|26:218|43:211,1,49.5000015106202,6|0,1:0|0:0,0:0:0:0:
163,252,59513,1,2,3:2:0:0:
51,384,59648,102,0,P|37:345|39:327,1,49.5000015106202,8|0,1:0|0:0,0:0:0:0:
140,173,59783,1,2,3:2:0:0:
257,279,59918,6,0,P|193:257|131:250,1,99.0000030212403,8|2,1:3|3:2,0:0:0:0:
0,135,60120,1,2,3:2:0:0:
0,135,60188,2,0,P|48:125|94:107,1,99.0000030212403,8|2,1:0|3:2,0:0:0:0:
227,74,60458,102,0,P|213:109|207:148,1,49.5000015106202,6|0,1:0|0:0,0:0:0:0:
85,276,60593,1,2,3:2:0:0:
85,276,60660,1,2,3:2:0:0:
85,276,60728,2,0,P|78:239|64:215,1,49.5000015106202,8|0,1:0|0:0,0:0:0:0:
296,33,60863,5,2,3:2:0:0:
296,33,60930,1,2,3:2:0:0:
296,33,60998,2,0,P|338:56|335:121,1,99.0000030212403,4|2,1:3|3:2,0:0:0:0:
0,192,61268,102,0,P|14:157|41:144,1,49.5000015106202,8|0,1:0|0:0,0:0:0:0:
26,114,61403,2,0,P|63:108|88:125,1,49.5000015106202,8|0,1:3|1:0,1:0:0:0:
271,384,61538,5,6,1:0:0:0:
283,313,61673,101,4,1:3:0:0:
279,231,61808,5,4,1:3:0:0:
245,140,61943,101,8,1:3:0:0:
167,62,62078,5,6,1:0:0:0:
43,34,62213,101,8,1:3:0:0:
33,35,62280,1,4,1:3:0:0:
26,44,62348,2,0,P|35:82|62:104,1,49.5000015106202,4|0,1:3|0:0,0:0:0:0:
114,181,62483,5,8,1:3:0:0:
109,190,62550,1,12,1:3:0:0:
114,200,62618,2,0,P|151:211|183:198,1,49.5000015106202,6|0,1:0|0:0,0:0:0:0:
244,40,62753,101,4,1:3:0:0:
244,40,62820,1,8,1:3:0:0:
244,40,62888,1,6,1:0:0:0:
282,16,62955,1,8,1:3:0:0:
318,17,63023,1,8,1:3:0:0:
350,32,63090,1,8,1:3:0:0:
369,63,63158,1,6,1:0:0:0:
381,100,63225,1,4,1:3:0:0:
405,123,63293,1,4,1:3:0:0:
432,135,63360,1,4,1:3:0:0:
451,133,63428,6,0,P|462:98|477:70,1,49.5000015106202,14|8,1:0|1:3,0:0:0:0:
473,13,63563,2,0,P|462:48|447:76,1,49.5000015106202,4|4,1:3|1:3,0:0:0:0:
372,328,63698,6,0,P|363:266|317:191,1,116.999994644165,6|2,1:0|3:2,0:0:0:0:
512,236,63900,2,0,P|464:261|399:254,1,116.999994644165,2|2,1:2|3:2,0:0:0:0:
290,157,64103,2,0,P|290:119|315:78,1,58.4999973220826,2|2,1:2|3:2,0:0:0:0:
439,77,64238,6,0,P|444:134|412:181,1,116.999994644165,4|2,1:3|3:2,0:0:0:0:
263,233,64440,1,2,1:2:0:0:
263,233,64508,2,0,P|233:255|214:298,1,58.4999973220826,8|2,1:0|3:2,0:0:0:0:
385,384,64643,2,0,P|374:333|357:301,1,58.4999973220826,2|2,1:2|3:2,0:0:0:0:
212,166,64778,6,0,P|145:148|65:147,1,116.999994644165,6|2,1:0|3:2,0:0:0:0:
0,81,64980,2,0,P|58:76|114:59,1,116.999994644165,2|2,1:2|3:2,0:0:0:0:
207,20,65183,2,0,P|192:67|192:112,1,58.4999973220826,2|2,1:2|3:2,0:0:0:0:
56,251,65318,5,4,1:3:0:0:
56,251,65385,2,0,P|1:224|11:158,1,116.999994644165,2|2,1:2|3:2,0:0:0:0:
114,59,65588,1,8,1:0:0:0:
126,314,65723,5,8,1:3:0:0:
126,314,65790,1,4,1:3:0:0:
126,314,65858,2,0,P|209:283|269:276,1,116.999994644165,6|2,1:0|3:2,0:0:0:0:
74,154,66060,2,0,P|128:193|190:209,1,116.999994644165,2|2,1:2|3:2,0:0:0:0:
394,156,66263,6,0,P|388:118|350:76,1,58.4999973220826,8|0,3:3|0:0,0:0:0:0:
258,205,66398,1,4,1:3:0:0:
258,205,66465,2,0,B|288:207|311:232|306:240|319:262|354:265,1,116.999994644165,2|2,1:2|3:2,0:0:0:0:
419,322,66668,38,0,P|452:285|453:247,1,58.4999973220826,8|2,1:0|3:2,0:0:0:0:
301,67,66803,2,0,P|290:115|309:148,1,58.4999973220826,4|2,1:3|3:2,0:0:0:0:
353,265,66938,5,6,1:0:0:0:
512,185,67073,1,8,1:3:0:0:
512,185,67140,1,4,1:3:0:0:
512,185,67208,2,0,P|464:196|439:226,1,58.4999973220826,8|2,1:0|3:2,0:0:0:0:
353,265,67343,5,4,1:3:0:0:
297,318,67478,5,8,1:3:0:0:
207,328,67613,5,4,1:3:0:0:
100,292,67748,5,8,1:0:0:0:
40,188,67883,37,8,1:3:0:0:
42,36,68018,6,0,P|111:43|178:86,1,116.999994644165,6|2,1:0|3:2,0:0:0:0:
258,230,68220,2,0,P|223:168|218:83,1,116.999994644165,2|2,1:2|3:2,0:0:0:0:
233,47,68423,2,0,P|266:24|283:0,1,58.4999973220826,2|2,1:2|3:2,0:0:0:0:
358,0,68558,5,4,1:3:0:0:
454,27,68693,5,8,1:3:0:0:
512,147,68828,5,8,1:0:0:0:
512,147,68895,1,8,1:3:0:0:
512,147,68963,2,0,P|503:194|480:231,1,58.4999973220826,4|2,1:3|3:2,1:0:0:0:
138,381,69098,5,6,1:0:0:0:
123,255,69233,37,8,1:3:0:0:
167,151,69368,5,8,1:0:0:0:
250,97,69503,5,4,1:3:0:0:
337,93,69638,5,8,1:3:0:0:
414,68,69773,5,8,1:3:0:0:
414,68,69840,1,4,1:3:0:0:
414,68,69908,2,0,P|448:36|458:13,1,58.4999973220826,8|0,1:0|0:0,0:0:0:0:
401,145,70043,2,0,P|372:174|358:213,1,58.4999973220826,2|2,1:2|3:2,0:0:0:0:
336,384,70178,5,6,1:0:0:0:
300,236,70313,37,8,1:3:0:0:
219,146,70448,5,8,1:0:0:0:
126,121,70583,5,4,1:3:0:0:
43,129,70718,6,0,P|13:150|-11:189,1,58.4999973220826,4|0,1:3|0:0,0:0:0:0:
80,319,70853,5,4,1:3:0:0:
80,319,70920,1,8,1:3:0:0:
80,319,70988,2,0,P|95:272|90:241,1,58.4999973220826,8|2,1:0|3:2,0:0:0:0:
0,45,71123,5,8,1:3:0:0:
0,45,71190,1,4,1:3:0:0:
0,45,71258,1,6,1:0:0:0:
84,30,71393,37,8,1:3:0:0:
84,30,71460,1,4,1:3:0:0:
84,30,71528,1,8,1:0:0:0:
168,15,71663,5,8,1:3:0:0:
168,15,71730,1,4,1:3:0:0:
168,15,71798,2,0,P|184:45|192:93,1,58.4999973220826,8|6,1:3|1:3,0:0:0:0:
161,196,71933,2,0,P|156:218|156:243,2,29.2499986610413,4|0|4,1:3|3:0|1:3,0:0:0:0:
308,88,72068,6,0,P|264:108|240:135,1,58.4999973220826,8|2,1:0|3:2,0:0:0:0:
89,162,72203,2,0,P|70:170|52:171,2,29.2499986610413,4|0|4,1:3|3:0|1:3,0:0:0:0:
408,259,72338,5,6,1:0:0:0:
317,241,72473,5,4,1:3:0:0:
240,188,72608,5,8,1:0:0:0:
190,68,72743,38,0,P|199:14|209:-6,1,58.4999973220826,8|0,1:3|0:0,0:0:0:0:
500,0,72878,5,4,1:3:0:0:
475,83,73013,5,8,1:3:0:0:
380,160,73148,5,8,1:0:0:0:
240,188,73283,5,4,1:3:0:0:
39,163,73418,5,6,1:0:0:0:
5,127,73508,37,8,1:3:0:0:
12,84,73598,5,4,1:3:0:0:
40,68,73688,6,0,P|79:73|106:99,1,58.4999973220826,8|0,1:0|0:0,0:0:0:0:
190,68,73823,6,0,P|205:104|196:140,1,58.4999973220826,4|0,1:3|0:0,0:0:0:0:
133,384,73958,5,6,1:0:0:0:
126,308,74093,5,8,1:3:0:0:
126,308,74160,1,2,1:2:0:0:
115,228,74295,37,2,1:2:0:0:
115,228,74363,1,4,1:3:0:0:
0,0,74498,5,6,1:0:0:0:
51,57,74633,5,4,1:3:0:0:
119,106,74768,5,8,1:0:0:0:
206,144,74903,5,8,1:3:0:0:
319,175,75038,5,4,1:3:0:0:
462,197,75173,37,4,1:3:0:0:
462,197,75240,1,8,1:3:0:0:
462,197,75308,2,0,P|481:153|481:130,1,58.4999973220826,8|2,1:0|3:2,0:0:0:0:
337,39,75443,5,8,1:3:0:0:
337,39,75510,1,4,1:3:0:0:
337,39,75578,2,0,P|347:81|377:115,1,58.4999973220826,6|0,1:0|0:0,0:0:0:0:
455,384,75713,5,8,1:3:0:0:
365,275,75848,5,8,1:0:0:0:
253,216,75983,5,4,1:3:0:0:
139,191,76118,5,8,1:3:0:0:
48,161,76253,37,4,1:3:0:0:
0,94,76388,5,8,1:0:0:0:
8,20,76523,5,4,1:3:0:0:
15,10,76590,1,8,1:3:0:0:
26,8,76658,2,0,P|70:32|99:118,1,125.999996154785,6|2,1:0|3:2,0:0:0:0:
139,191,76860,2,0,P|142:127|202:66,1,125.999996154785,2|2,1:2|3:2,0:0:0:0:
217,13,77063,2,0,P|249:34|296:32,1,62.9999980773926,2|2,1:2|3:2,0:0:0:0:
336,86,77198,1,8,1:3:0:0:
352,95,77265,1,4,1:3:0:0:
339,102,77333,2,0,P|302:110|254:149,1,62.9999980773926,4|0,1:3|0:0,0:0:0:0:
139,191,77468,5,8,1:0:0:0:
276,275,77603,1,8,1:3:0:0:
80,384,77738,6,0,P|85:353|100:325,1,62.9999980773926,6|0,1:0|0:0,0:0:0:0:
259,179,77873,1,8,1:3:0:0:
259,179,77940,1,4,1:3:0:0:
259,179,78008,2,0,P|280:125|274:99,1,62.9999980773926,8|0,1:0|0:0,0:0:0:0:
44,2,78143,5,8,1:3:0:0:
44,2,78210,1,4,1:3:0:0:
44,2,78278,2,0,P|56:70|132:111,1,125.999996154785,6|2,1:0|3:2,0:0:0:0:
338,217,78480,2,0,P|383:258|391:319,1,125.999996154785,2|2,1:2|3:2,0:0:0:0:
89,229,78683,37,8,1:3:0:0:
89,229,78750,1,4,1:3:0:0:
89,229,78818,2,0,P|131:194|176:183,1,62.9999980773926,6|2,1:0|3:2,0:0:0:0:
328,83,78953,2,0,P|286:118|241:129,1,62.9999980773926,2|2,1:2|3:2,0:0:0:0:
29,96,79088,5,8,1:0:0:0:
16,84,79155,1,8,1:3:0:0:
39,83,79223,2,0,P|90:99|128:145,1,62.9999980773926,4|2,1:3|3:2,0:0:0:0:
406,225,79358,5,8,1:3:0:0:
419,237,79425,1,12,1:3:0:0:
396,238,79493,2,0,P|345:222|307:176,1,62.9999980773926,4|2,1:3|3:2,0:0:0:0:
192,123,79628,5,8,1:0:0:0:
193,116,79695,1,8,1:3:0:0:
194,110,79763,1,12,1:3:0:0:
195,103,79830,1,4,1:3:0:0:
196,97,79898,6,0,P|191:56|180:23,1,62.9999980773926,6|0,1:0|0:0,0:0:0:0:
237,223,80033,2,0,P|240:250|246:272,2,31.4999990386963,8|0|4,1:3|1:0|1:3,0:0:0:0:
278,121,80168,6,0,P|311:96|334:70,1,62.9999980773926,8|0,1:0|0:0,0:0:0:0:
154,230,80303,2,0,P|132:246|116:262,2,31.4999990386963,8|0|4,1:3|1:0|1:3,0:0:0:0:
339,191,80438,38,0,P|377:207|394:211,2,31.4999990386963,6|0|4,1:0|1:0|1:3,0:0:0:0:
102,163,80573,2,0,P|77:152|55:146,2,31.4999990386963,8|0|4,1:3|1:0|1:3,0:0:0:0:
263,333,80708,5,8,1:0:0:0:
280,358,80775,1,8,1:3:0:0:
257,366,80843,1,12,1:3:0:0:
263,378,80910,1,4,1:3:0:0:
258,384,80978,1,6,1:0:0:0:
253,191,88403,69,4,1:3:0:0:
253,191,88470,1,8,1:3:0:0:
253,191,88538,1,6,1:0:0:0:
256,192,88605,12,8,95828,1:0:0:0:
201,96,95963,5,4,1:3:0:0:
201,96,96030,1,8,1:3:0:0:
201,96,96098,2,0,P|232:84|255:65,1,45,6|0,1:0|0:0,0:0:0:0:
338,48,96233,2,0,P|332:80|337:110,1,45,0|0,1:0|0:0,0:0:0:0:
311,190,96368,2,0,P|285:169|257:158,1,45,8|0,1:0|0:0,0:0:0:0:
36,205,96503,101,4,1:3:0:0:
36,205,96570,1,8,1:3:0:0:
36,205,96638,1,6,1:0:0:0:
2,234,96705,1,4,1:3:0:0:
0,275,96773,1,4,1:3:0:0:
19,311,96840,1,4,1:3:0:0:
50,328,96908,1,8,1:0:0:0:
88,325,96975,1,8,1:3:0:0:
119,305,97043,1,8,1:3:0:0:
129,268,97110,1,8,1:3:0:0:
117,233,97178,1,6,1:0:0:0:
256,192,97245,12,0,97853,0:0:0:0:
97,148,97988,5,8,1:0:0:0:
97,148,98055,1,4,1:3:0:0:
97,148,98123,1,4,3:0:0:0:
97,148,98190,1,8,3:0:0:0:
97,148,98258,6,0,B|138:147|153:122|148:116|165:85|207:79,1,135.000005149842,6|2,1:0|3:2,0:0:0:0:
23,0,98460,2,0,P|60:6|135:74,1,135.000005149842,2|2,1:2|3:2,0:0:0:0:
200,208,98663,6,0,P|228:187|236:147,1,67.5000025749208,2|0,1:2|0:0,0:0:0:0:
189,9,98798,1,8,1:3:0:0:
189,9,98865,2,0,P|167:84|157:163,1,135.000005149842,2|0,3:2|0:0,0:0:0:0:
93,265,99068,6,0,P|62:252|45:223,1,67.5000025749208,8|0,1:0|0:0,0:0:0:0:
55,283,99203,2,0,P|38:253|39:220,1,67.5000025749208,2|0,1:2|0:0,0:0:0:0:
207,79,99338,6,0,P|244:66|266:34,1,67.5000025749208,6|0,1:0|0:0,0:0:0:0:
22,120,99473,1,2,3:2:0:0:
22,120,99540,2,0,P|55:128|84:172,1,67.5000025749208,2|8,1:2|1:0,0:0:0:0:
291,191,99675,1,2,3:2:0:0:
291,191,99743,2,0,P|254:178|232:146,1,67.5000025749208,2|0,1:2|0:0,0:0:0:0:
83,0,99878,5,4,1:3:0:0:
35,3,99945,1,2,3:2:0:0:
11,34,100013,1,0,3:0:0:0:
78,152,100148,6,0,P|117:139|164:131,1,67.5000025749208,8|0,1:3|0:0,0:0:0:0:
307,110,100283,2,0,P|340:104|371:92,1,67.5000025749208,4|0,1:3|0:0,0:0:0:0:
463,321,100418,38,0,B|423:320|400:296|401:288|377:266|343:261,1,135.000005149842,6|2,1:0|3:2,0:0:0:0:
267,320,100620,2,0,P|238:275|245:249,1,67.5000025749208,2|8,1:2|1:0,0:0:0:0:
423,192,100755,1,2,3:2:0:0:
423,192,100823,2,0,P|427:238|403:274,1,67.5000025749208,2|0,1:2|0:0,0:0:0:0:
187,362,100958,5,4,1:3:0:0:
150,363,101025,1,2,3:2:0:0:
120,384,101093,1,2,3:2:0:0:
405,356,101228,6,0,P|456:338|475:303,1,67.5000025749208,8|0,1:3|0:0,0:0:0:0:
238,201,101363,2,0,P|228:254|248:288,1,67.5000025749208,4|0,1:3|0:0,0:0:0:0:
301,384,101498,6,0,P|304:338|347:260,1,135.000005149842,6|8,1:0|1:3,0:0:0:0:
502,149,101700,1,4,1:3:0:0:
502,149,101768,2,0,P|517:118|510:81,1,67.5000025749208,8|0,1:0|0:0,0:0:0:0:
512,384,101903,5,4,1:3:0:0:
489,304,102038,5,8,1:3:0:0:
440,219,102173,37,4,1:3:0:0:
360,131,102308,5,8,1:0:0:0:
241,60,102443,5,8,1:3:0:0:
48,0,102578,6,0,P|24:65|15:143,1,144,6|2,1:0|3:2,0:0:0:0:
65,216,102780,1,2,3:2:0:0:
65,216,102848,2,0,P|75:258|71:318,1,72,8|0,1:0|0:0,0:0:0:0:
10,144,102983,2,0,P|0:102|4:42,1,72,2|0,1:2|0:0,0:0:0:0:
183,166,103118,5,0,1:0:0:0:
183,166,103185,1,2,3:2:0:0:
183,166,103253,2,0,P|133:157|91:136,1,72,2|0,1:2|0:0,0:0:0:0:
76,365,103388,5,8,1:0:0:0:
193,264,103523,37,4,1:3:0:0:
374,162,103658,5,6,1:0:0:0:
374,162,103725,1,2,3:2:0:0:
374,162,103793,2,0,P|396:134|409:80,1,72,8|0,1:3|0:0,0:0:0:0:
48,0,103928,5,8,1:0:0:0:
177,54,104063,5,4,3:3:0:0:
264,131,104198,5,8,1:3:0:0:
308,214,104333,5,4,3:0:0:0:
317,293,104468,37,8,1:0:0:0:
294,366,104603,5,8,3:0:0:0:
287,366,104670,1,4,3:0:0:0:
285,360,104738,2,0,P|302:310|349:272,1,76.5000014591217,6|0,1:0|0:0,0:0:0:0:
438,198,104873,2,0,P|460:167|470:130,1,76.5000014591217,2|0,3:2|0:0,0:0:0:0:
251,332,105008,6,0,P|274:304|307:291,1,72,8|0,1:0|0:0,0:0:0:0:
504,161,105143,2,0,P|479:187|447:202,1,72,2|0,3:2|0:0,0:0:0:0:
308,214,105278,6,0,P|277:197|243:156,1,72,4|0,1:3|0:0,0:0:0:0:
457,279,105413,2,0,P|487:298|512:323,1,72,2|0,3:2|0:0,0:0:0:0:
361,384,105548,6,0,P|364:300|404:195,1,144,8|8,1:0|3:3,0:0:0:0:
380,242,105750,1,4,3:3:0:0:
380,242,105818,1,6,1:0:0:0:
370,140,105953,5,8,1:3:0:0:
370,140,106020,1,4,1:3:0:0:
370,140,106088,1,8,1:0:0:0:
329,0,106223,37,8,1:3:0:0:
329,0,106290,1,4,1:3:0:0:
329,0,106358,2,0,P|326:45|315:78,1,72,4|2,1:3|3:2,0:0:0:0:
230,152,106493,2,0,P|205:168|185:200,2,36,0|8|4,1:0|3:0|3:0,0:0:0:0:
439,126,106628,6,0,P|378:135|342:158,1,72,0|2,1:0|3:2,0:0:0:0:
184,85,106763,2,0,P|163:80|143:61,2,36,8|0|4,1:3|1:0|1:3,0:0:0:0:
318,70,106898,5,6,1:0:0:0:
369,139,107033,5,4,3:0:0:0:
370,236,107168,5,8,1:0:0:0:
309,332,107303,5,8,1:3:0:0:
193,372,107438,37,4,1:3:0:0:
60,344,107573,5,8,3:0:0:0:
4,208,107708,5,8,1:0:0:0:
29,40,107843,5,4,1:3:0:0:
214,0,107978,5,6,1:0:0:0:
262,27,108068,5,8,1:3:0:0:
268,66,108158,37,4,1:3:0:0:
253,99,108248,6,0,P|205:93|181:59,1,72,8|2,1:0|3:2,0:0:0:0:
121,116,108383,2,0,P|102:71|119:33,1,72,2|2,3:2|3:2,0:0:0:0:
342,0,108518,6,0,P|360:44|343:82,1,72,4|2,1:3|3:2,0:0:0:0:
421,109,108653,1,2,3:2:0:0:
421,109,108720,2,0,P|391:147|350:152,1,72,2|8,1:2|1:0,0:0:0:0:
222,8,108855,5,2,3:2:0:0:
222,8,108923,1,4,1:3:0:0:
0,0,109058,5,6,1:0:0:0:
73,30,109193,5,4,3:0:0:0:
151,75,109328,37,8,1:0:0:0:
237,133,109463,5,8,1:3:0:0:
325,214,109598,5,4,1:3:0:0:
452,338,109733,5,8,3:0:0:0:
449,347,109800,1,8,3:0:0:0:
441,351,109868,2,0,P|408:325|395:276,1,72,8|0,1:0|0:0,0:0:0:0:
431,105,110003,5,8,1:3:0:0:
415,73,110070,1,4,3:0:0:0:
376,62,110138,2,0,P|331:72|297:100,1,72,6|0,1:0|0:0,0:0:0:0:
236,271,110273,5,8,3:0:0:0:
263,280,110340,1,8,3:0:0:0:
286,273,110408,2,0,P|316:238|327:195,1,72,8|0,1:0|0:0,0:0:0:0:
257,29,110543,37,8,1:3:0:0:
243,36,110610,1,4,3:0:0:0:
234,49,110678,2,0,P|229:94|245:135,1,72,4|0,1:3|0:0,0:0:0:0:
400,215,110813,5,4,1:3:0:0:
406,208,110880,1,4,3:0:0:0:
407,199,110948,2,0,P|383:159|346:135,1,72,8|0,1:0|0:0,0:0:0:0:
178,179,111083,6,0,P|220:197|264:194,1,72,2|0,1:2|0:0,0:0:0:0:
509,42,111218,5,6,1:0:0:0:
479,26,111285,2,0,B|450:33|446:49|439:66|415:72,1,80.9999975280763,2|2,1:2|3:2,0:0:0:0:
318,253,111420,5,2,1:2:0:0:
296,259,111488,2,0,B|269:244|270:228|267:210|246:198,1,80.9999975280763,8|2,1:0|3:2,0:0:0:0:
168,32,111623,5,2,1:2:0:0:
190,0,111690,1,2,3:2:0:0:
233,0,111758,2,0,P|259:36|245:110,1,80.9999975280763,8|0,1:3|0:0,0:0:0:0:
393,300,111893,37,4,1:3:0:0:
427,312,111960,1,2,3:2:0:0:
465,301,112028,1,8,1:0:0:0:
487,271,112095,1,2,3:2:0:0:
487,233,112163,2,0,P|459:202|405:195,1,80.9999975280763,8|0,1:3|0:0,0:0:0:0:
123,298,112298,6,0,P|191:261|246:197,1,161.999995056153,6|8,1:0|3:0,0:0:0:0:
350,81,112500,1,4,1:3:0:0:
350,81,112568,2,0,P|331:117|328:188,1,80.9999975280763,8|0,1:0|0:0,0:0:0:0:
393,384,112703,5,8,3:0:0:0:
393,384,112770,1,4,3:0:0:0:
393,384,112838,2,0,P|335:280|257:232,1,161.999995056153,6|8,1:0|1:3,0:0:0:0:
116,208,113040,1,4,3:0:0:0:
116,208,113108,2,0,P|85:169|74:109,1,80.9999975280763,8|0,1:0|0:0,0:0:0:0:
233,13,113243,5,8,3:0:0:0:
233,13,113310,1,4,3:0:0:0:
233,13,113378,2,0,P|211:192|205:371,1,360,6|8,1:0|1:0,0:0:0:0:
246,304,113715,1,2,3:2:0:0:
246,304,113783,2,0,P|240:237|215:172,1,80.9999975280763,4|2,1:3|3:2,0:0:0:0:
181,100,113918,5,4,1:3:0:0:
352,5,114053,1,8,1:3:0:0:
352,5,114120,1,4,3:0:0:0:
352,5,114188,2,0,P|332:61|328:122,1,80.9999975280763,8|2,1:0|3:2,0:0:0:0:
205,372,114323,5,8,3:0:0:0:
166,384,114390,1,4,3:0:0:0:
127,373,114458,37,6,1:0:0:0:
51,250,114593,5,8,1:3:0:0:
60,107,114728,5,8,1:0:0:0:
126,30,114863,5,4,1:3:0:0:
205,13,114998,5,8,1:3:0:0:
216,19,115065,1,4,1:3:0:0:
218,31,115133,2,0,P|209:51|191:64,1,26.9999991760254,4|4,1:3|3:0,0:0:0:0:
248,165,115268,6,0,P|230:177|191:184,1,45,8|2,1:0|3:2,0:0:0:0:
102,296,115403,38,0,P|82:287|47:240,1,72,8|8,1:3|3:0,0:0:0:0:
35,24,115538,6,0,B|79:33|93:67|86:77|97:107|142:117,1,144,6|2,1:0|3:2,0:0:0:0:
9,154,115740,2,0,P|37:117|75:103,1,72,2|8,1:2|1:0,0:0:0:0:
213,61,115875,1,2,3:2:0:0:
213,61,115943,2,0,P|259:32|273:-6,1,72,2|0,1:2|0:0,0:0:0:0:
145,124,116078,5,4,1:3:0:0:
145,124,116145,2,0,P|170:216|180:315,1,144,2|2,1:2|3:2,0:0:0:0:
247,308,116348,2,0,P|294:278|296:234,1,72,8|0,1:0|0:0,0:0:0:0:
137,338,116483,2,0,P|177:355|196:402,1,72,2|0,1:2|0:0,0:0:0:0:
434,262,116618,6,0,P|409:209|317:201,1,144,6|2,1:0|3:2,0:0:0:0:
181,268,116820,1,2,1:2:0:0:
181,268,116888,2,0,P|139:245|131:203,1,72,8|2,1:0|3:2,0:0:0:0:
304,269,117023,2,0,P|285:322|284:393,1,72,2|2,1:2|3:2,0:0:0:0:
221,158,117158,5,4,1:3:0:0:
221,158,117225,2,0,P|211:83|188:3,1,144,2|2,1:2|3:2,0:0:0:0:
47,20,117428,6,0,P|83:32|138:67,1,72,8|0,1:0|0:0,0:0:0:0:
330,194,117563,1,2,1:2:0:0:
440,38,117698,38,0,P|357:75|291:122,1,144,6|2,1:0|3:2,0:0:0:0:
79,136,117900,2,0,P|152:140|260:175,1,144,2|2,1:2|3:2,0:0:0:0:
334,332,118103,6,0,P|322:298|303:268,1,72,2|2,1:2|3:2,0:0:0:0:
228,165,118238,5,4,1:3:0:0:
228,165,118305,2,0,P|217:85|310:54,1,144,2|2,1:2|3:2,0:0:0:0:
393,165,118508,2,0,P|350:192|322:193,1,72,8|2,1:0|3:2,0:0:0:0:
174,231,118643,2,0,P|133:247|99:295,1,72,2|2,1:2|3:2,0:0:0:0:
335,332,118778,5,6,1:0:0:0:
479,384,118913,1,8,1:3:0:0:
488,382,118980,1,4,1:3:0:0:
483,376,119048,2,0,P|438:344|373:319,1,72,8|0,1:0|0:0,0:0:0:0:
0,384,119183,5,4,1:3:0:0:
76,383,119318,5,8,1:3:0:0:
160,360,119453,37,4,1:3:0:0:
245,293,119588,5,8,1:0:0:0:
312,181,119723,5,8,1:3:0:0:
341,35,119858,6,0,P|284:10|180:4,1,153.000002918243,6|2,1:0|3:2,0:0:0:0:
153,69,120060,1,2,1:2:0:0:
153,69,120128,2,0,P|171:100|225:113,1,76.5000014591217,8|2,1:0|3:2,0:0:0:0:
312,181,120263,2,0,P|371:152|386:104,1,76.5000014591217,2|2,1:2|3:2,0:0:0:0:
498,83,120398,5,4,1:3:0:0:
512,96,120465,1,2,3:2:0:0:
492,97,120533,2,0,P|445:83|411:53,1,76.5000014591217,2|2,1:2|3:2,0:0:0:0:
157,255,120668,5,8,1:0:0:0:
138,257,120735,1,2,3:2:0:0:
150,241,120803,2,0,P|190:213|235:207,1,76.5000014591217,2|2,1:2|3:2,0:0:0:0:
512,0,120938,37,6,1:0:0:0:
363,16,121073,5,8,1:3:0:0:
257,99,121208,5,8,1:0:0:0:
216,207,121343,5,4,1:3:0:0:
153,270,121478,5,4,1:3:0:0:
78,295,121613,5,8,1:3:0:0:
6,272,121748,38,0,P|14:214|37:176,1,76.5000014591217,8|0,1:0|0:0,0:0:0:0:
493,363,121883,5,8,1:3:0:0:
512,380,121950,1,4,1:3:0:0:
488,375,122018,1,6,1:0:0:0:
345,334,122153,5,8,1:3:0:0:
281,227,122288,5,8,1:0:0:0:
253,120,122423,5,4,1:3:0:0:
187,52,122558,5,4,1:3:0:0:
106,29,122693,37,8,1:3:0:0:
34,46,122828,6,0,P|36:105|61:149,1,76.5000014591217,8|0,1:0|0:0,0:0:0:0:
247,381,122963,5,8,1:3:0:0:
247,381,123030,1,8,1:3:0:0:
247,381,123098,1,6,1:0:0:0:
259,194,123233,5,8,1:3:0:0:
259,194,123300,1,4,1:3:0:0:
259,194,123368,1,8,1:0:0:0:
262,0,123503,5,4,1:3:0:0:
262,0,123570,1,4,1:3:0:0:
262,0,123638,2,0,P|279:36|277:105,1,76.5000014591217,4|2,1:3|3:2,0:0:0:0:
336,231,123773,2,0,P|346:257|362:279,2,38.2500007295609,8|0|4,1:3|3:0|1:3,0:0:0:0:
408,75,123908,6,0,P|377:98|357:135,1,76.5000014591217,8|2,1:0|3:2,0:0:0:0:
268,275,124043,2,0,P|244:287|219:289,2,38.2500007295609,4|4|4,1:3|3:3|1:3,0:0:0:0:
512,221,124178,37,6,1:0:0:0:
483,145,124313,5,4,1:3:0:0:
408,75,124448,5,8,1:0:0:0:
293,37,124583,5,8,1:3:0:0:
155,52,124718,5,4,1:3:0:0:
29,133,124853,5,8,1:3:0:0:
0,315,124988,38,0,P|65:300|91:263,1,72,8|0,1:0|0:0,0:0:0:0:
166,233,125123,6,0,P|195:173|187:143,1,67.5000025749208,4|0,1:3|0:0,0:0:0:0:
155,52,125258,5,6,1:0:0:0:
133,11,125348,5,12,1:3:0:0:
91,2,125438,5,4,1:3:0:0:
63,15,125528,6,0,P|70:59|90:83,1,62.9999980773926,8|0,1:0|0:0,0:0:0:0:
140,160,125663,38,0,P|181:175|207:172,1,58.4999973220826,4|0,1:3|0:0,0:0:0:0:
360,17,125798,6,0,P|286:39|229:94,1,144,4|2,1:3|1:2,0:0:0:0:
161,93,126000,1,2,1:2:0:0:
161,93,126068,2,0,P|143:127|143:179,1,72,8|2,1:0|3:2,0:0:0:0:
17,383,126203,5,8,1:3:0:0:
0,384,126270,1,4,1:3:0:0:
9,375,126338,1,6,1:0:0:0:
88,351,126473,5,4,1:3:0:0:
177,308,126608,5,8,1:0:0:0:
282,240,126743,5,8,1:3:0:0:
391,148,126878,37,4,1:3:0:0:
503,25,127013,5,4,1:3:0:0:
506,0,127080,1,8,1:3:0:0:
490,19,127148,2,0,P|474:82|478:132,1,72,8|0,1:0|0:0,0:0:0:0:
365,313,127283,5,8,1:3:0:0:
375,339,127350,1,4,1:3:0:0:
383,316,127418,2,0,P|376:262|352:205,1,72,6|2,1:0|3:2,0:0:0:0:
72,91,127553,5,4,1:3:0:0:
40,64,127620,1,8,1:3:0:0:
44,28,127688,1,8,1:0:0:0:
186,0,127823,5,8,1:3:0:0:
299,57,127958,5,4,1:3:0:0:
341,147,128093,37,4,1:3:0:0:
413,185,128228,5,8,1:0:0:0:
493,179,128363,5,4,1:3:0:0:
493,179,128430,1,8,1:3:0:0:
493,179,128498,2,0,P|495:114|516:17,1,153.000002918243,6|2,1:0|3:2,0:0:0:0:
465,252,128700,1,2,1:2:0:0:
465,252,128768,2,0,P|502:294|517:328,1,76.5000014591217,8|2,1:0|3:2,0:0:0:0:
472,97,128903,5,2,1:2:0:0:
472,97,128970,1,8,3:0:0:0:
472,97,129038,2,0,P|405:58|351:1,1,153.000002918243,4|2,1:3|3:2,0:0:0:0:
276,1,129240,1,2,1:2:0:0:
276,1,129308,2,0,P|262:35|292:91,1,76.5000014591217,8|0,1:0|0:0,0:0:0:0:
239,144,129443,2,0,P|281:173|327:162,1,76.5000014591217,8|0,1:3|0:0,0:0:0:0:
465,252,129578,5,6,1:0:0:0:
482,281,129645,1,8,3:0:0:0:
477,311,129713,1,12,1:3:0:0:
457,330,129780,1,4,3:3:0:0:
429,330,129848,2,0,P|393:306|385:262,1,76.5000014591217,8|0,1:0|0:0,0:0:0:0:
409,136,129983,5,4,1:3:0:0:
409,136,130050,1,8,1:3:0:0:
409,136,130118,2,0,P|476:69|508:3,1,153.000002918243,6|2,1:0|1:2,0:0:0:0:
465,252,130320,1,2,1:2:0:0:
465,252,130388,2,0,P|485:184|521:148,1,76.5000014591217,8|2,1:0|3:2,0:0:0:0:
410,0,130523,37,8,1:3:0:0:
360,3,130590,1,4,1:3:0:0:
325,35,130658,6,0,P|320:62|326:84,3,36,6|2|2|2,1:0|3:2|3:2|3:2,0:0:0:0:
267,159,130928,6,0,P|276:184|292:200,3,36,2|2|2|2,1:2|3:2|3:2|3:2,0:0:0:0:
292,274,131198,6,0,P|312:291|334:297,3,36,2|2|2|2,1:2|3:2|3:2|3:2,0:0:0:0:
364,363,131468,6,0,P|391:368|413:362,1,36,2|2,1:2|3:2,0:0:0:0:
442,383,131603,6,0,P|467:373|483:357,1,36,2|2,1:2|3:2,0:0:0:0:
499,294,131738,37,6,1:0:0:0:
450,129,131873,5,8,1:3:0:0:
325,35,132008,5,8,1:0:0:0:
191,25,132143,5,4,1:3:0:0:
78,53,132278,5,8,1:3:0:0:
26,143,132413,5,4,1:3:0:0:
10,234,132548,37,8,1:0:0:0:
36,311,132683,5,4,1:3:0:0:
99,350,132818,6,0,P|119:344|138:327,1,26.9999991760254,6|0,1:0|0:0,0:0:0:0:
147,351,132953,2,0,P|161:335|169:311,1,26.9999991760254,4|0,1:3|0:0,0:0:0:0:
247,321,133088,6,0,P|251:300|246:267,1,31.4999990386963,4|0,1:3|0:0,0:0:0:0:
282,256,133223,2,0,P|276:235|254:207,1,31.4999990386963,8|0,1:3|0:0,0:0:0:0:
321,147,133358,6,0,P|305:132|266:119,1,36,4|0,1:3|0:0,0:0:0:0:
276,54,133493,2,0,P|255:49|214:55,1,36,8|0,1:3|0:0,0:0:0:0:
142,2,133628,6,0,P|121:7|88:38,1,40.4999987640381,4|0,1:3|0:0,0:0:0:0:
30,0,133763,2,0,P|15:15|0:54,1,40.4999987640381,8|0,1:3|0:0,0:0:0:0:
10,234,133898,38,0,P|42:220|82:212,1,45,6|0,1:0|0:0,0:0:0:0:
87,147,134033,2,0,P|109:161|148:168,1,45,4|0,1:3|0:0,0:0:0:0:
95,303,134168,6,0,P|106:279|123:260,1,49.5000015106202,4|0,1:3|0:0,0:0:0:0:
165,80,134303,2,0,P|175:102|191:121,1,49.5000015106202,8|0,1:3|0:0,0:0:0:0:
172,381,134438,6,0,P|170:354|177:323,1,53.9999983520508,4|0,1:3|0:0,0:0:0:0:
238,0,134573,2,0,P|235:24|242:55,1,53.9999983520508,8|0,1:3|0:0,0:0:0:0:
215,223,134708,5,4,1:3:0:0:
215,223,134775,1,4,1:3:0:0:
215,223,134843,1,8,1:3:0:0:
215,223,134910,1,8,1:3:0:0:
215,223,134978,6,0,P|264:203|305:165,1,62.9999980773926,6|0,1:0|0:0,0:0:0:0:
383,75,135113,5,4,1:3:0:0:
383,75,135180,1,12,1:3:0:0:
383,75,135248,2,0,P|355:119|343:178,1,67.5000025749208,8|0,1:3|0:0,0:0:0:0:
349,332,135383,37,4,1:3:0:0:
349,332,135450,1,12,1:3:0:0:
349,332,135518,2,0,P|345:279|320:223,1,72,8|0,1:3|0:0,0:0:0:0:
197,48,135653,5,4,1:3:0:0:
197,48,135720,1,12,1:3:0:0:
197,48,135788,2,0,P|231:88|285:117,1,76.5000014591217,8|0,1:3|0:0,0:0:0:0:
512,201,135923,5,4,1:3:0:0:
512,201,135990,1,12,1:3:0:0:
512,201,136058,2,0,P|460:188|381:198,1,80.9999975280763,6|0,1:0|0:0,0:0:0:0:
86,213,136193,5,4,1:3:0:0:
71,211,136260,1,4,1:3:0:0:
54,206,136328,1,4,1:3:0:0:
36,196,136395,1,4,1:3:0:0:
22,181,136463,1,4,1:3:0:0:
8,159,136530,1,4,1:3:0:0:
0,128,136598,1,8,1:3:0:0:
1,94,136665,1,8,1:3:0:0:
11,57,136733,1,8,1:3:0:0:
36,25,136800,1,8,1:3:0:0:
78,3,136868,1,8,1:3:0:0:
128,0,136935,1,8,1:3:0:0:
178,22,137003,1,8,1:3:0:0:
201,74,137070,1,8,1:3:0:0:
187,152,137138,5,6,1:0:0:0:
256,192,137205,12,4,139298,1:0:0:0:
