osu file format v14

[General]
AudioFilename: f_0.mp3
AudioLeadIn: 0
PreviewTime: 16653
Countdown: 0
SampleSet: Soft
StackLeniency: 0.7
Mode: 3
LetterboxInBreaks: 0
SpecialStyle: 1
WidescreenStoryboard: 0

[Editor]
DistanceSpacing: 0.85
BeatDivisor: 16
GridSize: 32
TimelineZoom: 1.3

[Metadata]
Title:F
TitleUnicode:F
Artist:xi
ArtistUnicode:xi
Creator:pwhk
Version:X
Source:
Tags:respect for F.F.Chopin Fantaisie Impromptu Op.66 Frédéric François Fantasy
BeatmapID:985137
BeatmapSetID:459899

[Difficulty]
HPDrainRate:8.5
CircleSize:8
OverallDifficulty:9
ApproachRate:6
SliderMultiplier:1.4
SliderTickRate:1

[Events]
//Background and Video events
0,0,"f.jpg",0,0
//Break Periods
//Storyboard Layer 0 (Background)
//Storyboard Layer 1 (Fail)
//Storyboard Layer 2 (Pass)
//Storyboard Layer 3 (Foreground)
//Storyboard Sound Samples

[TimingPoints]
6,346.820809248555,4,2,1,15,1,0
6,-142.857142857143,4,2,1,15,0,0
8329,-125,4,2,1,15,0,0
9716,-111.111111111111,4,2,1,15,0,0
11104,-100,4,2,1,35,0,1
27751,-100,4,2,1,35,0,0
44399,-166.666666666667,4,2,1,35,0,0
46826,-142.857142857143,4,2,1,35,0,0
47173,-125,4,2,1,35,0,0
68676,-111.111111111111,4,2,1,35,0,0
69370,-100,4,2,1,35,0,1
86711,-100,4,2,1,35,0,1
94341,-100,4,2,1,35,0,0
116537,416.666666666667,4,2,1,20,1,0
116537,-83.2369942196531,4,2,1,20,0,0
117387,461.538461538462,4,2,1,20,1,0
117387,-79.3650793650794,4,2,1,20,0,0
118310,566.037735849057,4,2,1,20,1,0
118310,-68.0272108843537,4,2,1,20,0,0
118896,600,4,2,1,20,1,0
118896,-68.0272108843537,4,2,1,20,0,0
119496,652.173913043478,4,2,1,20,1,0
119496,-66.6666666666667,4,2,1,20,0,0
119822,750,4,2,1,20,1,0
119822,-59.8802395209581,4,2,1,20,0,0
120197,833.333333333333,4,2,1,20,1,0
120197,-55.5555555555556,4,2,1,20,0,0
120613,952.380952380952,4,2,1,20,1,0
120613,-50,4,2,1,20,0,0
121089,1250,4,2,1,20,1,0
121089,-39.6825396825397,4,2,1,20,0,0
126088,1304.34782608696,4,2,1,20,1,0
126088,-39.6825396825397,4,2,1,20,0,0

[HitObjects]
96,192,6,5,0,0:0:0:0:
32,192,6,1,4,0:0:0:0:
352,192,6,1,0,0:0:0:0:
224,192,6,1,0,0:0:0:0:
416,192,699,1,0,0:0:0:0:
160,192,1046,1,0,0:0:0:0:
416,192,1219,1,0,0:0:0:0:
32,192,1393,1,4,1:0:0:0:
96,192,1393,1,0,0:0:0:0:
416,192,1566,1,0,0:0:0:0:
288,192,1740,1,0,0:0:0:0:
160,192,1913,1,0,0:0:0:0:
480,192,2086,1,0,0:0:0:0:
160,192,2260,1,0,0:0:0:0:
288,192,2433,1,0,0:0:0:0:
480,192,2607,1,0,0:0:0:0:
32,192,2780,1,4,1:0:0:0:
96,192,2780,1,0,0:0:0:0:
352,192,2780,1,0,0:0:0:0:
480,192,2953,1,0,0:0:0:0:
288,192,3127,1,0,0:0:0:0:
416,192,3300,1,0,0:0:0:0:
480,192,3474,1,0,0:0:0:0:
224,192,3647,1,0,0:0:0:0:
352,192,3734,1,0,0:0:0:0:
224,192,3821,1,0,0:0:0:0:
352,192,3907,1,0,0:0:0:0:
224,192,3994,1,0,0:0:0:0:
32,192,4167,1,4,1:0:0:0:
96,192,4167,1,0,0:0:0:0:
288,192,4341,1,0,0:0:0:0:
480,192,4514,1,0,0:0:0:0:
160,192,4688,1,0,0:0:0:0:
416,192,4774,1,0,0:0:0:0:
288,192,4861,1,0,0:0:0:0:
416,192,4948,1,0,0:0:0:0:
224,192,5034,1,0,0:0:0:0:
480,192,5381,1,0,0:0:0:0:
96,192,5555,1,0,0:0:0:0:
32,192,5555,1,4,0:0:0:0:
352,192,5555,1,0,0:0:0:0:
224,192,5555,1,0,0:0:0:0:
416,192,5901,1,0,0:0:0:0:
160,192,6075,1,0,0:0:0:0:
288,192,6162,1,0,0:0:0:0:
416,192,6248,1,0,0:0:0:0:
288,192,6595,1,0,0:0:0:0:
160,192,6769,1,0,0:0:0:0:
32,192,6942,1,4,1:0:0:0:
96,192,6942,1,0,0:0:0:0:
416,192,7115,1,0,0:0:0:0:
160,192,7289,1,0,0:0:0:0:
288,192,7462,1,0,0:0:0:0:
352,192,7636,1,0,0:0:0:0:
224,192,7722,1,0,0:0:0:0:
352,192,7809,1,0,0:0:0:0:
288,192,7896,1,0,0:0:0:0:
416,192,7982,1,0,0:0:0:0:
224,192,8156,1,0,0:0:0:0:
32,192,8329,1,4,1:0:0:0:
96,192,8329,1,2,1:0:0:0:
480,192,8329,1,0,0:0:0:0:
224,192,8445,1,2,1:0:0:0:
352,192,8560,1,2,1:0:0:0:
160,192,8676,1,2,1:0:0:0:
288,192,8792,1,2,1:0:0:0:
416,192,8907,1,2,1:0:0:0:
224,192,9023,1,2,1:0:0:0:
96,192,9023,1,0,0:0:0:0:
352,192,9138,1,2,1:0:0:0:
480,192,9254,1,2,1:0:0:0:
160,192,9370,1,2,1:0:0:0:
288,192,9485,1,2,1:0:0:0:
352,192,9543,1,0,0:0:0:0:
416,192,9601,1,2,1:0:0:0:
32,192,9716,1,4,1:0:0:0:
96,192,9716,1,2,1:0:0:0:
224,192,9774,1,2,1:0:0:0:
352,192,9832,1,2,1:0:0:0:
160,192,9890,1,2,1:0:0:0:
288,192,9948,1,2,1:0:0:0:
416,192,10006,1,2,1:0:0:0:
96,192,10063,1,2,1:0:0:0:
480,192,10063,1,2,1:0:0:0:
224,192,10121,1,2,1:0:0:0:
352,192,10179,1,2,1:0:0:0:
160,192,10237,1,2,1:0:0:0:
288,192,10295,1,2,1:0:0:0:
416,192,10352,1,2,1:0:0:0:
32,192,10410,1,4,0:0:0:0:
96,192,10410,1,0,0:0:0:0:
480,192,10410,1,2,1:0:0:0:
96,192,11104,1,0,0:0:0:0:
32,192,11104,1,4,0:0:0:0:
416,192,11104,1,2,0:0:0:0:
288,192,11104,1,0,0:0:0:0:
224,192,11219,1,0,0:0:0:0:
352,192,11335,1,0,0:0:0:0:
480,192,11451,1,0,0:0:0:0:
32,192,11451,1,4,0:0:0:0:
160,192,11451,1,2,0:0:0:0:
288,192,11451,1,0,0:0:0:0:
352,192,11566,1,0,0:0:0:0:
224,192,11682,1,0,0:0:0:0:
96,192,11797,1,0,0:0:0:0:
32,192,11797,1,4,0:0:0:0:
416,192,11797,1,2,0:0:0:0:
288,192,11797,1,0,0:0:0:0:
224,192,11913,1,0,0:0:0:0:
352,192,12029,1,0,0:0:0:0:
480,192,12144,1,0,0:0:0:0:
32,192,12144,1,4,0:0:0:0:
160,192,12144,1,2,0:0:0:0:
288,192,12144,1,0,0:0:0:0:
352,192,12260,1,0,0:0:0:0:
224,192,12375,1,0,0:0:0:0:
32,192,12491,1,4,0:0:0:0:
96,192,12491,1,0,0:0:0:0:
416,192,12491,1,2,0:0:0:0:
288,192,12491,1,0,0:0:0:0:
224,192,12607,1,0,0:0:0:0:
352,192,12722,1,0,0:0:0:0:
32,192,12838,1,4,0:0:0:0:
480,192,12838,1,0,0:0:0:0:
160,192,12838,1,2,0:0:0:0:
288,192,12838,1,0,0:0:0:0:
352,192,12953,1,0,0:0:0:0:
224,192,13069,1,0,0:0:0:0:
32,192,13185,1,4,0:0:0:0:
96,192,13185,1,0,0:0:0:0:
416,192,13185,1,2,0:0:0:0:
288,192,13185,1,0,0:0:0:0:
224,192,13300,1,0,0:0:0:0:
352,192,13416,1,0,0:0:0:0:
32,192,13532,1,4,0:0:0:0:
480,192,13532,1,0,0:0:0:0:
160,192,13532,1,2,0:0:0:0:
288,192,13532,1,0,0:0:0:0:
352,192,13647,1,0,0:0:0:0:
224,192,13763,1,0,0:0:0:0:
416,192,13763,1,2,0:0:0:0:
32,192,13763,1,4,0:0:0:0:
32,192,13878,1,4,0:0:0:0:
96,192,13878,1,0,0:0:0:0:
416,192,13878,1,2,0:0:0:0:
288,192,13878,1,0,0:0:0:0:
224,192,13994,1,0,0:0:0:0:
352,192,14110,1,0,0:0:0:0:
32,192,14225,1,4,0:0:0:0:
480,192,14225,1,0,0:0:0:0:
160,192,14225,1,2,0:0:0:0:
288,192,14225,1,0,0:0:0:0:
352,192,14341,1,0,0:0:0:0:
224,192,14456,1,0,0:0:0:0:
32,192,14572,1,4,0:0:0:0:
96,192,14572,1,0,0:0:0:0:
416,192,14572,1,2,0:0:0:0:
288,192,14572,1,0,0:0:0:0:
224,192,14688,1,0,0:0:0:0:
352,192,14803,1,0,0:0:0:0:
32,192,14919,1,4,0:0:0:0:
480,192,14919,1,0,0:0:0:0:
160,192,14919,1,2,0:0:0:0:
288,192,14919,1,0,0:0:0:0:
352,192,15034,1,0,0:0:0:0:
224,192,15150,1,0,0:0:0:0:
32,192,15266,1,4,0:0:0:0:
96,192,15266,1,0,0:0:0:0:
416,192,15266,1,2,0:0:0:0:
288,192,15266,1,0,0:0:0:0:
224,192,15381,1,0,0:0:0:0:
352,192,15497,1,0,0:0:0:0:
32,192,15612,1,4,0:0:0:0:
480,192,15612,1,0,0:0:0:0:
96,192,15612,1,2,0:0:0:0:
416,192,15612,1,0,0:0:0:0:
160,192,15656,1,0,0:0:0:0:
224,192,15699,1,0,0:0:0:0:
288,192,15728,1,0,0:0:0:0:
352,192,15742,1,0,0:0:0:0:
96,192,15786,1,0,0:0:0:0:
480,192,15844,1,2,0:0:0:0:
224,192,15873,1,0,0:0:0:0:
160,192,15959,1,0,0:0:0:0:
416,192,15959,1,0,0:0:0:0:
32,192,15959,1,4,0:0:0:0:
288,192,15959,1,2,0:0:0:0:
160,192,16075,1,0,0:0:0:0:
416,192,16075,1,0,0:0:0:0:
32,192,16075,1,4,0:0:0:0:
288,192,16075,1,2,0:0:0:0:
160,192,16190,1,0,0:0:0:0:
416,192,16190,1,0,0:0:0:0:
32,192,16190,1,4,0:0:0:0:
288,192,16190,1,2,0:0:0:0:
160,192,16306,1,0,0:0:0:0:
416,192,16306,1,0,0:0:0:0:
32,192,16306,1,4,0:0:0:0:
288,192,16306,1,2,0:0:0:0:
160,192,16422,1,0,0:0:0:0:
416,192,16422,1,0,0:0:0:0:
32,192,16422,1,4,0:0:0:0:
288,192,16422,1,2,0:0:0:0:
160,192,16537,1,0,0:0:0:0:
416,192,16537,1,0,0:0:0:0:
32,192,16537,1,4,0:0:0:0:
288,192,16537,1,2,0:0:0:0:
96,192,16653,1,2,0:0:0:0:
32,192,16653,1,4,0:0:0:0:
480,192,16653,1,0,0:0:0:0:
224,192,16653,1,0,0:0:0:0:
352,192,16653,1,0,0:0:0:0:
288,192,16740,1,0,0:0:0:0:
352,192,16826,1,0,0:0:0:0:
160,192,16826,1,8,1:0:0:0:
288,192,16913,1,0,0:0:0:0:
224,192,17000,1,0,0:0:0:0:
96,192,17000,1,2,0:0:0:0:
352,192,17086,1,0,0:0:0:0:
416,192,17173,1,0,0:0:0:0:
160,192,17173,1,8,1:0:0:0:
480,192,17260,1,0,0:0:0:0:
352,192,17347,1,0,0:0:0:0:
96,192,17347,1,2,0:0:0:0:
288,192,17433,1,0,0:0:0:0:
160,192,17520,1,8,1:0:0:0:
352,192,17520,1,0,0:0:0:0:
288,192,17607,1,0,0:0:0:0:
224,192,17693,1,0,0:0:0:0:
96,192,17693,1,2,0:0:0:0:
288,192,17780,1,0,0:0:0:0:
352,192,17867,1,0,0:0:0:0:
160,192,17867,1,8,1:0:0:0:
480,192,17953,1,0,0:0:0:0:
96,192,18040,1,2,0:0:0:0:
224,192,18040,1,0,0:0:0:0:
288,192,18127,1,0,0:0:0:0:
416,192,18214,1,0,0:0:0:0:
160,192,18214,1,8,1:0:0:0:
288,192,18300,1,0,0:0:0:0:
224,192,18387,1,0,0:0:0:0:
96,192,18387,1,2,0:0:0:0:
352,192,18474,1,0,0:0:0:0:
416,192,18560,1,0,0:0:0:0:
160,192,18560,1,8,1:0:0:0:
480,192,18647,1,0,0:0:0:0:
416,192,18734,1,0,0:0:0:0:
96,192,18734,1,2,0:0:0:0:
352,192,18821,1,0,0:0:0:0:
416,192,18907,1,0,0:0:0:0:
160,192,18907,1,8,1:0:0:0:
352,192,18994,1,0,0:0:0:0:
224,192,19081,1,0,0:0:0:0:
96,192,19081,1,2,0:0:0:0:
352,192,19167,1,0,0:0:0:0:
416,192,19254,1,0,0:0:0:0:
288,192,19254,1,8,0:0:0:0:
96,192,19312,1,2,0:0:0:0:
480,192,19341,1,0,0:0:0:0:
96,192,19427,1,2,0:0:0:0:
224,192,19514,1,0,0:0:0:0:
288,192,19601,1,0,0:0:0:0:
160,192,19601,1,8,1:0:0:0:
352,192,19688,1,0,0:0:0:0:
224,192,19774,1,0,0:0:0:0:
96,192,19774,1,2,0:0:0:0:
288,192,19861,1,0,0:0:0:0:
352,192,19948,1,0,0:0:0:0:
160,192,19948,1,8,1:0:0:0:
416,192,20034,1,0,0:0:0:0:
480,192,20121,1,0,0:0:0:0:
96,192,20121,1,2,0:0:0:0:
416,192,20208,1,0,0:0:0:0:
352,192,20295,1,0,0:0:0:0:
160,192,20295,1,8,1:0:0:0:
288,192,20381,1,0,0:0:0:0:
352,192,20468,1,0,0:0:0:0:
96,192,20468,1,2,0:0:0:0:
224,192,20555,1,0,0:0:0:0:
480,192,20641,1,0,0:0:0:0:
160,192,20641,1,8,1:0:0:0:
352,192,20728,1,0,0:0:0:0:
288,192,20815,1,0,0:0:0:0:
96,192,20815,1,2,0:0:0:0:
416,192,20901,1,0,0:0:0:0:
352,192,20988,1,0,0:0:0:0:
160,192,20988,1,8,1:0:0:0:
288,192,21075,1,0,0:0:0:0:
224,192,21162,1,0,0:0:0:0:
96,192,21162,1,2,0:0:0:0:
480,192,21248,1,0,0:0:0:0:
416,192,21335,1,0,0:0:0:0:
160,192,21335,1,8,1:0:0:0:
352,192,21422,1,0,0:0:0:0:
416,192,21508,1,0,0:0:0:0:
96,192,21508,1,2,0:0:0:0:
288,192,21595,1,0,0:0:0:0:
224,192,21682,1,0,0:0:0:0:
160,192,21682,1,8,1:0:0:0:
352,192,21769,1,0,0:0:0:0:
288,192,21855,1,0,0:0:0:0:
96,192,21855,1,2,0:0:0:0:
224,192,21942,1,0,0:0:0:0:
416,192,22029,1,8,0:0:0:0:
480,192,22029,1,0,0:0:0:0:
96,192,22086,1,2,0:0:0:0:
352,192,22115,1,0,0:0:0:0:
96,192,22202,1,2,0:0:0:0:
160,192,22289,1,0,0:0:0:0:
352,192,22289,1,0,0:0:0:0:
224,192,22375,1,0,0:0:0:0:
416,192,22375,1,0,0:0:0:0:
160,192,22462,1,0,0:0:0:0:
352,192,22462,1,0,0:0:0:0:
96,192,22549,1,0,0:0:0:0:
288,192,22549,1,0,0:0:0:0:
160,192,22636,1,0,0:0:0:0:
352,192,22636,1,0,0:0:0:0:
224,192,22722,1,0,0:0:0:0:
416,192,22722,1,0,0:0:0:0:
288,192,22809,1,0,0:0:0:0:
480,192,22809,1,0,0:0:0:0:
416,192,22896,1,0,0:0:0:0:
224,192,22896,1,0,0:0:0:0:
160,192,22982,1,0,0:0:0:0:
352,192,22982,1,0,0:0:0:0:
224,192,23069,1,0,0:0:0:0:
416,192,23069,1,0,0:0:0:0:
160,192,23156,1,0,0:0:0:0:
352,192,23156,1,0,0:0:0:0:
96,192,23242,1,0,0:0:0:0:
288,192,23242,1,0,0:0:0:0:
160,192,23329,1,0,0:0:0:0:
352,192,23329,1,0,0:0:0:0:
224,192,23416,1,0,0:0:0:0:
416,192,23416,1,0,0:0:0:0:
288,192,23503,1,0,0:0:0:0:
480,192,23503,1,0,0:0:0:0:
96,192,23589,1,2,0:0:0:0:
160,192,23676,1,0,0:0:0:0:
352,192,23676,1,0,0:0:0:0:
416,192,23763,1,0,0:0:0:0:
224,192,23763,1,0,0:0:0:0:
160,192,23849,1,0,0:0:0:0:
352,192,23849,1,0,0:0:0:0:
288,192,23936,1,0,0:0:0:0:
96,192,23936,1,0,0:0:0:0:
352,192,24023,1,0,0:0:0:0:
160,192,24023,1,0,0:0:0:0:
416,192,24110,1,0,0:0:0:0:
224,192,24110,1,0,0:0:0:0:
288,192,24196,1,0,0:0:0:0:
480,192,24196,1,0,0:0:0:0:
416,192,24283,1,0,0:0:0:0:
224,192,24283,1,0,0:0:0:0:
352,192,24370,1,0,0:0:0:0:
160,192,24370,1,0,0:0:0:0:
224,192,24456,1,0,0:0:0:0:
416,192,24456,1,0,0:0:0:0:
160,192,24543,1,0,0:0:0:0:
352,192,24543,1,0,0:0:0:0:
96,192,24630,1,0,0:0:0:0:
288,192,24630,1,0,0:0:0:0:
352,192,24716,1,0,0:0:0:0:
160,192,24716,1,0,0:0:0:0:
224,192,24803,1,0,0:0:0:0:
416,192,24803,1,0,0:0:0:0:
288,192,24890,1,0,0:0:0:0:
480,192,24890,1,0,0:0:0:0:
160,192,24977,1,0,0:0:0:0:
352,192,24977,1,0,0:0:0:0:
416,192,25063,1,0,0:0:0:0:
224,192,25063,1,0,0:0:0:0:
160,192,25150,1,0,0:0:0:0:
352,192,25150,1,0,0:0:0:0:
288,192,25237,1,0,0:0:0:0:
96,192,25237,1,0,0:0:0:0:
160,192,25323,1,0,0:0:0:0:
352,192,25323,1,0,0:0:0:0:
480,192,25410,1,0,0:0:0:0:
288,192,25410,1,0,0:0:0:0:
416,192,25497,1,0,0:0:0:0:
224,192,25497,1,0,0:0:0:0:
160,192,25584,1,0,0:0:0:0:
352,192,25584,1,0,0:0:0:0:
96,192,25670,1,0,0:0:0:0:
288,192,25670,1,0,0:0:0:0:
352,192,25757,1,0,0:0:0:0:
480,192,25757,1,0,0:0:0:0:
288,192,25844,1,0,0:0:0:0:
416,192,25844,1,0,0:0:0:0:
224,192,25930,1,0,0:0:0:0:
352,192,25930,1,0,0:0:0:0:
288,192,26017,1,0,0:0:0:0:
416,192,26017,1,0,0:0:0:0:
224,192,26104,1,0,0:0:0:0:
352,192,26104,1,0,0:0:0:0:
160,192,26190,1,0,0:0:0:0:
288,192,26190,1,0,0:0:0:0:
96,192,26277,1,0,0:0:0:0:
224,192,26277,1,0,0:0:0:0:
288,192,26364,1,0,0:0:0:0:
416,192,26364,1,0,0:0:0:0:
224,192,26451,1,0,0:0:0:0:
160,192,26451,1,0,0:0:0:0:
352,192,26537,1,0,0:0:0:0:
480,192,26537,1,0,0:0:0:0:
96,192,26624,1,0,0:0:0:0:
224,192,26624,1,0,0:0:0:0:
288,192,26711,1,0,0:0:0:0:
352,192,26711,1,0,0:0:0:0:
96,192,26797,1,0,0:0:0:0:
160,192,26797,1,0,0:0:0:0:
288,192,26884,1,0,0:0:0:0:
416,192,26884,1,0,0:0:0:0:
96,192,26971,1,0,0:0:0:0:
224,192,26971,1,0,0:0:0:0:
288,192,27058,1,0,0:0:0:0:
352,192,27058,1,0,0:0:0:0:
224,192,27144,1,0,0:0:0:0:
160,192,27144,1,0,0:0:0:0:
480,192,27231,1,0,0:0:0:0:
352,192,27231,1,0,0:0:0:0:
96,192,27318,1,0,0:0:0:0:
224,192,27318,1,0,0:0:0:0:
416,192,27404,1,0,0:0:0:0:
288,192,27404,1,0,0:0:0:0:
160,192,27491,1,0,0:0:0:0:
96,192,27491,1,0,0:0:0:0:
416,192,27578,1,0,0:0:0:0:
352,192,27578,1,0,0:0:0:0:
224,192,27664,1,0,0:0:0:0:
160,192,27664,1,0,0:0:0:0:
32,192,27751,1,4,0:0:0:0:
96,192,27751,1,2,0:0:0:0:
480,192,27751,1,2,0:0:0:0:
416,192,27751,1,0,0:0:0:0:
416,192,27925,1,0,0:0:0:0:
288,192,28098,1,0,0:0:0:0:
288,192,28271,1,0,0:0:0:0:
160,192,28358,1,0,0:0:0:0:
160,192,28532,1,0,0:0:0:0:
160,192,28705,1,0,0:0:0:0:
32,192,28792,1,4,0:0:0:0:
96,192,28792,1,2,0:0:0:0:
288,192,28792,1,0,0:0:0:0:
416,192,28878,1,0,0:0:0:0:
288,192,28965,1,0,0:0:0:0:
160,192,29023,1,2,0:0:0:0:
352,192,29052,1,0,0:0:0:0:
32,192,29138,1,4,0:0:0:0:
96,192,29138,1,2,0:0:0:0:
224,192,29138,1,0,0:0:0:0:
224,192,29312,1,0,0:0:0:0:
32,192,29485,1,4,0:0:0:0:
96,192,29485,1,2,0:0:0:0:
288,192,29485,1,0,0:0:0:0:
288,192,29659,1,0,0:0:0:0:
160,192,29716,1,2,0:0:0:0:
416,192,29745,1,0,0:0:0:0:
32,192,29832,1,4,0:0:0:0:
96,192,29832,1,2,0:0:0:0:
416,192,29919,1,0,0:0:0:0:
96,192,29948,1,2,0:0:0:0:
288,192,30006,1,0,0:0:0:0:
96,192,30063,1,2,0:0:0:0:
416,192,30092,1,0,0:0:0:0:
32,192,30179,1,4,0:0:0:0:
96,192,30179,1,2,0:0:0:0:
480,192,30179,1,0,0:0:0:0:
352,192,30266,1,0,0:0:0:0:
480,192,30352,1,0,0:0:0:0:
96,192,30410,1,2,0:0:0:0:
352,192,30439,1,0,0:0:0:0:
32,192,30526,1,4,0:0:0:0:
96,192,30526,1,2,0:0:0:0:
416,192,30526,1,0,0:0:0:0:
416,192,30699,1,0,0:0:0:0:
288,192,30873,1,0,0:0:0:0:
288,192,31046,1,0,0:0:0:0:
160,192,31133,1,0,0:0:0:0:
160,192,31306,1,0,0:0:0:0:
160,192,31479,1,0,0:0:0:0:
32,192,31566,1,4,0:0:0:0:
480,192,31566,1,2,0:0:0:0:
288,192,31566,1,0,0:0:0:0:
288,192,31740,1,0,0:0:0:0:
416,192,31797,1,2,0:0:0:0:
160,192,31826,1,0,0:0:0:0:
32,192,31913,1,4,0:0:0:0:
480,192,31913,1,2,0:0:0:0:
224,192,31913,1,0,0:0:0:0:
224,192,32086,1,0,0:0:0:0:
32,192,32260,1,4,0:0:0:0:
480,192,32260,1,2,0:0:0:0:
96,192,32260,1,0,0:0:0:0:
96,192,32433,1,0,0:0:0:0:
480,192,32433,1,0,0:0:0:0:
416,192,32477,1,0,0:0:0:0:
160,192,32520,1,0,0:0:0:0:
352,192,32520,1,0,0:0:0:0:
288,192,32563,1,0,0:0:0:0:
32,192,32607,1,4,0:0:0:0:
480,192,32607,1,2,0:0:0:0:
224,192,32693,1,0,0:0:0:0:
32,192,32722,1,4,0:0:0:0:
480,192,32722,1,2,0:0:0:0:
160,192,32780,1,0,0:0:0:0:
32,192,32838,1,4,0:0:0:0:
480,192,32838,1,2,0:0:0:0:
224,192,32867,1,0,0:0:0:0:
32,192,32953,1,4,0:0:0:0:
288,192,32953,1,0,0:0:0:0:
480,192,32953,1,2,0:0:0:0:
160,192,33040,1,0,0:0:0:0:
32,192,33069,1,4,0:0:0:0:
480,192,33069,1,2,0:0:0:0:
288,192,33127,1,0,0:0:0:0:
32,192,33185,1,4,0:0:0:0:
480,192,33185,1,2,0:0:0:0:
160,192,33214,1,0,0:0:0:0:
32,192,33300,1,4,0:0:0:0:
224,192,33300,1,0,0:0:0:0:
96,192,33300,1,2,0:0:0:0:
480,192,33300,1,0,0:0:0:0:
224,192,33474,1,8,1:0:0:0:
480,192,33474,1,0,0:0:0:0:
160,192,33647,1,2,0:0:0:0:
288,192,33647,1,8,0:0:0:0:
416,192,33647,1,0,0:0:0:0:
224,192,33821,1,8,1:0:0:0:
416,192,33821,1,0,0:0:0:0:
352,192,33907,1,0,0:0:0:0:
160,192,33994,1,2,0:0:0:0:
352,192,34081,1,0,0:0:0:0:
224,192,34167,1,8,1:0:0:0:
416,192,34167,1,0,0:0:0:0:
352,192,34254,1,0,0:0:0:0:
160,192,34341,1,2,0:0:0:0:
288,192,34341,1,8,0:0:0:0:
480,192,34341,1,0,0:0:0:0:
416,192,34427,1,0,0:0:0:0:
224,192,34514,1,8,1:0:0:0:
352,192,34514,1,0,0:0:0:0:
416,192,34601,1,0,0:0:0:0:
96,192,34688,1,2,0:0:0:0:
288,192,34688,1,0,0:0:0:0:
288,192,34861,1,0,0:0:0:0:
160,192,34861,1,8,0:0:0:0:
96,192,35034,1,2,0:0:0:0:
352,192,35034,1,0,0:0:0:0:
224,192,35034,1,8,0:0:0:0:
352,192,35208,1,0,0:0:0:0:
160,192,35208,1,8,1:0:0:0:
416,192,35295,1,0,0:0:0:0:
96,192,35381,1,2,0:0:0:0:
416,192,35468,1,0,0:0:0:0:
224,192,35555,1,8,1:0:0:0:
352,192,35555,1,0,0:0:0:0:
416,192,35641,1,0,0:0:0:0:
96,192,35728,1,2,0:0:0:0:
288,192,35728,1,8,0:0:0:0:
480,192,35728,1,0,0:0:0:0:
352,192,35815,1,0,0:0:0:0:
224,192,35901,1,8,1:0:0:0:
480,192,35901,1,0,0:0:0:0:
96,192,35959,1,2,0:0:0:0:
352,192,35988,1,0,0:0:0:0:
96,192,36075,1,2,0:0:0:0:
416,192,36075,1,0,0:0:0:0:
160,192,36248,1,8,0:0:0:0:
416,192,36248,1,0,0:0:0:0:
96,192,36422,1,2,0:0:0:0:
352,192,36422,1,0,0:0:0:0:
224,192,36422,1,8,0:0:0:0:
160,192,36595,1,8,0:0:0:0:
352,192,36595,1,0,0:0:0:0:
480,192,36682,1,0,0:0:0:0:
96,192,36769,1,2,0:0:0:0:
480,192,36855,1,0,0:0:0:0:
352,192,36942,1,0,0:0:0:0:
160,192,36942,1,8,0:0:0:0:
480,192,37029,1,0,0:0:0:0:
224,192,37115,1,8,0:0:0:0:
96,192,37115,1,2,0:0:0:0:
416,192,37115,1,0,0:0:0:0:
288,192,37202,1,0,0:0:0:0:
160,192,37289,1,8,0:0:0:0:
416,192,37289,1,0,0:0:0:0:
288,192,37375,1,0,0:0:0:0:
224,192,37462,1,2,0:0:0:0:
352,192,37462,1,0,0:0:0:0:
416,192,37636,1,8,1:0:0:0:
352,192,37636,1,0,0:0:0:0:
224,192,37809,1,2,0:0:0:0:
96,192,37809,1,8,0:0:0:0:
288,192,37809,1,0,0:0:0:0:
288,192,37982,1,0,0:0:0:0:
416,192,37982,1,8,1:0:0:0:
352,192,38069,1,0,0:0:0:0:
224,192,38156,1,2,0:0:0:0:
288,192,38242,1,0,0:0:0:0:
96,192,38271,1,8,0:0:0:0:
416,192,38329,1,8,1:0:0:0:
288,192,38416,1,0,0:0:0:0:
224,192,38503,1,2,0:0:0:0:
96,192,38503,1,8,0:0:0:0:
160,192,38503,1,0,0:0:0:0:
288,192,38589,1,0,0:0:0:0:
416,192,38676,1,8,1:0:0:0:
160,192,38676,1,0,0:0:0:0:
96,192,38734,1,2,0:0:0:0:
288,192,38763,1,0,0:0:0:0:
96,192,38849,1,2,0:0:0:0:
416,192,38849,1,0,0:0:0:0:
416,192,39023,1,0,0:0:0:0:
352,192,39196,1,0,0:0:0:0:
96,192,39196,1,2,0:0:0:0:
480,192,39196,1,8,0:0:0:0:
352,192,39370,1,0,0:0:0:0:
416,192,39456,1,0,0:0:0:0:
96,192,39543,1,2,0:0:0:0:
352,192,39630,1,0,0:0:0:0:
224,192,39716,1,0,0:0:0:0:
352,192,39803,1,0,0:0:0:0:
288,192,39890,1,0,0:0:0:0:
96,192,39890,1,2,0:0:0:0:
480,192,39890,1,8,0:0:0:0:
224,192,39977,1,0,0:0:0:0:
288,192,40063,1,0,0:0:0:0:
224,192,40150,1,0,0:0:0:0:
288,192,40237,1,0,0:0:0:0:
96,192,40237,1,2,0:0:0:0:
288,192,40410,1,0,0:0:0:0:
480,192,40584,1,8,0:0:0:0:
96,192,40584,1,2,0:0:0:0:
224,192,40584,1,0,0:0:0:0:
224,192,40757,1,0,0:0:0:0:
288,192,40844,1,0,0:0:0:0:
96,192,40930,1,2,0:0:0:0:
224,192,41017,1,0,0:0:0:0:
160,192,41104,1,0,0:0:0:0:
224,192,41190,1,0,0:0:0:0:
96,192,41277,1,2,0:0:0:0:
480,192,41277,1,8,0:0:0:0:
288,192,41277,1,0,0:0:0:0:
352,192,41364,1,0,0:0:0:0:
416,192,41451,1,0,0:0:0:0:
480,192,41537,1,0,0:0:0:0:
96,192,41624,1,2,1:0:0:0:
416,192,41624,1,0,0:0:0:0:
160,192,41740,1,2,1:0:0:0:
416,192,41797,1,0,0:0:0:0:
224,192,41855,1,2,1:0:0:0:
352,192,41971,1,0,0:0:0:0:
96,192,41971,1,2,1:0:0:0:
160,192,42086,1,2,1:0:0:0:
352,192,42144,1,0,0:0:0:0:
224,192,42202,1,2,1:0:0:0:
288,192,42231,1,0,0:0:0:0:
96,192,42318,1,2,1:0:0:0:
352,192,42404,1,0,0:0:0:0:
160,192,42433,1,2,1:0:0:0:
288,192,42491,1,0,0:0:0:0:
224,192,42549,1,2,1:0:0:0:
352,192,42578,1,0,0:0:0:0:
96,192,42664,1,2,1:0:0:0:
288,192,42664,1,0,0:0:0:0:
416,192,42751,1,0,0:0:0:0:
160,192,42780,1,2,1:0:0:0:
288,192,42838,1,0,0:0:0:0:
224,192,42896,1,2,1:0:0:0:
416,192,42925,1,0,0:0:0:0:
96,192,43011,1,2,1:0:0:0:
480,192,43011,1,0,0:0:0:0:
160,192,43098,1,2,1:0:0:0:
224,192,43185,1,2,1:0:0:0:
480,192,43185,1,0,0:0:0:0:
288,192,43271,1,2,0:0:0:0:
96,192,43358,1,2,1:0:0:0:
416,192,43358,1,0,0:0:0:0:
160,192,43445,1,2,1:0:0:0:
224,192,43532,1,2,1:0:0:0:
416,192,43532,1,0,0:0:0:0:
288,192,43618,1,2,0:0:0:0:
352,192,43618,1,0,0:0:0:0:
480,192,43705,1,0,0:0:0:0:
96,192,43705,1,2,1:0:0:0:
160,192,43763,1,2,1:0:0:0:
352,192,43792,1,0,0:0:0:0:
224,192,43821,1,2,1:0:0:0:
96,192,43878,1,2,1:0:0:0:
480,192,43878,1,0,0:0:0:0:
160,192,43936,1,2,1:0:0:0:
352,192,43965,1,0,0:0:0:0:
224,192,43994,1,2,1:0:0:0:
96,192,44052,1,2,1:0:0:0:
416,192,44052,1,0,0:0:0:0:
160,192,44110,1,2,1:0:0:0:
288,192,44138,1,0,0:0:0:0:
224,192,44167,1,2,1:0:0:0:
96,192,44225,1,2,1:0:0:0:
416,192,44225,1,0,0:0:0:0:
160,192,44283,1,2,1:0:0:0:
288,192,44312,1,0,0:0:0:0:
224,192,44341,1,2,1:0:0:0:
96,192,44399,1,2,1:0:0:0:
32,192,44399,1,4,0:0:0:0:
160,192,44399,1,0,0:0:0:0:
352,192,44399,1,0,0:0:0:0:
480,192,44399,1,2,0:0:0:0:
96,192,46826,1,0,0:0:0:0:
160,192,46913,1,0,0:0:0:0:
224,192,47000,1,0,0:0:0:0:
288,192,47086,1,0,0:0:0:0:
352,192,47173,128,0,48560:0:0:0:0:
96,192,47173,1,2,0:0:0:0:
32,192,47173,1,4,0:0:0:0:
288,192,48560,128,0,49254:0:0:0:0:
96,192,49254,128,0,49601:0:0:0:0:
224,192,49601,128,0,49948:0:0:0:0:
416,192,49948,128,0,51162:0:0:0:0:
352,192,51162,128,0,51335:0:0:0:0:
480,192,51335,128,0,52029:0:0:0:0:
288,192,52029,128,0,52722:0:0:0:0:
416,192,52722,128,0,53416:0:0:0:0:
224,192,53416,128,0,54110:0:0:0:0:
160,192,54110,128,0,54456:0:0:0:0:
352,192,54803,128,0,55150:0:0:0:0:
224,192,55150,128,0,55497:0:0:0:0:
96,192,55497,128,0,56884:0:0:0:0:
160,192,56884,128,0,57925:0:0:0:0:
288,192,57462,1,0,0:0:0:0:
352,192,57578,1,0,0:0:0:0:
416,192,57693,1,0,0:0:0:0:
480,192,57809,1,0,0:0:0:0:
224,192,57925,1,0,0:0:0:0:
288,192,58011,1,0,0:0:0:0:
352,192,58098,1,0,0:0:0:0:
416,192,58185,1,0,0:0:0:0:
32,192,58271,1,4,0:0:0:0:
480,192,58271,1,2,0:0:0:0:
96,192,58271,128,0,58618:0:0:0:0:
160,192,58618,128,0,58965:0:0:0:0:
288,192,58965,128,0,59312:0:0:0:0:
416,192,59312,128,0,59659:0:0:0:0:
480,192,59659,128,0,60006:0:0:0:0:
352,192,60006,128,0,60352:0:0:0:0:
224,192,60352,128,0,60699:0:0:0:0:
96,192,60699,128,0,61046:0:0:0:0:
416,192,61046,128,0,61393:0:0:0:0:
160,192,61393,128,0,61740:0:0:0:0:
352,192,61740,128,0,62000:0:0:0:0:
480,192,62000,128,0,62260:0:0:0:0:
224,192,62260,128,0,62433:0:0:0:0:
416,192,62433,128,0,62693:0:0:0:0:
288,192,62693,128,0,62953:0:0:0:0:
160,192,62953,128,0,63127:0:0:0:0:
352,192,63127,128,0,63387:0:0:0:0:
96,192,63387,128,0,63647:0:0:0:0:
224,192,63647,128,0,63821:0:0:0:0:
96,192,63821,128,0,65208:0:0:0:0:
160,192,65208,128,0,65901:0:0:0:0:
288,192,65901,128,0,66248:0:0:0:0:
416,192,66248,128,0,66595:0:0:0:0:
352,192,66595,128,0,67982:0:0:0:0:
96,192,66595,1,2,1:0:0:0:
160,192,66711,1,2,1:0:0:0:
224,192,66826,1,2,1:0:0:0:
96,192,66942,1,2,1:0:0:0:
160,192,67058,1,2,1:0:0:0:
224,192,67173,1,2,1:0:0:0:
96,192,67289,1,2,1:0:0:0:
160,192,67404,1,2,1:0:0:0:
224,192,67520,1,2,1:0:0:0:
96,192,67636,1,2,1:0:0:0:
160,192,67751,1,2,1:0:0:0:
224,192,67867,1,2,1:0:0:0:
480,192,67982,128,0,68676:0:0:0:0:
96,192,67982,1,2,1:0:0:0:
160,192,68040,1,2,1:0:0:0:
224,192,68098,1,2,1:0:0:0:
288,192,68156,1,2,1:0:0:0:
352,192,68214,1,2,1:0:0:0:
416,192,68271,1,2,1:0:0:0:
96,192,68329,1,2,1:0:0:0:
160,192,68387,1,2,1:0:0:0:
224,192,68445,1,2,1:0:0:0:
288,192,68503,1,2,1:0:0:0:
352,192,68560,1,2,1:0:0:0:
416,192,68618,1,2,1:0:0:0:
96,192,68676,1,2,1:0:0:0:
224,192,68676,1,2,0:0:0:0:
32,192,69370,1,4,0:0:0:0:
96,192,69370,1,0,0:0:0:0:
416,192,69370,1,2,0:0:0:0:
288,192,69370,1,0,0:0:0:0:
224,192,69485,1,0,0:0:0:0:
352,192,69601,1,0,0:0:0:0:
32,192,69716,1,4,0:0:0:0:
480,192,69716,1,0,0:0:0:0:
160,192,69716,1,2,0:0:0:0:
288,192,69716,1,0,0:0:0:0:
352,192,69832,1,0,0:0:0:0:
224,192,69948,1,0,0:0:0:0:
32,192,70063,1,4,0:0:0:0:
96,192,70063,1,0,0:0:0:0:
416,192,70063,1,2,0:0:0:0:
288,192,70063,1,0,0:0:0:0:
224,192,70179,1,0,0:0:0:0:
352,192,70295,1,0,0:0:0:0:
32,192,70410,1,4,0:0:0:0:
480,192,70410,1,0,0:0:0:0:
160,192,70410,1,2,0:0:0:0:
288,192,70410,1,0,0:0:0:0:
352,192,70526,1,0,0:0:0:0:
224,192,70641,1,0,0:0:0:0:
416,192,70641,1,2,0:0:0:0:
32,192,70641,1,4,0:0:0:0:
32,192,70757,1,4,0:0:0:0:
96,192,70757,1,0,0:0:0:0:
416,192,70757,1,2,0:0:0:0:
288,192,70757,1,0,0:0:0:0:
224,192,70873,1,0,0:0:0:0:
352,192,70988,1,0,0:0:0:0:
32,192,71104,1,4,0:0:0:0:
480,192,71104,1,0,0:0:0:0:
96,192,71104,1,2,0:0:0:0:
416,192,71104,1,0,0:0:0:0:
160,192,71147,1,0,0:0:0:0:
224,192,71190,1,0,0:0:0:0:
288,192,71219,1,0,0:0:0:0:
352,192,71234,1,0,0:0:0:0:
96,192,71277,1,0,0:0:0:0:
224,192,71335,1,0,0:0:0:0:
480,192,71335,1,2,0:0:0:0:
160,192,71451,1,0,0:0:0:0:
416,192,71451,1,0,0:0:0:0:
32,192,71451,1,4,0:0:0:0:
288,192,71451,1,2,0:0:0:0:
160,192,71566,1,0,0:0:0:0:
416,192,71566,1,0,0:0:0:0:
32,192,71566,1,4,0:0:0:0:
288,192,71566,1,2,0:0:0:0:
160,192,71682,1,0,0:0:0:0:
416,192,71682,1,0,0:0:0:0:
32,192,71682,1,4,0:0:0:0:
288,192,71682,1,2,0:0:0:0:
160,192,71797,1,0,0:0:0:0:
416,192,71797,1,0,0:0:0:0:
32,192,71797,1,4,0:0:0:0:
288,192,71797,1,2,0:0:0:0:
160,192,71913,1,0,0:0:0:0:
416,192,71913,1,0,0:0:0:0:
32,192,71913,1,4,0:0:0:0:
288,192,71913,1,2,0:0:0:0:
160,192,72029,1,0,0:0:0:0:
416,192,72029,1,0,0:0:0:0:
32,192,72029,1,4,0:0:0:0:
288,192,72029,1,2,0:0:0:0:
32,192,72144,1,4,0:0:0:0:
480,192,72144,1,0,0:0:0:0:
224,192,72144,1,0,0:0:0:0:
96,192,72144,1,2,0:0:0:0:
352,192,72144,1,0,0:0:0:0:
288,192,72231,1,0,0:0:0:0:
352,192,72318,1,0,0:0:0:0:
416,192,72318,1,8,1:0:0:0:
224,192,72404,1,0,0:0:0:0:
160,192,72491,1,0,0:0:0:0:
96,192,72491,1,2,0:0:0:0:
288,192,72578,1,0,0:0:0:0:
416,192,72664,1,8,1:0:0:0:
352,192,72664,1,0,0:0:0:0:
480,192,72751,1,0,0:0:0:0:
288,192,72838,1,0,0:0:0:0:
96,192,72838,1,2,0:0:0:0:
224,192,72925,1,0,0:0:0:0:
352,192,73011,1,0,0:0:0:0:
416,192,73011,1,8,1:0:0:0:
224,192,73098,1,0,0:0:0:0:
160,192,73185,1,0,0:0:0:0:
96,192,73185,1,2,0:0:0:0:
288,192,73271,1,0,0:0:0:0:
352,192,73358,1,0,0:0:0:0:
416,192,73358,1,8,1:0:0:0:
480,192,73445,1,0,0:0:0:0:
96,192,73532,1,2,0:0:0:0:
224,192,73618,1,0,0:0:0:0:
352,192,73705,1,0,0:0:0:0:
416,192,73705,1,8,1:0:0:0:
224,192,73792,1,0,0:0:0:0:
160,192,73878,1,0,0:0:0:0:
96,192,73878,1,2,0:0:0:0:
288,192,73965,1,0,0:0:0:0:
352,192,74052,1,0,0:0:0:0:
416,192,74052,1,8,1:0:0:0:
480,192,74138,1,0,0:0:0:0:
288,192,74225,1,0,0:0:0:0:
96,192,74225,1,2,0:0:0:0:
224,192,74312,1,0,0:0:0:0:
352,192,74399,1,0,0:0:0:0:
416,192,74399,1,8,1:0:0:0:
224,192,74485,1,0,0:0:0:0:
160,192,74572,1,0,0:0:0:0:
96,192,74572,1,2,0:0:0:0:
288,192,74659,1,0,0:0:0:0:
352,192,74745,1,0,0:0:0:0:
416,192,74745,1,8,1:0:0:0:
96,192,74803,1,2,0:0:0:0:
480,192,74832,1,0,0:0:0:0:
96,192,74919,1,2,0:0:0:0:
160,192,75006,1,0,0:0:0:0:
224,192,75092,1,0,0:0:0:0:
480,192,75092,1,8,1:0:0:0:
288,192,75179,1,0,0:0:0:0:
160,192,75266,1,0,0:0:0:0:
96,192,75266,1,2,0:0:0:0:
224,192,75352,1,0,0:0:0:0:
288,192,75439,1,0,0:0:0:0:
480,192,75439,1,8,1:0:0:0:
352,192,75526,1,0,0:0:0:0:
416,192,75612,1,0,0:0:0:0:
96,192,75612,1,2,0:0:0:0:
352,192,75699,1,0,0:0:0:0:
288,192,75786,1,0,0:0:0:0:
480,192,75786,1,8,1:0:0:0:
224,192,75873,1,0,0:0:0:0:
288,192,75959,1,0,0:0:0:0:
96,192,75959,1,2,0:0:0:0:
160,192,76046,1,0,0:0:0:0:
416,192,76133,1,0,0:0:0:0:
480,192,76133,1,8,1:0:0:0:
352,192,76219,1,0,0:0:0:0:
288,192,76306,1,0,0:0:0:0:
96,192,76306,1,2,0:0:0:0:
416,192,76393,1,0,0:0:0:0:
288,192,76479,1,0,0:0:0:0:
480,192,76479,1,8,1:0:0:0:
224,192,76566,1,0,0:0:0:0:
160,192,76653,1,0,0:0:0:0:
96,192,76653,1,2,0:0:0:0:
416,192,76740,1,0,0:0:0:0:
352,192,76826,1,0,0:0:0:0:
480,192,76826,1,8,1:0:0:0:
224,192,76913,1,0,0:0:0:0:
416,192,77000,1,0,0:0:0:0:
96,192,77000,1,2,0:0:0:0:
288,192,77086,1,0,0:0:0:0:
160,192,77173,1,0,0:0:0:0:
480,192,77173,1,8,1:0:0:0:
352,192,77260,1,0,0:0:0:0:
288,192,77347,1,0,0:0:0:0:
96,192,77347,1,2,0:0:0:0:
160,192,77433,1,0,0:0:0:0:
352,192,77520,1,0,0:0:0:0:
480,192,77520,1,8,1:0:0:0:
96,192,77578,1,2,0:0:0:0:
224,192,77607,1,0,0:0:0:0:
32,192,77693,1,4,0:0:0:0:
96,192,77693,1,2,1:0:0:0:
480,192,77693,1,0,0:0:0:0:
288,192,77693,1,0,0:0:0:0:
224,192,77780,1,2,1:0:0:0:
352,192,77780,1,0,0:0:0:0:
96,192,77867,1,2,1:0:0:0:
480,192,77867,1,0,0:0:0:0:
224,192,77953,1,2,1:0:0:0:
352,192,77953,1,0,0:0:0:0:
160,192,78040,1,2,1:0:0:0:
416,192,78040,1,0,0:0:0:0:
224,192,78127,1,2,1:0:0:0:
352,192,78127,1,0,0:0:0:0:
160,192,78214,1,2,1:0:0:0:
416,192,78214,1,0,0:0:0:0:
96,192,78300,1,2,1:0:0:0:
480,192,78300,1,0,0:0:0:0:
160,192,78387,1,2,1:0:0:0:
416,192,78387,1,0,0:0:0:0:
224,192,78474,1,2,1:0:0:0:
352,192,78474,1,0,0:0:0:0:
160,192,78560,1,2,1:0:0:0:
416,192,78560,1,0,0:0:0:0:
224,192,78647,1,2,1:0:0:0:
352,192,78647,1,0,0:0:0:0:
96,192,78734,1,2,1:0:0:0:
288,192,78734,1,0,0:0:0:0:
160,192,78792,1,2,1:0:0:0:
416,192,78821,1,0,0:0:0:0:
224,192,78849,1,2,1:0:0:0:
96,192,78907,1,2,1:0:0:0:
480,192,78907,1,0,0:0:0:0:
160,192,78965,1,2,1:0:0:0:
416,192,78994,1,0,0:0:0:0:
224,192,79023,1,2,1:0:0:0:
32,192,79081,1,4,0:0:0:0:
352,192,79081,1,0,0:0:0:0:
96,192,79081,1,2,0:0:0:0:
480,192,79081,1,0,0:0:0:0:
160,192,79167,1,0,0:0:0:0:
288,192,79167,1,0,0:0:0:0:
352,192,79254,1,0,0:0:0:0:
480,192,79254,1,0,0:0:0:0:
416,192,79341,1,0,0:0:0:0:
224,192,79341,1,0,0:0:0:0:
160,192,79427,1,0,0:0:0:0:
96,192,79427,1,2,0:0:0:0:
288,192,79427,1,0,0:0:0:0:
224,192,79514,1,0,0:0:0:0:
352,192,79514,1,0,0:0:0:0:
288,192,79601,1,0,0:0:0:0:
416,192,79601,1,0,0:0:0:0:
480,192,79688,1,0,0:0:0:0:
352,192,79688,1,0,0:0:0:0:
416,192,79774,1,0,0:0:0:0:
96,192,79774,1,2,0:0:0:0:
288,192,79774,1,0,0:0:0:0:
224,192,79861,1,0,0:0:0:0:
352,192,79861,1,0,0:0:0:0:
288,192,79948,1,0,0:0:0:0:
416,192,79948,1,0,0:0:0:0:
224,192,80034,1,0,0:0:0:0:
352,192,80034,1,0,0:0:0:0:
160,192,80121,1,0,0:0:0:0:
96,192,80121,1,2,0:0:0:0:
288,192,80121,1,0,0:0:0:0:
224,192,80208,1,0,0:0:0:0:
352,192,80208,1,0,0:0:0:0:
288,192,80295,1,0,0:0:0:0:
416,192,80295,1,0,0:0:0:0:
96,192,80352,1,2,0:0:0:0:
480,192,80381,1,0,0:0:0:0:
352,192,80381,1,0,0:0:0:0:
96,192,80468,1,2,0:0:0:0:
160,192,80555,1,0,0:0:0:0:
288,192,80555,1,0,0:0:0:0:
352,192,80641,1,0,0:0:0:0:
480,192,80641,1,0,0:0:0:0:
224,192,80728,1,0,0:0:0:0:
416,192,80728,1,0,0:0:0:0:
160,192,80815,1,0,0:0:0:0:
96,192,80815,1,2,0:0:0:0:
288,192,80815,1,0,0:0:0:0:
224,192,80901,1,0,0:0:0:0:
352,192,80901,1,0,0:0:0:0:
288,192,80988,1,0,0:0:0:0:
416,192,80988,1,0,0:0:0:0:
480,192,81075,1,0,0:0:0:0:
352,192,81075,1,0,0:0:0:0:
416,192,81162,1,0,0:0:0:0:
288,192,81162,1,0,0:0:0:0:
96,192,81162,1,2,0:0:0:0:
224,192,81248,1,0,0:0:0:0:
352,192,81248,1,0,0:0:0:0:
288,192,81335,1,0,0:0:0:0:
416,192,81335,1,0,0:0:0:0:
352,192,81422,1,0,0:0:0:0:
160,192,81422,1,0,0:0:0:0:
96,192,81508,1,2,0:0:0:0:
224,192,81508,1,0,0:0:0:0:
480,192,81508,1,0,0:0:0:0:
160,192,81595,1,0,0:0:0:0:
288,192,81595,1,0,0:0:0:0:
224,192,81682,1,0,0:0:0:0:
352,192,81682,1,0,0:0:0:0:
288,192,81769,1,0,0:0:0:0:
416,192,81769,1,0,0:0:0:0:
96,192,81855,1,0,0:0:0:0:
352,192,81855,1,0,0:0:0:0:
480,192,81855,1,2,0:0:0:0:
288,192,81942,1,0,0:0:0:0:
160,192,81942,1,0,0:0:0:0:
352,192,82029,1,0,0:0:0:0:
224,192,82029,1,0,0:0:0:0:
288,192,82115,1,0,0:0:0:0:
160,192,82115,1,0,0:0:0:0:
96,192,82202,1,0,0:0:0:0:
224,192,82202,1,0,0:0:0:0:
480,192,82202,1,2,0:0:0:0:
288,192,82289,1,0,0:0:0:0:
160,192,82289,1,0,0:0:0:0:
224,192,82375,1,0,0:0:0:0:
352,192,82375,1,0,0:0:0:0:
288,192,82462,1,0,0:0:0:0:
416,192,82462,1,0,0:0:0:0:
224,192,82549,1,0,0:0:0:0:
96,192,82549,1,2,0:0:0:0:
480,192,82549,1,0,0:0:0:0:
352,192,82636,1,0,0:0:0:0:
160,192,82636,1,0,0:0:0:0:
288,192,82722,1,0,0:0:0:0:
480,192,82722,1,0,0:0:0:0:
160,192,82809,1,0,0:0:0:0:
352,192,82809,1,0,0:0:0:0:
224,192,82896,1,0,0:0:0:0:
96,192,82896,1,0,0:0:0:0:
480,192,82896,1,2,0:0:0:0:
288,192,82982,1,0,0:0:0:0:
160,192,82982,1,0,0:0:0:0:
224,192,83069,1,0,0:0:0:0:
352,192,83069,1,0,0:0:0:0:
96,192,83127,1,2,0:0:0:0:
288,192,83156,1,0,0:0:0:0:
416,192,83156,1,0,0:0:0:0:
352,192,83242,1,0,0:0:0:0:
32,192,83242,1,4,0:0:0:0:
96,192,83242,1,2,0:0:0:0:
224,192,83242,1,0,0:0:0:0:
416,192,83329,1,0,0:0:0:0:
288,192,83329,1,0,0:0:0:0:
352,192,83416,1,0,0:0:0:0:
224,192,83416,1,0,0:0:0:0:
160,192,83503,1,0,0:0:0:0:
288,192,83503,1,0,0:0:0:0:
96,192,83589,1,2,0:0:0:0:
224,192,83589,1,0,0:0:0:0:
352,192,83589,1,0,0:0:0:0:
480,192,83676,1,0,0:0:0:0:
288,192,83676,1,0,0:0:0:0:
416,192,83763,1,0,0:0:0:0:
224,192,83763,1,0,0:0:0:0:
352,192,83849,1,0,0:0:0:0:
160,192,83849,1,0,0:0:0:0:
288,192,83936,1,0,0:0:0:0:
32,192,83936,1,4,0:0:0:0:
96,192,83936,1,2,0:0:0:0:
480,192,83936,1,0,0:0:0:0:
224,192,84023,1,0,0:0:0:0:
416,192,84023,1,0,0:0:0:0:
160,192,84110,1,0,0:0:0:0:
352,192,84110,1,0,0:0:0:0:
480,192,84196,1,0,0:0:0:0:
288,192,84196,1,0,0:0:0:0:
416,192,84283,1,0,0:0:0:0:
96,192,84283,1,2,0:0:0:0:
224,192,84283,1,0,0:0:0:0:
352,192,84370,1,0,0:0:0:0:
160,192,84370,1,0,0:0:0:0:
288,192,84456,1,0,0:0:0:0:
480,192,84456,1,0,0:0:0:0:
96,192,84514,1,2,0:0:0:0:
416,192,84543,1,0,0:0:0:0:
224,192,84543,1,0,0:0:0:0:
160,192,84630,1,0,0:0:0:0:
32,192,84630,1,4,0:0:0:0:
96,192,84630,1,2,0:0:0:0:
352,192,84630,1,0,0:0:0:0:
288,192,84716,1,0,0:0:0:0:
416,192,84716,1,0,0:0:0:0:
224,192,84803,1,0,0:0:0:0:
352,192,84803,1,0,0:0:0:0:
288,192,84890,1,0,0:0:0:0:
160,192,84890,1,0,0:0:0:0:
32,192,84977,1,4,0:0:0:0:
96,192,84977,1,2,0:0:0:0:
352,192,84977,1,0,0:0:0:0:
224,192,85063,1,0,0:0:0:0:
416,192,85063,1,0,0:0:0:0:
480,192,85150,1,0,0:0:0:0:
288,192,85150,1,0,0:0:0:0:
416,192,85237,1,0,0:0:0:0:
224,192,85237,1,0,0:0:0:0:
352,192,85323,1,0,0:0:0:0:
32,192,85323,1,4,0:0:0:0:
96,192,85323,1,2,0:0:0:0:
160,192,85323,1,0,0:0:0:0:
288,192,85410,1,0,0:0:0:0:
480,192,85410,1,0,0:0:0:0:
96,192,85439,1,2,0:0:0:0:
32,192,85439,1,4,0:0:0:0:
224,192,85497,1,0,0:0:0:0:
416,192,85497,1,0,0:0:0:0:
96,192,85555,1,2,0:0:0:0:
32,192,85555,1,4,0:0:0:0:
160,192,85584,1,0,0:0:0:0:
352,192,85584,1,0,0:0:0:0:
32,192,85670,1,4,0:0:0:0:
96,192,85670,1,2,0:0:0:0:
288,192,85670,1,0,0:0:0:0:
480,192,85670,1,0,0:0:0:0:
416,192,85757,1,0,0:0:0:0:
224,192,85757,1,0,0:0:0:0:
32,192,85786,1,4,0:0:0:0:
96,192,85786,1,2,0:0:0:0:
160,192,85844,1,0,0:0:0:0:
352,192,85844,1,0,0:0:0:0:
32,192,85901,1,4,0:0:0:0:
96,192,85901,1,2,0:0:0:0:
480,192,85930,1,0,0:0:0:0:
288,192,85930,1,0,0:0:0:0:
32,192,86017,1,4,0:0:0:0:
224,192,86017,1,0,0:0:0:0:
416,192,86017,1,0,0:0:0:0:
96,192,86017,1,2,0:0:0:0:
480,192,86190,1,0,0:0:0:0:
416,192,86277,1,0,0:0:0:0:
352,192,86364,1,0,0:0:0:0:
288,192,86451,1,0,0:0:0:0:
224,192,86537,1,0,0:0:0:0:
160,192,86624,1,0,0:0:0:0:
32,192,86711,1,4,0:0:0:0:
96,192,86711,1,0,0:0:0:0:
480,192,86711,1,0,0:0:0:0:
288,192,86711,1,0,0:0:0:0:
224,192,86711,1,2,1:0:0:0:
352,192,86711,1,0,0:0:0:0:
416,192,86797,1,0,0:0:0:0:
160,192,86826,1,2,1:0:0:0:
352,192,86884,1,0,0:0:0:0:
96,192,86942,1,2,1:0:0:0:
288,192,86971,1,0,0:0:0:0:
224,192,87058,1,0,0:0:0:0:
416,192,87058,1,2,1:0:0:0:
160,192,87144,1,0,0:0:0:0:
352,192,87173,1,2,1:0:0:0:
96,192,87231,1,0,0:0:0:0:
288,192,87289,1,2,1:0:0:0:
480,192,87318,1,0,0:0:0:0:
416,192,87404,1,0,0:0:0:0:
224,192,87404,1,2,1:0:0:0:
352,192,87491,1,0,0:0:0:0:
160,192,87491,1,2,1:0:0:0:
288,192,87578,1,0,0:0:0:0:
96,192,87578,1,2,1:0:0:0:
224,192,87664,1,0,0:0:0:0:
480,192,87664,1,2,1:0:0:0:
160,192,87751,1,0,0:0:0:0:
416,192,87751,1,2,1:0:0:0:
96,192,87838,1,0,0:0:0:0:
352,192,87838,1,2,1:0:0:0:
480,192,87925,1,0,0:0:0:0:
288,192,87925,1,2,1:0:0:0:
416,192,88011,1,0,0:0:0:0:
224,192,88011,1,2,1:0:0:0:
352,192,88098,1,0,0:0:0:0:
160,192,88098,1,2,1:0:0:0:
96,192,88156,1,2,1:0:0:0:
288,192,88185,1,0,0:0:0:0:
480,192,88214,1,2,1:0:0:0:
160,192,88271,1,0,0:0:0:0:
416,192,88271,1,2,1:0:0:0:
352,192,88329,1,2,1:0:0:0:
96,192,88358,1,0,0:0:0:0:
288,192,88387,1,2,1:0:0:0:
416,192,88445,1,0,0:0:0:0:
224,192,88445,1,2,1:0:0:0:
160,192,88503,1,2,1:0:0:0:
352,192,88532,1,0,0:0:0:0:
96,192,88560,1,2,1:0:0:0:
288,192,88618,1,0,0:0:0:0:
480,192,88618,1,2,1:0:0:0:
416,192,88676,1,2,1:0:0:0:
224,192,88705,1,0,0:0:0:0:
352,192,88734,1,2,1:0:0:0:
32,192,88792,1,4,0:0:0:0:
96,192,88792,1,2,0:0:0:0:
480,192,88792,1,0,0:0:0:0:
160,192,88792,1,0,0:0:0:0:
288,192,88792,1,2,1:0:0:0:
32,192,89138,1,4,0:0:0:0:
416,192,89138,1,0,0:0:0:0:
96,192,89138,1,2,0:0:0:0:
352,192,89225,1,0,0:0:0:0:
480,192,89312,1,0,0:0:0:0:
416,192,89399,1,0,0:0:0:0:
32,192,89485,1,4,0:0:0:0:
288,192,89485,1,0,0:0:0:0:
96,192,89485,1,2,0:0:0:0:
224,192,89572,1,0,0:0:0:0:
352,192,89659,1,0,0:0:0:0:
288,192,89745,1,0,0:0:0:0:
32,192,89832,1,4,0:0:0:0:
160,192,89832,1,0,0:0:0:0:
96,192,89832,1,2,0:0:0:0:
352,192,89919,1,0,0:0:0:0:
416,192,90006,1,0,0:0:0:0:
224,192,90092,1,0,0:0:0:0:
32,192,90179,1,4,0:0:0:0:
288,192,90179,1,0,0:0:0:0:
480,192,90179,1,2,0:0:0:0:
160,192,90266,1,0,0:0:0:0:
224,192,90352,1,0,0:0:0:0:
96,192,90439,1,0,0:0:0:0:
32,192,90526,1,4,0:0:0:0:
352,192,90526,1,0,0:0:0:0:
480,192,90526,1,2,0:0:0:0:
288,192,90612,1,0,0:0:0:0:
416,192,90699,1,0,0:0:0:0:
352,192,90786,1,0,0:0:0:0:
32,192,90873,1,4,0:0:0:0:
288,192,90873,1,0,0:0:0:0:
480,192,90873,1,2,0:0:0:0:
224,192,90959,1,0,0:0:0:0:
352,192,91046,1,0,0:0:0:0:
288,192,91133,1,0,0:0:0:0:
32,192,91219,1,4,0:0:0:0:
224,192,91219,1,0,0:0:0:0:
480,192,91219,1,2,0:0:0:0:
160,192,91306,1,0,0:0:0:0:
32,192,91393,1,4,0:0:0:0:
288,192,91393,1,0,0:0:0:0:
480,192,91393,1,2,0:0:0:0:
224,192,91479,1,0,0:0:0:0:
32,192,91566,1,4,0:0:0:0:
160,192,91566,1,0,0:0:0:0:
480,192,91566,1,2,0:0:0:0:
96,192,91653,1,0,0:0:0:0:
32,192,91740,1,4,0:0:0:0:
288,192,91740,1,0,0:0:0:0:
480,192,91740,1,2,0:0:0:0:
160,192,91826,1,0,0:0:0:0:
32,192,91913,1,4,0:0:0:0:
352,192,91913,1,0,0:0:0:0:
480,192,91913,1,2,0:0:0:0:
224,192,92000,1,0,0:0:0:0:
416,192,92086,1,0,0:0:0:0:
160,192,92173,1,0,0:0:0:0:
32,192,92260,1,4,0:0:0:0:
352,192,92260,1,0,0:0:0:0:
480,192,92260,1,2,0:0:0:0:
224,192,92347,1,0,0:0:0:0:
416,192,92433,1,0,0:0:0:0:
160,192,92520,1,0,0:0:0:0:
32,192,92607,1,4,0:0:0:0:
288,192,92607,1,0,0:0:0:0:
480,192,92607,1,2,0:0:0:0:
224,192,92693,1,0,0:0:0:0:
416,192,92780,1,0,0:0:0:0:
160,192,92867,1,0,0:0:0:0:
32,192,92953,1,4,0:0:0:0:
352,192,92953,1,0,0:0:0:0:
96,192,92953,1,2,0:0:0:0:
224,192,93040,1,0,0:0:0:0:
416,192,93127,1,0,0:0:0:0:
160,192,93214,1,0,0:0:0:0:
32,192,93300,1,4,0:0:0:0:
352,192,93300,1,0,0:0:0:0:
96,192,93300,1,2,0:0:0:0:
160,192,93387,1,0,0:0:0:0:
224,192,93474,1,0,0:0:0:0:
480,192,93474,1,0,0:0:0:0:
416,192,93517,1,0,0:0:0:0:
160,192,93560,1,0,0:0:0:0:
352,192,93560,1,0,0:0:0:0:
288,192,93604,1,0,0:0:0:0:
32,192,93647,1,4,0:0:0:0:
480,192,93647,1,0,0:0:0:0:
96,192,93647,1,2,0:0:0:0:
352,192,93734,1,0,0:0:0:0:
416,192,93821,1,0,0:0:0:0:
96,192,93821,1,2,1:0:0:0:
160,192,93864,1,2,1:0:0:0:
224,192,93907,1,2,1:0:0:0:
352,192,93907,1,0,0:0:0:0:
288,192,93951,1,2,1:0:0:0:
416,192,93994,1,0,0:0:0:0:
96,192,93994,1,2,1:0:0:0:
352,192,94081,1,0,0:0:0:0:
224,192,94081,1,2,1:0:0:0:
480,192,94167,1,0,0:0:0:0:
96,192,94167,1,2,1:0:0:0:
160,192,94211,1,2,1:0:0:0:
352,192,94254,1,0,0:0:0:0:
224,192,94254,1,2,0:0:0:0:
288,192,94297,1,2,0:0:0:0:
32,192,94341,1,4,0:0:0:0:
480,192,94341,1,0,0:0:0:0:
416,192,94341,1,0,0:0:0:0:
160,192,94427,1,0,0:0:0:0:
96,192,94427,1,0,0:0:0:0:
288,192,94514,1,0,0:0:0:0:
352,192,94514,1,0,0:0:0:0:
224,192,94601,1,0,0:0:0:0:
160,192,94601,1,0,0:0:0:0:
352,192,94688,1,0,0:0:0:0:
416,192,94688,1,0,0:0:0:0:
480,192,94688,1,8,0:0:0:0:
288,192,94774,1,0,0:0:0:0:
160,192,94774,1,0,0:0:0:0:
416,192,94861,1,0,0:0:0:0:
480,192,94861,1,0,0:0:0:0:
224,192,94948,1,0,0:0:0:0:
288,192,94948,1,0,0:0:0:0:
352,192,95034,1,0,0:0:0:0:
416,192,95034,1,0,0:0:0:0:
160,192,95121,1,0,0:0:0:0:
288,192,95121,1,0,0:0:0:0:
416,192,95208,1,0,0:0:0:0:
480,192,95208,1,0,0:0:0:0:
96,192,95295,1,0,0:0:0:0:
224,192,95295,1,0,0:0:0:0:
352,192,95381,1,0,0:0:0:0:
288,192,95381,1,0,0:0:0:0:
480,192,95381,1,8,0:0:0:0:
160,192,95468,1,0,0:0:0:0:
224,192,95468,1,0,0:0:0:0:
352,192,95555,1,0,0:0:0:0:
416,192,95555,1,0,0:0:0:0:
160,192,95641,1,0,0:0:0:0:
96,192,95641,1,0,0:0:0:0:
288,192,95728,1,0,0:0:0:0:
352,192,95728,1,0,0:0:0:0:
160,192,95815,1,0,0:0:0:0:
224,192,95815,1,0,0:0:0:0:
352,192,95901,1,0,0:0:0:0:
416,192,95901,1,0,0:0:0:0:
160,192,95988,1,0,0:0:0:0:
96,192,95988,1,0,0:0:0:0:
416,192,96075,1,0,0:0:0:0:
480,192,96075,1,8,0:0:0:0:
288,192,96075,1,0,0:0:0:0:
96,192,96162,1,0,0:0:0:0:
224,192,96162,1,0,0:0:0:0:
352,192,96248,1,0,0:0:0:0:
480,192,96248,1,0,0:0:0:0:
160,192,96335,1,0,0:0:0:0:
96,192,96335,1,0,0:0:0:0:
416,192,96422,1,0,0:0:0:0:
288,192,96422,1,0,0:0:0:0:
160,192,96508,1,0,0:0:0:0:
224,192,96508,1,0,0:0:0:0:
352,192,96595,1,0,0:0:0:0:
416,192,96595,1,0,0:0:0:0:
96,192,96682,1,0,0:0:0:0:
160,192,96682,1,0,0:0:0:0:
416,192,96769,1,0,0:0:0:0:
288,192,96769,1,0,0:0:0:0:
480,192,96769,1,8,0:0:0:0:
96,192,96855,1,0,0:0:0:0:
224,192,96855,1,0,0:0:0:0:
416,192,96942,1,0,0:0:0:0:
288,192,96942,1,0,0:0:0:0:
160,192,97029,1,0,0:0:0:0:
96,192,97029,1,0,0:0:0:0:
480,192,97115,1,0,0:0:0:0:
352,192,97115,1,0,0:0:0:0:
160,192,97202,1,0,0:0:0:0:
96,192,97202,1,0,0:0:0:0:
288,192,97289,1,0,0:0:0:0:
352,192,97289,1,0,0:0:0:0:
224,192,97375,1,0,0:0:0:0:
160,192,97375,1,0,0:0:0:0:
352,192,97462,1,0,0:0:0:0:
416,192,97462,1,0,0:0:0:0:
480,192,97462,1,8,0:0:0:0:
288,192,97549,1,0,0:0:0:0:
160,192,97549,1,0,0:0:0:0:
416,192,97636,1,0,0:0:0:0:
480,192,97636,1,0,0:0:0:0:
224,192,97722,1,0,0:0:0:0:
288,192,97722,1,0,0:0:0:0:
352,192,97809,1,0,0:0:0:0:
416,192,97809,1,0,0:0:0:0:
160,192,97896,1,0,0:0:0:0:
288,192,97896,1,0,0:0:0:0:
416,192,97982,1,0,0:0:0:0:
480,192,97982,1,0,0:0:0:0:
96,192,98069,1,0,0:0:0:0:
224,192,98069,1,0,0:0:0:0:
352,192,98156,1,0,0:0:0:0:
288,192,98156,1,0,0:0:0:0:
480,192,98156,1,8,0:0:0:0:
160,192,98242,1,0,0:0:0:0:
224,192,98242,1,0,0:0:0:0:
352,192,98329,1,0,0:0:0:0:
416,192,98329,1,0,0:0:0:0:
160,192,98416,1,0,0:0:0:0:
96,192,98416,1,0,0:0:0:0:
288,192,98503,1,0,0:0:0:0:
352,192,98503,1,0,0:0:0:0:
160,192,98589,1,0,0:0:0:0:
224,192,98589,1,0,0:0:0:0:
352,192,98676,1,0,0:0:0:0:
416,192,98676,1,0,0:0:0:0:
160,192,98763,1,0,0:0:0:0:
96,192,98763,1,0,0:0:0:0:
416,192,98849,1,0,0:0:0:0:
480,192,98849,1,8,0:0:0:0:
288,192,98849,1,0,0:0:0:0:
96,192,98936,1,0,0:0:0:0:
224,192,98936,1,0,0:0:0:0:
352,192,99023,1,0,0:0:0:0:
480,192,99023,1,0,0:0:0:0:
160,192,99110,1,0,0:0:0:0:
96,192,99110,1,0,0:0:0:0:
416,192,99196,1,0,0:0:0:0:
288,192,99196,1,0,0:0:0:0:
160,192,99283,1,0,0:0:0:0:
224,192,99283,1,0,0:0:0:0:
352,192,99370,1,0,0:0:0:0:
416,192,99370,1,0,0:0:0:0:
96,192,99456,1,0,0:0:0:0:
160,192,99456,1,0,0:0:0:0:
416,192,99543,1,0,0:0:0:0:
288,192,99543,1,0,0:0:0:0:
480,192,99543,1,8,0:0:0:0:
96,192,99630,1,0,0:0:0:0:
224,192,99630,1,0,0:0:0:0:
416,192,99716,1,0,0:0:0:0:
288,192,99716,1,0,0:0:0:0:
160,192,99803,1,0,0:0:0:0:
96,192,99803,1,0,0:0:0:0:
480,192,99890,1,0,0:0:0:0:
352,192,99890,1,0,0:0:0:0:
96,192,99977,1,0,0:0:0:0:
224,192,99977,1,0,0:0:0:0:
288,192,100063,1,0,0:0:0:0:
416,192,100063,1,0,0:0:0:0:
160,192,100150,1,0,0:0:0:0:
96,192,100150,1,0,0:0:0:0:
288,192,100237,1,0,0:0:0:0:
416,192,100237,1,0,0:0:0:0:
480,192,100237,1,8,0:0:0:0:
352,192,100323,1,0,0:0:0:0:
224,192,100323,1,0,0:0:0:0:
288,192,100410,1,0,0:0:0:0:
480,192,100410,1,0,0:0:0:0:
160,192,100497,1,0,0:0:0:0:
352,192,100497,1,0,0:0:0:0:
288,192,100584,1,0,0:0:0:0:
96,192,100584,1,0,0:0:0:0:
352,192,100670,1,0,0:0:0:0:
160,192,100670,1,0,0:0:0:0:
224,192,100757,1,0,0:0:0:0:
416,192,100757,1,0,0:0:0:0:
96,192,100844,1,0,0:0:0:0:
160,192,100844,1,0,0:0:0:0:
288,192,100930,1,0,0:0:0:0:
416,192,100930,1,0,0:0:0:0:
480,192,100930,1,8,0:0:0:0:
224,192,101017,1,0,0:0:0:0:
352,192,101017,1,0,0:0:0:0:
288,192,101104,1,0,0:0:0:0:
480,192,101104,1,0,0:0:0:0:
352,192,101190,1,0,0:0:0:0:
160,192,101190,1,0,0:0:0:0:
288,192,101277,1,0,0:0:0:0:
96,192,101277,1,0,0:0:0:0:
160,192,101364,1,0,0:0:0:0:
352,192,101364,1,0,0:0:0:0:
224,192,101451,1,0,0:0:0:0:
416,192,101451,1,0,0:0:0:0:
160,192,101537,1,0,0:0:0:0:
96,192,101537,1,0,0:0:0:0:
416,192,101624,1,0,0:0:0:0:
288,192,101624,1,0,0:0:0:0:
480,192,101624,1,8,0:0:0:0:
352,192,101711,1,0,0:0:0:0:
224,192,101711,1,0,0:0:0:0:
480,192,101797,1,0,0:0:0:0:
288,192,101797,1,0,0:0:0:0:
160,192,101884,1,0,0:0:0:0:
352,192,101884,1,0,0:0:0:0:
96,192,101971,1,0,0:0:0:0:
288,192,101971,1,0,0:0:0:0:
352,192,102058,1,0,0:0:0:0:
160,192,102058,1,0,0:0:0:0:
416,192,102144,1,0,0:0:0:0:
224,192,102144,1,0,0:0:0:0:
96,192,102231,1,0,0:0:0:0:
160,192,102231,1,0,0:0:0:0:
288,192,102318,1,0,0:0:0:0:
416,192,102318,1,0,0:0:0:0:
480,192,102318,1,8,0:0:0:0:
224,192,102404,1,0,0:0:0:0:
352,192,102404,1,0,0:0:0:0:
288,192,102491,1,0,0:0:0:0:
480,192,102491,1,0,0:0:0:0:
352,192,102578,1,0,0:0:0:0:
160,192,102578,1,0,0:0:0:0:
224,192,102664,1,0,0:0:0:0:
288,192,102664,1,2,1:0:0:0:
160,192,102751,1,0,0:0:0:0:
416,192,102780,1,2,1:0:0:0:
288,192,102838,1,0,0:0:0:0:
480,192,102896,1,2,1:0:0:0:
96,192,102925,1,0,0:0:0:0:
352,192,103011,1,0,0:0:0:0:
224,192,103011,1,2,1:0:0:0:
288,192,103098,1,0,0:0:0:0:
160,192,103127,1,2,1:0:0:0:
416,192,103185,1,0,0:0:0:0:
96,192,103242,1,2,1:0:0:0:
224,192,103271,1,0,0:0:0:0:
288,192,103358,1,0,0:0:0:0:
352,192,103358,1,2,1:0:0:0:
160,192,103445,1,0,0:0:0:0:
416,192,103474,1,2,1:0:0:0:
288,192,103532,1,0,0:0:0:0:
480,192,103589,1,2,1:0:0:0:
96,192,103618,1,0,0:0:0:0:
352,192,103705,1,0,0:0:0:0:
224,192,103705,1,2,1:0:0:0:
288,192,103792,1,0,0:0:0:0:
160,192,103821,1,2,1:0:0:0:
416,192,103878,1,0,0:0:0:0:
96,192,103936,1,2,1:0:0:0:
224,192,103965,1,0,0:0:0:0:
288,192,104052,1,0,0:0:0:0:
352,192,104052,1,2,1:0:0:0:
160,192,104138,1,0,0:0:0:0:
416,192,104138,1,2,1:0:0:0:
288,192,104225,1,0,0:0:0:0:
480,192,104225,1,2,1:0:0:0:
96,192,104312,1,0,0:0:0:0:
416,192,104312,1,2,1:0:0:0:
352,192,104399,1,0,0:0:0:0:
224,192,104399,1,2,1:0:0:0:
288,192,104485,1,0,0:0:0:0:
160,192,104485,1,2,1:0:0:0:
416,192,104572,1,0,0:0:0:0:
96,192,104572,1,2,1:0:0:0:
224,192,104659,1,0,0:0:0:0:
160,192,104659,1,2,1:0:0:0:
288,192,104745,1,0,0:0:0:0:
352,192,104745,1,2,1:0:0:0:
416,192,104803,1,2,1:0:0:0:
160,192,104832,1,0,0:0:0:0:
480,192,104861,1,2,1:0:0:0:
288,192,104919,1,0,0:0:0:0:
352,192,104919,1,2,1:0:0:0:
416,192,104977,1,2,1:0:0:0:
96,192,105006,1,0,0:0:0:0:
480,192,105034,1,2,1:0:0:0:
352,192,105092,1,0,0:0:0:0:
224,192,105092,1,2,1:0:0:0:
160,192,105150,1,2,1:0:0:0:
288,192,105179,1,0,0:0:0:0:
96,192,105208,1,2,1:0:0:0:
416,192,105266,1,0,0:0:0:0:
224,192,105266,1,2,1:0:0:0:
160,192,105323,1,2,1:0:0:0:
352,192,105352,1,0,0:0:0:0:
96,192,105381,1,2,1:0:0:0:
32,192,105439,5,4,0:0:0:0:
160,192,105439,1,2,0:0:0:0:
224,192,105439,1,0,0:0:0:0:
416,192,105439,1,0,0:0:0:0:
288,192,105439,1,0,0:0:0:0:
352,192,105526,1,0,0:0:0:0:
480,192,105612,1,8,1:0:0:0:
416,192,105612,1,0,0:0:0:0:
288,192,105699,1,0,0:0:0:0:
96,192,105786,1,2,0:0:0:0:
352,192,105786,1,8,0:0:0:0:
224,192,105786,1,0,0:0:0:0:
288,192,105873,1,0,0:0:0:0:
480,192,105959,1,8,1:0:0:0:
416,192,105959,1,0,0:0:0:0:
160,192,106017,1,2,0:0:0:0:
352,192,106046,1,0,0:0:0:0:
96,192,106133,1,2,0:0:0:0:
224,192,106133,1,0,0:0:0:0:
352,192,106219,1,0,0:0:0:0:
480,192,106306,1,8,1:0:0:0:
416,192,106306,1,0,0:0:0:0:
288,192,106393,1,0,0:0:0:0:
96,192,106479,1,2,0:0:0:0:
352,192,106479,1,8,0:0:0:0:
224,192,106479,1,0,0:0:0:0:
288,192,106566,1,0,0:0:0:0:
480,192,106653,1,8,1:0:0:0:
416,192,106653,1,0,0:0:0:0:
352,192,106740,1,0,0:0:0:0:
96,192,106826,1,2,0:0:0:0:
224,192,106826,1,0,0:0:0:0:
352,192,106913,1,0,0:0:0:0:
416,192,107000,1,8,1:0:0:0:
288,192,107000,1,0,0:0:0:0:
160,192,107086,1,0,0:0:0:0:
96,192,107173,1,2,0:0:0:0:
288,192,107173,1,8,0:0:0:0:
224,192,107173,1,0,0:0:0:0:
352,192,107260,1,0,0:0:0:0:
416,192,107347,1,8,1:0:0:0:
480,192,107347,1,0,0:0:0:0:
160,192,107433,1,0,0:0:0:0:
96,192,107520,1,2,0:0:0:0:
224,192,107520,1,0,0:0:0:0:
352,192,107607,1,0,0:0:0:0:
416,192,107693,1,8,1:0:0:0:
288,192,107693,1,0,0:0:0:0:
160,192,107780,1,0,0:0:0:0:
96,192,107867,1,2,0:0:0:0:
288,192,107867,1,8,0:0:0:0:
224,192,107867,1,0,0:0:0:0:
352,192,107953,1,0,0:0:0:0:
416,192,108040,1,8,1:0:0:0:
480,192,108040,1,0,0:0:0:0:
160,192,108098,1,2,0:0:0:0:
224,192,108127,1,0,0:0:0:0:
32,192,108214,1,4,1:0:0:0:
96,192,108214,1,2,0:0:0:0:
480,192,108214,1,0,0:0:0:0:
288,192,108214,1,0,0:0:0:0:
352,192,108387,1,8,1:0:0:0:
288,192,108474,1,0,0:0:0:0:
96,192,108560,1,2,0:0:0:0:
224,192,108560,1,8,0:0:0:0:
480,192,108560,1,0,0:0:0:0:
352,192,108734,1,8,1:0:0:0:
160,192,108821,1,0,0:0:0:0:
96,192,108907,1,2,0:0:0:0:
480,192,108907,1,0,0:0:0:0:
352,192,109081,1,8,1:0:0:0:
288,192,109167,1,0,0:0:0:0:
96,192,109254,1,2,0:0:0:0:
224,192,109254,1,8,0:0:0:0:
480,192,109254,1,0,0:0:0:0:
352,192,109427,1,8,1:0:0:0:
160,192,109514,1,0,0:0:0:0:
288,192,109601,128,0,110295:0:0:0:0:
96,192,109601,1,2,0:0:0:0:
224,192,109601,1,0,0:0:0:0:
160,192,109774,1,8,1:0:0:0:
96,192,109948,1,2,0:0:0:0:
224,192,109948,1,0,0:0:0:0:
480,192,109948,1,8,0:0:0:0:
160,192,110121,1,8,1:0:0:0:
96,192,110295,1,2,0:0:0:0:
352,192,110295,128,0,110641:0:0:0:0:
224,192,110295,1,0,0:0:0:0:
160,192,110468,1,8,1:0:0:0:
96,192,110641,1,2,0:0:0:0:
416,192,110641,128,0,110988:0:0:0:0:
480,192,110641,1,8,0:0:0:0:
224,192,110641,1,0,0:0:0:0:
160,192,110815,1,8,1:0:0:0:
32,192,110988,1,4,1:0:0:0:
352,192,110988,128,0,112375:0:0:0:0:
96,192,110988,1,2,0:0:0:0:
224,192,110988,1,0,0:0:0:0:
288,192,111162,1,8,1:0:0:0:
96,192,111335,1,2,0:0:0:0:
480,192,111335,1,8,0:0:0:0:
224,192,111335,1,0,0:0:0:0:
288,192,111508,1,8,1:0:0:0:
96,192,111682,1,2,0:0:0:0:
224,192,111682,1,0,0:0:0:0:
288,192,111855,1,8,1:0:0:0:
96,192,112029,1,2,0:0:0:0:
480,192,112029,1,8,0:0:0:0:
224,192,112029,1,0,0:0:0:0:
288,192,112202,1,8,1:0:0:0:
160,192,112260,1,2,0:0:0:0:
480,192,112375,128,0,113763:0:0:0:0:
96,192,112375,1,2,0:0:0:0:
224,192,112375,1,0,0:0:0:0:
352,192,112549,1,8,1:0:0:0:
96,192,112722,1,2,0:0:0:0:
288,192,112722,1,8,0:0:0:0:
224,192,112722,1,0,0:0:0:0:
352,192,112896,1,8,1:0:0:0:
96,192,113069,1,2,0:0:0:0:
224,192,113069,1,0,0:0:0:0:
288,192,113185,1,8,0:0:0:0:
352,192,113242,1,8,1:0:0:0:
96,192,113416,1,2,0:0:0:0:
288,192,113416,1,8,0:0:0:0:
32,192,113416,1,4,0:0:0:0:
224,192,113416,1,0,0:0:0:0:
352,192,113589,1,8,1:0:0:0:
96,192,113647,1,2,0:0:0:0:
32,192,113763,1,4,0:0:0:0:
352,192,113763,128,0,114456:0:0:0:0:
96,192,113763,1,2,0:0:0:0:
160,192,113763,1,0,0:0:0:0:
416,192,113763,1,0,0:0:0:0:
224,192,113936,1,8,1:0:0:0:
96,192,114110,1,2,0:0:0:0:
480,192,114110,1,8,0:0:0:0:
416,192,114110,1,0,0:0:0:0:
224,192,114283,1,8,1:0:0:0:
288,192,114456,128,0,115150:0:0:0:0:
96,192,114456,1,2,0:0:0:0:
416,192,114456,1,0,0:0:0:0:
224,192,114630,1,8,1:0:0:0:
96,192,114803,1,2,0:0:0:0:
480,192,114803,1,8,0:0:0:0:
416,192,114803,1,0,0:0:0:0:
224,192,114977,1,8,1:0:0:0:
224,192,115150,128,0,115844:0:0:0:0:
96,192,115150,1,2,0:0:0:0:
352,192,115150,1,0,0:0:0:0:
160,192,115323,1,8,1:0:0:0:
96,192,115497,1,2,0:0:0:0:
480,192,115497,1,8,0:0:0:0:
352,192,115497,1,0,0:0:0:0:
160,192,115670,1,8,1:0:0:0:
96,192,115844,1,2,0:0:0:0:
416,192,115844,128,0,116190:0:0:0:0:
288,192,115844,1,0,0:0:0:0:
160,192,116017,1,8,1:0:0:0:
96,192,116190,1,2,0:0:0:0:
352,192,116190,128,0,116537:0:0:0:0:
480,192,116190,1,8,0:0:0:0:
288,192,116190,1,0,0:0:0:0:
160,192,116364,1,8,1:0:0:0:
480,192,116422,1,2,0:0:0:0:
32,192,116537,1,4,1:0:0:0:
96,192,116537,1,0,0:0:0:0:
480,192,116537,1,2,0:0:0:0:
224,192,116537,128,0,118310:0:0:0:0:
352,192,116745,1,8,1:0:0:0:
480,192,116953,1,2,0:0:0:0:
288,192,116953,1,8,0:0:0:0:
96,192,116953,1,0,0:0:0:0:
352,192,117162,1,8,1:0:0:0:
96,192,117387,1,0,0:0:0:0:
480,192,117387,1,2,0:0:0:0:
352,192,117617,1,8,1:0:0:0:
480,192,117848,1,2,0:0:0:0:
288,192,117848,1,8,0:0:0:0:
96,192,117848,1,0,0:0:0:0:
352,192,118079,1,8,1:0:0:0:
32,192,118310,1,4,1:0:0:0:
416,192,118310,1,0,0:0:0:0:
160,192,118310,128,0,121089:0:0:0:0:
288,192,118451,1,0,0:0:0:0:
480,192,118593,1,0,0:0:0:0:
224,192,118734,1,0,0:0:0:0:
416,192,118896,1,0,0:0:0:0:
288,192,119046,1,0,0:0:0:0:
480,192,119196,1,0,0:0:0:0:
224,192,119346,1,0,0:0:0:0:
416,192,119496,1,0,0:0:0:0:
288,192,119659,1,0,0:0:0:0:
480,192,119822,1,0,0:0:0:0:
224,192,120009,1,0,0:0:0:0:
416,192,120197,1,0,0:0:0:0:
288,192,120405,1,0,0:0:0:0:
480,192,120613,1,0,0:0:0:0:
224,192,120851,1,0,0:0:0:0:
32,192,121089,1,4,1:0:0:0:
288,192,121089,1,0,0:0:0:0:
96,192,121089,128,0,126088:0:0:0:0:
352,192,121193,1,0,0:0:0:0:
416,192,121297,1,0,0:0:0:0:
480,192,121401,1,0,0:0:0:0:
32,192,126088,128,4,131305:1:0:0:0:
480,192,126088,1,0,0:0:0:0:
416,192,126088,1,0,0:0:0:0:
288,192,126251,1,0,0:0:0:0:
352,192,126332,1,0,0:0:0:0:
