osu file format v14

[General]
AudioFilename: f_0.mp3
AudioLeadIn: 0
PreviewTime: 16653
Countdown: 0
SampleSet: Soft
StackLeniency: 0.7
Mode: 3
LetterboxInBreaks: 0
SpecialStyle: 1
WidescreenStoryboard: 0

[Editor]
DistanceSpacing: 0.85
BeatDivisor: 4
GridSize: 32
TimelineZoom: 1.4

[Metadata]
Title:F
TitleUnicode:F
Artist:xi
ArtistUnicode:xi
Creator:pwhk
Version:N
Source:
Tags:respect for F.F.Chopin Fantaisie Impromptu Op.66 Frédéric François Fantasy
BeatmapID:985139
BeatmapSetID:459899

[Difficulty]
HPDrainRate:7
CircleSize:8
OverallDifficulty:7
ApproachRate:6
SliderMultiplier:1.4
SliderTickRate:1

[Events]
//Background and Video events
0,0,"f.jpg",0,0
//Break Periods
//Storyboard Layer 0 (Background)
//Storyboard Layer 1 (Fail)
//Storyboard Layer 2 (Pass)
//Storyboard Layer 3 (Foreground)
//Storyboard Sound Samples

[TimingPoints]
6,346.820809248555,4,2,1,15,1,0
11104,-100,4,2,1,35,0,1
27751,-100,4,2,1,35,0,0
69370,-100,4,2,1,35,0,1
94341,-100,4,2,1,35,0,0
116537,416.666666666667,4,2,1,20,1,0
116537,-83.2369942196531,4,2,1,20,0,0
117387,461.538461538462,4,2,1,20,1,0
117387,-75.1445086705202,4,2,1,20,0,0
118310,566.037735849057,4,2,1,20,1,0
118310,-61.271676300578,4,2,1,20,0,0
118896,600,4,2,1,20,1,0
118896,-57.8034682080925,4,2,1,20,0,0
119496,652.173913043478,4,2,1,20,1,0
119496,-53.1791907514451,4,2,1,20,0,0
119822,750,4,2,1,20,1,0
119822,-46.242774566474,4,2,1,20,0,0
120197,833.333333333333,4,2,1,20,1,0
120197,-41.6184971098266,4,2,1,20,0,0
120613,952.380952380952,4,2,1,20,1,0
120613,-36.4161849710983,4,2,1,20,0,0
121089,1250,4,2,1,20,1,0
121089,-27.7456647398844,4,2,1,20,0,0
126088,1304.34782608696,4,2,1,20,1,0
126088,-26.5895953757225,4,2,1,20,0,0

[HitObjects]
96,192,6,5,0,0:0:0:0:
32,192,6,1,4,0:0:0:0:
480,192,1393,1,0,0:0:0:0:
160,192,2780,1,0,0:0:0:0:
480,192,4167,1,0,0:0:0:0:
96,192,5555,1,0,0:0:0:0:
32,192,5555,1,4,0:0:0:0:
480,192,6942,1,0,0:0:0:0:
160,192,8329,1,0,0:0:0:0:
416,192,8329,1,0,0:0:0:0:
480,192,9716,1,0,0:0:0:0:
32,192,10410,1,2,0:0:0:0:
96,192,11104,1,0,0:0:0:0:
32,192,11104,1,4,0:0:0:0:
480,192,11451,1,0,0:0:0:0:
32,192,11451,1,4,0:0:0:0:
96,192,11797,1,0,0:0:0:0:
32,192,11797,1,4,0:0:0:0:
480,192,12144,1,0,0:0:0:0:
32,192,12144,1,4,0:0:0:0:
160,192,12491,1,0,0:0:0:0:
32,192,12491,1,4,0:0:0:0:
416,192,12838,1,0,0:0:0:0:
32,192,12838,1,4,0:0:0:0:
160,192,13185,1,0,0:0:0:0:
32,192,13185,1,4,0:0:0:0:
416,192,13532,1,0,0:0:0:0:
32,192,13532,1,4,0:0:0:0:
224,192,13878,1,0,0:0:0:0:
32,192,13878,1,4,0:0:0:0:
352,192,14225,1,0,0:0:0:0:
32,192,14225,1,4,0:0:0:0:
224,192,14572,1,0,0:0:0:0:
32,192,14572,1,4,0:0:0:0:
352,192,14919,1,0,0:0:0:0:
32,192,14919,1,4,0:0:0:0:
96,192,15266,1,0,0:0:0:0:
32,192,15266,1,4,0:0:0:0:
480,192,15612,1,0,0:0:0:0:
32,192,15612,1,4,0:0:0:0:
160,192,15959,128,4,16653:0:0:0:0:
416,192,15959,128,2,16653:0:0:0:0:
32,192,16653,1,4,0:0:0:0:
480,192,16653,1,2,0:0:0:0:
224,192,16826,1,0,0:0:0:0:
96,192,17000,1,2,0:0:0:0:
352,192,17173,1,0,0:0:0:0:
288,192,17347,1,2,0:0:0:0:
224,192,17520,1,0,0:0:0:0:
352,192,17693,1,2,0:0:0:0:
416,192,17867,1,0,0:0:0:0:
96,192,18040,1,2,0:0:0:0:
224,192,18214,1,0,0:0:0:0:
96,192,18387,1,2,0:0:0:0:
288,192,18560,1,0,0:0:0:0:
224,192,18734,1,2,0:0:0:0:
352,192,18907,1,0,0:0:0:0:
224,192,19081,1,2,0:0:0:0:
416,192,19254,1,0,0:0:0:0:
96,192,19427,1,2,0:0:0:0:
160,192,19601,1,0,0:0:0:0:
288,192,19774,1,2,0:0:0:0:
416,192,19948,1,0,0:0:0:0:
480,192,20121,1,2,0:0:0:0:
416,192,20295,1,0,0:0:0:0:
352,192,20468,1,2,0:0:0:0:
288,192,20641,1,0,0:0:0:0:
352,192,20815,1,2,0:0:0:0:
288,192,20988,1,0,0:0:0:0:
224,192,21162,1,2,0:0:0:0:
160,192,21335,1,0,0:0:0:0:
288,192,21508,1,2,0:0:0:0:
224,192,21682,1,0,0:0:0:0:
160,192,21855,1,2,0:0:0:0:
96,192,22029,1,0,0:0:0:0:
288,192,22202,1,2,0:0:0:0:
160,192,22375,1,0,0:0:0:0:
224,192,22549,1,2,0:0:0:0:
352,192,22722,1,0,0:0:0:0:
416,192,22896,1,2,0:0:0:0:
288,192,23069,1,0,0:0:0:0:
416,192,23242,1,2,0:0:0:0:
480,192,23416,1,0,0:0:0:0:
160,192,23589,1,2,0:0:0:0:
288,192,23763,1,0,0:0:0:0:
160,192,23936,1,2,0:0:0:0:
352,192,24110,1,0,0:0:0:0:
288,192,24283,1,2,0:0:0:0:
416,192,24456,1,0,0:0:0:0:
288,192,24630,1,2,0:0:0:0:
480,192,24803,1,0,0:0:0:0:
288,192,24977,1,2,0:0:0:0:
160,192,25150,1,0,0:0:0:0:
352,192,25323,1,2,0:0:0:0:
224,192,25497,1,0,0:0:0:0:
480,192,25670,1,2,0:0:0:0:
352,192,25844,1,0,0:0:0:0:
288,192,26017,1,2,0:0:0:0:
160,192,26190,1,0,0:0:0:0:
480,192,26364,1,2,0:0:0:0:
96,192,26537,1,0,0:0:0:0:
416,192,26711,1,2,0:0:0:0:
160,192,26884,1,0,0:0:0:0:
352,192,27058,1,2,0:0:0:0:
224,192,27231,1,0,0:0:0:0:
416,192,27404,1,2,0:0:0:0:
160,192,27578,1,0,0:0:0:0:
32,192,27751,1,4,0:0:0:0:
96,192,27751,1,2,0:0:0:0:
480,192,27751,1,0,0:0:0:0:
288,192,28098,1,0,0:0:0:0:
160,192,28445,1,0,0:0:0:0:
32,192,28792,1,4,0:0:0:0:
288,192,28792,1,0,0:0:0:0:
32,192,29138,1,4,0:0:0:0:
96,192,29138,1,0,0:0:0:0:
32,192,29485,1,4,0:0:0:0:
224,192,29485,1,0,0:0:0:0:
32,192,29832,1,4,0:0:0:0:
352,192,29832,1,0,0:0:0:0:
32,192,30179,1,4,0:0:0:0:
480,192,30179,1,0,0:0:0:0:
32,192,30526,1,4,0:0:0:0:
416,192,30526,1,0,0:0:0:0:
352,192,30873,1,0,0:0:0:0:
160,192,31219,1,0,0:0:0:0:
32,192,31566,1,4,0:0:0:0:
352,192,31566,1,0,0:0:0:0:
32,192,31913,1,4,0:0:0:0:
224,192,31913,1,0,0:0:0:0:
32,192,32260,1,4,0:0:0:0:
352,192,32260,1,0,0:0:0:0:
32,192,32607,1,4,0:0:0:0:
480,192,32607,1,0,0:0:0:0:
32,192,32953,1,4,0:0:0:0:
416,192,32953,1,0,0:0:0:0:
32,192,33300,1,4,0:0:0:0:
160,192,33300,1,2,0:0:0:0:
160,192,33647,1,2,0:0:0:0:
416,192,33647,1,8,0:0:0:0:
160,192,33994,1,2,0:0:0:0:
160,192,34341,1,2,0:0:0:0:
416,192,34341,1,8,0:0:0:0:
96,192,34688,1,2,0:0:0:0:
96,192,35034,1,2,0:0:0:0:
352,192,35034,1,8,0:0:0:0:
96,192,35381,1,2,0:0:0:0:
96,192,35728,1,2,0:0:0:0:
352,192,35728,1,8,0:0:0:0:
160,192,36075,1,2,0:0:0:0:
160,192,36422,1,2,0:0:0:0:
416,192,36422,1,8,0:0:0:0:
160,192,36769,1,2,0:0:0:0:
160,192,37115,1,2,0:0:0:0:
416,192,37115,1,8,0:0:0:0:
224,192,37462,1,2,0:0:0:0:
224,192,37809,1,2,0:0:0:0:
480,192,37809,1,8,0:0:0:0:
224,192,38156,1,2,0:0:0:0:
352,192,38271,1,8,0:0:0:0:
224,192,38503,1,2,0:0:0:0:
480,192,38503,1,8,0:0:0:0:
480,192,38849,1,2,0:0:0:0:
352,192,39196,1,2,0:0:0:0:
352,192,39543,1,2,0:0:0:0:
224,192,39890,1,2,0:0:0:0:
224,192,40237,1,2,0:0:0:0:
96,192,40584,1,2,0:0:0:0:
96,192,40930,1,2,0:0:0:0:
352,192,41277,1,2,0:0:0:0:
416,192,41624,1,2,1:0:0:0:
288,192,41971,1,2,1:0:0:0:
288,192,42318,1,2,1:0:0:0:
160,192,42664,1,2,1:0:0:0:
160,192,43011,1,2,1:0:0:0:
416,192,43185,1,2,1:0:0:0:
288,192,43358,1,2,1:0:0:0:
416,192,43532,1,2,1:0:0:0:
288,192,43705,1,2,1:0:0:0:
416,192,43878,1,2,1:0:0:0:
160,192,44052,1,2,1:0:0:0:
224,192,44138,1,2,1:0:0:0:
352,192,44225,1,2,1:0:0:0:
416,192,44312,1,2,1:0:0:0:
32,192,44399,1,4,0:0:0:0:
96,192,44399,1,2,1:0:0:0:
160,192,46826,128,0,47173:0:0:0:0:
352,192,47173,128,0,48560:0:0:0:0:
32,192,47173,1,4,0:0:0:0:
288,192,48560,128,0,49254:0:0:0:0:
96,192,49254,128,0,49601:0:0:0:0:
224,192,49601,128,0,49948:0:0:0:0:
416,192,49948,128,0,51162:0:0:0:0:
352,192,51162,1,0,0:0:0:0:
480,192,51335,128,0,52029:0:0:0:0:
288,192,52029,128,0,52722:0:0:0:0:
416,192,52722,128,0,53416:0:0:0:0:
224,192,53416,128,0,54110:0:0:0:0:
160,192,54110,128,0,54456:0:0:0:0:
352,192,54803,128,0,55150:0:0:0:0:
224,192,55150,128,0,55497:0:0:0:0:
96,192,55497,128,0,56884:0:0:0:0:
160,192,56884,128,0,58271:0:0:0:0:
32,192,58271,1,4,0:0:0:0:
288,192,58271,1,2,0:0:0:0:
96,192,58618,1,0,0:0:0:0:
224,192,58965,1,0,0:0:0:0:
416,192,59312,1,0,0:0:0:0:
480,192,59659,1,0,0:0:0:0:
352,192,60006,1,0,0:0:0:0:
224,192,60352,1,0,0:0:0:0:
96,192,60699,1,0,0:0:0:0:
416,192,61046,1,0,0:0:0:0:
160,192,61393,1,0,0:0:0:0:
352,192,61740,1,0,0:0:0:0:
480,192,62000,1,0,0:0:0:0:
224,192,62260,1,0,0:0:0:0:
416,192,62433,1,0,0:0:0:0:
288,192,62693,1,0,0:0:0:0:
160,192,62953,1,0,0:0:0:0:
352,192,63127,1,0,0:0:0:0:
96,192,63387,1,0,0:0:0:0:
224,192,63647,1,0,0:0:0:0:
96,192,63821,128,0,65208:0:0:0:0:
160,192,65208,128,0,65901:0:0:0:0:
288,192,65901,128,0,66248:0:0:0:0:
416,192,66248,128,0,66595:0:0:0:0:
224,192,66595,128,2,68676:0:0:0:0:
480,192,67982,128,2,68676:0:0:0:0:
96,192,68676,1,2,0:0:0:0:
224,192,69370,1,0,0:0:0:0:
32,192,69370,1,4,0:0:0:0:
480,192,69716,1,0,0:0:0:0:
32,192,69716,1,4,0:0:0:0:
32,192,70063,1,4,0:0:0:0:
224,192,70063,1,0,0:0:0:0:
480,192,70410,1,0,0:0:0:0:
32,192,70410,1,4,0:0:0:0:
32,192,70757,1,4,0:0:0:0:
224,192,70757,1,0,0:0:0:0:
32,192,71104,1,4,0:0:0:0:
480,192,71104,1,0,0:0:0:0:
160,192,71451,128,4,72144:0:0:0:0:
416,192,71451,128,2,72144:0:0:0:0:
224,192,72144,1,2,0:0:0:0:
32,192,72144,1,4,0:0:0:0:
288,192,72318,1,0,0:0:0:0:
96,192,72491,1,2,0:0:0:0:
352,192,72664,1,0,0:0:0:0:
288,192,72838,1,2,0:0:0:0:
224,192,73011,1,0,0:0:0:0:
352,192,73185,1,2,0:0:0:0:
416,192,73358,1,0,0:0:0:0:
96,192,73532,1,2,0:0:0:0:
224,192,73705,1,0,0:0:0:0:
96,192,73878,1,2,0:0:0:0:
288,192,74052,1,0,0:0:0:0:
224,192,74225,1,2,0:0:0:0:
352,192,74399,1,0,0:0:0:0:
224,192,74572,1,2,0:0:0:0:
416,192,74745,1,0,0:0:0:0:
96,192,74919,1,2,0:0:0:0:
160,192,75092,1,0,0:0:0:0:
288,192,75266,1,2,0:0:0:0:
416,192,75439,1,0,0:0:0:0:
480,192,75612,1,2,0:0:0:0:
416,192,75786,1,0,0:0:0:0:
352,192,75959,1,2,0:0:0:0:
288,192,76133,1,0,0:0:0:0:
352,192,76306,1,2,0:0:0:0:
288,192,76479,1,0,0:0:0:0:
224,192,76653,1,2,0:0:0:0:
160,192,76826,1,0,0:0:0:0:
288,192,77000,1,2,0:0:0:0:
224,192,77173,1,0,0:0:0:0:
160,192,77347,1,2,0:0:0:0:
96,192,77520,1,0,0:0:0:0:
32,192,77693,1,4,0:0:0:0:
224,192,77693,1,2,1:0:0:0:
352,192,77867,1,2,1:0:0:0:
224,192,78040,1,2,1:0:0:0:
352,192,78214,1,2,1:0:0:0:
288,192,78387,1,2,1:0:0:0:
416,192,78560,1,2,1:0:0:0:
288,192,78734,1,2,1:0:0:0:
416,192,78907,1,2,1:0:0:0:
32,192,79081,1,4,0:0:0:0:
96,192,79081,1,2,0:0:0:0:
224,192,79254,1,0,0:0:0:0:
160,192,79427,1,2,0:0:0:0:
480,192,79427,1,8,0:0:0:0:
224,192,79601,1,0,0:0:0:0:
288,192,79774,1,2,0:0:0:0:
224,192,79948,1,0,0:0:0:0:
352,192,80121,1,2,0:0:0:0:
160,192,80121,1,8,0:0:0:0:
480,192,80295,1,0,0:0:0:0:
96,192,80468,1,2,0:0:0:0:
224,192,80641,1,0,0:0:0:0:
96,192,80815,1,2,0:0:0:0:
480,192,80815,1,8,0:0:0:0:
160,192,80988,1,0,0:0:0:0:
288,192,81162,1,2,0:0:0:0:
160,192,81335,1,0,0:0:0:0:
224,192,81508,1,2,0:0:0:0:
480,192,81508,1,8,0:0:0:0:
352,192,81682,1,0,0:0:0:0:
224,192,81855,1,2,0:0:0:0:
288,192,82029,1,0,0:0:0:0:
416,192,82202,1,2,0:0:0:0:
96,192,82202,1,8,0:0:0:0:
288,192,82375,1,0,0:0:0:0:
352,192,82549,1,2,0:0:0:0:
480,192,82722,1,0,0:0:0:0:
352,192,82896,1,2,0:0:0:0:
96,192,82896,1,8,0:0:0:0:
480,192,83069,1,0,0:0:0:0:
224,192,83242,1,2,0:0:0:0:
32,192,83242,1,4,0:0:0:0:
352,192,83416,1,0,0:0:0:0:
160,192,83589,1,2,0:0:0:0:
416,192,83763,1,0,0:0:0:0:
352,192,83936,1,2,0:0:0:0:
32,192,83936,1,4,0:0:0:0:
288,192,84110,1,0,0:0:0:0:
224,192,84283,1,2,0:0:0:0:
160,192,84456,1,0,0:0:0:0:
96,192,84630,1,2,0:0:0:0:
32,192,84630,1,4,0:0:0:0:
288,192,84803,1,0,0:0:0:0:
160,192,84977,1,2,0:0:0:0:
32,192,84977,1,4,0:0:0:0:
416,192,85150,1,0,0:0:0:0:
352,192,85323,1,2,0:0:0:0:
32,192,85323,1,4,0:0:0:0:
288,192,85497,1,0,0:0:0:0:
224,192,85670,1,2,0:0:0:0:
32,192,85670,1,4,0:0:0:0:
160,192,85844,1,0,0:0:0:0:
96,192,86017,1,2,0:0:0:0:
32,192,86017,1,4,0:0:0:0:
32,192,86711,1,4,0:0:0:0:
96,192,86711,1,2,0:0:0:0:
480,192,86711,1,0,0:0:0:0:
288,192,86711,1,0,0:0:0:0:
352,192,87404,1,2,0:0:0:0:
288,192,87578,1,2,0:0:0:0:
224,192,87751,1,2,0:0:0:0:
160,192,87925,1,2,0:0:0:0:
288,192,88098,1,2,0:0:0:0:
224,192,88185,1,2,0:0:0:0:
160,192,88271,1,2,0:0:0:0:
96,192,88358,1,2,0:0:0:0:
480,192,88445,1,2,0:0:0:0:
416,192,88532,1,2,0:0:0:0:
352,192,88618,1,2,0:0:0:0:
288,192,88705,1,2,0:0:0:0:
32,192,88792,1,4,0:0:0:0:
96,192,88792,1,2,0:0:0:0:
480,192,89138,1,0,0:0:0:0:
32,192,89138,1,4,0:0:0:0:
416,192,89485,1,0,0:0:0:0:
32,192,89485,1,4,0:0:0:0:
352,192,89832,1,0,0:0:0:0:
32,192,89832,1,4,0:0:0:0:
288,192,90179,1,0,0:0:0:0:
32,192,90179,1,4,0:0:0:0:
224,192,90526,1,0,0:0:0:0:
32,192,90526,1,4,0:0:0:0:
160,192,90873,1,0,0:0:0:0:
32,192,90873,1,4,0:0:0:0:
32,192,91219,1,4,0:0:0:0:
32,192,91393,1,4,0:0:0:0:
32,192,91566,1,4,0:0:0:0:
32,192,91740,1,4,0:0:0:0:
32,192,91913,1,4,0:0:0:0:
96,192,91913,1,0,0:0:0:0:
32,192,92260,1,4,0:0:0:0:
224,192,92260,1,0,0:0:0:0:
352,192,92607,1,0,0:0:0:0:
32,192,92607,1,4,0:0:0:0:
224,192,92953,1,0,0:0:0:0:
32,192,92953,1,4,0:0:0:0:
32,192,93300,1,4,0:0:0:0:
96,192,93300,1,0,0:0:0:0:
224,192,93647,1,0,0:0:0:0:
32,192,93647,1,4,0:0:0:0:
96,192,94341,1,2,0:0:0:0:
32,192,94341,1,4,0:0:0:0:
224,192,94514,1,0,0:0:0:0:
352,192,94688,1,2,0:0:0:0:
480,192,94861,1,0,0:0:0:0:
352,192,95034,1,2,0:0:0:0:
480,192,95208,1,0,0:0:0:0:
224,192,95381,1,2,0:0:0:0:
352,192,95555,1,0,0:0:0:0:
224,192,95728,1,2,0:0:0:0:
352,192,95901,1,0,0:0:0:0:
96,192,96075,1,2,0:0:0:0:
224,192,96248,1,0,0:0:0:0:
96,192,96422,1,2,0:0:0:0:
224,192,96595,1,0,0:0:0:0:
96,192,96769,1,2,0:0:0:0:
160,192,96942,1,0,0:0:0:0:
96,192,97115,1,2,0:0:0:0:
224,192,97289,1,0,0:0:0:0:
352,192,97462,1,2,0:0:0:0:
480,192,97636,1,0,0:0:0:0:
352,192,97809,1,2,0:0:0:0:
480,192,97982,1,0,0:0:0:0:
224,192,98156,1,2,0:0:0:0:
352,192,98329,1,0,0:0:0:0:
224,192,98503,1,2,0:0:0:0:
352,192,98676,1,0,0:0:0:0:
96,192,98849,1,2,0:0:0:0:
224,192,99023,1,0,0:0:0:0:
96,192,99196,1,2,0:0:0:0:
224,192,99370,1,0,0:0:0:0:
96,192,99543,1,2,0:0:0:0:
160,192,99716,1,0,0:0:0:0:
96,192,99890,1,2,0:0:0:0:
416,192,100237,1,2,0:0:0:0:
288,192,100410,1,0,0:0:0:0:
416,192,100584,1,2,0:0:0:0:
160,192,100930,1,2,0:0:0:0:
288,192,101104,1,0,0:0:0:0:
160,192,101277,1,2,0:0:0:0:
416,192,101624,1,2,0:0:0:0:
288,192,101797,1,0,0:0:0:0:
416,192,101971,1,2,0:0:0:0:
160,192,102318,1,2,0:0:0:0:
288,192,102491,1,0,0:0:0:0:
160,192,102664,1,0,0:0:0:0:
352,192,103011,1,0,0:0:0:0:
224,192,103185,1,0,0:0:0:0:
352,192,103358,1,0,0:0:0:0:
96,192,103705,1,0,0:0:0:0:
224,192,103878,1,0,0:0:0:0:
352,192,104052,1,0,0:0:0:0:
224,192,104225,1,0,0:0:0:0:
352,192,104399,1,0,0:0:0:0:
224,192,104572,1,0,0:0:0:0:
96,192,104745,1,0,0:0:0:0:
352,192,105092,1,0,0:0:0:0:
224,192,105266,1,0,0:0:0:0:
32,192,105439,1,4,0:0:0:0:
96,192,105439,1,2,0:0:0:0:
160,192,105786,1,8,0:0:0:0:
96,192,105786,1,2,0:0:0:0:
96,192,106133,1,2,0:0:0:0:
416,192,106479,1,8,0:0:0:0:
96,192,106479,1,2,0:0:0:0:
480,192,106826,1,2,0:0:0:0:
224,192,107173,1,8,0:0:0:0:
480,192,107173,1,2,0:0:0:0:
480,192,107520,1,2,0:0:0:0:
352,192,107867,1,8,0:0:0:0:
480,192,107867,1,2,0:0:0:0:
32,192,108214,1,4,0:0:0:0:
96,192,108214,1,2,0:0:0:0:
160,192,108560,1,8,0:0:0:0:
96,192,108560,1,2,0:0:0:0:
96,192,108907,1,2,0:0:0:0:
416,192,109254,1,8,0:0:0:0:
96,192,109254,1,2,0:0:0:0:
160,192,109601,128,0,110295:0:0:0:0:
480,192,109601,1,2,0:0:0:0:
480,192,109948,1,2,0:0:0:0:
224,192,110295,1,0,0:0:0:0:
480,192,110295,1,2,0:0:0:0:
288,192,110641,1,0,0:0:0:0:
480,192,110641,1,2,0:0:0:0:
32,192,110988,1,4,1:0:0:0:
416,192,110988,128,0,112375:0:0:0:0:
96,192,110988,1,2,0:0:0:0:
96,192,111335,1,2,0:0:0:0:
96,192,111682,1,2,0:0:0:0:
96,192,112029,1,2,0:0:0:0:
480,192,112375,128,0,113763:0:0:0:0:
224,192,112375,1,2,0:0:0:0:
224,192,112722,1,2,0:0:0:0:
224,192,113069,1,2,0:0:0:0:
32,192,113416,1,4,0:0:0:0:
224,192,113416,1,2,0:0:0:0:
32,192,113763,1,4,0:0:0:0:
352,192,113763,128,0,114456:0:0:0:0:
96,192,113763,1,2,0:0:0:0:
96,192,114110,1,2,0:0:0:0:
288,192,114456,128,0,115150:0:0:0:0:
96,192,114456,1,2,0:0:0:0:
96,192,114803,1,2,0:0:0:0:
160,192,115150,128,0,115844:0:0:0:0:
480,192,115150,1,2,0:0:0:0:
480,192,115497,1,2,0:0:0:0:
352,192,115844,1,0,0:0:0:0:
480,192,115844,1,2,0:0:0:0:
224,192,116190,1,0,0:0:0:0:
480,192,116190,1,2,0:0:0:0:
32,192,116537,1,4,1:0:0:0:
416,192,116537,128,0,118310:0:0:0:0:
96,192,116537,1,0,0:0:0:0:
96,192,116953,1,0,0:0:0:0:
96,192,117387,1,0,0:0:0:0:
96,192,117848,1,0,0:0:0:0:
32,192,118310,1,4,1:0:0:0:
288,192,118310,128,0,121089:0:0:0:0:
32,192,121089,1,4,1:0:0:0:
96,192,121089,128,0,126088:0:0:0:0:
480,192,126088,1,0,0:0:0:0:
32,192,126088,128,4,131305:1:0:0:0:
