osu file format v14

[General]
AudioFilename: xi + Sta - Northward.mp3
AudioLeadIn: 0
PreviewTime: 158087
Countdown: 0
SampleSet: Soft
StackLeniency: 0.7
Mode: 3
LetterboxInBreaks: 0
SpecialStyle: 0
WidescreenStoryboard: 1

[Editor]
DistanceSpacing: 0.8
BeatDivisor: 4
GridSize: 4
TimelineZoom: 2.499998

[Metadata]
Title:Evolved Chronicles Album
TitleUnicode:Evolved Chronicles Album
Artist:xi
ArtistUnicode:xi
Creator:BossMadWolf
Version:xi + Sta - Northward
Source:
Tags:4k diverse system t+pazolite tpz remix SEGA maimai chunithm high bpm jack dump stream sv ET extreme mapset ln
BeatmapID:1685607
BeatmapSetID:723522

[Difficulty]
HPDrainRate:8.5
CircleSize:4
OverallDifficulty:8
ApproachRate:5
SliderMultiplier:1.2
SliderTickRate:1

[Events]
//Background and Video events
0,0,"background.png",0,0
//Break Periods
//Storyboard Layer 0 (Background)
//Storyboard Layer 1 (Fail)
//Storyboard Layer 2 (Pass)
//Storyboard Layer 3 (Foreground)
//Storyboard Layer 4 (Overlay)
//Storyboard Sound Samples

[TimingPoints]
288,600,4,2,1,100,1,0
888,-125,4,2,1,100,0,0
6288,-117.647058823529,4,2,1,100,0,0
21288,-111.111111111111,4,2,1,100,0,0
30888,-105.263157894737,4,2,1,100,0,0
35688,-100,4,2,1,100,0,0
38088,-95.2380952380952,4,2,1,100,0,0
40488,-125,4,2,1,100,0,0
42588,-100,4,2,1,100,0,0
98088,-250,4,2,1,100,0,0
98388,-76.9230769230769,4,2,1,100,0,0
98538,-250,4,2,1,100,0,0
98838,-76.9230769230769,4,2,1,100,0,0
98988,-100,4,2,1,100,0,0
100488,-166.666666666667,4,2,1,100,0,0
110088,-142.857142857143,4,2,1,100,0,0
129288,-125,4,2,1,100,0,0
133788,-111.111111111111,4,2,1,100,0,0
138888,-250,4,2,1,100,0,0
139188,-76.9230769230769,4,2,1,100,0,0
139338,-250,4,2,1,100,0,0
139638,-76.9230769230769,4,2,1,100,0,0
139788,-125,4,2,1,100,0,0
143688,-250,4,2,1,100,0,0
143988,-76.9230769230769,4,2,1,100,0,0
144138,-250,4,2,1,100,0,0
144438,-76.9230769230769,4,2,1,100,0,0
144588,-125,4,2,1,100,0,0
148488,-250,4,2,1,100,0,0
148788,-76.9230769230769,4,2,1,100,0,0
148938,-250,4,2,1,100,0,0
149238,-76.9230769230769,4,2,1,100,0,0
149388,-125,4,2,1,100,0,0
153288,-111.111111111111,4,2,1,100,0,0
155688,-100,4,2,1,100,0,0
157788,-200,4,2,1,100,0,0
157938,-80,4,2,1,100,0,0
158088,-100,4,2,1,100,0,1
195288,-100,4,2,1,100,0,0
216888,-97.0873786407767,4,2,1,100,0,0
218088,-93.4579439252336,4,2,1,100,0,0
219288,-90.9090909090909,4,2,1,100,0,0
220488,-95.2380952380952,4,2,1,100,0,0
221688,-100,4,2,1,100,0,0
222288,-111.111111111111,4,2,1,100,0,0
222888,-125,4,2,1,100,0,0
223488,-500,4,2,1,100,0,0
223888,-90.9090909090909,4,2,1,100,0,0

[HitObjects]
64,192,888,5,0,0:0:0:0:
448,192,888,1,0,0:0:0:0:
192,192,3888,1,0,0:0:0:0:
448,192,4188,1,0,0:0:0:0:
64,192,4488,1,0,0:0:0:0:
192,192,4788,1,0,0:0:0:0:
448,192,5088,1,0,0:0:0:0:
192,192,5388,1,0,0:0:0:0:
320,192,5688,1,0,0:0:0:0:
448,192,5988,1,0,0:0:0:0:
64,192,6288,1,0,0:0:0:0:
320,192,6438,1,0,0:0:0:0:
192,192,6588,1,0,0:0:0:0:
320,192,6738,1,0,0:0:0:0:
448,192,6888,1,0,0:0:0:0:
64,192,7038,1,0,0:0:0:0:
320,192,7188,1,0,0:0:0:0:
192,192,7338,1,0,0:0:0:0:
448,192,7488,1,0,0:0:0:0:
320,192,7638,1,0,0:0:0:0:
192,192,7788,1,0,0:0:0:0:
320,192,7938,1,0,0:0:0:0:
64,192,8088,1,0,0:0:0:0:
192,192,8238,1,0,0:0:0:0:
448,192,8388,1,0,0:0:0:0:
192,192,8538,1,0,0:0:0:0:
64,192,8688,1,0,0:0:0:0:
320,192,8838,1,0,0:0:0:0:
192,192,8988,1,0,0:0:0:0:
320,192,9138,1,0,0:0:0:0:
64,192,9288,1,0,0:0:0:0:
192,192,9438,1,0,0:0:0:0:
320,192,9588,1,0,0:0:0:0:
64,192,9738,1,0,0:0:0:0:
448,192,9888,1,0,0:0:0:0:
64,192,10038,1,0,0:0:0:0:
192,192,10188,1,0,0:0:0:0:
448,192,10338,1,0,0:0:0:0:
64,192,10488,1,0,0:0:0:0:
448,192,10638,1,0,0:0:0:0:
320,192,10788,1,0,0:0:0:0:
192,192,10938,1,0,0:0:0:0:
320,192,11088,1,0,0:0:0:0:
64,192,11238,1,0,0:0:0:0:
320,192,11388,1,0,0:0:0:0:
192,192,11538,1,0,0:0:0:0:
448,192,11688,1,0,0:0:0:0:
320,192,11838,1,0,0:0:0:0:
64,192,11988,1,0,0:0:0:0:
320,192,12138,1,0,0:0:0:0:
192,192,12288,1,0,0:0:0:0:
64,192,12438,1,0,0:0:0:0:
448,192,12588,1,0,0:0:0:0:
320,192,12738,1,0,0:0:0:0:
64,192,12888,1,0,0:0:0:0:
64,192,13038,1,0,0:0:0:0:
448,192,13188,1,0,0:0:0:0:
192,192,13338,1,0,0:0:0:0:
320,192,13488,1,0,0:0:0:0:
64,192,13638,1,0,0:0:0:0:
448,192,13788,1,0,0:0:0:0:
64,192,13938,1,0,0:0:0:0:
192,192,14088,1,0,0:0:0:0:
192,192,14238,1,0,0:0:0:0:
448,192,14388,1,0,0:0:0:0:
320,192,14538,1,0,0:0:0:0:
320,192,14688,1,0,0:0:0:0:
192,192,14838,1,0,0:0:0:0:
448,192,14988,1,0,0:0:0:0:
320,192,15138,1,0,0:0:0:0:
64,192,15288,1,0,0:0:0:0:
192,192,15438,1,0,0:0:0:0:
320,192,15588,1,0,0:0:0:0:
448,192,15738,1,0,0:0:0:0:
64,192,15888,1,0,0:0:0:0:
320,192,16038,1,0,0:0:0:0:
192,192,16188,1,0,0:0:0:0:
64,192,16338,1,0,0:0:0:0:
320,192,16488,1,0,0:0:0:0:
448,192,16638,1,0,0:0:0:0:
320,192,16788,1,0,0:0:0:0:
64,192,16938,1,0,0:0:0:0:
192,192,17088,1,0,0:0:0:0:
448,192,17238,1,0,0:0:0:0:
320,192,17388,1,0,0:0:0:0:
192,192,17538,1,0,0:0:0:0:
448,192,17688,1,0,0:0:0:0:
192,192,17838,1,0,0:0:0:0:
320,192,17988,1,0,0:0:0:0:
64,192,18138,1,0,0:0:0:0:
320,192,18288,1,0,0:0:0:0:
64,192,18438,1,0,0:0:0:0:
448,192,18588,1,0,0:0:0:0:
192,192,18738,1,0,0:0:0:0:
448,192,18888,1,0,0:0:0:0:
448,192,19038,1,0,0:0:0:0:
192,192,19188,1,0,0:0:0:0:
320,192,19338,1,0,0:0:0:0:
192,192,19488,1,0,0:0:0:0:
448,192,19638,1,0,0:0:0:0:
64,192,19788,1,0,0:0:0:0:
320,192,19938,1,0,0:0:0:0:
448,192,20088,1,0,0:0:0:0:
320,192,20238,1,0,0:0:0:0:
192,192,20388,1,0,0:0:0:0:
64,192,20538,1,0,0:0:0:0:
320,192,20688,1,0,0:0:0:0:
192,192,20838,1,0,0:0:0:0:
448,192,20988,1,0,0:0:0:0:
192,192,21138,1,0,0:0:0:0:
64,192,21288,1,0,0:0:0:0:
320,192,21288,1,0,0:0:0:0:
448,192,21288,1,0,0:0:0:0:
192,192,21288,1,0,0:0:0:0:
448,192,21438,1,0,0:0:0:0:
192,192,21588,1,0,0:0:0:0:
320,192,21738,1,0,0:0:0:0:
64,192,21888,1,0,0:0:0:0:
448,192,21888,1,0,0:0:0:0:
64,192,22038,1,0,0:0:0:0:
192,192,22188,1,0,0:0:0:0:
448,192,22338,1,0,0:0:0:0:
192,192,22488,1,0,0:0:0:0:
320,192,22638,1,0,0:0:0:0:
448,192,22788,1,0,0:0:0:0:
64,192,22788,1,0,0:0:0:0:
192,192,22938,1,0,0:0:0:0:
448,192,23088,1,0,0:0:0:0:
320,192,23238,1,0,0:0:0:0:
320,192,23388,1,0,0:0:0:0:
64,192,23463,1,0,0:0:0:0:
448,192,23538,1,0,0:0:0:0:
192,192,23613,1,0,0:0:0:0:
64,192,23688,1,0,0:0:0:0:
320,192,23688,1,0,0:0:0:0:
448,192,23838,1,0,0:0:0:0:
192,192,23988,1,0,0:0:0:0:
320,192,24138,1,0,0:0:0:0:
64,192,24288,1,0,0:0:0:0:
448,192,24288,1,0,0:0:0:0:
192,192,24438,1,0,0:0:0:0:
320,192,24588,1,0,0:0:0:0:
64,192,24738,1,0,0:0:0:0:
320,192,24888,1,0,0:0:0:0:
192,192,25038,1,0,0:0:0:0:
192,192,25188,1,0,0:0:0:0:
448,192,25188,1,0,0:0:0:0:
320,192,25338,1,0,0:0:0:0:
64,192,25488,1,0,0:0:0:0:
448,192,25638,1,0,0:0:0:0:
192,192,25788,1,0,0:0:0:0:
320,192,25863,1,0,0:0:0:0:
448,192,25938,1,0,0:0:0:0:
320,192,26013,1,0,0:0:0:0:
64,192,26088,1,0,0:0:0:0:
192,192,26088,1,0,0:0:0:0:
448,192,26238,1,0,0:0:0:0:
192,192,26388,1,0,0:0:0:0:
320,192,26538,1,0,0:0:0:0:
192,192,26688,1,0,0:0:0:0:
64,192,26688,1,0,0:0:0:0:
448,192,26838,1,0,0:0:0:0:
192,192,26988,1,0,0:0:0:0:
320,192,27138,1,0,0:0:0:0:
192,192,27288,1,0,0:0:0:0:
64,192,27438,1,0,0:0:0:0:
320,192,27588,1,0,0:0:0:0:
448,192,27588,1,0,0:0:0:0:
448,192,27738,1,0,0:0:0:0:
320,192,27888,1,0,0:0:0:0:
64,192,28038,1,0,0:0:0:0:
448,192,28188,1,0,0:0:0:0:
192,192,28263,1,0,0:0:0:0:
320,192,28338,1,0,0:0:0:0:
192,192,28413,1,0,0:0:0:0:
64,192,28488,1,0,0:0:0:0:
448,192,28488,1,0,0:0:0:0:
192,192,28638,1,0,0:0:0:0:
64,192,28788,1,0,0:0:0:0:
320,192,28938,1,0,0:0:0:0:
448,192,29088,1,0,0:0:0:0:
192,192,29088,1,0,0:0:0:0:
192,192,29238,1,0,0:0:0:0:
192,192,29388,1,0,0:0:0:0:
64,192,29463,1,0,0:0:0:0:
320,192,29538,1,0,0:0:0:0:
192,192,29613,1,0,0:0:0:0:
448,192,29688,1,0,0:0:0:0:
64,192,29688,1,0,0:0:0:0:
320,192,29688,1,0,0:0:0:0:
64,192,29988,1,0,0:0:0:0:
192,192,29988,1,0,0:0:0:0:
448,192,29988,1,0,0:0:0:0:
192,192,30288,1,0,0:0:0:0:
64,192,30288,1,0,0:0:0:0:
448,192,30288,1,0,0:0:0:0:
192,192,30438,1,0,0:0:0:0:
320,192,30438,1,0,0:0:0:0:
448,192,30588,1,0,0:0:0:0:
320,192,30588,1,0,0:0:0:0:
320,192,30738,1,0,0:0:0:0:
192,192,30738,1,0,0:0:0:0:
448,192,30888,1,0,0:0:0:0:
320,192,30888,1,0,0:0:0:0:
64,192,30888,1,0,0:0:0:0:
192,192,31038,1,0,0:0:0:0:
64,192,31188,1,0,0:0:0:0:
448,192,31338,1,0,0:0:0:0:
320,192,31488,1,0,0:0:0:0:
192,192,31488,1,0,0:0:0:0:
192,192,31638,1,0,0:0:0:0:
448,192,31788,1,0,0:0:0:0:
64,192,31938,1,0,0:0:0:0:
320,192,32088,1,0,0:0:0:0:
192,192,32238,1,0,0:0:0:0:
320,192,32388,1,0,0:0:0:0:
64,192,32388,1,0,0:0:0:0:
448,192,32538,1,0,0:0:0:0:
320,192,32688,1,0,0:0:0:0:
192,192,32688,1,0,0:0:0:0:
64,192,32838,1,0,0:0:0:0:
192,192,32988,1,0,0:0:0:0:
448,192,32988,1,0,0:0:0:0:
320,192,33063,1,0,0:0:0:0:
64,192,33138,1,0,0:0:0:0:
448,192,33138,1,0,0:0:0:0:
192,192,33213,1,0,0:0:0:0:
64,192,33288,1,0,0:0:0:0:
320,192,33288,1,0,0:0:0:0:
320,192,33438,1,0,0:0:0:0:
448,192,33588,1,0,0:0:0:0:
64,192,33738,1,0,0:0:0:0:
64,192,33888,1,0,0:0:0:0:
192,192,33888,1,0,0:0:0:0:
448,192,34038,1,0,0:0:0:0:
192,192,34188,1,0,0:0:0:0:
320,192,34338,1,0,0:0:0:0:
448,192,34488,1,0,0:0:0:0:
192,192,34638,1,0,0:0:0:0:
64,192,34788,1,0,0:0:0:0:
320,192,34788,1,0,0:0:0:0:
448,192,34938,1,0,0:0:0:0:
448,192,35088,1,0,0:0:0:0:
320,192,35088,1,0,0:0:0:0:
64,192,35238,1,0,0:0:0:0:
64,192,35388,1,0,0:0:0:0:
192,192,35388,1,0,0:0:0:0:
320,192,35463,1,0,0:0:0:0:
448,192,35538,1,0,0:0:0:0:
192,192,35538,1,0,0:0:0:0:
320,192,35613,1,0,0:0:0:0:
192,192,35688,1,0,0:0:0:0:
64,192,35688,1,0,0:0:0:0:
448,192,35838,1,0,0:0:0:0:
192,192,35988,1,0,0:0:0:0:
64,192,36138,1,0,0:0:0:0:
448,192,36288,1,0,0:0:0:0:
64,192,36288,1,0,0:0:0:0:
192,192,36438,1,0,0:0:0:0:
320,192,36588,1,0,0:0:0:0:
448,192,36738,1,0,0:0:0:0:
192,192,36888,1,0,0:0:0:0:
64,192,37038,1,0,0:0:0:0:
192,192,37188,1,0,0:0:0:0:
448,192,37188,1,0,0:0:0:0:
448,192,37338,1,0,0:0:0:0:
320,192,37488,1,0,0:0:0:0:
64,192,37488,1,0,0:0:0:0:
64,192,37638,1,0,0:0:0:0:
448,192,37788,1,0,0:0:0:0:
192,192,37788,1,0,0:0:0:0:
64,192,37863,1,0,0:0:0:0:
448,192,37938,1,0,0:0:0:0:
320,192,37938,1,0,0:0:0:0:
192,192,38013,1,0,0:0:0:0:
448,192,38088,1,0,0:0:0:0:
64,192,38088,1,0,0:0:0:0:
320,192,38088,1,0,0:0:0:0:
192,192,38238,1,0,0:0:0:0:
320,192,38388,1,0,0:0:0:0:
64,192,38388,1,0,0:0:0:0:
448,192,38538,1,0,0:0:0:0:
64,192,38688,1,0,0:0:0:0:
320,192,38688,1,0,0:0:0:0:
448,192,38688,1,0,0:0:0:0:
64,192,38838,1,0,0:0:0:0:
448,192,38988,1,0,0:0:0:0:
192,192,39138,1,0,0:0:0:0:
320,192,39288,1,0,0:0:0:0:
64,192,39288,1,0,0:0:0:0:
448,192,39288,1,0,0:0:0:0:
192,192,39438,1,0,0:0:0:0:
64,192,39438,1,0,0:0:0:0:
448,192,39438,1,0,0:0:0:0:
320,192,39738,1,0,0:0:0:0:
64,192,39738,1,0,0:0:0:0:
192,192,39738,1,0,0:0:0:0:
448,192,40038,1,0,0:0:0:0:
320,192,40038,1,0,0:0:0:0:
192,192,40038,1,0,0:0:0:0:
64,192,40188,1,0,0:0:0:0:
192,192,40188,1,0,0:0:0:0:
320,192,40263,1,0,0:0:0:0:
448,192,40263,1,0,0:0:0:0:
192,192,40338,1,0,0:0:0:0:
64,192,40338,1,0,0:0:0:0:
320,192,40413,1,0,0:0:0:0:
448,192,40413,1,0,0:0:0:0:
64,192,40488,1,0,0:0:0:0:
192,192,40488,1,0,0:0:0:0:
64,192,40788,1,0,0:0:0:0:
192,192,40838,1,0,0:0:0:0:
320,192,40888,1,0,0:0:0:0:
448,192,40938,1,0,0:0:0:0:
320,192,40988,1,0,0:0:0:0:
192,192,41038,1,0,0:0:0:0:
64,192,41088,128,0,41388:0:0:0:0:
448,192,41388,128,0,41988:0:0:0:0:
192,192,41988,128,0,42588:0:0:0:0:
64,192,42588,1,0,0:0:0:0:
320,192,42588,1,0,0:0:0:0:
448,192,42588,1,0,0:0:0:0:
448,192,42888,1,0,0:0:0:0:
64,192,42888,128,0,44088:0:0:0:0:
320,192,42888,1,0,0:0:0:0:
448,192,43188,1,0,0:0:0:0:
320,192,43488,1,0,0:0:0:0:
192,192,43488,1,0,0:0:0:0:
192,192,43788,1,0,0:0:0:0:
320,192,44088,128,0,44688:0:0:0:0:
448,192,44088,1,0,0:0:0:0:
192,192,44088,1,0,0:0:0:0:
64,192,44388,1,0,0:0:0:0:
192,192,44688,1,0,0:0:0:0:
64,192,44688,128,0,45288:0:0:0:0:
448,192,44688,1,0,0:0:0:0:
448,192,44988,1,0,0:0:0:0:
448,192,45288,1,0,0:0:0:0:
192,192,45288,128,0,45738:0:0:0:0:
320,192,45288,1,0,0:0:0:0:
320,192,45588,1,0,0:0:0:0:
448,192,45738,128,0,46188:0:0:0:0:
320,192,45888,1,0,0:0:0:0:
64,192,45888,1,0,0:0:0:0:
64,192,46188,128,0,46488:0:0:0:0:
192,192,46188,1,0,0:0:0:0:
192,192,46488,1,0,0:0:0:0:
448,192,46488,1,0,0:0:0:0:
320,192,46638,1,0,0:0:0:0:
64,192,46638,1,0,0:0:0:0:
192,192,46788,1,0,0:0:0:0:
448,192,46788,1,0,0:0:0:0:
192,192,47088,1,0,0:0:0:0:
448,192,47088,1,0,0:0:0:0:
64,192,47388,1,0,0:0:0:0:
320,192,47388,1,0,0:0:0:0:
448,192,47538,1,0,0:0:0:0:
192,192,47688,1,0,0:0:0:0:
64,192,47688,128,0,48438:0:0:0:0:
320,192,47688,1,0,0:0:0:0:
448,192,48138,1,0,0:0:0:0:
192,192,48288,1,0,0:0:0:0:
320,192,48288,1,0,0:0:0:0:
448,192,48438,128,0,48888:0:0:0:0:
192,192,48888,1,0,0:0:0:0:
320,192,48888,128,0,49788:0:0:0:0:
64,192,48888,1,0,0:0:0:0:
448,192,49338,1,0,0:0:0:0:
64,192,49488,1,0,0:0:0:0:
192,192,49488,1,0,0:0:0:0:
64,192,49788,128,0,50088:0:0:0:0:
448,192,50088,128,0,50688:0:0:0:0:
192,192,50088,1,0,0:0:0:0:
320,192,50088,1,0,0:0:0:0:
192,192,50388,1,0,0:0:0:0:
64,192,50688,1,0,0:0:0:0:
320,192,50688,1,0,0:0:0:0:
64,192,50838,1,0,0:0:0:0:
320,192,50838,1,0,0:0:0:0:
192,192,50913,1,0,0:0:0:0:
448,192,50913,1,0,0:0:0:0:
64,192,50988,1,0,0:0:0:0:
320,192,50988,1,0,0:0:0:0:
320,192,51138,1,0,0:0:0:0:
192,192,51138,1,0,0:0:0:0:
64,192,51288,1,0,0:0:0:0:
448,192,51288,1,0,0:0:0:0:
192,192,51288,1,0,0:0:0:0:
64,192,51438,1,0,0:0:0:0:
448,192,51438,1,0,0:0:0:0:
64,192,51588,128,0,51888:0:0:0:0:
448,192,51588,128,0,51888:0:0:0:0:
192,192,51888,1,0,0:0:0:0:
320,192,51888,1,0,0:0:0:0:
64,192,52038,1,0,0:0:0:0:
64,192,52188,1,0,0:0:0:0:
448,192,52188,1,0,0:0:0:0:
448,192,52338,1,0,0:0:0:0:
192,192,52488,1,0,0:0:0:0:
320,192,52488,128,0,53688:0:0:0:0:
64,192,52488,1,0,0:0:0:0:
64,192,52788,1,0,0:0:0:0:
64,192,53088,1,0,0:0:0:0:
448,192,53088,1,0,0:0:0:0:
448,192,53388,1,0,0:0:0:0:
192,192,53688,128,0,54588:0:0:0:0:
448,192,53688,1,0,0:0:0:0:
64,192,53688,1,0,0:0:0:0:
64,192,53988,1,0,0:0:0:0:
448,192,54288,1,0,0:0:0:0:
320,192,54288,1,0,0:0:0:0:
64,192,54588,128,0,54888:0:0:0:0:
320,192,54888,128,0,55338:0:0:0:0:
448,192,54888,1,0,0:0:0:0:
192,192,54888,1,0,0:0:0:0:
64,192,55188,1,0,0:0:0:0:
448,192,55338,128,0,55788:0:0:0:0:
192,192,55488,1,0,0:0:0:0:
64,192,55488,1,0,0:0:0:0:
192,192,55788,128,0,56688:0:0:0:0:
448,192,56088,1,0,0:0:0:0:
64,192,56088,1,0,0:0:0:0:
320,192,56238,1,0,0:0:0:0:
64,192,56388,1,0,0:0:0:0:
448,192,56688,128,0,56988:0:0:0:0:
64,192,56688,1,0,0:0:0:0:
320,192,56688,1,0,0:0:0:0:
192,192,56988,128,0,57288:0:0:0:0:
320,192,56988,1,0,0:0:0:0:
320,192,57288,128,0,58188:0:0:0:0:
64,192,57288,1,0,0:0:0:0:
448,192,57288,1,0,0:0:0:0:
192,192,57738,1,0,0:0:0:0:
64,192,57888,1,0,0:0:0:0:
448,192,57888,1,0,0:0:0:0:
64,192,58188,128,0,58488:0:0:0:0:
320,192,58488,1,0,0:0:0:0:
192,192,58488,1,0,0:0:0:0:
448,192,58488,128,0,59388:0:0:0:0:
64,192,58938,1,0,0:0:0:0:
64,192,59088,1,0,0:0:0:0:
192,192,59088,1,0,0:0:0:0:
320,192,59163,1,0,0:0:0:0:
192,192,59238,1,0,0:0:0:0:
64,192,59313,1,0,0:0:0:0:
320,192,59388,128,0,59688:0:0:0:0:
192,192,59388,1,0,0:0:0:0:
64,192,59463,1,0,0:0:0:0:
448,192,59538,1,0,0:0:0:0:
192,192,59613,1,0,0:0:0:0:
448,192,59688,1,0,0:0:0:0:
64,192,59688,128,0,60288:0:0:0:0:
192,192,59838,1,0,0:0:0:0:
448,192,59988,1,0,0:0:0:0:
320,192,60138,1,0,0:0:0:0:
192,192,60288,1,0,0:0:0:0:
448,192,60288,1,0,0:0:0:0:
64,192,60438,1,0,0:0:0:0:
448,192,60438,1,0,0:0:0:0:
320,192,60513,1,0,0:0:0:0:
192,192,60513,1,0,0:0:0:0:
64,192,60588,1,0,0:0:0:0:
448,192,60588,1,0,0:0:0:0:
192,192,60738,1,0,0:0:0:0:
64,192,60738,1,0,0:0:0:0:
448,192,60738,1,0,0:0:0:0:
448,192,60888,128,0,61038:0:0:0:0:
192,192,60888,1,0,0:0:0:0:
64,192,61038,128,0,61188:0:0:0:0:
320,192,61188,128,0,61338:0:0:0:0:
192,192,61338,128,0,61488:0:0:0:0:
320,192,61488,128,0,61638:0:0:0:0:
448,192,61638,128,0,61788:0:0:0:0:
192,192,61788,128,0,61938:0:0:0:0:
320,192,61938,128,0,62088:0:0:0:0:
64,192,62088,128,0,63288:0:0:0:0:
448,192,62088,1,0,0:0:0:0:
192,192,62088,1,0,0:0:0:0:
192,192,62388,1,0,0:0:0:0:
448,192,62538,1,0,0:0:0:0:
192,192,62688,1,0,0:0:0:0:
320,192,62688,1,0,0:0:0:0:
448,192,62688,1,0,0:0:0:0:
192,192,62988,1,0,0:0:0:0:
320,192,63288,128,0,63888:0:0:0:0:
192,192,63288,1,0,0:0:0:0:
448,192,63288,1,0,0:0:0:0:
64,192,63588,1,0,0:0:0:0:
448,192,63738,1,0,0:0:0:0:
192,192,63888,128,0,64488:0:0:0:0:
64,192,63888,1,0,0:0:0:0:
448,192,63888,1,0,0:0:0:0:
64,192,64188,1,0,0:0:0:0:
320,192,64188,1,0,0:0:0:0:
448,192,64338,1,0,0:0:0:0:
64,192,64488,128,0,64938:0:0:0:0:
320,192,64488,1,0,0:0:0:0:
448,192,64488,1,0,0:0:0:0:
448,192,64938,128,0,65388:0:0:0:0:
320,192,64938,128,0,65088:0:0:0:0:
192,192,65088,1,0,0:0:0:0:
64,192,65088,1,0,0:0:0:0:
192,192,65388,128,0,66288:0:0:0:0:
64,192,65688,1,0,0:0:0:0:
320,192,65688,1,0,0:0:0:0:
448,192,65688,1,0,0:0:0:0:
64,192,65988,1,0,0:0:0:0:
448,192,66138,1,0,0:0:0:0:
320,192,66288,1,0,0:0:0:0:
64,192,66288,1,0,0:0:0:0:
448,192,66288,128,0,66588:0:0:0:0:
64,192,66588,128,0,66888:0:0:0:0:
192,192,66588,1,0,0:0:0:0:
320,192,66888,128,0,67788:0:0:0:0:
192,192,66888,1,0,0:0:0:0:
448,192,66888,1,0,0:0:0:0:
64,192,67338,128,0,67488:0:0:0:0:
448,192,67488,1,0,0:0:0:0:
192,192,67488,1,0,0:0:0:0:
64,192,67788,128,0,68088:0:0:0:0:
448,192,68088,1,0,0:0:0:0:
192,192,68088,128,0,68988:0:0:0:0:
320,192,68088,1,0,0:0:0:0:
448,192,68538,128,0,68688:0:0:0:0:
320,192,68688,1,0,0:0:0:0:
64,192,68688,1,0,0:0:0:0:
64,192,68988,128,0,69288:0:0:0:0:
320,192,69288,128,0,70488:0:0:0:0:
192,192,69288,1,0,0:0:0:0:
448,192,69288,1,0,0:0:0:0:
64,192,69438,1,0,0:0:0:0:
192,192,69438,1,0,0:0:0:0:
64,192,69588,1,0,0:0:0:0:
448,192,69588,1,0,0:0:0:0:
448,192,69738,1,0,0:0:0:0:
192,192,69738,1,0,0:0:0:0:
64,192,69888,1,0,0:0:0:0:
448,192,69888,1,0,0:0:0:0:
192,192,70038,1,0,0:0:0:0:
64,192,70038,1,0,0:0:0:0:
192,192,70188,1,0,0:0:0:0:
448,192,70188,1,0,0:0:0:0:
448,192,70338,1,0,0:0:0:0:
64,192,70338,1,0,0:0:0:0:
64,192,70488,1,0,0:0:0:0:
192,192,70488,1,0,0:0:0:0:
448,192,70488,1,0,0:0:0:0:
64,192,70638,1,0,0:0:0:0:
448,192,70788,1,0,0:0:0:0:
64,192,70788,1,0,0:0:0:0:
320,192,70938,1,0,0:0:0:0:
448,192,71088,1,0,0:0:0:0:
64,192,71088,1,0,0:0:0:0:
192,192,71088,1,0,0:0:0:0:
64,192,71388,1,0,0:0:0:0:
320,192,71388,1,0,0:0:0:0:
192,192,71538,1,0,0:0:0:0:
448,192,71538,1,0,0:0:0:0:
64,192,71688,128,0,72888:0:0:0:0:
448,192,71688,1,0,0:0:0:0:
320,192,71688,1,0,0:0:0:0:
192,192,71988,1,0,0:0:0:0:
192,192,72288,1,0,0:0:0:0:
320,192,72288,1,0,0:0:0:0:
448,192,72288,1,0,0:0:0:0:
320,192,72588,1,0,0:0:0:0:
320,192,72888,128,0,73788:0:0:0:0:
192,192,72888,1,0,0:0:0:0:
448,192,72888,1,0,0:0:0:0:
448,192,73188,1,0,0:0:0:0:
448,192,73488,1,0,0:0:0:0:
192,192,73488,1,0,0:0:0:0:
64,192,73488,1,0,0:0:0:0:
192,192,73788,128,0,74088:0:0:0:0:
64,192,74088,1,0,0:0:0:0:
320,192,74088,128,0,74538:0:0:0:0:
448,192,74538,128,0,74988:0:0:0:0:
192,192,74688,1,0,0:0:0:0:
64,192,74688,1,0,0:0:0:0:
320,192,74688,1,0,0:0:0:0:
64,192,74988,128,0,75888:0:0:0:0:
192,192,75288,1,0,0:0:0:0:
320,192,75288,1,0,0:0:0:0:
448,192,75288,1,0,0:0:0:0:
448,192,75588,1,0,0:0:0:0:
320,192,75588,1,0,0:0:0:0:
192,192,75738,1,0,0:0:0:0:
448,192,75738,1,0,0:0:0:0:
320,192,75888,1,0,0:0:0:0:
192,192,75888,1,0,0:0:0:0:
448,192,75888,1,0,0:0:0:0:
64,192,76038,1,0,0:0:0:0:
448,192,76188,1,0,0:0:0:0:
320,192,76338,1,0,0:0:0:0:
64,192,76488,1,0,0:0:0:0:
320,192,76488,128,0,77688:0:0:0:0:
192,192,76488,1,0,0:0:0:0:
64,192,76938,128,0,77088:0:0:0:0:
192,192,77088,1,0,0:0:0:0:
448,192,77088,1,0,0:0:0:0:
192,192,77388,128,0,77538:0:0:0:0:
64,192,77688,1,0,0:0:0:0:
448,192,77688,1,0,0:0:0:0:
192,192,77688,128,0,78138:0:0:0:0:
320,192,78138,128,0,78588:0:0:0:0:
64,192,78138,128,0,78288:0:0:0:0:
448,192,78288,1,0,0:0:0:0:
192,192,78288,1,0,0:0:0:0:
448,192,78588,128,0,78888:0:0:0:0:
64,192,78588,1,0,0:0:0:0:
64,192,78888,128,0,80088:0:0:0:0:
320,192,78888,1,0,0:0:0:0:
192,192,78888,1,0,0:0:0:0:
192,192,79038,1,0,0:0:0:0:
448,192,79038,1,0,0:0:0:0:
448,192,79188,1,0,0:0:0:0:
320,192,79188,1,0,0:0:0:0:
192,192,79338,1,0,0:0:0:0:
448,192,79338,1,0,0:0:0:0:
320,192,79488,1,0,0:0:0:0:
192,192,79488,1,0,0:0:0:0:
448,192,79488,1,0,0:0:0:0:
192,192,79788,1,0,0:0:0:0:
448,192,79863,1,0,0:0:0:0:
192,192,79938,1,0,0:0:0:0:
448,192,80013,1,0,0:0:0:0:
192,192,80088,1,0,0:0:0:0:
320,192,80088,1,0,0:0:0:0:
64,192,80238,1,0,0:0:0:0:
192,192,80238,1,0,0:0:0:0:
448,192,80388,1,0,0:0:0:0:
320,192,80388,1,0,0:0:0:0:
192,192,80538,1,0,0:0:0:0:
320,192,80538,1,0,0:0:0:0:
64,192,80688,1,0,0:0:0:0:
320,192,80688,1,0,0:0:0:0:
448,192,80688,1,0,0:0:0:0:
192,192,80838,1,0,0:0:0:0:
320,192,80988,1,0,0:0:0:0:
64,192,81138,1,0,0:0:0:0:
64,192,81288,128,0,82488:0:0:0:0:
448,192,81288,1,0,0:0:0:0:
192,192,81288,1,0,0:0:0:0:
320,192,81288,1,0,0:0:0:0:
320,192,81588,1,0,0:0:0:0:
192,192,81888,1,0,0:0:0:0:
448,192,81888,1,0,0:0:0:0:
320,192,81888,1,0,0:0:0:0:
320,192,82038,1,0,0:0:0:0:
192,192,82188,1,0,0:0:0:0:
448,192,82488,128,0,83388:0:0:0:0:
192,192,82488,1,0,0:0:0:0:
320,192,82488,1,0,0:0:0:0:
64,192,82788,1,0,0:0:0:0:
192,192,82938,1,0,0:0:0:0:
64,192,83088,1,0,0:0:0:0:
320,192,83088,1,0,0:0:0:0:
192,192,83088,1,0,0:0:0:0:
64,192,83388,128,0,83688:0:0:0:0:
192,192,83388,1,0,0:0:0:0:
448,192,83538,1,0,0:0:0:0:
192,192,83688,128,0,84138:0:0:0:0:
448,192,83688,1,0,0:0:0:0:
320,192,83688,1,0,0:0:0:0:
448,192,84138,128,0,84588:0:0:0:0:
64,192,84288,1,0,0:0:0:0:
320,192,84288,1,0,0:0:0:0:
192,192,84288,1,0,0:0:0:0:
320,192,84588,128,0,85488:0:0:0:0:
64,192,84588,1,0,0:0:0:0:
64,192,84888,1,0,0:0:0:0:
448,192,84888,1,0,0:0:0:0:
192,192,84888,1,0,0:0:0:0:
64,192,85188,1,0,0:0:0:0:
192,192,85338,1,0,0:0:0:0:
64,192,85488,1,0,0:0:0:0:
448,192,85488,128,0,85788:0:0:0:0:
192,192,85488,1,0,0:0:0:0:
64,192,85788,128,0,86088:0:0:0:0:
192,192,86088,128,0,86988:0:0:0:0:
448,192,86088,1,0,0:0:0:0:
320,192,86088,1,0,0:0:0:0:
448,192,86538,128,0,86688:0:0:0:0:
320,192,86688,1,0,0:0:0:0:
64,192,86688,1,0,0:0:0:0:
448,192,86988,128,0,87288:0:0:0:0:
320,192,87288,128,0,88188:0:0:0:0:
64,192,87288,1,0,0:0:0:0:
192,192,87738,128,0,87888:0:0:0:0:
448,192,87888,1,0,0:0:0:0:
64,192,87888,1,0,0:0:0:0:
64,192,88188,128,0,88488:0:0:0:0:
192,192,88188,1,0,0:0:0:0:
192,192,88488,128,0,89688:0:0:0:0:
448,192,88488,1,0,0:0:0:0:
320,192,88488,1,0,0:0:0:0:
64,192,88788,1,0,0:0:0:0:
448,192,88788,1,0,0:0:0:0:
448,192,88938,1,0,0:0:0:0:
320,192,88938,1,0,0:0:0:0:
64,192,89088,1,0,0:0:0:0:
448,192,89088,1,0,0:0:0:0:
64,192,89238,1,0,0:0:0:0:
320,192,89238,1,0,0:0:0:0:
64,192,89388,1,0,0:0:0:0:
448,192,89388,1,0,0:0:0:0:
448,192,89538,1,0,0:0:0:0:
320,192,89538,1,0,0:0:0:0:
320,192,89688,128,0,90888:0:0:0:0:
64,192,89688,1,0,0:0:0:0:
448,192,89688,1,0,0:0:0:0:
192,192,89838,1,0,0:0:0:0:
64,192,89838,1,0,0:0:0:0:
192,192,89988,1,0,0:0:0:0:
448,192,89988,1,0,0:0:0:0:
448,192,90138,1,0,0:0:0:0:
64,192,90138,1,0,0:0:0:0:
64,192,90288,1,0,0:0:0:0:
192,192,90288,1,0,0:0:0:0:
448,192,90438,1,0,0:0:0:0:
192,192,90438,1,0,0:0:0:0:
64,192,90588,1,0,0:0:0:0:
448,192,90588,1,0,0:0:0:0:
192,192,90738,1,0,0:0:0:0:
64,192,90738,1,0,0:0:0:0:
448,192,90888,1,0,0:0:0:0:
64,192,90888,128,0,92088:0:0:0:0:
320,192,91188,1,0,0:0:0:0:
192,192,91488,1,0,0:0:0:0:
320,192,91488,1,0,0:0:0:0:
448,192,91488,1,0,0:0:0:0:
192,192,91788,1,0,0:0:0:0:
320,192,92088,1,0,0:0:0:0:
448,192,92088,128,0,93288:0:0:0:0:
192,192,92088,1,0,0:0:0:0:
192,192,92538,128,0,92688:0:0:0:0:
64,192,92688,1,0,0:0:0:0:
320,192,92688,1,0,0:0:0:0:
192,192,92988,128,0,93138:0:0:0:0:
64,192,93288,128,0,94188:0:0:0:0:
192,192,93288,1,0,0:0:0:0:
448,192,93738,128,0,93888:0:0:0:0:
320,192,93888,1,0,0:0:0:0:
192,192,93888,1,0,0:0:0:0:
320,192,94188,128,0,94788:0:0:0:0:
192,192,94488,1,0,0:0:0:0:
64,192,94488,1,0,0:0:0:0:
448,192,94488,1,0,0:0:0:0:
64,192,94788,1,0,0:0:0:0:
448,192,94788,1,0,0:0:0:0:
192,192,94938,1,0,0:0:0:0:
448,192,94938,1,0,0:0:0:0:
320,192,95088,1,0,0:0:0:0:
64,192,95088,128,0,95388:0:0:0:0:
448,192,95088,1,0,0:0:0:0:
448,192,95388,128,0,95688:0:0:0:0:
192,192,95388,1,0,0:0:0:0:
192,192,95688,128,0,96588:0:0:0:0:
64,192,95688,1,0,0:0:0:0:
320,192,95688,1,0,0:0:0:0:
448,192,95988,1,0,0:0:0:0:
320,192,96138,1,0,0:0:0:0:
448,192,96288,1,0,0:0:0:0:
320,192,96288,1,0,0:0:0:0:
64,192,96288,1,0,0:0:0:0:
64,192,96588,128,0,96888:0:0:0:0:
448,192,96588,1,0,0:0:0:0:
320,192,96738,1,0,0:0:0:0:
448,192,96813,1,0,0:0:0:0:
192,192,96888,128,0,97338:0:0:0:0:
320,192,96888,1,0,0:0:0:0:
320,192,97188,1,0,0:0:0:0:
448,192,97338,1,0,0:0:0:0:
320,192,97338,128,0,97788:0:0:0:0:
64,192,97413,1,0,0:0:0:0:
192,192,97488,1,0,0:0:0:0:
448,192,97488,1,0,0:0:0:0:
448,192,97788,128,0,98088:0:0:0:0:
64,192,97788,1,0,0:0:0:0:
192,192,97863,1,0,0:0:0:0:
64,192,97938,1,0,0:0:0:0:
192,192,98013,1,0,0:0:0:0:
64,192,98088,1,0,0:0:0:0:
320,192,98088,1,0,0:0:0:0:
64,192,98538,1,0,0:0:0:0:
448,192,98538,1,0,0:0:0:0:
192,192,98538,1,0,0:0:0:0:
192,192,98988,128,0,99588:0:0:0:0:
320,192,98988,128,0,99588:0:0:0:0:
64,192,98988,1,0,0:0:0:0:
448,192,98988,1,0,0:0:0:0:
64,192,99588,1,0,0:0:0:0:
448,192,99663,1,0,0:0:0:0:
64,192,99738,1,0,0:0:0:0:
448,192,99813,1,0,0:0:0:0:
320,192,99888,1,0,0:0:0:0:
64,192,99963,1,0,0:0:0:0:
192,192,100038,1,0,0:0:0:0:
448,192,100113,1,0,0:0:0:0:
192,192,100188,1,0,0:0:0:0:
64,192,100263,1,0,0:0:0:0:
448,192,100338,1,0,0:0:0:0:
320,192,100413,1,0,0:0:0:0:
192,192,100488,1,0,0:0:0:0:
64,192,101088,1,0,0:0:0:0:
192,192,101388,1,0,0:0:0:0:
64,192,101688,1,0,0:0:0:0:
448,192,101988,1,0,0:0:0:0:
320,192,102288,1,0,0:0:0:0:
192,192,102588,1,0,0:0:0:0:
192,192,102888,1,0,0:0:0:0:
64,192,103188,1,0,0:0:0:0:
448,192,103488,1,0,0:0:0:0:
320,192,103788,1,0,0:0:0:0:
64,192,104088,1,0,0:0:0:0:
448,192,104388,1,0,0:0:0:0:
192,192,104688,1,0,0:0:0:0:
192,192,104988,1,0,0:0:0:0:
64,192,105288,1,0,0:0:0:0:
64,192,105588,1,0,0:0:0:0:
448,192,105888,1,0,0:0:0:0:
320,192,106188,1,0,0:0:0:0:
192,192,106488,1,0,0:0:0:0:
448,192,106788,1,0,0:0:0:0:
320,192,107088,1,0,0:0:0:0:
192,192,107388,1,0,0:0:0:0:
64,192,107688,1,0,0:0:0:0:
64,192,107988,1,0,0:0:0:0:
448,192,108288,1,0,0:0:0:0:
192,192,108588,1,0,0:0:0:0:
192,192,108888,1,0,0:0:0:0:
448,192,109188,1,0,0:0:0:0:
320,192,109488,1,0,0:0:0:0:
192,192,109788,1,0,0:0:0:0:
64,192,110013,1,0,0:0:0:0:
192,192,110050,1,0,0:0:0:0:
448,192,110088,1,0,0:0:0:0:
320,192,110388,1,0,0:0:0:0:
448,192,110688,1,0,0:0:0:0:
192,192,110988,1,0,0:0:0:0:
64,192,111288,1,0,0:0:0:0:
448,192,111588,1,0,0:0:0:0:
320,192,111888,1,0,0:0:0:0:
192,192,112188,1,0,0:0:0:0:
320,192,112338,1,0,0:0:0:0:
192,192,112488,1,0,0:0:0:0:
320,192,112788,1,0,0:0:0:0:
448,192,113088,1,0,0:0:0:0:
320,192,113388,1,0,0:0:0:0:
448,192,113538,1,0,0:0:0:0:
192,192,113688,1,0,0:0:0:0:
192,192,113988,1,0,0:0:0:0:
448,192,114088,1,0,0:0:0:0:
320,192,114188,1,0,0:0:0:0:
64,192,114288,1,0,0:0:0:0:
64,192,114588,1,0,0:0:0:0:
64,192,114813,1,0,0:0:0:0:
192,192,114850,1,0,0:0:0:0:
320,192,114888,1,0,0:0:0:0:
192,192,115188,1,0,0:0:0:0:
448,192,115488,1,0,0:0:0:0:
192,192,115788,1,0,0:0:0:0:
192,192,116088,1,0,0:0:0:0:
448,192,116388,1,0,0:0:0:0:
320,192,116688,1,0,0:0:0:0:
64,192,116988,1,0,0:0:0:0:
192,192,117138,1,0,0:0:0:0:
64,192,117288,1,0,0:0:0:0:
64,192,117588,1,0,0:0:0:0:
192,192,117588,1,0,0:0:0:0:
448,192,117888,1,0,0:0:0:0:
192,192,118188,1,0,0:0:0:0:
320,192,118338,1,0,0:0:0:0:
192,192,118488,1,0,0:0:0:0:
320,192,118788,1,0,0:0:0:0:
448,192,118938,1,0,0:0:0:0:
192,192,119088,1,0,0:0:0:0:
192,192,119388,1,0,0:0:0:0:
448,192,119538,1,0,0:0:0:0:
64,192,119688,1,0,0:0:0:0:
192,192,119988,1,0,0:0:0:0:
448,192,120288,1,0,0:0:0:0:
192,192,120588,1,0,0:0:0:0:
64,192,120888,1,0,0:0:0:0:
448,192,121188,1,0,0:0:0:0:
192,192,121488,1,0,0:0:0:0:
320,192,121788,1,0,0:0:0:0:
64,192,122088,1,0,0:0:0:0:
192,192,122388,1,0,0:0:0:0:
448,192,122688,1,0,0:0:0:0:
192,192,122988,1,0,0:0:0:0:
320,192,123288,1,0,0:0:0:0:
448,192,123588,1,0,0:0:0:0:
320,192,123888,1,0,0:0:0:0:
64,192,124188,1,0,0:0:0:0:
64,192,124488,1,0,0:0:0:0:
192,192,124788,1,0,0:0:0:0:
448,192,125088,1,0,0:0:0:0:
192,192,125388,1,0,0:0:0:0:
192,192,125688,1,0,0:0:0:0:
448,192,125988,1,0,0:0:0:0:
192,192,126288,1,0,0:0:0:0:
320,192,126588,1,0,0:0:0:0:
64,192,126888,1,0,0:0:0:0:
64,192,127188,1,0,0:0:0:0:
448,192,127488,1,0,0:0:0:0:
192,192,127788,1,0,0:0:0:0:
192,192,128088,1,0,0:0:0:0:
448,192,128388,1,0,0:0:0:0:
192,192,128688,1,0,0:0:0:0:
320,192,128988,1,0,0:0:0:0:
64,192,129288,1,0,0:0:0:0:
64,192,129588,1,0,0:0:0:0:
448,192,129888,1,0,0:0:0:0:
192,192,130188,1,0,0:0:0:0:
320,192,130338,1,0,0:0:0:0:
448,192,130488,1,0,0:0:0:0:
64,192,130788,1,0,0:0:0:0:
192,192,130938,1,0,0:0:0:0:
320,192,131088,1,0,0:0:0:0:
64,192,131388,1,0,0:0:0:0:
320,192,131538,1,0,0:0:0:0:
448,192,131688,1,0,0:0:0:0:
64,192,131988,1,0,0:0:0:0:
192,192,132138,1,0,0:0:0:0:
448,192,132288,1,0,0:0:0:0:
192,192,132588,1,0,0:0:0:0:
320,192,132738,1,0,0:0:0:0:
448,192,132888,1,0,0:0:0:0:
64,192,133188,1,0,0:0:0:0:
192,192,133338,1,0,0:0:0:0:
320,192,133488,1,0,0:0:0:0:
64,192,133788,1,0,0:0:0:0:
448,192,133788,1,0,0:0:0:0:
320,192,134088,1,0,0:0:0:0:
192,192,134088,1,0,0:0:0:0:
64,192,134388,1,0,0:0:0:0:
192,192,134388,1,0,0:0:0:0:
320,192,134688,1,0,0:0:0:0:
448,192,134688,1,0,0:0:0:0:
64,192,134988,1,0,0:0:0:0:
448,192,134988,1,0,0:0:0:0:
192,192,135138,1,0,0:0:0:0:
448,192,135288,1,0,0:0:0:0:
320,192,135288,1,0,0:0:0:0:
64,192,135588,1,0,0:0:0:0:
448,192,135588,1,0,0:0:0:0:
320,192,135738,1,0,0:0:0:0:
448,192,135888,1,0,0:0:0:0:
320,192,135888,1,0,0:0:0:0:
320,192,136188,1,0,0:0:0:0:
64,192,136188,1,0,0:0:0:0:
192,192,136338,1,0,0:0:0:0:
448,192,136488,1,0,0:0:0:0:
64,192,136488,1,0,0:0:0:0:
320,192,136788,1,0,0:0:0:0:
64,192,136788,1,0,0:0:0:0:
320,192,137088,1,0,0:0:0:0:
448,192,137088,1,0,0:0:0:0:
320,192,137388,1,0,0:0:0:0:
192,192,137388,1,0,0:0:0:0:
192,192,137688,1,0,0:0:0:0:
448,192,137688,1,0,0:0:0:0:
64,192,137988,1,0,0:0:0:0:
192,192,138063,1,0,0:0:0:0:
448,192,138138,1,0,0:0:0:0:
320,192,138213,1,0,0:0:0:0:
192,192,138288,1,0,0:0:0:0:
448,192,138363,1,0,0:0:0:0:
192,192,138438,1,0,0:0:0:0:
64,192,138513,1,0,0:0:0:0:
192,192,138588,1,0,0:0:0:0:
448,192,138663,1,0,0:0:0:0:
320,192,138738,1,0,0:0:0:0:
192,192,138813,1,0,0:0:0:0:
320,192,138888,1,0,0:0:0:0:
64,192,138888,1,0,0:0:0:0:
192,192,139338,1,0,0:0:0:0:
448,192,139338,1,0,0:0:0:0:
192,192,139788,128,0,141588:0:0:0:0:
320,192,139788,128,0,141588:0:0:0:0:
64,192,141588,1,0,0:0:0:0:
320,192,141738,1,0,0:0:0:0:
192,192,141888,1,0,0:0:0:0:
448,192,142038,1,0,0:0:0:0:
320,192,142188,1,0,0:0:0:0:
192,192,142338,1,0,0:0:0:0:
448,192,142488,1,0,0:0:0:0:
192,192,142638,1,0,0:0:0:0:
64,192,142788,1,0,0:0:0:0:
320,192,142938,1,0,0:0:0:0:
448,192,143013,1,0,0:0:0:0:
192,192,143088,1,0,0:0:0:0:
320,192,143238,1,0,0:0:0:0:
64,192,143388,1,0,0:0:0:0:
192,192,143538,1,0,0:0:0:0:
64,192,143688,1,0,0:0:0:0:
448,192,143688,1,0,0:0:0:0:
64,192,144138,1,0,0:0:0:0:
192,192,144138,1,0,0:0:0:0:
320,192,144588,128,0,146088:0:0:0:0:
448,192,144588,128,0,146088:0:0:0:0:
192,192,146088,1,0,0:0:0:0:
64,192,146088,1,0,0:0:0:0:
64,192,146238,1,0,0:0:0:0:
320,192,146238,1,0,0:0:0:0:
192,192,146388,1,0,0:0:0:0:
448,192,146388,1,0,0:0:0:0:
448,192,146538,1,0,0:0:0:0:
320,192,146538,1,0,0:0:0:0:
192,192,146688,1,0,0:0:0:0:
448,192,146688,1,0,0:0:0:0:
320,192,146838,1,0,0:0:0:0:
64,192,146838,1,0,0:0:0:0:
64,192,146988,1,0,0:0:0:0:
192,192,146988,1,0,0:0:0:0:
64,192,147138,1,0,0:0:0:0:
448,192,147138,1,0,0:0:0:0:
192,192,147288,1,0,0:0:0:0:
448,192,147288,1,0,0:0:0:0:
320,192,147438,1,0,0:0:0:0:
448,192,147438,1,0,0:0:0:0:
192,192,147588,1,0,0:0:0:0:
64,192,147588,1,0,0:0:0:0:
320,192,147738,1,0,0:0:0:0:
192,192,147738,1,0,0:0:0:0:
448,192,147813,1,0,0:0:0:0:
64,192,147888,1,0,0:0:0:0:
192,192,147888,1,0,0:0:0:0:
192,192,148038,1,0,0:0:0:0:
448,192,148038,1,0,0:0:0:0:
448,192,148188,1,0,0:0:0:0:
320,192,148188,1,0,0:0:0:0:
320,192,148338,1,0,0:0:0:0:
64,192,148338,1,0,0:0:0:0:
64,192,148488,1,0,0:0:0:0:
192,192,148488,1,0,0:0:0:0:
192,192,148938,1,0,0:0:0:0:
320,192,148938,1,0,0:0:0:0:
320,192,149388,128,0,150588:0:0:0:0:
448,192,149388,128,0,150588:0:0:0:0:
64,192,150588,1,0,0:0:0:0:
192,192,150688,1,0,0:0:0:0:
320,192,150788,1,0,0:0:0:0:
448,192,150888,1,0,0:0:0:0:
320,192,151038,1,0,0:0:0:0:
64,192,151188,1,0,0:0:0:0:
448,192,151188,1,0,0:0:0:0:
448,192,151338,1,0,0:0:0:0:
320,192,151488,1,0,0:0:0:0:
448,192,151638,1,0,0:0:0:0:
64,192,151788,1,0,0:0:0:0:
192,192,151938,1,0,0:0:0:0:
448,192,152088,1,0,0:0:0:0:
320,192,152163,1,0,0:0:0:0:
64,192,152238,1,0,0:0:0:0:
320,192,152388,1,0,0:0:0:0:
192,192,152538,1,0,0:0:0:0:
320,192,152688,1,0,0:0:0:0:
448,192,152838,1,0,0:0:0:0:
320,192,152988,1,0,0:0:0:0:
192,192,153138,1,0,0:0:0:0:
64,192,153288,1,0,0:0:0:0:
448,192,153288,1,0,0:0:0:0:
192,192,153288,1,0,0:0:0:0:
320,192,153288,1,0,0:0:0:0:
448,192,153438,1,0,0:0:0:0:
64,192,153588,1,0,0:0:0:0:
320,192,153738,1,0,0:0:0:0:
64,192,153888,1,0,0:0:0:0:
448,192,153888,1,0,0:0:0:0:
320,192,153888,1,0,0:0:0:0:
192,192,153888,1,0,0:0:0:0:
192,192,154038,1,0,0:0:0:0:
448,192,154188,1,0,0:0:0:0:
64,192,154338,1,0,0:0:0:0:
64,192,154488,1,0,0:0:0:0:
192,192,154488,1,0,0:0:0:0:
320,192,154488,1,0,0:0:0:0:
448,192,154488,1,0,0:0:0:0:
448,192,154638,1,0,0:0:0:0:
320,192,154788,1,0,0:0:0:0:
64,192,154938,1,0,0:0:0:0:
448,192,155088,1,0,0:0:0:0:
192,192,155088,1,0,0:0:0:0:
64,192,155088,1,0,0:0:0:0:
320,192,155088,1,0,0:0:0:0:
320,192,155238,1,0,0:0:0:0:
448,192,155388,1,0,0:0:0:0:
192,192,155538,1,0,0:0:0:0:
64,192,155688,1,0,0:0:0:0:
192,192,155688,1,0,0:0:0:0:
320,192,155763,1,0,0:0:0:0:
448,192,155838,1,0,0:0:0:0:
64,192,155913,1,0,0:0:0:0:
192,192,155988,1,0,0:0:0:0:
448,192,155988,1,0,0:0:0:0:
320,192,156063,1,0,0:0:0:0:
192,192,156138,1,0,0:0:0:0:
448,192,156213,1,0,0:0:0:0:
320,192,156288,1,0,0:0:0:0:
64,192,156288,1,0,0:0:0:0:
192,192,156363,1,0,0:0:0:0:
64,192,156438,1,0,0:0:0:0:
448,192,156513,1,0,0:0:0:0:
320,192,156588,1,0,0:0:0:0:
192,192,156588,1,0,0:0:0:0:
64,192,156663,1,0,0:0:0:0:
448,192,156738,1,0,0:0:0:0:
192,192,156813,1,0,0:0:0:0:
320,192,156888,1,0,0:0:0:0:
448,192,156888,1,0,0:0:0:0:
192,192,156963,1,0,0:0:0:0:
448,192,157038,1,0,0:0:0:0:
320,192,157113,1,0,0:0:0:0:
64,192,157188,1,0,0:0:0:0:
192,192,157188,1,0,0:0:0:0:
448,192,157263,1,0,0:0:0:0:
320,192,157338,1,0,0:0:0:0:
192,192,157413,1,0,0:0:0:0:
448,192,157488,1,0,0:0:0:0:
320,192,157488,1,0,0:0:0:0:
64,192,157563,1,0,0:0:0:0:
448,192,157638,1,0,0:0:0:0:
320,192,157713,1,0,0:0:0:0:
64,192,157788,1,0,0:0:0:0:
192,192,157788,1,0,0:0:0:0:
192,192,158088,1,0,0:0:0:0:
448,192,158088,1,0,0:0:0:0:
64,192,158088,128,0,159288:0:0:0:0:
192,192,158388,1,0,0:0:0:0:
448,192,158538,1,0,0:0:0:0:
448,192,158688,1,0,0:0:0:0:
320,192,158688,1,0,0:0:0:0:
192,192,158838,1,0,0:0:0:0:
448,192,158988,1,0,0:0:0:0:
448,192,159288,1,0,0:0:0:0:
192,192,159288,1,0,0:0:0:0:
320,192,159288,128,0,160488:0:0:0:0:
64,192,159588,1,0,0:0:0:0:
448,192,159738,1,0,0:0:0:0:
448,192,159888,1,0,0:0:0:0:
192,192,159888,1,0,0:0:0:0:
64,192,160038,1,0,0:0:0:0:
192,192,160188,1,0,0:0:0:0:
448,192,160488,1,0,0:0:0:0:
64,192,160488,1,0,0:0:0:0:
192,192,160488,128,0,161388:0:0:0:0:
448,192,160788,1,0,0:0:0:0:
320,192,160938,1,0,0:0:0:0:
64,192,161088,1,0,0:0:0:0:
448,192,161088,1,0,0:0:0:0:
64,192,161238,1,0,0:0:0:0:
64,192,161388,128,0,161688:0:0:0:0:
448,192,161388,1,0,0:0:0:0:
192,192,161688,1,0,0:0:0:0:
448,192,161688,128,0,162888:0:0:0:0:
64,192,161988,1,0,0:0:0:0:
64,192,162138,1,0,0:0:0:0:
320,192,162288,1,0,0:0:0:0:
192,192,162288,1,0,0:0:0:0:
64,192,162588,1,0,0:0:0:0:
192,192,162588,1,0,0:0:0:0:
320,192,162888,128,0,163488:0:0:0:0:
192,192,162888,1,0,0:0:0:0:
64,192,162888,1,0,0:0:0:0:
64,192,163188,1,0,0:0:0:0:
448,192,163188,1,0,0:0:0:0:
448,192,163488,1,0,0:0:0:0:
64,192,163488,1,0,0:0:0:0:
192,192,163488,128,0,164088:0:0:0:0:
64,192,163638,1,0,0:0:0:0:
448,192,163788,1,0,0:0:0:0:
64,192,164088,128,0,164238:0:0:0:0:
448,192,164088,1,0,0:0:0:0:
320,192,164088,1,0,0:0:0:0:
448,192,164238,128,0,164388:0:0:0:0:
320,192,164388,128,0,164538:0:0:0:0:
192,192,164538,1,0,0:0:0:0:
448,192,164688,1,0,0:0:0:0:
320,192,164688,1,0,0:0:0:0:
64,192,164688,1,0,0:0:0:0:
192,192,164688,1,0,0:0:0:0:
448,192,164838,128,0,164988:0:0:0:0:
64,192,164838,1,0,0:0:0:0:
192,192,164988,128,0,165138:0:0:0:0:
64,192,165138,128,0,165288:0:0:0:0:
448,192,165288,1,0,0:0:0:0:
192,192,165288,1,0,0:0:0:0:
320,192,165288,128,0,166788:0:0:0:0:
448,192,165588,1,0,0:0:0:0:
64,192,165588,1,0,0:0:0:0:
192,192,165738,1,0,0:0:0:0:
448,192,165738,1,0,0:0:0:0:
448,192,165888,1,0,0:0:0:0:
64,192,165888,1,0,0:0:0:0:
64,192,166038,1,0,0:0:0:0:
192,192,166038,1,0,0:0:0:0:
448,192,166188,1,0,0:0:0:0:
192,192,166188,1,0,0:0:0:0:
64,192,166338,1,0,0:0:0:0:
448,192,166338,1,0,0:0:0:0:
448,192,166488,1,0,0:0:0:0:
192,192,166488,1,0,0:0:0:0:
64,192,166638,1,0,0:0:0:0:
192,192,166638,1,0,0:0:0:0:
448,192,166788,1,0,0:0:0:0:
64,192,166788,128,0,167688:0:0:0:0:
448,192,166938,1,0,0:0:0:0:
320,192,166938,1,0,0:0:0:0:
320,192,167088,1,0,0:0:0:0:
192,192,167088,1,0,0:0:0:0:
320,192,167238,1,0,0:0:0:0:
448,192,167238,1,0,0:0:0:0:
448,192,167388,1,0,0:0:0:0:
192,192,167388,1,0,0:0:0:0:
320,192,167538,1,0,0:0:0:0:
192,192,167538,1,0,0:0:0:0:
192,192,167688,128,0,168888:0:0:0:0:
448,192,167688,1,0,0:0:0:0:
320,192,167688,1,0,0:0:0:0:
448,192,167988,1,0,0:0:0:0:
320,192,168138,1,0,0:0:0:0:
64,192,168288,1,0,0:0:0:0:
448,192,168288,1,0,0:0:0:0:
320,192,168438,1,0,0:0:0:0:
64,192,168588,1,0,0:0:0:0:
320,192,168888,128,0,170088:0:0:0:0:
64,192,168888,1,0,0:0:0:0:
448,192,168888,1,0,0:0:0:0:
448,192,169188,1,0,0:0:0:0:
64,192,169338,1,0,0:0:0:0:
64,192,169488,1,0,0:0:0:0:
448,192,169488,1,0,0:0:0:0:
192,192,169638,1,0,0:0:0:0:
448,192,169788,1,0,0:0:0:0:
192,192,170088,128,0,170988:0:0:0:0:
64,192,170088,1,0,0:0:0:0:
448,192,170088,1,0,0:0:0:0:
320,192,170388,1,0,0:0:0:0:
448,192,170538,1,0,0:0:0:0:
320,192,170688,1,0,0:0:0:0:
64,192,170688,1,0,0:0:0:0:
448,192,170838,1,0,0:0:0:0:
64,192,170988,1,0,0:0:0:0:
448,192,170988,128,0,172488:0:0:0:0:
320,192,171288,1,0,0:0:0:0:
64,192,171288,1,0,0:0:0:0:
192,192,171438,1,0,0:0:0:0:
320,192,171588,1,0,0:0:0:0:
64,192,171888,1,0,0:0:0:0:
320,192,171888,1,0,0:0:0:0:
320,192,172188,1,0,0:0:0:0:
192,192,172188,1,0,0:0:0:0:
64,192,172488,1,0,0:0:0:0:
320,192,172488,1,0,0:0:0:0:
192,192,172488,128,0,173088:0:0:0:0:
448,192,172788,1,0,0:0:0:0:
64,192,172938,1,0,0:0:0:0:
64,192,173088,128,0,173688:0:0:0:0:
320,192,173088,1,0,0:0:0:0:
448,192,173088,1,0,0:0:0:0:
448,192,173238,1,0,0:0:0:0:
320,192,173388,1,0,0:0:0:0:
192,192,173688,1,0,0:0:0:0:
448,192,173688,1,0,0:0:0:0:
320,192,173688,128,0,173838:0:0:0:0:
448,192,173838,128,0,173988:0:0:0:0:
192,192,173988,128,0,174138:0:0:0:0:
320,192,174138,1,0,0:0:0:0:
64,192,174288,1,0,0:0:0:0:
192,192,174288,1,0,0:0:0:0:
320,192,174288,1,0,0:0:0:0:
448,192,174288,1,0,0:0:0:0:
448,192,174588,128,0,174888:0:0:0:0:
64,192,174888,128,0,175788:0:0:0:0:
320,192,174888,1,0,0:0:0:0:
192,192,174888,1,0,0:0:0:0:
320,192,175038,1,0,0:0:0:0:
448,192,175038,1,0,0:0:0:0:
192,192,175188,1,0,0:0:0:0:
448,192,175188,1,0,0:0:0:0:
320,192,175338,1,0,0:0:0:0:
192,192,175338,1,0,0:0:0:0:
192,192,175488,1,0,0:0:0:0:
448,192,175488,1,0,0:0:0:0:
320,192,175638,1,0,0:0:0:0:
448,192,175638,1,0,0:0:0:0:
192,192,175788,128,0,175938:0:0:0:0:
320,192,175788,128,0,175938:0:0:0:0:
64,192,175938,128,0,176088:0:0:0:0:
448,192,175938,128,0,176088:0:0:0:0:
320,192,176088,128,0,177288:0:0:0:0:
64,192,176238,1,0,0:0:0:0:
192,192,176238,1,0,0:0:0:0:
64,192,176388,1,0,0:0:0:0:
448,192,176388,1,0,0:0:0:0:
192,192,176538,1,0,0:0:0:0:
448,192,176538,1,0,0:0:0:0:
64,192,176688,1,0,0:0:0:0:
448,192,176688,1,0,0:0:0:0:
192,192,176838,1,0,0:0:0:0:
64,192,176838,1,0,0:0:0:0:
448,192,176988,1,0,0:0:0:0:
192,192,176988,1,0,0:0:0:0:
448,192,177138,1,0,0:0:0:0:
64,192,177138,1,0,0:0:0:0:
64,192,177288,128,0,178488:0:0:0:0:
192,192,177288,1,0,0:0:0:0:
448,192,177288,1,0,0:0:0:0:
192,192,177588,1,0,0:0:0:0:
448,192,177738,1,0,0:0:0:0:
320,192,177888,1,0,0:0:0:0:
192,192,177888,1,0,0:0:0:0:
448,192,177988,1,0,0:0:0:0:
192,192,178088,1,0,0:0:0:0:
320,192,178188,1,0,0:0:0:0:
448,192,178188,1,0,0:0:0:0:
192,192,178288,1,0,0:0:0:0:
448,192,178388,1,0,0:0:0:0:
320,192,178488,128,0,179688:0:0:0:0:
192,192,178488,1,0,0:0:0:0:
448,192,178788,1,0,0:0:0:0:
192,192,178938,1,0,0:0:0:0:
64,192,179088,1,0,0:0:0:0:
448,192,179088,1,0,0:0:0:0:
192,192,179238,1,0,0:0:0:0:
64,192,179388,1,0,0:0:0:0:
448,192,179688,1,0,0:0:0:0:
64,192,179688,1,0,0:0:0:0:
192,192,179688,128,0,180588:0:0:0:0:
64,192,179988,1,0,0:0:0:0:
448,192,179988,1,0,0:0:0:0:
320,192,180088,1,0,0:0:0:0:
64,192,180188,1,0,0:0:0:0:
320,192,180288,1,0,0:0:0:0:
448,192,180288,1,0,0:0:0:0:
64,192,180388,1,0,0:0:0:0:
320,192,180488,1,0,0:0:0:0:
64,192,180588,128,0,180888:0:0:0:0:
448,192,180588,1,0,0:0:0:0:
448,192,180888,128,0,182088:0:0:0:0:
320,192,180888,1,0,0:0:0:0:
192,192,180888,1,0,0:0:0:0:
192,192,181188,1,0,0:0:0:0:
64,192,181188,1,0,0:0:0:0:
192,192,181338,1,0,0:0:0:0:
320,192,181338,1,0,0:0:0:0:
64,192,181488,1,0,0:0:0:0:
320,192,181488,1,0,0:0:0:0:
192,192,181588,1,0,0:0:0:0:
320,192,181688,1,0,0:0:0:0:
64,192,181788,1,0,0:0:0:0:
320,192,181888,1,0,0:0:0:0:
192,192,181988,1,0,0:0:0:0:
64,192,182088,1,0,0:0:0:0:
320,192,182088,128,0,182688:0:0:0:0:
192,192,182388,1,0,0:0:0:0:
448,192,182488,1,0,0:0:0:0:
64,192,182588,1,0,0:0:0:0:
192,192,182688,128,0,183288:0:0:0:0:
448,192,182688,1,0,0:0:0:0:
64,192,182788,1,0,0:0:0:0:
448,192,182888,1,0,0:0:0:0:
320,192,182988,1,0,0:0:0:0:
64,192,183088,1,0,0:0:0:0:
448,192,183188,1,0,0:0:0:0:
64,192,183288,128,0,183438:0:0:0:0:
320,192,183288,1,0,0:0:0:0:
448,192,183438,128,0,183588:0:0:0:0:
320,192,183588,128,0,183738:0:0:0:0:
64,192,183588,1,0,0:0:0:0:
192,192,183663,1,0,0:0:0:0:
448,192,183738,1,0,0:0:0:0:
64,192,183813,1,0,0:0:0:0:
192,192,183888,1,0,0:0:0:0:
448,192,183888,1,0,0:0:0:0:
320,192,183888,1,0,0:0:0:0:
64,192,183963,1,0,0:0:0:0:
448,192,184038,1,0,0:0:0:0:
192,192,184113,1,0,0:0:0:0:
320,192,184188,1,0,0:0:0:0:
448,192,184188,1,0,0:0:0:0:
64,192,184263,1,0,0:0:0:0:
448,192,184338,1,0,0:0:0:0:
64,192,184413,1,0,0:0:0:0:
448,192,184488,1,0,0:0:0:0:
192,192,184488,1,0,0:0:0:0:
320,192,184488,128,0,185688:0:0:0:0:
64,192,184788,1,0,0:0:0:0:
448,192,184788,1,0,0:0:0:0:
192,192,184938,1,0,0:0:0:0:
64,192,184938,1,0,0:0:0:0:
64,192,185088,1,0,0:0:0:0:
448,192,185088,1,0,0:0:0:0:
192,192,185238,1,0,0:0:0:0:
448,192,185238,1,0,0:0:0:0:
448,192,185388,1,0,0:0:0:0:
64,192,185388,1,0,0:0:0:0:
192,192,185538,1,0,0:0:0:0:
64,192,185538,1,0,0:0:0:0:
448,192,185688,1,0,0:0:0:0:
192,192,185688,128,0,186888:0:0:0:0:
64,192,185838,1,0,0:0:0:0:
320,192,185838,1,0,0:0:0:0:
320,192,185988,1,0,0:0:0:0:
448,192,185988,1,0,0:0:0:0:
448,192,186138,1,0,0:0:0:0:
64,192,186138,1,0,0:0:0:0:
64,192,186288,1,0,0:0:0:0:
320,192,186288,1,0,0:0:0:0:
64,192,186438,1,0,0:0:0:0:
448,192,186438,1,0,0:0:0:0:
320,192,186588,1,0,0:0:0:0:
448,192,186588,1,0,0:0:0:0:
448,192,186738,1,0,0:0:0:0:
64,192,186738,1,0,0:0:0:0:
320,192,186888,1,0,0:0:0:0:
64,192,186888,128,0,188088:0:0:0:0:
448,192,186988,1,0,0:0:0:0:
320,192,187088,1,0,0:0:0:0:
192,192,187188,1,0,0:0:0:0:
448,192,187188,1,0,0:0:0:0:
320,192,187288,1,0,0:0:0:0:
448,192,187388,1,0,0:0:0:0:
192,192,187488,1,0,0:0:0:0:
320,192,187488,1,0,0:0:0:0:
448,192,187588,1,0,0:0:0:0:
192,192,187688,1,0,0:0:0:0:
320,192,187788,1,0,0:0:0:0:
448,192,187788,1,0,0:0:0:0:
192,192,187888,1,0,0:0:0:0:
320,192,187988,1,0,0:0:0:0:
192,192,188088,1,0,0:0:0:0:
320,192,188088,128,0,189288:0:0:0:0:
448,192,188088,1,0,0:0:0:0:
64,192,188388,1,0,0:0:0:0:
448,192,188538,1,0,0:0:0:0:
448,192,188688,1,0,0:0:0:0:
192,192,188688,1,0,0:0:0:0:
64,192,188838,1,0,0:0:0:0:
192,192,188988,1,0,0:0:0:0:
192,192,189288,128,0,190188:0:0:0:0:
64,192,189288,1,0,0:0:0:0:
448,192,189388,1,0,0:0:0:0:
320,192,189488,1,0,0:0:0:0:
448,192,189588,1,0,0:0:0:0:
64,192,189588,1,0,0:0:0:0:
320,192,189688,1,0,0:0:0:0:
448,192,189788,1,0,0:0:0:0:
64,192,189888,1,0,0:0:0:0:
320,192,189888,1,0,0:0:0:0:
448,192,189988,1,0,0:0:0:0:
64,192,190088,1,0,0:0:0:0:
448,192,190188,128,0,191688:0:0:0:0:
320,192,190188,1,0,0:0:0:0:
320,192,190488,1,0,0:0:0:0:
64,192,190488,1,0,0:0:0:0:
192,192,190563,1,0,0:0:0:0:
64,192,190638,1,0,0:0:0:0:
320,192,190713,1,0,0:0:0:0:
64,192,190788,1,0,0:0:0:0:
320,192,190863,1,0,0:0:0:0:
64,192,190938,1,0,0:0:0:0:
192,192,191013,1,0,0:0:0:0:
320,192,191088,1,0,0:0:0:0:
192,192,191163,1,0,0:0:0:0:
64,192,191238,1,0,0:0:0:0:
320,192,191313,1,0,0:0:0:0:
192,192,191388,1,0,0:0:0:0:
64,192,191463,1,0,0:0:0:0:
320,192,191538,1,0,0:0:0:0:
192,192,191613,1,0,0:0:0:0:
64,192,191688,1,0,0:0:0:0:
320,192,191688,128,0,192288:0:0:0:0:
448,192,191838,1,0,0:0:0:0:
192,192,191838,1,0,0:0:0:0:
64,192,191988,1,0,0:0:0:0:
192,192,191988,1,0,0:0:0:0:
448,192,192138,1,0,0:0:0:0:
64,192,192138,1,0,0:0:0:0:
192,192,192288,128,0,192888:0:0:0:0:
448,192,192288,1,0,0:0:0:0:
320,192,192438,1,0,0:0:0:0:
64,192,192438,1,0,0:0:0:0:
448,192,192588,1,0,0:0:0:0:
320,192,192688,1,0,0:0:0:0:
448,192,192788,1,0,0:0:0:0:
320,192,192888,1,0,0:0:0:0:
64,192,192888,1,0,0:0:0:0:
448,192,192963,1,0,0:0:0:0:
192,192,193038,1,0,0:0:0:0:
64,192,193113,1,0,0:0:0:0:
448,192,193188,1,0,0:0:0:0:
192,192,193188,1,0,0:0:0:0:
320,192,193263,1,0,0:0:0:0:
192,192,193338,1,0,0:0:0:0:
448,192,193413,1,0,0:0:0:0:
320,192,193488,1,0,0:0:0:0:
192,192,193488,1,0,0:0:0:0:
64,192,193488,1,0,0:0:0:0:
448,192,193563,1,0,0:0:0:0:
192,192,193638,1,0,0:0:0:0:
64,192,193713,1,0,0:0:0:0:
448,192,193788,1,0,0:0:0:0:
320,192,193863,1,0,0:0:0:0:
64,192,193938,1,0,0:0:0:0:
192,192,193938,1,0,0:0:0:0:
448,192,194013,1,0,0:0:0:0:
320,192,194013,1,0,0:0:0:0:
192,192,194088,1,0,0:0:0:0:
64,192,194088,1,0,0:0:0:0:
320,192,194163,1,0,0:0:0:0:
448,192,194238,1,0,0:0:0:0:
192,192,194313,1,0,0:0:0:0:
64,192,194388,1,0,0:0:0:0:
320,192,194388,1,0,0:0:0:0:
192,192,194463,1,0,0:0:0:0:
448,192,194538,1,0,0:0:0:0:
320,192,194613,1,0,0:0:0:0:
192,192,194688,1,0,0:0:0:0:
64,192,194688,1,0,0:0:0:0:
448,192,194763,1,0,0:0:0:0:
64,192,194838,1,0,0:0:0:0:
192,192,194913,1,0,0:0:0:0:
64,192,194988,1,0,0:0:0:0:
448,192,194988,1,0,0:0:0:0:
320,192,195063,1,0,0:0:0:0:
192,192,195138,1,0,0:0:0:0:
448,192,195213,1,0,0:0:0:0:
320,192,195288,1,0,0:0:0:0:
192,192,195288,1,0,0:0:0:0:
64,192,195438,128,0,195588:0:0:0:0:
192,192,195588,128,0,195738:0:0:0:0:
448,192,195738,128,0,195888:0:0:0:0:
320,192,195888,128,0,196038:0:0:0:0:
64,192,196038,128,0,196188:0:0:0:0:
448,192,196188,128,0,196338:0:0:0:0:
320,192,196338,128,0,196488:0:0:0:0:
192,192,196488,1,0,0:0:0:0:
448,192,196488,1,0,0:0:0:0:
64,192,196488,128,0,197688:0:0:0:0:
192,192,196788,1,0,0:0:0:0:
192,192,197088,1,0,0:0:0:0:
448,192,197088,1,0,0:0:0:0:
448,192,197388,1,0,0:0:0:0:
320,192,197688,128,0,198888:0:0:0:0:
192,192,197688,1,0,0:0:0:0:
448,192,197688,1,0,0:0:0:0:
64,192,197988,1,0,0:0:0:0:
64,192,198288,1,0,0:0:0:0:
448,192,198288,1,0,0:0:0:0:
448,192,198588,1,0,0:0:0:0:
192,192,198888,128,0,200088:0:0:0:0:
64,192,198888,1,0,0:0:0:0:
448,192,198888,1,0,0:0:0:0:
448,192,199188,1,0,0:0:0:0:
320,192,199488,1,0,0:0:0:0:
64,192,199488,1,0,0:0:0:0:
64,192,199788,1,0,0:0:0:0:
448,192,200088,128,0,201288:0:0:0:0:
64,192,200088,1,0,0:0:0:0:
320,192,200088,1,0,0:0:0:0:
64,192,200388,1,0,0:0:0:0:
64,192,200688,1,0,0:0:0:0:
192,192,200688,1,0,0:0:0:0:
320,192,200988,1,0,0:0:0:0:
192,192,201288,128,0,201888:0:0:0:0:
64,192,201288,1,0,0:0:0:0:
320,192,201288,1,0,0:0:0:0:
448,192,201588,1,0,0:0:0:0:
448,192,201888,1,0,0:0:0:0:
320,192,201888,1,0,0:0:0:0:
64,192,201888,128,0,202488:0:0:0:0:
192,192,202488,128,0,202638:0:0:0:0:
448,192,202638,128,0,202788:0:0:0:0:
320,192,202788,128,0,203088:0:0:0:0:
192,192,203088,1,0,0:0:0:0:
64,192,203088,1,0,0:0:0:0:
448,192,203238,128,0,203688:0:0:0:0:
192,192,203688,128,0,204288:0:0:0:0:
64,192,203688,1,0,0:0:0:0:
320,192,203688,1,0,0:0:0:0:
448,192,203988,1,0,0:0:0:0:
320,192,204138,1,0,0:0:0:0:
64,192,204288,128,0,204363:0:0:0:0:
448,192,204288,128,0,204363:0:0:0:0:
448,192,204438,128,0,204588:0:0:0:0:
64,192,204438,128,0,204588:0:0:0:0:
320,192,204738,1,0,0:0:0:0:
192,192,204738,1,0,0:0:0:0:
64,192,204888,1,0,0:0:0:0:
448,192,204888,1,0,0:0:0:0:
320,192,205038,128,0,205113:0:0:0:0:
448,192,205038,128,0,205113:0:0:0:0:
320,192,205188,128,0,205413:0:0:0:0:
448,192,205188,128,0,205413:0:0:0:0:
64,192,205488,1,0,0:0:0:0:
192,192,205488,1,0,0:0:0:0:
320,192,205788,1,0,0:0:0:0:
192,192,205788,1,0,0:0:0:0:
448,192,205938,1,0,0:0:0:0:
320,192,205938,1,0,0:0:0:0:
64,192,206088,1,0,0:0:0:0:
320,192,206088,1,0,0:0:0:0:
192,192,206088,128,0,207288:0:0:0:0:
64,192,206238,1,0,0:0:0:0:
448,192,206388,1,0,0:0:0:0:
320,192,206538,1,0,0:0:0:0:
64,192,206688,1,0,0:0:0:0:
448,192,206688,1,0,0:0:0:0:
64,192,206838,1,0,0:0:0:0:
448,192,206988,1,0,0:0:0:0:
320,192,207138,1,0,0:0:0:0:
448,192,207288,1,0,0:0:0:0:
64,192,207288,1,0,0:0:0:0:
320,192,207288,128,0,208488:0:0:0:0:
64,192,207438,1,0,0:0:0:0:
192,192,207588,1,0,0:0:0:0:
448,192,207738,1,0,0:0:0:0:
64,192,207888,1,0,0:0:0:0:
192,192,207888,1,0,0:0:0:0:
192,192,208038,1,0,0:0:0:0:
448,192,208188,1,0,0:0:0:0:
192,192,208338,1,0,0:0:0:0:
192,192,208488,1,0,0:0:0:0:
448,192,208488,128,0,209238:0:0:0:0:
64,192,208488,1,0,0:0:0:0:
64,192,208638,1,0,0:0:0:0:
192,192,208788,1,0,0:0:0:0:
64,192,208938,1,0,0:0:0:0:
320,192,209088,1,0,0:0:0:0:
192,192,209088,1,0,0:0:0:0:
192,192,209238,128,0,210888:0:0:0:0:
320,192,209388,1,0,0:0:0:0:
64,192,209538,1,0,0:0:0:0:
64,192,209688,1,0,0:0:0:0:
320,192,209688,1,0,0:0:0:0:
448,192,209838,1,0,0:0:0:0:
64,192,209988,1,0,0:0:0:0:
64,192,210138,1,0,0:0:0:0:
320,192,210288,1,0,0:0:0:0:
448,192,210288,1,0,0:0:0:0:
64,192,210438,1,0,0:0:0:0:
448,192,210588,1,0,0:0:0:0:
448,192,210738,1,0,0:0:0:0:
64,192,210888,1,0,0:0:0:0:
320,192,210888,128,0,211488:0:0:0:0:
448,192,210888,1,0,0:0:0:0:
64,192,211038,1,0,0:0:0:0:
192,192,211038,1,0,0:0:0:0:
64,192,211188,1,0,0:0:0:0:
448,192,211188,1,0,0:0:0:0:
192,192,211338,1,0,0:0:0:0:
64,192,211338,1,0,0:0:0:0:
448,192,211488,1,0,0:0:0:0:
64,192,211488,1,0,0:0:0:0:
192,192,211488,128,0,212088:0:0:0:0:
320,192,211638,1,0,0:0:0:0:
448,192,211638,1,0,0:0:0:0:
64,192,211788,1,0,0:0:0:0:
448,192,211788,1,0,0:0:0:0:
64,192,211938,1,0,0:0:0:0:
320,192,211938,1,0,0:0:0:0:
448,192,212088,1,0,0:0:0:0:
64,192,212088,128,0,212238:0:0:0:0:
448,192,212238,128,0,212388:0:0:0:0:
320,192,212238,1,0,0:0:0:0:
320,192,212388,128,0,212688:0:0:0:0:
192,192,212388,1,0,0:0:0:0:
64,192,212538,1,0,0:0:0:0:
64,192,212688,1,0,0:0:0:0:
448,192,212688,1,0,0:0:0:0:
320,192,212838,1,0,0:0:0:0:
192,192,212838,1,0,0:0:0:0:
64,192,212988,1,0,0:0:0:0:
448,192,212988,1,0,0:0:0:0:
64,192,213138,1,0,0:0:0:0:
448,192,213138,1,0,0:0:0:0:
192,192,213213,1,0,0:0:0:0:
320,192,213288,1,0,0:0:0:0:
64,192,213288,1,0,0:0:0:0:
448,192,213288,1,0,0:0:0:0:
192,192,213438,1,0,0:0:0:0:
64,192,213438,1,0,0:0:0:0:
192,192,213588,1,0,0:0:0:0:
448,192,213588,1,0,0:0:0:0:
448,192,213738,1,0,0:0:0:0:
320,192,213738,1,0,0:0:0:0:
192,192,213888,1,0,0:0:0:0:
320,192,213888,1,0,0:0:0:0:
64,192,213888,1,0,0:0:0:0:
448,192,213888,1,0,0:0:0:0:
448,192,214038,1,0,0:0:0:0:
64,192,214038,1,0,0:0:0:0:
192,192,214113,1,0,0:0:0:0:
320,192,214113,1,0,0:0:0:0:
64,192,214188,1,0,0:0:0:0:
448,192,214188,1,0,0:0:0:0:
192,192,214338,128,0,214488:0:0:0:0:
320,192,214338,128,0,214488:0:0:0:0:
448,192,214488,1,0,0:0:0:0:
64,192,214488,1,0,0:0:0:0:
192,192,214638,128,0,214713:0:0:0:0:
320,192,214638,128,0,214713:0:0:0:0:
64,192,214788,128,0,214938:0:0:0:0:
448,192,214788,128,0,214938:0:0:0:0:
192,192,215088,1,0,0:0:0:0:
64,192,215088,1,0,0:0:0:0:
448,192,215238,1,0,0:0:0:0:
320,192,215238,1,0,0:0:0:0:
320,192,215388,1,0,0:0:0:0:
192,192,215388,1,0,0:0:0:0:
448,192,215538,1,0,0:0:0:0:
192,192,215538,1,0,0:0:0:0:
320,192,215688,1,0,0:0:0:0:
64,192,215688,1,0,0:0:0:0:
192,192,215988,1,0,0:0:0:0:
448,192,215988,1,0,0:0:0:0:
192,192,216288,1,0,0:0:0:0:
64,192,216288,1,0,0:0:0:0:
320,192,216588,1,0,0:0:0:0:
448,192,216588,1,0,0:0:0:0:
192,192,216888,1,0,0:0:0:0:
64,192,216888,1,0,0:0:0:0:
320,192,216988,1,0,0:0:0:0:
448,192,217088,1,0,0:0:0:0:
320,192,217188,1,0,0:0:0:0:
192,192,217188,1,0,0:0:0:0:
64,192,217288,1,0,0:0:0:0:
320,192,217388,1,0,0:0:0:0:
448,192,217488,1,0,0:0:0:0:
192,192,217488,1,0,0:0:0:0:
320,192,217588,1,0,0:0:0:0:
64,192,217688,1,0,0:0:0:0:
192,192,217788,1,0,0:0:0:0:
448,192,217788,1,0,0:0:0:0:
320,192,217888,1,0,0:0:0:0:
192,192,217988,1,0,0:0:0:0:
320,192,218088,1,0,0:0:0:0:
448,192,218088,1,0,0:0:0:0:
64,192,218088,1,0,0:0:0:0:
192,192,218188,1,0,0:0:0:0:
64,192,218288,1,0,0:0:0:0:
448,192,218388,1,0,0:0:0:0:
192,192,218388,1,0,0:0:0:0:
320,192,218388,1,0,0:0:0:0:
64,192,218488,1,0,0:0:0:0:
320,192,218588,1,0,0:0:0:0:
64,192,218688,1,0,0:0:0:0:
448,192,218688,1,0,0:0:0:0:
192,192,218688,1,0,0:0:0:0:
320,192,218788,1,0,0:0:0:0:
64,192,218888,1,0,0:0:0:0:
192,192,218988,1,0,0:0:0:0:
448,192,218988,1,0,0:0:0:0:
320,192,218988,1,0,0:0:0:0:
64,192,219088,1,0,0:0:0:0:
320,192,219188,1,0,0:0:0:0:
448,192,219288,1,0,0:0:0:0:
64,192,219288,1,0,0:0:0:0:
192,192,219288,1,0,0:0:0:0:
320,192,219388,1,0,0:0:0:0:
64,192,219488,1,0,0:0:0:0:
192,192,219588,1,0,0:0:0:0:
448,192,219588,1,0,0:0:0:0:
320,192,219588,1,0,0:0:0:0:
64,192,219688,1,0,0:0:0:0:
448,192,219788,1,0,0:0:0:0:
320,192,219888,1,0,0:0:0:0:
192,192,219888,1,0,0:0:0:0:
64,192,219888,1,0,0:0:0:0:
448,192,219988,1,0,0:0:0:0:
192,192,220088,1,0,0:0:0:0:
64,192,220188,1,0,0:0:0:0:
320,192,220188,1,0,0:0:0:0:
448,192,220188,1,0,0:0:0:0:
192,192,220288,1,0,0:0:0:0:
64,192,220288,1,0,0:0:0:0:
448,192,220388,1,0,0:0:0:0:
320,192,220388,1,0,0:0:0:0:
320,192,220488,1,0,0:0:0:0:
64,192,220488,1,0,0:0:0:0:
192,192,220488,1,0,0:0:0:0:
448,192,220788,1,0,0:0:0:0:
320,192,220838,1,0,0:0:0:0:
192,192,220888,1,0,0:0:0:0:
64,192,220938,1,0,0:0:0:0:
320,192,220988,1,0,0:0:0:0:
192,192,221038,1,0,0:0:0:0:
448,192,221088,1,0,0:0:0:0:
320,192,221138,1,0,0:0:0:0:
64,192,221188,1,0,0:0:0:0:
192,192,221238,1,0,0:0:0:0:
320,192,221288,1,0,0:0:0:0:
448,192,221338,1,0,0:0:0:0:
320,192,221388,1,0,0:0:0:0:
192,192,221438,1,0,0:0:0:0:
64,192,221488,1,0,0:0:0:0:
448,192,221538,1,0,0:0:0:0:
320,192,221588,1,0,0:0:0:0:
192,192,221638,1,0,0:0:0:0:
448,192,221688,1,0,0:0:0:0:
320,192,221738,1,0,0:0:0:0:
192,192,221788,1,0,0:0:0:0:
64,192,221838,1,0,0:0:0:0:
320,192,221888,1,0,0:0:0:0:
448,192,221938,1,0,0:0:0:0:
192,192,221988,1,0,0:0:0:0:
64,192,222038,1,0,0:0:0:0:
448,192,222088,1,0,0:0:0:0:
320,192,222138,1,0,0:0:0:0:
64,192,222188,1,0,0:0:0:0:
192,192,222238,1,0,0:0:0:0:
448,192,222288,1,0,0:0:0:0:
320,192,222338,1,0,0:0:0:0:
192,192,222388,1,0,0:0:0:0:
64,192,222438,1,0,0:0:0:0:
448,192,222488,1,0,0:0:0:0:
320,192,222538,1,0,0:0:0:0:
64,192,222588,1,0,0:0:0:0:
192,192,222638,1,0,0:0:0:0:
320,192,222688,1,0,0:0:0:0:
448,192,222738,1,0,0:0:0:0:
192,192,222788,1,0,0:0:0:0:
320,192,222838,1,0,0:0:0:0:
64,192,222888,1,0,0:0:0:0:
448,192,222888,1,0,0:0:0:0:
192,192,224088,1,0,0:0:0:0:
448,192,224088,1,0,0:0:0:0:
320,192,224088,1,0,0:0:0:0:
64,192,224088,1,0,0:0:0:0:
