osu file format v14

[General]
AudioFilename: audio.mp3
AudioLeadIn: 0
PreviewTime: 117107
Countdown: 0
SampleSet: Soft
StackLeniency: 0.7
Mode: 3
LetterboxInBreaks: 0
SpecialStyle: 0
WidescreenStoryboard: 1

[Editor]
Bookmarks: 17840,30147,45532,57840,70147,79570,97840,110917,142068,181683,209415,222256,237641,256102,276006,299179
DistanceSpacing: 1.9
BeatDivisor: 12
GridSize: 8
TimelineZoom: 2.800006

[Metadata]
Title:Double Helix
TitleUnicode:Double Helix
Artist:xi
ArtistUnicode:xi
Creator:Roasted Chicken
Version:Intertwined Fate
Source:
Tags:unluckycroco Electronic Instrumental world fragments diverse system AD:PIANO2 II marathon dvsp-0145 dvsp-0107 progressive jazz jacks fa featured artist Rayark 9th Anniversary rice jacks voez
BeatmapID:3276905
BeatmapSetID:1604725

[Difficulty]
HPDrainRate:8.7
CircleSize:4
OverallDifficulty:8.7
ApproachRate:9
SliderMultiplier:1.4
SliderTickRate:1

[Events]
//Background and Video events
0,0,"85362047_p0.jpg",0,0
//Break Periods
//Storyboard Layer 0 (Background)
//Storyboard Layer 1 (Fail)
//Storyboard Layer 2 (Pass)
//Storyboard Layer 3 (Foreground)
//Storyboard Layer 4 (Overlay)
//Storyboard Sound Samples

[TimingPoints]
956,384.615384615385,4,2,1,50,1,0
956,-100,4,2,1,50,0,0
18071,-100,4,2,1,50,0,1
30186,-100,4,2,1,50,0,0
117107,384.615384615385,4,2,1,50,1,0
117107,-100,4,2,1,50,0,0
117299,-100,4,2,1,50,0,1
142107,-100,4,2,1,50,0,0
207876,394.736842105263,4,2,1,50,1,0
207876,-97.0873786407767,4,2,1,50,0,0
210638,405.405405405405,4,2,1,50,1,8
210638,-95.2380952380952,4,2,1,50,0,0
211043,400,4,2,1,50,1,0
211043,-96.1538461538461,4,2,1,50,0,0
212043,408.163265306122,4,2,1,50,1,8
212043,-94.3396226415094,4,2,1,50,0,0
212653,402.684563758389,4,2,1,50,1,0
212653,-95.2380952380952,4,2,1,50,0,0
213460,428.571428571429,4,2,1,50,1,8
213460,-90.0900900900901,4,2,1,50,0,0
213745,400,4,2,1,50,1,8
213745,-96.1538461538461,4,2,1,50,0,0
214011,370.37037037037,4,2,1,50,1,8
214011,-104.166666666667,4,2,1,50,0,0
214257,419.58041958042,4,2,1,50,1,0
214257,-91.743119266055,4,2,1,50,0,0
215094,434.782608695652,4,2,1,50,1,8
215094,-88.495575221239,4,2,1,50,0,0
215963,422.535211267606,4,2,1,50,1,0
215963,-90.9090909090909,4,2,1,50,0,0
216385,402.684563758389,4,2,1,50,1,8
216385,-95.2380952380952,4,2,1,50,0,0
217593,359.281437125748,4,2,1,50,1,0
217593,-107.52688172043,4,2,1,50,0,0
217953,431.654676258993,4,2,1,50,1,8
217953,-89.2857142857143,4,2,1,50,0,0
218384,397.350993377483,4,2,1,50,1,8
218384,-97.0873786407767,4,2,1,50,0,0
218980,441.176470588235,4,2,1,50,1,8
218980,-86.9565217391304,4,2,1,50,0,0
219200,389.61038961039,4,2,1,50,1,0
219200,-99.009900990099,4,2,1,50,0,0
220757,384.615384615385,4,2,1,50,1,0
220757,-100,4,2,1,50,0,0
276045,-100,4,2,1,50,0,1
296141,-100,4,2,1,50,0,0
299410,-100,4,2,1,50,0,1
302199,-100,4,2,1,50,0,0
302487,-100,4,2,1,50,0,1
305276,-100,4,2,1,50,0,0
305564,-100,4,2,1,50,0,1
308353,-100,4,2,1,50,0,0
308641,-100,4,2,1,50,0,1
311526,-100,4,2,1,50,0,0
314795,-100,4,2,1,50,0,1
317199,-100,4,2,1,50,0,0

[HitObjects]
64,192,956,5,0,0:0:0:0:
64,192,1340,1,0,0:0:0:0:
320,192,1725,1,0,0:0:0:0:
448,192,1725,1,0,0:0:0:0:
64,192,1821,1,0,0:0:0:0:
192,192,1821,1,0,0:0:0:0:
64,192,1917,1,0,0:0:0:0:
192,192,1917,1,0,0:0:0:0:
320,192,1981,1,0,0:0:0:0:
448,192,2045,1,0,0:0:0:0:
192,192,2109,1,0,0:0:0:0:
64,192,2173,1,0,0:0:0:0:
320,192,2238,1,0,0:0:0:0:
192,192,2302,1,0,0:0:0:0:
448,192,2366,1,0,0:0:0:0:
320,192,2430,1,0,0:0:0:0:
448,192,2494,1,0,0:0:0:0:
64,192,2494,1,0,0:0:0:0:
192,192,2494,1,0,0:0:0:0:
320,192,2686,1,0,0:0:0:0:
192,192,2782,1,0,0:0:0:0:
64,192,2879,1,0,0:0:0:0:
448,192,2975,1,0,0:0:0:0:
320,192,3071,1,0,0:0:0:0:
192,192,3263,1,0,0:0:0:0:
320,192,3359,1,0,0:0:0:0:
448,192,3552,1,0,0:0:0:0:
192,192,3648,1,0,0:0:0:0:
64,192,3840,1,0,0:0:0:0:
320,192,3936,1,0,0:0:0:0:
448,192,4129,1,0,0:0:0:0:
192,192,4225,1,0,0:0:0:0:
64,192,4225,1,0,0:0:0:0:
320,192,4321,1,0,0:0:0:0:
448,192,4417,1,0,0:0:0:0:
192,192,4417,1,0,0:0:0:0:
320,192,4609,1,0,0:0:0:0:
64,192,4609,1,0,0:0:0:0:
448,192,4706,1,0,0:0:0:0:
320,192,4802,1,0,0:0:0:0:
192,192,4802,1,0,0:0:0:0:
448,192,4898,1,0,0:0:0:0:
192,192,4994,1,0,0:0:0:0:
64,192,4994,1,0,0:0:0:0:
320,192,5090,1,0,0:0:0:0:
448,192,5186,1,0,0:0:0:0:
64,192,5186,1,0,0:0:0:0:
64,192,5379,1,0,0:0:0:0:
192,192,5379,1,0,0:0:0:0:
320,192,5475,1,0,0:0:0:0:
448,192,5571,1,0,0:0:0:0:
192,192,5571,1,0,0:0:0:0:
192,192,5763,1,0,0:0:0:0:
320,192,5859,1,0,0:0:0:0:
448,192,5859,1,0,0:0:0:0:
64,192,5956,1,0,0:0:0:0:
192,192,6148,1,0,0:0:0:0:
320,192,6148,1,0,0:0:0:0:
448,192,6340,1,0,0:0:0:0:
192,192,6532,1,0,0:0:0:0:
64,192,6532,1,0,0:0:0:0:
320,192,6629,1,0,0:0:0:0:
192,192,6725,1,0,0:0:0:0:
448,192,6725,1,0,0:0:0:0:
64,192,6821,1,0,0:0:0:0:
320,192,6917,1,0,0:0:0:0:
448,192,6917,1,0,0:0:0:0:
64,192,7013,1,0,0:0:0:0:
192,192,7013,1,0,0:0:0:0:
448,192,7109,1,0,0:0:0:0:
320,192,7109,1,0,0:0:0:0:
320,192,7302,1,0,0:0:0:0:
192,192,7398,1,0,0:0:0:0:
448,192,7494,1,0,0:0:0:0:
320,192,7494,1,0,0:0:0:0:
320,192,7686,1,0,0:0:0:0:
192,192,7782,1,0,0:0:0:0:
64,192,7782,1,0,0:0:0:0:
320,192,7879,1,0,0:0:0:0:
448,192,7879,1,0,0:0:0:0:
448,192,7975,1,0,0:0:0:0:
320,192,8167,1,0,0:0:0:0:
448,192,8167,1,0,0:0:0:0:
64,192,8263,1,0,0:0:0:0:
320,192,8263,1,0,0:0:0:0:
64,192,8359,1,0,0:0:0:0:
192,192,8359,1,0,0:0:0:0:
448,192,8456,1,0,0:0:0:0:
192,192,8520,1,0,0:0:0:0:
320,192,8584,1,0,0:0:0:0:
64,192,8648,1,0,0:0:0:0:
192,192,8648,1,0,0:0:0:0:
448,192,8648,1,0,0:0:0:0:
320,192,8840,1,0,0:0:0:0:
192,192,8936,1,0,0:0:0:0:
320,192,9032,1,0,0:0:0:0:
64,192,9032,1,0,0:0:0:0:
448,192,9225,1,0,0:0:0:0:
320,192,9321,1,0,0:0:0:0:
64,192,9321,1,0,0:0:0:0:
192,192,9417,1,0,0:0:0:0:
448,192,9417,1,0,0:0:0:0:
64,192,9513,1,0,0:0:0:0:
192,192,9609,1,0,0:0:0:0:
320,192,9609,1,0,0:0:0:0:
448,192,9706,1,0,0:0:0:0:
192,192,9802,1,0,0:0:0:0:
64,192,9802,1,0,0:0:0:0:
320,192,9898,1,0,0:0:0:0:
64,192,9994,1,0,0:0:0:0:
448,192,9994,1,0,0:0:0:0:
192,192,10090,1,0,0:0:0:0:
448,192,10186,1,0,0:0:0:0:
320,192,10186,1,0,0:0:0:0:
192,192,10379,1,0,0:0:0:0:
64,192,10379,1,0,0:0:0:0:
320,192,10475,1,0,0:0:0:0:
448,192,10571,1,0,0:0:0:0:
192,192,10571,1,0,0:0:0:0:
64,192,10667,1,0,0:0:0:0:
448,192,10763,1,0,0:0:0:0:
320,192,10763,1,0,0:0:0:0:
64,192,10859,1,0,0:0:0:0:
192,192,10956,1,0,0:0:0:0:
320,192,10956,1,0,0:0:0:0:
448,192,11148,1,0,0:0:0:0:
192,192,11148,1,0,0:0:0:0:
64,192,11244,1,0,0:0:0:0:
320,192,11244,1,0,0:0:0:0:
448,192,11340,1,0,0:0:0:0:
192,192,11340,1,0,0:0:0:0:
320,192,11436,1,0,0:0:0:0:
448,192,11532,1,0,0:0:0:0:
64,192,11532,1,0,0:0:0:0:
192,192,11532,1,0,0:0:0:0:
320,192,11629,1,0,0:0:0:0:
64,192,11725,1,0,0:0:0:0:
192,192,11725,1,0,0:0:0:0:
448,192,11725,1,0,0:0:0:0:
64,192,11917,1,0,0:0:0:0:
448,192,11917,1,0,0:0:0:0:
192,192,12013,1,0,0:0:0:0:
64,192,12013,1,0,0:0:0:0:
64,192,12206,1,0,0:0:0:0:
448,192,12206,1,0,0:0:0:0:
64,192,12302,1,0,0:0:0:0:
192,192,12302,1,0,0:0:0:0:
64,192,12494,1,0,0:0:0:0:
448,192,12494,1,0,0:0:0:0:
64,192,12590,1,0,0:0:0:0:
192,192,12590,1,0,0:0:0:0:
64,192,12782,1,0,0:0:0:0:
448,192,12782,1,0,0:0:0:0:
64,192,12879,1,0,0:0:0:0:
192,192,12879,1,0,0:0:0:0:
320,192,12943,1,0,0:0:0:0:
448,192,13007,1,0,0:0:0:0:
192,192,13071,1,0,0:0:0:0:
64,192,13071,1,0,0:0:0:0:
320,192,13167,1,0,0:0:0:0:
64,192,13263,1,0,0:0:0:0:
192,192,13263,1,0,0:0:0:0:
448,192,13391,1,0,0:0:0:0:
64,192,13391,1,0,0:0:0:0:
192,192,13520,1,0,0:0:0:0:
448,192,13520,1,0,0:0:0:0:
320,192,13648,1,0,0:0:0:0:
192,192,13648,1,0,0:0:0:0:
64,192,13776,1,0,0:0:0:0:
320,192,13776,1,0,0:0:0:0:
64,192,13904,1,0,0:0:0:0:
448,192,13904,1,0,0:0:0:0:
448,192,14032,1,0,0:0:0:0:
192,192,14032,1,0,0:0:0:0:
64,192,14225,1,0,0:0:0:0:
192,192,14369,1,0,0:0:0:0:
320,192,14417,1,0,0:0:0:0:
448,192,14417,1,0,0:0:0:0:
64,192,14513,1,0,0:0:0:0:
320,192,14609,1,0,0:0:0:0:
448,192,14706,1,0,0:0:0:0:
64,192,14802,1,0,0:0:0:0:
192,192,14802,1,0,0:0:0:0:
448,192,14994,1,0,0:0:0:0:
192,192,15186,1,0,0:0:0:0:
64,192,15379,1,0,0:0:0:0:
192,192,15443,1,0,0:0:0:0:
320,192,15507,1,0,0:0:0:0:
192,192,15571,1,0,0:0:0:0:
64,192,15571,1,0,0:0:0:0:
448,192,15571,1,0,0:0:0:0:
320,192,15667,1,0,0:0:0:0:
448,192,15763,1,0,0:0:0:0:
64,192,15827,1,0,0:0:0:0:
192,192,15891,1,0,0:0:0:0:
320,192,15956,1,0,0:0:0:0:
448,192,15956,1,0,0:0:0:0:
64,192,15956,1,0,0:0:0:0:
192,192,16052,1,0,0:0:0:0:
448,192,16148,1,0,0:0:0:0:
320,192,16244,1,0,0:0:0:0:
64,192,16340,1,0,0:0:0:0:
192,192,16340,1,0,0:0:0:0:
320,192,16532,1,0,0:0:0:0:
448,192,16532,1,0,0:0:0:0:
192,192,16597,1,0,0:0:0:0:
64,192,16661,1,0,0:0:0:0:
448,192,16725,1,0,0:0:0:0:
320,192,16725,1,0,0:0:0:0:
192,192,16821,1,0,0:0:0:0:
448,192,16917,1,0,0:0:0:0:
320,192,17013,1,0,0:0:0:0:
192,192,17013,1,0,0:0:0:0:
64,192,17013,1,0,0:0:0:0:
448,192,17206,1,0,0:0:0:0:
192,192,17302,1,0,0:0:0:0:
448,192,17398,1,0,0:0:0:0:
64,192,17494,1,0,0:0:0:0:
64,192,17622,1,0,0:0:0:0:
320,192,17686,1,0,0:0:0:0:
192,192,17750,1,0,0:0:0:0:
320,192,17814,1,0,0:0:0:0:
64,192,17879,1,0,0:0:0:0:
192,192,17879,1,0,0:0:0:0:
448,192,17879,1,0,0:0:0:0:
448,192,18071,1,0,0:0:0:0:
320,192,18071,1,0,0:0:0:0:
320,192,18263,1,0,0:0:0:0:
192,192,18263,1,0,0:0:0:0:
64,192,18263,1,0,0:0:0:0:
448,192,18263,1,0,0:0:0:0:
64,192,18552,1,0,0:0:0:0:
448,192,18552,1,0,0:0:0:0:
320,192,18552,1,0,0:0:0:0:
192,192,18648,1,0,0:0:0:0:
320,192,18744,1,0,0:0:0:0:
64,192,18840,1,0,0:0:0:0:
448,192,18904,1,0,0:0:0:0:
64,192,18968,1,0,0:0:0:0:
192,192,19032,1,0,0:0:0:0:
448,192,19032,1,0,0:0:0:0:
320,192,19032,1,0,0:0:0:0:
320,192,19129,1,0,0:0:0:0:
64,192,19225,1,0,0:0:0:0:
448,192,19225,1,0,0:0:0:0:
192,192,19321,1,0,0:0:0:0:
192,192,19417,1,0,0:0:0:0:
64,192,19417,1,0,0:0:0:0:
448,192,19417,1,0,0:0:0:0:
320,192,19609,1,0,0:0:0:0:
448,192,19609,1,0,0:0:0:0:
192,192,19706,1,0,0:0:0:0:
448,192,19802,1,0,0:0:0:0:
64,192,19802,1,0,0:0:0:0:
320,192,19802,1,0,0:0:0:0:
192,192,19898,1,0,0:0:0:0:
448,192,19898,1,0,0:0:0:0:
192,192,20090,1,0,0:0:0:0:
320,192,20090,1,0,0:0:0:0:
64,192,20090,1,0,0:0:0:0:
192,192,20282,1,0,0:0:0:0:
64,192,20282,1,0,0:0:0:0:
64,192,20475,1,0,0:0:0:0:
192,192,20571,1,0,0:0:0:0:
448,192,20571,1,0,0:0:0:0:
320,192,20571,1,0,0:0:0:0:
64,192,20667,1,0,0:0:0:0:
448,192,20763,1,0,0:0:0:0:
320,192,20763,1,0,0:0:0:0:
320,192,20859,1,0,0:0:0:0:
192,192,20859,1,0,0:0:0:0:
448,192,20859,1,0,0:0:0:0:
64,192,20859,1,0,0:0:0:0:
192,192,21148,1,0,0:0:0:0:
320,192,21244,1,0,0:0:0:0:
64,192,21340,1,0,0:0:0:0:
192,192,21340,1,0,0:0:0:0:
448,192,21340,1,0,0:0:0:0:
64,192,21436,1,0,0:0:0:0:
320,192,21532,1,0,0:0:0:0:
64,192,21629,1,0,0:0:0:0:
320,192,21629,1,0,0:0:0:0:
448,192,21629,1,0,0:0:0:0:
192,192,21629,1,0,0:0:0:0:
64,192,21917,1,0,0:0:0:0:
448,192,21917,1,0,0:0:0:0:
192,192,21981,1,0,0:0:0:0:
320,192,22045,1,0,0:0:0:0:
192,192,22109,1,0,0:0:0:0:
64,192,22109,1,0,0:0:0:0:
448,192,22109,1,0,0:0:0:0:
64,192,22206,1,0,0:0:0:0:
192,192,22206,1,0,0:0:0:0:
192,192,22398,1,0,0:0:0:0:
320,192,22398,1,0,0:0:0:0:
64,192,22398,1,0,0:0:0:0:
448,192,22398,1,0,0:0:0:0:
320,192,22590,1,0,0:0:0:0:
448,192,22686,1,0,0:0:0:0:
192,192,22782,1,0,0:0:0:0:
64,192,22879,1,0,0:0:0:0:
448,192,22879,1,0,0:0:0:0:
320,192,22879,1,0,0:0:0:0:
320,192,23071,1,0,0:0:0:0:
448,192,23167,1,0,0:0:0:0:
320,192,23167,1,0,0:0:0:0:
192,192,23167,1,0,0:0:0:0:
64,192,23167,1,0,0:0:0:0:
448,192,23359,1,0,0:0:0:0:
192,192,23456,1,0,0:0:0:0:
64,192,23456,1,0,0:0:0:0:
320,192,23520,1,0,0:0:0:0:
64,192,23584,1,0,0:0:0:0:
320,192,23648,1,0,0:0:0:0:
192,192,23648,1,0,0:0:0:0:
448,192,23648,1,0,0:0:0:0:
448,192,23744,1,0,0:0:0:0:
64,192,23744,1,0,0:0:0:0:
320,192,23840,1,0,0:0:0:0:
192,192,23936,1,0,0:0:0:0:
64,192,24032,1,0,0:0:0:0:
448,192,24032,1,0,0:0:0:0:
320,192,24032,1,0,0:0:0:0:
320,192,24225,1,0,0:0:0:0:
192,192,24225,1,0,0:0:0:0:
64,192,24417,1,0,0:0:0:0:
192,192,24417,1,0,0:0:0:0:
320,192,24417,1,0,0:0:0:0:
64,192,24609,1,0,0:0:0:0:
192,192,24706,1,0,0:0:0:0:
320,192,24706,1,0,0:0:0:0:
448,192,24706,1,0,0:0:0:0:
64,192,24802,1,0,0:0:0:0:
448,192,24898,1,0,0:0:0:0:
192,192,24994,1,0,0:0:0:0:
320,192,25058,1,0,0:0:0:0:
192,192,25122,1,0,0:0:0:0:
448,192,25186,1,0,0:0:0:0:
320,192,25186,1,0,0:0:0:0:
64,192,25186,1,0,0:0:0:0:
448,192,25282,1,0,0:0:0:0:
320,192,25379,1,0,0:0:0:0:
64,192,25379,1,0,0:0:0:0:
192,192,25475,1,0,0:0:0:0:
448,192,25571,1,0,0:0:0:0:
64,192,25571,1,0,0:0:0:0:
192,192,25571,1,0,0:0:0:0:
448,192,25763,1,0,0:0:0:0:
320,192,25763,1,0,0:0:0:0:
192,192,25859,1,0,0:0:0:0:
320,192,25956,1,0,0:0:0:0:
448,192,25956,1,0,0:0:0:0:
64,192,25956,1,0,0:0:0:0:
192,192,26052,1,0,0:0:0:0:
448,192,26052,1,0,0:0:0:0:
64,192,26244,1,0,0:0:0:0:
320,192,26244,1,0,0:0:0:0:
448,192,26244,1,0,0:0:0:0:
192,192,26244,1,0,0:0:0:0:
64,192,26436,1,0,0:0:0:0:
192,192,26436,1,0,0:0:0:0:
320,192,26532,1,0,0:0:0:0:
192,192,26629,1,0,0:0:0:0:
448,192,26725,1,0,0:0:0:0:
320,192,26725,1,0,0:0:0:0:
64,192,26725,1,0,0:0:0:0:
192,192,26789,1,0,0:0:0:0:
320,192,26917,1,0,0:0:0:0:
448,192,26917,1,0,0:0:0:0:
64,192,27013,1,0,0:0:0:0:
192,192,27013,1,0,0:0:0:0:
320,192,27013,1,0,0:0:0:0:
448,192,27013,1,0,0:0:0:0:
64,192,27302,1,0,0:0:0:0:
192,192,27302,1,0,0:0:0:0:
448,192,27398,1,0,0:0:0:0:
320,192,27398,1,0,0:0:0:0:
448,192,27494,1,0,0:0:0:0:
64,192,27494,1,0,0:0:0:0:
192,192,27494,1,0,0:0:0:0:
64,192,27590,1,0,0:0:0:0:
448,192,27686,1,0,0:0:0:0:
192,192,27686,1,0,0:0:0:0:
320,192,27782,1,0,0:0:0:0:
64,192,27879,1,0,0:0:0:0:
192,192,27879,1,0,0:0:0:0:
320,192,27879,1,0,0:0:0:0:
448,192,27879,1,0,0:0:0:0:
64,192,28071,1,0,0:0:0:0:
192,192,28119,1,0,0:0:0:0:
320,192,28167,1,0,0:0:0:0:
192,192,28263,1,0,0:0:0:0:
320,192,28263,1,0,0:0:0:0:
448,192,28263,1,0,0:0:0:0:
64,192,28263,1,0,0:0:0:0:
64,192,28359,1,0,0:0:0:0:
448,192,28456,1,0,0:0:0:0:
192,192,28552,1,0,0:0:0:0:
64,192,28552,1,0,0:0:0:0:
320,192,28552,1,0,0:0:0:0:
448,192,28552,1,0,0:0:0:0:
192,192,28648,1,0,0:0:0:0:
64,192,28648,1,0,0:0:0:0:
320,192,28776,1,0,0:0:0:0:
192,192,28840,1,0,0:0:0:0:
448,192,28904,1,0,0:0:0:0:
64,192,28936,1,0,0:0:0:0:
320,192,28968,1,0,0:0:0:0:
192,192,29032,1,0,0:0:0:0:
64,192,29032,1,0,0:0:0:0:
448,192,29032,1,0,0:0:0:0:
192,192,29225,1,0,0:0:0:0:
192,192,29321,1,0,0:0:0:0:
64,192,29321,1,0,0:0:0:0:
320,192,29321,1,0,0:0:0:0:
448,192,29321,1,0,0:0:0:0:
320,192,29513,1,0,0:0:0:0:
192,192,29609,1,0,0:0:0:0:
64,192,29609,1,0,0:0:0:0:
448,192,29657,1,0,0:0:0:0:
320,192,29706,1,0,0:0:0:0:
192,192,29754,1,0,0:0:0:0:
64,192,29802,1,0,0:0:0:0:
448,192,29850,1,0,0:0:0:0:
320,192,29898,1,0,0:0:0:0:
192,192,29946,1,0,0:0:0:0:
448,192,29994,1,0,0:0:0:0:
320,192,30090,1,0,0:0:0:0:
64,192,30186,1,0,0:0:0:0:
192,192,30186,1,0,0:0:0:0:
448,192,30186,1,0,0:0:0:0:
64,192,30282,1,0,0:0:0:0:
192,192,30379,1,0,0:0:0:0:
320,192,30475,1,0,0:0:0:0:
448,192,30571,1,0,0:0:0:0:
64,192,30763,1,0,0:0:0:0:
192,192,30956,1,0,0:0:0:0:
448,192,31052,1,0,0:0:0:0:
320,192,31148,1,0,0:0:0:0:
192,192,31340,1,0,0:0:0:0:
64,192,31436,1,0,0:0:0:0:
448,192,31532,1,0,0:0:0:0:
320,192,31629,1,0,0:0:0:0:
64,192,31725,1,0,0:0:0:0:
192,192,31725,1,0,0:0:0:0:
448,192,31821,1,0,0:0:0:0:
192,192,31821,1,0,0:0:0:0:
320,192,31917,1,0,0:0:0:0:
448,192,31917,1,0,0:0:0:0:
64,192,32013,1,0,0:0:0:0:
192,192,32013,1,0,0:0:0:0:
448,192,32109,1,0,0:0:0:0:
192,192,32109,1,0,0:0:0:0:
320,192,32206,1,0,0:0:0:0:
448,192,32206,1,0,0:0:0:0:
64,192,32302,1,0,0:0:0:0:
192,192,32302,1,0,0:0:0:0:
448,192,32398,1,0,0:0:0:0:
192,192,32398,1,0,0:0:0:0:
320,192,32494,1,0,0:0:0:0:
448,192,32494,1,0,0:0:0:0:
192,192,32590,1,0,0:0:0:0:
64,192,32590,1,0,0:0:0:0:
448,192,32686,1,0,0:0:0:0:
192,192,32686,1,0,0:0:0:0:
320,192,32782,1,0,0:0:0:0:
448,192,32782,1,0,0:0:0:0:
64,192,32879,1,0,0:0:0:0:
192,192,32879,1,0,0:0:0:0:
448,192,32943,1,0,0:0:0:0:
320,192,33007,1,0,0:0:0:0:
64,192,33071,1,0,0:0:0:0:
192,192,33167,1,0,0:0:0:0:
64,192,33263,1,0,0:0:0:0:
192,192,33263,1,0,0:0:0:0:
320,192,33263,1,0,0:0:0:0:
448,192,33263,1,0,0:0:0:0:
64,192,33456,1,0,0:0:0:0:
64,192,33648,1,0,0:0:0:0:
64,192,33840,1,0,0:0:0:0:
64,192,33936,1,0,0:0:0:0:
320,192,34032,1,0,0:0:0:0:
448,192,34032,1,0,0:0:0:0:
64,192,34225,1,0,0:0:0:0:
448,192,34321,1,0,0:0:0:0:
320,192,34321,1,0,0:0:0:0:
64,192,34513,1,0,0:0:0:0:
448,192,34609,1,0,0:0:0:0:
320,192,34609,1,0,0:0:0:0:
192,192,34802,1,0,0:0:0:0:
192,192,34994,1,0,0:0:0:0:
192,192,35090,1,0,0:0:0:0:
192,192,35282,1,0,0:0:0:0:
192,192,35379,1,0,0:0:0:0:
320,192,35475,1,0,0:0:0:0:
64,192,35571,1,0,0:0:0:0:
448,192,35571,1,0,0:0:0:0:
320,192,35763,1,0,0:0:0:0:
64,192,35859,1,0,0:0:0:0:
448,192,35859,1,0,0:0:0:0:
192,192,35956,1,0,0:0:0:0:
64,192,36148,1,0,0:0:0:0:
448,192,36148,1,0,0:0:0:0:
320,192,36340,1,0,0:0:0:0:
320,192,36532,1,0,0:0:0:0:
448,192,36725,1,0,0:0:0:0:
320,192,36725,1,0,0:0:0:0:
320,192,36917,1,0,0:0:0:0:
320,192,37013,1,0,0:0:0:0:
64,192,37109,1,0,0:0:0:0:
192,192,37109,1,0,0:0:0:0:
448,192,37302,1,0,0:0:0:0:
448,192,37398,1,0,0:0:0:0:
64,192,37494,1,0,0:0:0:0:
320,192,37494,1,0,0:0:0:0:
192,192,37686,1,0,0:0:0:0:
192,192,37782,1,0,0:0:0:0:
64,192,37879,1,0,0:0:0:0:
320,192,37879,1,0,0:0:0:0:
448,192,37975,1,0,0:0:0:0:
192,192,38071,1,0,0:0:0:0:
64,192,38167,1,0,0:0:0:0:
448,192,38263,1,0,0:0:0:0:
320,192,38263,1,0,0:0:0:0:
192,192,38456,1,0,0:0:0:0:
64,192,38648,1,0,0:0:0:0:
448,192,38648,1,0,0:0:0:0:
320,192,38712,1,0,0:0:0:0:
192,192,38776,1,0,0:0:0:0:
320,192,38840,1,0,0:0:0:0:
64,192,38840,1,0,0:0:0:0:
448,192,38936,1,0,0:0:0:0:
320,192,39032,1,0,0:0:0:0:
192,192,39032,1,0,0:0:0:0:
64,192,39129,1,0,0:0:0:0:
320,192,39225,1,0,0:0:0:0:
448,192,39225,1,0,0:0:0:0:
192,192,39321,1,0,0:0:0:0:
64,192,39417,1,0,0:0:0:0:
448,192,39417,1,0,0:0:0:0:
320,192,39417,1,0,0:0:0:0:
192,192,39481,1,0,0:0:0:0:
320,192,39545,1,0,0:0:0:0:
448,192,39609,1,0,0:0:0:0:
64,192,39706,1,0,0:0:0:0:
448,192,39802,1,0,0:0:0:0:
64,192,39898,1,0,0:0:0:0:
320,192,39994,1,0,0:0:0:0:
448,192,40090,1,0,0:0:0:0:
64,192,40186,1,0,0:0:0:0:
192,192,40186,1,0,0:0:0:0:
320,192,40282,1,0,0:0:0:0:
192,192,40379,1,0,0:0:0:0:
448,192,40475,1,0,0:0:0:0:
64,192,40475,1,0,0:0:0:0:
320,192,40571,1,0,0:0:0:0:
192,192,40667,1,0,0:0:0:0:
64,192,40763,1,0,0:0:0:0:
448,192,40763,1,0,0:0:0:0:
320,192,40859,1,0,0:0:0:0:
448,192,40956,1,0,0:0:0:0:
192,192,40956,1,0,0:0:0:0:
64,192,40956,1,0,0:0:0:0:
320,192,41052,1,0,0:0:0:0:
64,192,41172,1,0,0:0:0:0:
64,192,41268,1,0,0:0:0:0:
448,192,41340,1,0,0:0:0:0:
64,192,41460,1,0,0:0:0:0:
64,192,41556,1,0,0:0:0:0:
192,192,41640,1,0,0:0:0:0:
448,192,41725,1,0,0:0:0:0:
320,192,41725,1,0,0:0:0:0:
64,192,41821,1,0,0:0:0:0:
192,192,41917,1,0,0:0:0:0:
320,192,42013,1,0,0:0:0:0:
64,192,42109,1,0,0:0:0:0:
448,192,42109,1,0,0:0:0:0:
320,192,42173,1,0,0:0:0:0:
192,192,42238,1,0,0:0:0:0:
448,192,42302,1,0,0:0:0:0:
64,192,42302,1,0,0:0:0:0:
320,192,42398,1,0,0:0:0:0:
64,192,42494,1,0,0:0:0:0:
448,192,42494,1,0,0:0:0:0:
192,192,42494,1,0,0:0:0:0:
320,192,42590,1,0,0:0:0:0:
192,192,42686,1,0,0:0:0:0:
448,192,42782,1,0,0:0:0:0:
64,192,42879,1,0,0:0:0:0:
192,192,42879,1,0,0:0:0:0:
320,192,42879,1,0,0:0:0:0:
320,192,42975,1,0,0:0:0:0:
64,192,43071,1,0,0:0:0:0:
448,192,43167,1,0,0:0:0:0:
64,192,43263,1,0,0:0:0:0:
320,192,43263,1,0,0:0:0:0:
192,192,43263,1,0,0:0:0:0:
192,192,43359,1,0,0:0:0:0:
448,192,43456,1,0,0:0:0:0:
320,192,43552,1,0,0:0:0:0:
64,192,43648,1,0,0:0:0:0:
448,192,43648,1,0,0:0:0:0:
192,192,43648,1,0,0:0:0:0:
64,192,43744,1,0,0:0:0:0:
320,192,43840,1,0,0:0:0:0:
448,192,43936,1,0,0:0:0:0:
320,192,44032,1,0,0:0:0:0:
192,192,44032,1,0,0:0:0:0:
64,192,44032,1,0,0:0:0:0:
448,192,44129,1,0,0:0:0:0:
448,192,44225,1,0,0:0:0:0:
192,192,44321,1,0,0:0:0:0:
448,192,44417,1,0,0:0:0:0:
192,192,44417,1,0,0:0:0:0:
64,192,44417,1,0,0:0:0:0:
320,192,44545,1,0,0:0:0:0:
64,192,44609,1,0,0:0:0:0:
448,192,44609,1,0,0:0:0:0:
192,192,44673,1,0,0:0:0:0:
320,192,44802,1,0,0:0:0:0:
448,192,44802,1,0,0:0:0:0:
64,192,44802,1,0,0:0:0:0:
448,192,44898,1,0,0:0:0:0:
320,192,44898,1,0,0:0:0:0:
192,192,44994,1,0,0:0:0:0:
64,192,45090,1,0,0:0:0:0:
448,192,45090,1,0,0:0:0:0:
320,192,45090,1,0,0:0:0:0:
192,192,45186,1,0,0:0:0:0:
64,192,45282,1,0,0:0:0:0:
448,192,45282,1,0,0:0:0:0:
320,192,45282,1,0,0:0:0:0:
320,192,45379,1,0,0:0:0:0:
448,192,45379,1,0,0:0:0:0:
64,192,45475,1,0,0:0:0:0:
320,192,45571,1,0,0:0:0:0:
192,192,45571,1,0,0:0:0:0:
448,192,45571,1,0,0:0:0:0:
64,192,45763,1,0,0:0:0:0:
448,192,45859,1,0,0:0:0:0:
64,192,45956,1,0,0:0:0:0:
192,192,45956,1,0,0:0:0:0:
320,192,46052,1,0,0:0:0:0:
192,192,46148,1,0,0:0:0:0:
448,192,46244,1,0,0:0:0:0:
64,192,46244,1,0,0:0:0:0:
448,192,46340,1,0,0:0:0:0:
320,192,46340,1,0,0:0:0:0:
64,192,46436,1,0,0:0:0:0:
192,192,46532,1,0,0:0:0:0:
448,192,46629,1,0,0:0:0:0:
320,192,46629,1,0,0:0:0:0:
448,192,46725,1,0,0:0:0:0:
64,192,46725,1,0,0:0:0:0:
192,192,46821,1,0,0:0:0:0:
448,192,46917,1,0,0:0:0:0:
320,192,46917,1,0,0:0:0:0:
64,192,47013,1,0,0:0:0:0:
192,192,47109,1,0,0:0:0:0:
448,192,47109,1,0,0:0:0:0:
64,192,47206,1,0,0:0:0:0:
320,192,47302,1,0,0:0:0:0:
192,192,47398,1,0,0:0:0:0:
320,192,47398,1,0,0:0:0:0:
448,192,47494,1,0,0:0:0:0:
64,192,47494,1,0,0:0:0:0:
320,192,47590,1,0,0:0:0:0:
320,192,47686,1,0,0:0:0:0:
448,192,47782,1,0,0:0:0:0:
64,192,47782,1,0,0:0:0:0:
64,192,47879,1,0,0:0:0:0:
192,192,47879,1,0,0:0:0:0:
320,192,47975,1,0,0:0:0:0:
448,192,48071,1,0,0:0:0:0:
64,192,48167,1,0,0:0:0:0:
192,192,48167,1,0,0:0:0:0:
64,192,48263,1,0,0:0:0:0:
320,192,48263,1,0,0:0:0:0:
448,192,48359,1,0,0:0:0:0:
64,192,48456,1,0,0:0:0:0:
192,192,48456,1,0,0:0:0:0:
448,192,48552,1,0,0:0:0:0:
320,192,48552,1,0,0:0:0:0:
64,192,48648,1,0,0:0:0:0:
448,192,48648,1,0,0:0:0:0:
192,192,48648,1,0,0:0:0:0:
320,192,48744,1,0,0:0:0:0:
192,192,48840,1,0,0:0:0:0:
64,192,48936,1,0,0:0:0:0:
448,192,48936,1,0,0:0:0:0:
64,192,49032,1,0,0:0:0:0:
192,192,49032,1,0,0:0:0:0:
320,192,49032,1,0,0:0:0:0:
448,192,49129,1,0,0:0:0:0:
192,192,49225,1,0,0:0:0:0:
320,192,49321,1,0,0:0:0:0:
448,192,49321,1,0,0:0:0:0:
64,192,49417,1,0,0:0:0:0:
192,192,49417,1,0,0:0:0:0:
448,192,49417,1,0,0:0:0:0:
320,192,49513,1,0,0:0:0:0:
192,192,49609,1,0,0:0:0:0:
64,192,49706,1,0,0:0:0:0:
448,192,49706,1,0,0:0:0:0:
320,192,49802,1,0,0:0:0:0:
448,192,49802,1,0,0:0:0:0:
192,192,49802,1,0,0:0:0:0:
64,192,49898,1,0,0:0:0:0:
320,192,49994,1,0,0:0:0:0:
192,192,50090,1,0,0:0:0:0:
64,192,50090,1,0,0:0:0:0:
320,192,50186,1,0,0:0:0:0:
448,192,50186,1,0,0:0:0:0:
64,192,50186,1,0,0:0:0:0:
448,192,50282,1,0,0:0:0:0:
192,192,50379,1,0,0:0:0:0:
320,192,50475,1,0,0:0:0:0:
192,192,50475,1,0,0:0:0:0:
448,192,50571,1,0,0:0:0:0:
64,192,50571,1,0,0:0:0:0:
320,192,50571,1,0,0:0:0:0:
192,192,50667,1,0,0:0:0:0:
448,192,50763,1,0,0:0:0:0:
64,192,50763,1,0,0:0:0:0:
320,192,50859,1,0,0:0:0:0:
64,192,50956,1,0,0:0:0:0:
192,192,50956,1,0,0:0:0:0:
448,192,50956,1,0,0:0:0:0:
320,192,51020,1,0,0:0:0:0:
192,192,51084,1,0,0:0:0:0:
64,192,51148,1,0,0:0:0:0:
448,192,51148,1,0,0:0:0:0:
320,192,51244,1,0,0:0:0:0:
448,192,51340,1,0,0:0:0:0:
192,192,51340,1,0,0:0:0:0:
64,192,51436,1,0,0:0:0:0:
320,192,51532,1,0,0:0:0:0:
192,192,51532,1,0,0:0:0:0:
448,192,51629,1,0,0:0:0:0:
192,192,51725,1,0,0:0:0:0:
320,192,51725,1,0,0:0:0:0:
448,192,51725,1,0,0:0:0:0:
64,192,51725,1,0,0:0:0:0:
192,192,51917,1,0,0:0:0:0:
320,192,52013,1,0,0:0:0:0:
64,192,52109,1,0,0:0:0:0:
448,192,52109,1,0,0:0:0:0:
192,192,52206,1,0,0:0:0:0:
320,192,52302,1,0,0:0:0:0:
448,192,52398,1,0,0:0:0:0:
64,192,52398,1,0,0:0:0:0:
192,192,52494,1,0,0:0:0:0:
64,192,52494,1,0,0:0:0:0:
448,192,52590,1,0,0:0:0:0:
320,192,52686,1,0,0:0:0:0:
192,192,52782,1,0,0:0:0:0:
64,192,52782,1,0,0:0:0:0:
448,192,52879,1,0,0:0:0:0:
64,192,52879,1,0,0:0:0:0:
320,192,52975,1,0,0:0:0:0:
64,192,53071,1,0,0:0:0:0:
192,192,53071,1,0,0:0:0:0:
320,192,53167,1,0,0:0:0:0:
448,192,53167,1,0,0:0:0:0:
64,192,53263,1,0,0:0:0:0:
448,192,53263,1,0,0:0:0:0:
320,192,53359,1,0,0:0:0:0:
192,192,53456,1,0,0:0:0:0:
448,192,53552,1,0,0:0:0:0:
192,192,53552,1,0,0:0:0:0:
320,192,53648,1,0,0:0:0:0:
64,192,53648,1,0,0:0:0:0:
192,192,53744,1,0,0:0:0:0:
192,192,53840,1,0,0:0:0:0:
448,192,53936,1,0,0:0:0:0:
320,192,53936,1,0,0:0:0:0:
64,192,54032,1,0,0:0:0:0:
448,192,54032,1,0,0:0:0:0:
192,192,54129,1,0,0:0:0:0:
320,192,54225,1,0,0:0:0:0:
64,192,54321,1,0,0:0:0:0:
192,192,54321,1,0,0:0:0:0:
64,192,54417,1,0,0:0:0:0:
448,192,54417,1,0,0:0:0:0:
320,192,54481,1,0,0:0:0:0:
192,192,54545,1,0,0:0:0:0:
448,192,54609,1,0,0:0:0:0:
64,192,54609,1,0,0:0:0:0:
192,192,54706,1,0,0:0:0:0:
320,192,54706,1,0,0:0:0:0:
64,192,54802,1,0,0:0:0:0:
320,192,54802,1,0,0:0:0:0:
448,192,54802,1,0,0:0:0:0:
192,192,54898,1,0,0:0:0:0:
320,192,54994,1,0,0:0:0:0:
192,192,55090,1,0,0:0:0:0:
64,192,55090,1,0,0:0:0:0:
448,192,55186,1,0,0:0:0:0:
192,192,55186,1,0,0:0:0:0:
64,192,55186,1,0,0:0:0:0:
320,192,55282,1,0,0:0:0:0:
64,192,55379,1,0,0:0:0:0:
448,192,55475,1,0,0:0:0:0:
320,192,55475,1,0,0:0:0:0:
64,192,55571,1,0,0:0:0:0:
320,192,55571,1,0,0:0:0:0:
448,192,55571,1,0,0:0:0:0:
192,192,55667,1,0,0:0:0:0:
448,192,55763,1,0,0:0:0:0:
192,192,55859,1,0,0:0:0:0:
64,192,55859,1,0,0:0:0:0:
192,192,55956,1,0,0:0:0:0:
64,192,55956,1,0,0:0:0:0:
320,192,55956,1,0,0:0:0:0:
448,192,56052,1,0,0:0:0:0:
64,192,56148,1,0,0:0:0:0:
192,192,56148,1,0,0:0:0:0:
448,192,56244,1,0,0:0:0:0:
320,192,56276,1,0,0:0:0:0:
192,192,56340,1,0,0:0:0:0:
64,192,56340,1,0,0:0:0:0:
320,192,56436,1,0,0:0:0:0:
320,192,56532,1,0,0:0:0:0:
64,192,56629,1,0,0:0:0:0:
448,192,56725,1,0,0:0:0:0:
64,192,56725,1,0,0:0:0:0:
192,192,56821,1,0,0:0:0:0:
320,192,56917,1,0,0:0:0:0:
448,192,57013,1,0,0:0:0:0:
64,192,57109,1,0,0:0:0:0:
192,192,57109,1,0,0:0:0:0:
320,192,57238,1,0,0:0:0:0:
64,192,57238,1,0,0:0:0:0:
64,192,57366,1,0,0:0:0:0:
448,192,57366,1,0,0:0:0:0:
192,192,57494,1,0,0:0:0:0:
320,192,57494,1,0,0:0:0:0:
448,192,57494,1,0,0:0:0:0:
64,192,57622,1,0,0:0:0:0:
320,192,57622,1,0,0:0:0:0:
448,192,57622,1,0,0:0:0:0:
192,192,57750,1,0,0:0:0:0:
64,192,57750,1,0,0:0:0:0:
448,192,57750,1,0,0:0:0:0:
64,192,57879,1,0,0:0:0:0:
192,192,57879,1,0,0:0:0:0:
320,192,57879,1,0,0:0:0:0:
448,192,57879,1,0,0:0:0:0:
192,192,58071,1,0,0:0:0:0:
320,192,58167,1,0,0:0:0:0:
448,192,58167,1,0,0:0:0:0:
64,192,58263,1,0,0:0:0:0:
192,192,58263,1,0,0:0:0:0:
448,192,58311,1,0,0:0:0:0:
320,192,58359,1,0,0:0:0:0:
448,192,58456,1,0,0:0:0:0:
64,192,58552,1,0,0:0:0:0:
192,192,58552,1,0,0:0:0:0:
448,192,58648,1,0,0:0:0:0:
320,192,58712,1,0,0:0:0:0:
192,192,58744,1,0,0:0:0:0:
448,192,58840,1,0,0:0:0:0:
64,192,58936,1,0,0:0:0:0:
192,192,58936,1,0,0:0:0:0:
320,192,59032,1,0,0:0:0:0:
448,192,59032,1,0,0:0:0:0:
192,192,59097,1,0,0:0:0:0:
320,192,59161,1,0,0:0:0:0:
64,192,59225,1,0,0:0:0:0:
448,192,59225,1,0,0:0:0:0:
192,192,59289,1,0,0:0:0:0:
320,192,59353,1,0,0:0:0:0:
64,192,59417,1,0,0:0:0:0:
448,192,59417,1,0,0:0:0:0:
192,192,59441,1,0,0:0:0:0:
320,192,59609,1,0,0:0:0:0:
64,192,59706,1,0,0:0:0:0:
192,192,59706,1,0,0:0:0:0:
448,192,59802,1,0,0:0:0:0:
320,192,59802,1,0,0:0:0:0:
320,192,59994,1,0,0:0:0:0:
64,192,59994,1,0,0:0:0:0:
192,192,60090,1,0,0:0:0:0:
448,192,60090,1,0,0:0:0:0:
320,192,60186,1,0,0:0:0:0:
192,192,60282,1,0,0:0:0:0:
320,192,60379,1,0,0:0:0:0:
448,192,60379,1,0,0:0:0:0:
64,192,60379,1,0,0:0:0:0:
192,192,60475,1,0,0:0:0:0:
448,192,60571,1,0,0:0:0:0:
64,192,60571,1,0,0:0:0:0:
320,192,60635,1,0,0:0:0:0:
64,192,60699,1,0,0:0:0:0:
192,192,60763,1,0,0:0:0:0:
320,192,60763,1,0,0:0:0:0:
448,192,60763,1,0,0:0:0:0:
64,192,60859,1,0,0:0:0:0:
448,192,60956,1,0,0:0:0:0:
320,192,60956,1,0,0:0:0:0:
192,192,61148,1,0,0:0:0:0:
320,192,61244,1,0,0:0:0:0:
192,192,61340,1,0,0:0:0:0:
448,192,61340,1,0,0:0:0:0:
64,192,61340,1,0,0:0:0:0:
320,192,61404,1,0,0:0:0:0:
192,192,61468,1,0,0:0:0:0:
448,192,61532,1,0,0:0:0:0:
64,192,61597,1,0,0:0:0:0:
192,192,61629,1,0,0:0:0:0:
320,192,61661,1,0,0:0:0:0:
64,192,61725,1,0,0:0:0:0:
448,192,61789,1,0,0:0:0:0:
320,192,61821,1,0,0:0:0:0:
192,192,61853,1,0,0:0:0:0:
448,192,61917,1,0,0:0:0:0:
64,192,61981,1,0,0:0:0:0:
192,192,62013,1,0,0:0:0:0:
320,192,62045,1,0,0:0:0:0:
448,192,62109,1,0,0:0:0:0:
64,192,62109,1,0,0:0:0:0:
192,192,62109,1,0,0:0:0:0:
320,192,62206,1,0,0:0:0:0:
448,192,62302,1,0,0:0:0:0:
64,192,62302,1,0,0:0:0:0:
192,192,62398,1,0,0:0:0:0:
448,192,62494,1,0,0:0:0:0:
320,192,62494,1,0,0:0:0:0:
64,192,62686,1,0,0:0:0:0:
192,192,62686,1,0,0:0:0:0:
64,192,62782,1,0,0:0:0:0:
448,192,62782,1,0,0:0:0:0:
192,192,62879,1,0,0:0:0:0:
320,192,62879,1,0,0:0:0:0:
64,192,62975,1,0,0:0:0:0:
448,192,63071,1,0,0:0:0:0:
320,192,63071,1,0,0:0:0:0:
192,192,63167,1,0,0:0:0:0:
192,192,63263,1,0,0:0:0:0:
320,192,63263,1,0,0:0:0:0:
448,192,63263,1,0,0:0:0:0:
64,192,63263,1,0,0:0:0:0:
320,192,63359,1,0,0:0:0:0:
448,192,63359,1,0,0:0:0:0:
192,192,63456,1,0,0:0:0:0:
64,192,63456,1,0,0:0:0:0:
320,192,63552,1,0,0:0:0:0:
192,192,63552,1,0,0:0:0:0:
448,192,63552,1,0,0:0:0:0:
64,192,63552,1,0,0:0:0:0:
320,192,63648,1,0,0:0:0:0:
448,192,63744,1,0,0:0:0:0:
192,192,63744,1,0,0:0:0:0:
448,192,63840,1,0,0:0:0:0:
64,192,63840,1,0,0:0:0:0:
320,192,63840,1,0,0:0:0:0:
192,192,63936,1,0,0:0:0:0:
320,192,64032,1,0,0:0:0:0:
64,192,64129,1,0,0:0:0:0:
448,192,64225,1,0,0:0:0:0:
192,192,64225,1,0,0:0:0:0:
320,192,64321,1,0,0:0:0:0:
64,192,64417,1,0,0:0:0:0:
192,192,64417,1,0,0:0:0:0:
448,192,64513,1,0,0:0:0:0:
64,192,64609,1,0,0:0:0:0:
320,192,64609,1,0,0:0:0:0:
192,192,64706,1,0,0:0:0:0:
448,192,64706,1,0,0:0:0:0:
64,192,64802,1,0,0:0:0:0:
320,192,64898,1,0,0:0:0:0:
448,192,64898,1,0,0:0:0:0:
192,192,64994,1,0,0:0:0:0:
64,192,64994,1,0,0:0:0:0:
320,192,65090,1,0,0:0:0:0:
192,192,65186,1,0,0:0:0:0:
448,192,65186,1,0,0:0:0:0:
64,192,65282,1,0,0:0:0:0:
64,192,65379,1,0,0:0:0:0:
192,192,65379,1,0,0:0:0:0:
320,192,65379,1,0,0:0:0:0:
448,192,65379,1,0,0:0:0:0:
320,192,65475,1,0,0:0:0:0:
64,192,65571,1,0,0:0:0:0:
192,192,65571,1,0,0:0:0:0:
448,192,65667,1,0,0:0:0:0:
64,192,65763,1,0,0:0:0:0:
320,192,65859,1,0,0:0:0:0:
192,192,65956,1,0,0:0:0:0:
448,192,65956,1,0,0:0:0:0:
64,192,66052,1,0,0:0:0:0:
320,192,66052,1,0,0:0:0:0:
448,192,66148,1,0,0:0:0:0:
64,192,66244,1,0,0:0:0:0:
192,192,66244,1,0,0:0:0:0:
320,192,66340,1,0,0:0:0:0:
448,192,66340,1,0,0:0:0:0:
320,192,66436,1,0,0:0:0:0:
448,192,66532,1,0,0:0:0:0:
192,192,66629,1,0,0:0:0:0:
64,192,66629,1,0,0:0:0:0:
64,192,66725,1,0,0:0:0:0:
448,192,66725,1,0,0:0:0:0:
320,192,66725,1,0,0:0:0:0:
192,192,66821,1,0,0:0:0:0:
320,192,66853,1,0,0:0:0:0:
64,192,66917,1,0,0:0:0:0:
448,192,66917,1,0,0:0:0:0:
320,192,66981,1,0,0:0:0:0:
192,192,67013,1,0,0:0:0:0:
64,192,67109,1,0,0:0:0:0:
448,192,67109,1,0,0:0:0:0:
320,192,67302,1,0,0:0:0:0:
64,192,67302,1,0,0:0:0:0:
448,192,67302,1,0,0:0:0:0:
192,192,67302,1,0,0:0:0:0:
320,192,67398,1,0,0:0:0:0:
64,192,67494,1,0,0:0:0:0:
192,192,67494,1,0,0:0:0:0:
448,192,67590,1,0,0:0:0:0:
64,192,67686,1,0,0:0:0:0:
320,192,67686,1,0,0:0:0:0:
192,192,67782,1,0,0:0:0:0:
192,192,67879,1,0,0:0:0:0:
320,192,67879,1,0,0:0:0:0:
448,192,67879,1,0,0:0:0:0:
64,192,67879,1,0,0:0:0:0:
320,192,67975,1,0,0:0:0:0:
64,192,68071,1,0,0:0:0:0:
192,192,68119,1,0,0:0:0:0:
320,192,68167,1,0,0:0:0:0:
64,192,68263,1,0,0:0:0:0:
192,192,68263,1,0,0:0:0:0:
448,192,68359,1,0,0:0:0:0:
192,192,68456,1,0,0:0:0:0:
64,192,68456,1,0,0:0:0:0:
320,192,68456,1,0,0:0:0:0:
448,192,68456,1,0,0:0:0:0:
192,192,68552,1,0,0:0:0:0:
448,192,68648,1,0,0:0:0:0:
320,192,68648,1,0,0:0:0:0:
64,192,68744,1,0,0:0:0:0:
192,192,68840,1,0,0:0:0:0:
448,192,68936,1,0,0:0:0:0:
320,192,68936,1,0,0:0:0:0:
64,192,69032,1,0,0:0:0:0:
448,192,69032,1,0,0:0:0:0:
64,192,69129,1,0,0:0:0:0:
320,192,69225,1,0,0:0:0:0:
448,192,69225,1,0,0:0:0:0:
192,192,69321,1,0,0:0:0:0:
64,192,69417,1,0,0:0:0:0:
448,192,69417,1,0,0:0:0:0:
192,192,69481,1,0,0:0:0:0:
320,192,69545,1,0,0:0:0:0:
64,192,69609,1,0,0:0:0:0:
448,192,69609,1,0,0:0:0:0:
320,192,69706,1,0,0:0:0:0:
192,192,69706,1,0,0:0:0:0:
64,192,69802,1,0,0:0:0:0:
448,192,69802,1,0,0:0:0:0:
320,192,69866,1,0,0:0:0:0:
192,192,69930,1,0,0:0:0:0:
64,192,69994,1,0,0:0:0:0:
448,192,69994,1,0,0:0:0:0:
64,192,70186,1,0,0:0:0:0:
448,192,70186,1,0,0:0:0:0:
192,192,70186,1,0,0:0:0:0:
320,192,70379,1,0,0:0:0:0:
64,192,70475,1,0,0:0:0:0:
192,192,70475,1,0,0:0:0:0:
320,192,70571,1,0,0:0:0:0:
448,192,70571,1,0,0:0:0:0:
64,192,70619,1,0,0:0:0:0:
192,192,70667,1,0,0:0:0:0:
64,192,70763,1,0,0:0:0:0:
448,192,70859,1,0,0:0:0:0:
320,192,70859,1,0,0:0:0:0:
64,192,70956,1,0,0:0:0:0:
192,192,71020,1,0,0:0:0:0:
320,192,71052,1,0,0:0:0:0:
448,192,71052,1,0,0:0:0:0:
64,192,71148,1,0,0:0:0:0:
448,192,71244,1,0,0:0:0:0:
320,192,71244,1,0,0:0:0:0:
64,192,71340,1,0,0:0:0:0:
192,192,71340,1,0,0:0:0:0:
448,192,71404,1,0,0:0:0:0:
320,192,71468,1,0,0:0:0:0:
64,192,71532,1,0,0:0:0:0:
192,192,71532,1,0,0:0:0:0:
448,192,71597,1,0,0:0:0:0:
320,192,71629,1,0,0:0:0:0:
192,192,71661,1,0,0:0:0:0:
448,192,71725,1,0,0:0:0:0:
64,192,71725,1,0,0:0:0:0:
320,192,71749,1,0,0:0:0:0:
448,192,71917,1,0,0:0:0:0:
64,192,72013,1,0,0:0:0:0:
192,192,72013,1,0,0:0:0:0:
448,192,72109,1,0,0:0:0:0:
320,192,72109,1,0,0:0:0:0:
320,192,72302,1,0,0:0:0:0:
64,192,72302,1,0,0:0:0:0:
192,192,72398,1,0,0:0:0:0:
448,192,72398,1,0,0:0:0:0:
320,192,72494,1,0,0:0:0:0:
64,192,72590,1,0,0:0:0:0:
192,192,72686,1,0,0:0:0:0:
320,192,72686,1,0,0:0:0:0:
448,192,72686,1,0,0:0:0:0:
64,192,72782,1,0,0:0:0:0:
192,192,72879,1,0,0:0:0:0:
448,192,72879,1,0,0:0:0:0:
320,192,72943,1,0,0:0:0:0:
192,192,73007,1,0,0:0:0:0:
64,192,73071,1,0,0:0:0:0:
320,192,73071,1,0,0:0:0:0:
448,192,73071,1,0,0:0:0:0:
192,192,73167,1,0,0:0:0:0:
320,192,73263,1,0,0:0:0:0:
64,192,73456,1,0,0:0:0:0:
448,192,73504,1,0,0:0:0:0:
320,192,73552,1,0,0:0:0:0:
448,192,73648,1,0,0:0:0:0:
64,192,73648,1,0,0:0:0:0:
192,192,73648,1,0,0:0:0:0:
320,192,73712,1,0,0:0:0:0:
192,192,73776,1,0,0:0:0:0:
448,192,73840,1,0,0:0:0:0:
64,192,73904,1,0,0:0:0:0:
192,192,73936,1,0,0:0:0:0:
320,192,73968,1,0,0:0:0:0:
64,192,74032,1,0,0:0:0:0:
448,192,74097,1,0,0:0:0:0:
320,192,74129,1,0,0:0:0:0:
192,192,74161,1,0,0:0:0:0:
448,192,74225,1,0,0:0:0:0:
64,192,74289,1,0,0:0:0:0:
192,192,74321,1,0,0:0:0:0:
320,192,74353,1,0,0:0:0:0:
192,192,74417,1,0,0:0:0:0:
448,192,74417,1,0,0:0:0:0:
64,192,74417,1,0,0:0:0:0:
320,192,74513,1,0,0:0:0:0:
64,192,74609,1,0,0:0:0:0:
448,192,74609,1,0,0:0:0:0:
192,192,74706,1,0,0:0:0:0:
448,192,74802,1,0,0:0:0:0:
320,192,74802,1,0,0:0:0:0:
64,192,74994,1,0,0:0:0:0:
192,192,74994,1,0,0:0:0:0:
64,192,75090,1,0,0:0:0:0:
448,192,75090,1,0,0:0:0:0:
192,192,75186,1,0,0:0:0:0:
320,192,75186,1,0,0:0:0:0:
64,192,75282,1,0,0:0:0:0:
448,192,75379,1,0,0:0:0:0:
320,192,75379,1,0,0:0:0:0:
64,192,75475,1,0,0:0:0:0:
192,192,75475,1,0,0:0:0:0:
192,192,75571,1,0,0:0:0:0:
320,192,75571,1,0,0:0:0:0:
448,192,75571,1,0,0:0:0:0:
64,192,75571,1,0,0:0:0:0:
320,192,75667,1,0,0:0:0:0:
448,192,75667,1,0,0:0:0:0:
64,192,75763,1,0,0:0:0:0:
320,192,75859,1,0,0:0:0:0:
192,192,75859,1,0,0:0:0:0:
448,192,75859,1,0,0:0:0:0:
64,192,75859,1,0,0:0:0:0:
320,192,75956,1,0,0:0:0:0:
448,192,76052,1,0,0:0:0:0:
192,192,76052,1,0,0:0:0:0:
448,192,76148,1,0,0:0:0:0:
64,192,76148,1,0,0:0:0:0:
320,192,76148,1,0,0:0:0:0:
192,192,76244,1,0,0:0:0:0:
320,192,76340,1,0,0:0:0:0:
64,192,76532,1,0,0:0:0:0:
448,192,76532,1,0,0:0:0:0:
192,192,76629,1,0,0:0:0:0:
448,192,76725,1,0,0:0:0:0:
64,192,76725,1,0,0:0:0:0:
320,192,76821,1,0,0:0:0:0:
192,192,76917,1,0,0:0:0:0:
64,192,76917,1,0,0:0:0:0:
320,192,77013,1,0,0:0:0:0:
448,192,77013,1,0,0:0:0:0:
192,192,77109,1,0,0:0:0:0:
448,192,77206,1,0,0:0:0:0:
64,192,77206,1,0,0:0:0:0:
192,192,77302,1,0,0:0:0:0:
320,192,77302,1,0,0:0:0:0:
64,192,77398,1,0,0:0:0:0:
192,192,77494,1,0,0:0:0:0:
448,192,77494,1,0,0:0:0:0:
320,192,77590,1,0,0:0:0:0:
64,192,77686,1,0,0:0:0:0:
192,192,77686,1,0,0:0:0:0:
320,192,77686,1,0,0:0:0:0:
448,192,77686,1,0,0:0:0:0:
192,192,77782,1,0,0:0:0:0:
448,192,77879,1,0,0:0:0:0:
320,192,77879,1,0,0:0:0:0:
64,192,77975,1,0,0:0:0:0:
192,192,78071,1,0,0:0:0:0:
448,192,78167,1,0,0:0:0:0:
320,192,78167,1,0,0:0:0:0:
192,192,78263,1,0,0:0:0:0:
64,192,78263,1,0,0:0:0:0:
192,192,78456,1,0,0:0:0:0:
448,192,78520,1,0,0:0:0:0:
320,192,78552,1,0,0:0:0:0:
192,192,78584,1,0,0:0:0:0:
64,192,78648,1,0,0:0:0:0:
448,192,78648,1,0,0:0:0:0:
192,192,78712,1,0,0:0:0:0:
320,192,78744,1,0,0:0:0:0:
448,192,78776,1,0,0:0:0:0:
64,192,78840,1,0,0:0:0:0:
320,192,78904,1,0,0:0:0:0:
192,192,78936,1,0,0:0:0:0:
64,192,78968,1,0,0:0:0:0:
448,192,79032,1,0,0:0:0:0:
320,192,79032,1,0,0:0:0:0:
192,192,79097,1,0,0:0:0:0:
320,192,79161,1,0,0:0:0:0:
64,192,79161,1,0,0:0:0:0:
448,192,79225,1,0,0:0:0:0:
192,192,79289,1,0,0:0:0:0:
64,192,79289,1,0,0:0:0:0:
320,192,79417,1,0,0:0:0:0:
64,192,79513,1,0,0:0:0:0:
320,192,79609,1,0,0:0:0:0:
448,192,79609,1,0,0:0:0:0:
192,192,79609,1,0,0:0:0:0:
64,192,79609,1,0,0:0:0:0:
320,192,79706,1,0,0:0:0:0:
64,192,79802,1,0,0:0:0:0:
192,192,79802,1,0,0:0:0:0:
448,192,79898,1,0,0:0:0:0:
192,192,79994,1,0,0:0:0:0:
64,192,79994,1,0,0:0:0:0:
448,192,80090,1,0,0:0:0:0:
320,192,80090,1,0,0:0:0:0:
448,192,80186,1,0,0:0:0:0:
320,192,80186,1,0,0:0:0:0:
64,192,80186,1,0,0:0:0:0:
192,192,80186,1,0,0:0:0:0:
192,192,80282,1,0,0:0:0:0:
320,192,80379,1,0,0:0:0:0:
64,192,80475,1,0,0:0:0:0:
192,192,80571,1,0,0:0:0:0:
448,192,80667,1,0,0:0:0:0:
320,192,80667,1,0,0:0:0:0:
192,192,80763,1,0,0:0:0:0:
64,192,80763,1,0,0:0:0:0:
448,192,80763,1,0,0:0:0:0:
320,192,80763,1,0,0:0:0:0:
192,192,80859,1,0,0:0:0:0:
448,192,80956,1,0,0:0:0:0:
320,192,81052,1,0,0:0:0:0:
192,192,81148,1,0,0:0:0:0:
320,192,81244,1,0,0:0:0:0:
448,192,81244,1,0,0:0:0:0:
64,192,81340,1,0,0:0:0:0:
192,192,81340,1,0,0:0:0:0:
448,192,81340,1,0,0:0:0:0:
320,192,81436,1,0,0:0:0:0:
192,192,81532,1,0,0:0:0:0:
320,192,81581,1,0,0:0:0:0:
448,192,81629,1,0,0:0:0:0:
64,192,81629,1,0,0:0:0:0:
192,192,81725,1,0,0:0:0:0:
64,192,81773,1,0,0:0:0:0:
320,192,81821,1,0,0:0:0:0:
448,192,81821,1,0,0:0:0:0:
320,192,81917,1,0,0:0:0:0:
192,192,81917,1,0,0:0:0:0:
448,192,81965,1,0,0:0:0:0:
64,192,82013,1,0,0:0:0:0:
192,192,82013,1,0,0:0:0:0:
448,192,82109,1,0,0:0:0:0:
320,192,82109,1,0,0:0:0:0:
320,192,82206,1,0,0:0:0:0:
64,192,82302,1,0,0:0:0:0:
320,192,82398,1,0,0:0:0:0:
64,192,82398,1,0,0:0:0:0:
448,192,82494,1,0,0:0:0:0:
192,192,82686,1,0,0:0:0:0:
64,192,82686,1,0,0:0:0:0:
320,192,82686,1,0,0:0:0:0:
448,192,82686,1,0,0:0:0:0:
320,192,82782,1,0,0:0:0:0:
64,192,82879,1,0,0:0:0:0:
192,192,82879,1,0,0:0:0:0:
448,192,82975,1,0,0:0:0:0:
192,192,83071,1,0,0:0:0:0:
64,192,83071,1,0,0:0:0:0:
448,192,83167,1,0,0:0:0:0:
320,192,83167,1,0,0:0:0:0:
192,192,83263,1,0,0:0:0:0:
64,192,83263,1,0,0:0:0:0:
448,192,83263,1,0,0:0:0:0:
320,192,83263,1,0,0:0:0:0:
64,192,83359,1,0,0:0:0:0:
320,192,83456,1,0,0:0:0:0:
448,192,83552,1,0,0:0:0:0:
192,192,83600,1,0,0:0:0:0:
64,192,83648,1,0,0:0:0:0:
320,192,83744,1,0,0:0:0:0:
448,192,83744,1,0,0:0:0:0:
64,192,83840,1,0,0:0:0:0:
448,192,83840,1,0,0:0:0:0:
320,192,83840,1,0,0:0:0:0:
192,192,83840,1,0,0:0:0:0:
192,192,83936,1,0,0:0:0:0:
64,192,84032,1,0,0:0:0:0:
320,192,84129,1,0,0:0:0:0:
448,192,84129,1,0,0:0:0:0:
320,192,84225,1,0,0:0:0:0:
64,192,84225,1,0,0:0:0:0:
192,192,84321,1,0,0:0:0:0:
448,192,84321,1,0,0:0:0:0:
320,192,84417,1,0,0:0:0:0:
192,192,84417,1,0,0:0:0:0:
64,192,84417,1,0,0:0:0:0:
64,192,84513,1,0,0:0:0:0:
448,192,84513,1,0,0:0:0:0:
320,192,84609,1,0,0:0:0:0:
448,192,84706,1,0,0:0:0:0:
192,192,84706,1,0,0:0:0:0:
64,192,84802,1,0,0:0:0:0:
192,192,84850,1,0,0:0:0:0:
320,192,84898,1,0,0:0:0:0:
448,192,84898,1,0,0:0:0:0:
448,192,84994,1,0,0:0:0:0:
64,192,84994,1,0,0:0:0:0:
320,192,85042,1,0,0:0:0:0:
192,192,85090,1,0,0:0:0:0:
448,192,85186,1,0,0:0:0:0:
64,192,85186,1,0,0:0:0:0:
64,192,85282,1,0,0:0:0:0:
448,192,85282,1,0,0:0:0:0:
320,192,85379,1,0,0:0:0:0:
192,192,85475,1,0,0:0:0:0:
64,192,85475,1,0,0:0:0:0:
448,192,85571,1,0,0:0:0:0:
64,192,85763,1,0,0:0:0:0:
192,192,85763,1,0,0:0:0:0:
448,192,85763,1,0,0:0:0:0:
320,192,85763,1,0,0:0:0:0:
64,192,85859,1,0,0:0:0:0:
320,192,85956,1,0,0:0:0:0:
448,192,85956,1,0,0:0:0:0:
192,192,86052,1,0,0:0:0:0:
320,192,86148,1,0,0:0:0:0:
448,192,86148,1,0,0:0:0:0:
192,192,86244,1,0,0:0:0:0:
64,192,86244,1,0,0:0:0:0:
320,192,86340,1,0,0:0:0:0:
448,192,86340,1,0,0:0:0:0:
64,192,86340,1,0,0:0:0:0:
192,192,86436,1,0,0:0:0:0:
64,192,86532,1,0,0:0:0:0:
448,192,86581,1,0,0:0:0:0:
320,192,86629,1,0,0:0:0:0:
192,192,86677,1,0,0:0:0:0:
448,192,86725,1,0,0:0:0:0:
64,192,86725,1,0,0:0:0:0:
320,192,86789,1,0,0:0:0:0:
192,192,86853,1,0,0:0:0:0:
320,192,86917,1,0,0:0:0:0:
448,192,86917,1,0,0:0:0:0:
64,192,86917,1,0,0:0:0:0:
448,192,87013,1,0,0:0:0:0:
192,192,87013,1,0,0:0:0:0:
192,192,87109,1,0,0:0:0:0:
320,192,87109,1,0,0:0:0:0:
64,192,87206,1,0,0:0:0:0:
320,192,87302,1,0,0:0:0:0:
192,192,87398,1,0,0:0:0:0:
448,192,87398,1,0,0:0:0:0:
64,192,87494,1,0,0:0:0:0:
320,192,87494,1,0,0:0:0:0:
448,192,87494,1,0,0:0:0:0:
192,192,87558,1,0,0:0:0:0:
64,192,87622,1,0,0:0:0:0:
448,192,87686,1,0,0:0:0:0:
320,192,87686,1,0,0:0:0:0:
64,192,87750,1,0,0:0:0:0:
192,192,87750,1,0,0:0:0:0:
320,192,87814,1,0,0:0:0:0:
448,192,87814,1,0,0:0:0:0:
64,192,87879,1,0,0:0:0:0:
320,192,87975,1,0,0:0:0:0:
448,192,87975,1,0,0:0:0:0:
192,192,88071,1,0,0:0:0:0:
320,192,88071,1,0,0:0:0:0:
192,192,88167,1,0,0:0:0:0:
64,192,88167,1,0,0:0:0:0:
320,192,88263,1,0,0:0:0:0:
448,192,88263,1,0,0:0:0:0:
448,192,88359,1,0,0:0:0:0:
64,192,88456,1,0,0:0:0:0:
192,192,88456,1,0,0:0:0:0:
64,192,88552,1,0,0:0:0:0:
320,192,88552,1,0,0:0:0:0:
448,192,88648,1,0,0:0:0:0:
448,192,88840,1,0,0:0:0:0:
320,192,88840,1,0,0:0:0:0:
64,192,88840,1,0,0:0:0:0:
192,192,88840,1,0,0:0:0:0:
320,192,88936,1,0,0:0:0:0:
64,192,89032,1,0,0:0:0:0:
192,192,89032,1,0,0:0:0:0:
448,192,89032,1,0,0:0:0:0:
320,192,89129,1,0,0:0:0:0:
64,192,89225,1,0,0:0:0:0:
192,192,89225,1,0,0:0:0:0:
448,192,89321,1,0,0:0:0:0:
192,192,89321,1,0,0:0:0:0:
320,192,89417,1,0,0:0:0:0:
64,192,89417,1,0,0:0:0:0:
448,192,89417,1,0,0:0:0:0:
192,192,89513,1,0,0:0:0:0:
448,192,89609,1,0,0:0:0:0:
320,192,89609,1,0,0:0:0:0:
192,192,89706,1,0,0:0:0:0:
64,192,89802,1,0,0:0:0:0:
448,192,89802,1,0,0:0:0:0:
64,192,89898,1,0,0:0:0:0:
448,192,89994,1,0,0:0:0:0:
320,192,89994,1,0,0:0:0:0:
192,192,90090,1,0,0:0:0:0:
448,192,90186,1,0,0:0:0:0:
192,192,90186,1,0,0:0:0:0:
64,192,90186,1,0,0:0:0:0:
448,192,90282,1,0,0:0:0:0:
320,192,90379,1,0,0:0:0:0:
64,192,90379,1,0,0:0:0:0:
192,192,90475,1,0,0:0:0:0:
64,192,90571,1,0,0:0:0:0:
192,192,90571,1,0,0:0:0:0:
448,192,90571,1,0,0:0:0:0:
320,192,90635,1,0,0:0:0:0:
64,192,90699,1,0,0:0:0:0:
448,192,90763,1,0,0:0:0:0:
192,192,90763,1,0,0:0:0:0:
320,192,90827,1,0,0:0:0:0:
448,192,90891,1,0,0:0:0:0:
64,192,90956,1,0,0:0:0:0:
448,192,91052,1,0,0:0:0:0:
320,192,91052,1,0,0:0:0:0:
192,192,91148,1,0,0:0:0:0:
448,192,91148,1,0,0:0:0:0:
192,192,91244,1,0,0:0:0:0:
64,192,91340,1,0,0:0:0:0:
320,192,91340,1,0,0:0:0:0:
448,192,91340,1,0,0:0:0:0:
64,192,91468,1,0,0:0:0:0:
192,192,91468,1,0,0:0:0:0:
320,192,91468,1,0,0:0:0:0:
448,192,91597,1,0,0:0:0:0:
64,192,91597,1,0,0:0:0:0:
192,192,91597,1,0,0:0:0:0:
320,192,91725,1,0,0:0:0:0:
192,192,92109,1,0,0:0:0:0:
64,192,92109,1,0,0:0:0:0:
448,192,92109,1,0,0:0:0:0:
320,192,92109,1,0,0:0:0:0:
320,192,92494,1,0,0:0:0:0:
64,192,92686,1,0,0:0:0:0:
448,192,92782,1,0,0:0:0:0:
192,192,92879,1,0,0:0:0:0:
64,192,92879,1,0,0:0:0:0:
320,192,92943,1,0,0:0:0:0:
448,192,93007,1,0,0:0:0:0:
192,192,93071,1,0,0:0:0:0:
64,192,93071,1,0,0:0:0:0:
320,192,93135,1,0,0:0:0:0:
64,192,93199,1,0,0:0:0:0:
320,192,93263,1,0,0:0:0:0:
448,192,93263,1,0,0:0:0:0:
192,192,93327,1,0,0:0:0:0:
64,192,93391,1,0,0:0:0:0:
448,192,93456,1,0,0:0:0:0:
192,192,93520,1,0,0:0:0:0:
448,192,93584,1,0,0:0:0:0:
64,192,93648,1,0,0:0:0:0:
320,192,93712,1,0,0:0:0:0:
64,192,93776,1,0,0:0:0:0:
448,192,93840,1,0,0:0:0:0:
192,192,93904,1,0,0:0:0:0:
448,192,93968,1,0,0:0:0:0:
64,192,94032,1,0,0:0:0:0:
192,192,94032,1,0,0:0:0:0:
320,192,94097,1,0,0:0:0:0:
192,192,94161,1,0,0:0:0:0:
448,192,94161,1,0,0:0:0:0:
320,192,94225,1,0,0:0:0:0:
64,192,94225,1,0,0:0:0:0:
448,192,94289,1,0,0:0:0:0:
64,192,94353,1,0,0:0:0:0:
192,192,94385,1,0,0:0:0:0:
448,192,94385,1,0,0:0:0:0:
320,192,94385,1,0,0:0:0:0:
192,192,94513,1,0,0:0:0:0:
64,192,94513,1,0,0:0:0:0:
64,192,94802,1,0,0:0:0:0:
320,192,94802,1,0,0:0:0:0:
448,192,94802,1,0,0:0:0:0:
64,192,95186,1,0,0:0:0:0:
448,192,95186,1,0,0:0:0:0:
320,192,95379,1,0,0:0:0:0:
64,192,95571,1,0,0:0:0:0:
192,192,95667,1,0,0:0:0:0:
64,192,95763,1,0,0:0:0:0:
448,192,95859,1,0,0:0:0:0:
320,192,95956,1,0,0:0:0:0:
448,192,96052,1,0,0:0:0:0:
192,192,96148,1,0,0:0:0:0:
320,192,96244,1,0,0:0:0:0:
192,192,96340,1,0,0:0:0:0:
448,192,96436,1,0,0:0:0:0:
320,192,96532,1,0,0:0:0:0:
448,192,96629,1,0,0:0:0:0:
64,192,96725,1,0,0:0:0:0:
320,192,96821,1,0,0:0:0:0:
64,192,96917,1,0,0:0:0:0:
320,192,97013,1,0,0:0:0:0:
64,192,97109,1,0,0:0:0:0:
448,192,97109,1,0,0:0:0:0:
192,192,97173,1,0,0:0:0:0:
320,192,97238,1,0,0:0:0:0:
448,192,97302,1,0,0:0:0:0:
320,192,97366,1,0,0:0:0:0:
192,192,97430,1,0,0:0:0:0:
448,192,97494,1,0,0:0:0:0:
64,192,97494,1,0,0:0:0:0:
320,192,97590,1,0,0:0:0:0:
64,192,97879,1,0,0:0:0:0:
192,192,97879,1,0,0:0:0:0:
192,192,98071,1,0,0:0:0:0:
448,192,98071,1,0,0:0:0:0:
320,192,98167,1,0,0:0:0:0:
448,192,98263,1,0,0:0:0:0:
192,192,98263,1,0,0:0:0:0:
64,192,98263,1,0,0:0:0:0:
320,192,98263,1,0,0:0:0:0:
64,192,98359,1,0,0:0:0:0:
320,192,98552,1,0,0:0:0:0:
320,192,98744,1,0,0:0:0:0:
64,192,98840,1,0,0:0:0:0:
320,192,98840,1,0,0:0:0:0:
448,192,98840,1,0,0:0:0:0:
192,192,98840,1,0,0:0:0:0:
192,192,98936,1,0,0:0:0:0:
320,192,99032,1,0,0:0:0:0:
192,192,99129,1,0,0:0:0:0:
64,192,99225,1,0,0:0:0:0:
448,192,99225,1,0,0:0:0:0:
192,192,99273,1,0,0:0:0:0:
320,192,99321,1,0,0:0:0:0:
448,192,99369,1,0,0:0:0:0:
64,192,99417,1,0,0:0:0:0:
320,192,99513,1,0,0:0:0:0:
192,192,99609,1,0,0:0:0:0:
64,192,99609,1,0,0:0:0:0:
320,192,99609,1,0,0:0:0:0:
448,192,99609,1,0,0:0:0:0:
192,192,99706,1,0,0:0:0:0:
448,192,99802,1,0,0:0:0:0:
448,192,99898,1,0,0:0:0:0:
192,192,99898,1,0,0:0:0:0:
320,192,99898,1,0,0:0:0:0:
64,192,99898,1,0,0:0:0:0:
320,192,100090,1,0,0:0:0:0:
320,192,100282,1,0,0:0:0:0:
64,192,100282,1,0,0:0:0:0:
192,192,100282,1,0,0:0:0:0:
448,192,100282,1,0,0:0:0:0:
192,192,100475,1,0,0:0:0:0:
64,192,100475,1,0,0:0:0:0:
320,192,100475,1,0,0:0:0:0:
448,192,100475,1,0,0:0:0:0:
448,192,100667,1,0,0:0:0:0:
192,192,100763,1,0,0:0:0:0:
448,192,100763,1,0,0:0:0:0:
320,192,100763,1,0,0:0:0:0:
192,192,100859,1,0,0:0:0:0:
320,192,100956,1,0,0:0:0:0:
64,192,101052,1,0,0:0:0:0:
448,192,101052,1,0,0:0:0:0:
448,192,101148,1,0,0:0:0:0:
320,192,101148,1,0,0:0:0:0:
192,192,101148,1,0,0:0:0:0:
64,192,101244,1,0,0:0:0:0:
320,192,101340,1,0,0:0:0:0:
448,192,101532,1,0,0:0:0:0:
64,192,101629,1,0,0:0:0:0:
448,192,101725,1,0,0:0:0:0:
192,192,101725,1,0,0:0:0:0:
320,192,101725,1,0,0:0:0:0:
64,192,101821,1,0,0:0:0:0:
192,192,101917,1,0,0:0:0:0:
448,192,102013,1,0,0:0:0:0:
320,192,102061,1,0,0:0:0:0:
64,192,102109,1,0,0:0:0:0:
192,192,102109,1,0,0:0:0:0:
64,192,102206,1,0,0:0:0:0:
448,192,102206,1,0,0:0:0:0:
320,192,102206,1,0,0:0:0:0:
192,192,102302,1,0,0:0:0:0:
448,192,102398,1,0,0:0:0:0:
320,192,102398,1,0,0:0:0:0:
64,192,102398,1,0,0:0:0:0:
64,192,102590,1,0,0:0:0:0:
448,192,102590,1,0,0:0:0:0:
320,192,102590,1,0,0:0:0:0:
64,192,102686,1,0,0:0:0:0:
320,192,102782,1,0,0:0:0:0:
448,192,102879,1,0,0:0:0:0:
320,192,102879,1,0,0:0:0:0:
192,192,102975,1,0,0:0:0:0:
448,192,103071,1,0,0:0:0:0:
64,192,103071,1,0,0:0:0:0:
192,192,103167,1,0,0:0:0:0:
320,192,103263,1,0,0:0:0:0:
448,192,103263,1,0,0:0:0:0:
64,192,103456,1,0,0:0:0:0:
192,192,103456,1,0,0:0:0:0:
448,192,103552,1,0,0:0:0:0:
320,192,103600,1,0,0:0:0:0:
192,192,103648,1,0,0:0:0:0:
64,192,103744,1,0,0:0:0:0:
448,192,103744,1,0,0:0:0:0:
320,192,103840,1,0,0:0:0:0:
64,192,103936,1,0,0:0:0:0:
192,192,103936,1,0,0:0:0:0:
192,192,104032,1,0,0:0:0:0:
64,192,104225,1,0,0:0:0:0:
448,192,104225,1,0,0:0:0:0:
320,192,104321,1,0,0:0:0:0:
448,192,104417,1,0,0:0:0:0:
64,192,104417,1,0,0:0:0:0:
192,192,104417,1,0,0:0:0:0:
320,192,104417,1,0,0:0:0:0:
64,192,104513,1,0,0:0:0:0:
192,192,104706,1,0,0:0:0:0:
192,192,104898,1,0,0:0:0:0:
192,192,104994,1,0,0:0:0:0:
64,192,104994,1,0,0:0:0:0:
320,192,104994,1,0,0:0:0:0:
448,192,104994,1,0,0:0:0:0:
320,192,105090,1,0,0:0:0:0:
448,192,105186,1,0,0:0:0:0:
192,192,105282,1,0,0:0:0:0:
448,192,105379,1,0,0:0:0:0:
320,192,105379,1,0,0:0:0:0:
64,192,105443,1,0,0:0:0:0:
192,192,105475,1,0,0:0:0:0:
320,192,105507,1,0,0:0:0:0:
64,192,105571,1,0,0:0:0:0:
192,192,105667,1,0,0:0:0:0:
192,192,105763,1,0,0:0:0:0:
64,192,105763,1,0,0:0:0:0:
448,192,105763,1,0,0:0:0:0:
320,192,105763,1,0,0:0:0:0:
320,192,105859,1,0,0:0:0:0:
64,192,105956,1,0,0:0:0:0:
448,192,105956,1,0,0:0:0:0:
192,192,106052,1,0,0:0:0:0:
64,192,106052,1,0,0:0:0:0:
448,192,106052,1,0,0:0:0:0:
320,192,106052,1,0,0:0:0:0:
320,192,106244,1,0,0:0:0:0:
64,192,106340,1,0,0:0:0:0:
320,192,106436,1,0,0:0:0:0:
64,192,106436,1,0,0:0:0:0:
192,192,106436,1,0,0:0:0:0:
448,192,106436,1,0,0:0:0:0:
64,192,106629,1,0,0:0:0:0:
192,192,106629,1,0,0:0:0:0:
320,192,106629,1,0,0:0:0:0:
448,192,106629,1,0,0:0:0:0:
64,192,106821,1,0,0:0:0:0:
64,192,106917,1,0,0:0:0:0:
320,192,106917,1,0,0:0:0:0:
448,192,106917,1,0,0:0:0:0:
320,192,107013,1,0,0:0:0:0:
448,192,107109,1,0,0:0:0:0:
64,192,107109,1,0,0:0:0:0:
192,192,107206,1,0,0:0:0:0:
448,192,107302,1,0,0:0:0:0:
64,192,107302,1,0,0:0:0:0:
320,192,107302,1,0,0:0:0:0:
192,192,107398,1,0,0:0:0:0:
320,192,107494,1,0,0:0:0:0:
448,192,107686,1,0,0:0:0:0:
192,192,107782,1,0,0:0:0:0:
448,192,107879,1,0,0:0:0:0:
64,192,107879,1,0,0:0:0:0:
320,192,107879,1,0,0:0:0:0:
192,192,107975,1,0,0:0:0:0:
448,192,108071,1,0,0:0:0:0:
192,192,108167,1,0,0:0:0:0:
320,192,108215,1,0,0:0:0:0:
64,192,108263,1,0,0:0:0:0:
448,192,108263,1,0,0:0:0:0:
64,192,108359,1,0,0:0:0:0:
192,192,108359,1,0,0:0:0:0:
320,192,108359,1,0,0:0:0:0:
448,192,108456,1,0,0:0:0:0:
192,192,108552,1,0,0:0:0:0:
320,192,108552,1,0,0:0:0:0:
64,192,108552,1,0,0:0:0:0:
64,192,108744,1,0,0:0:0:0:
192,192,108744,1,0,0:0:0:0:
320,192,108744,1,0,0:0:0:0:
192,192,108840,1,0,0:0:0:0:
320,192,108936,1,0,0:0:0:0:
448,192,109032,1,0,0:0:0:0:
320,192,109032,1,0,0:0:0:0:
64,192,109129,1,0,0:0:0:0:
448,192,109225,1,0,0:0:0:0:
192,192,109225,1,0,0:0:0:0:
320,192,109321,1,0,0:0:0:0:
448,192,109417,1,0,0:0:0:0:
64,192,109417,1,0,0:0:0:0:
64,192,109609,1,0,0:0:0:0:
448,192,109609,1,0,0:0:0:0:
192,192,109706,1,0,0:0:0:0:
448,192,109754,1,0,0:0:0:0:
64,192,109802,1,0,0:0:0:0:
320,192,109802,1,0,0:0:0:0:
64,192,109898,1,0,0:0:0:0:
448,192,109898,1,0,0:0:0:0:
64,192,110090,1,0,0:0:0:0:
448,192,110090,1,0,0:0:0:0:
320,192,110186,1,0,0:0:0:0:
192,192,110186,1,0,0:0:0:0:
448,192,110282,1,0,0:0:0:0:
64,192,110379,1,0,0:0:0:0:
192,192,110379,1,0,0:0:0:0:
320,192,110475,1,0,0:0:0:0:
192,192,110571,1,0,0:0:0:0:
64,192,110571,1,0,0:0:0:0:
448,192,110571,1,0,0:0:0:0:
320,192,110571,1,0,0:0:0:0:
64,192,110667,1,0,0:0:0:0:
320,192,110763,1,0,0:0:0:0:
448,192,110859,1,0,0:0:0:0:
64,192,110956,1,0,0:0:0:0:
192,192,110956,1,0,0:0:0:0:
448,192,111052,1,0,0:0:0:0:
64,192,111052,1,0,0:0:0:0:
320,192,111052,1,0,0:0:0:0:
192,192,111052,1,0,0:0:0:0:
320,192,111148,1,0,0:0:0:0:
448,192,111148,1,0,0:0:0:0:
192,192,111244,1,0,0:0:0:0:
64,192,111340,1,0,0:0:0:0:
320,192,111340,1,0,0:0:0:0:
64,192,111436,1,0,0:0:0:0:
448,192,111436,1,0,0:0:0:0:
192,192,111436,1,0,0:0:0:0:
320,192,111532,1,0,0:0:0:0:
64,192,111629,1,0,0:0:0:0:
192,192,111629,1,0,0:0:0:0:
448,192,111629,1,0,0:0:0:0:
64,192,111725,1,0,0:0:0:0:
320,192,111725,1,0,0:0:0:0:
448,192,111725,1,0,0:0:0:0:
320,192,111917,1,0,0:0:0:0:
192,192,111917,1,0,0:0:0:0:
64,192,111917,1,0,0:0:0:0:
448,192,112013,1,0,0:0:0:0:
64,192,112109,1,0,0:0:0:0:
320,192,112109,1,0,0:0:0:0:
192,192,112206,1,0,0:0:0:0:
320,192,112206,1,0,0:0:0:0:
448,192,112206,1,0,0:0:0:0:
192,192,112398,1,0,0:0:0:0:
64,192,112398,1,0,0:0:0:0:
448,192,112398,1,0,0:0:0:0:
192,192,112590,1,0,0:0:0:0:
448,192,112590,1,0,0:0:0:0:
320,192,112590,1,0,0:0:0:0:
320,192,112686,1,0,0:0:0:0:
64,192,112686,1,0,0:0:0:0:
448,192,112750,1,0,0:0:0:0:
64,192,112814,1,0,0:0:0:0:
448,192,112879,1,0,0:0:0:0:
320,192,112879,1,0,0:0:0:0:
64,192,112975,1,0,0:0:0:0:
192,192,112975,1,0,0:0:0:0:
64,192,113071,1,0,0:0:0:0:
448,192,113071,1,0,0:0:0:0:
320,192,113071,1,0,0:0:0:0:
448,192,113167,1,0,0:0:0:0:
64,192,113263,1,0,0:0:0:0:
320,192,113263,1,0,0:0:0:0:
320,192,113456,1,0,0:0:0:0:
448,192,113456,1,0,0:0:0:0:
448,192,113552,1,0,0:0:0:0:
192,192,113552,1,0,0:0:0:0:
320,192,113648,1,0,0:0:0:0:
64,192,113648,1,0,0:0:0:0:
448,192,113744,1,0,0:0:0:0:
320,192,113840,1,0,0:0:0:0:
64,192,113840,1,0,0:0:0:0:
192,192,113936,1,0,0:0:0:0:
64,192,113936,1,0,0:0:0:0:
64,192,114129,1,0,0:0:0:0:
448,192,114129,1,0,0:0:0:0:
64,192,114225,1,0,0:0:0:0:
192,192,114225,1,0,0:0:0:0:
320,192,114321,1,0,0:0:0:0:
448,192,114321,1,0,0:0:0:0:
448,192,114417,1,0,0:0:0:0:
64,192,114417,1,0,0:0:0:0:
320,192,114417,1,0,0:0:0:0:
64,192,114513,1,0,0:0:0:0:
192,192,114513,1,0,0:0:0:0:
320,192,114609,1,0,0:0:0:0:
192,192,114609,1,0,0:0:0:0:
448,192,114706,1,0,0:0:0:0:
320,192,114706,1,0,0:0:0:0:
64,192,114802,1,0,0:0:0:0:
192,192,114802,1,0,0:0:0:0:
448,192,114994,1,0,0:0:0:0:
64,192,115186,1,0,0:0:0:0:
448,192,115379,1,0,0:0:0:0:
320,192,115443,1,0,0:0:0:0:
192,192,115507,1,0,0:0:0:0:
320,192,115571,1,0,0:0:0:0:
448,192,115571,1,0,0:0:0:0:
64,192,115571,1,0,0:0:0:0:
448,192,115763,1,0,0:0:0:0:
64,192,115827,1,0,0:0:0:0:
192,192,115891,1,0,0:0:0:0:
64,192,115956,1,0,0:0:0:0:
448,192,115956,1,0,0:0:0:0:
320,192,115956,1,0,0:0:0:0:
448,192,116148,1,0,0:0:0:0:
192,192,116244,1,0,0:0:0:0:
448,192,116340,1,0,0:0:0:0:
64,192,116340,1,0,0:0:0:0:
64,192,116468,1,0,0:0:0:0:
64,192,116597,1,0,0:0:0:0:
320,192,116597,1,0,0:0:0:0:
448,192,116725,1,0,0:0:0:0:
320,192,116725,1,0,0:0:0:0:
64,192,116725,1,0,0:0:0:0:
64,192,117107,1,0,0:0:0:0:
320,192,117107,1,0,0:0:0:0:
448,192,117299,1,0,0:0:0:0:
320,192,117299,1,0,0:0:0:0:
320,192,117491,1,0,0:0:0:0:
448,192,117491,1,0,0:0:0:0:
64,192,117491,1,0,0:0:0:0:
320,192,117780,1,0,0:0:0:0:
64,192,117780,1,0,0:0:0:0:
192,192,117780,1,0,0:0:0:0:
448,192,117876,1,0,0:0:0:0:
320,192,117972,1,0,0:0:0:0:
64,192,118068,1,0,0:0:0:0:
448,192,118132,1,0,0:0:0:0:
64,192,118196,1,0,0:0:0:0:
192,192,118260,1,0,0:0:0:0:
448,192,118260,1,0,0:0:0:0:
320,192,118260,1,0,0:0:0:0:
320,192,118357,1,0,0:0:0:0:
64,192,118453,1,0,0:0:0:0:
448,192,118453,1,0,0:0:0:0:
192,192,118549,1,0,0:0:0:0:
192,192,118645,1,0,0:0:0:0:
448,192,118645,1,0,0:0:0:0:
320,192,118645,1,0,0:0:0:0:
192,192,118837,1,0,0:0:0:0:
64,192,118837,1,0,0:0:0:0:
320,192,118933,1,0,0:0:0:0:
192,192,119030,1,0,0:0:0:0:
448,192,119030,1,0,0:0:0:0:
64,192,119030,1,0,0:0:0:0:
320,192,119126,1,0,0:0:0:0:
448,192,119126,1,0,0:0:0:0:
320,192,119318,1,0,0:0:0:0:
64,192,119318,1,0,0:0:0:0:
192,192,119318,1,0,0:0:0:0:
320,192,119510,1,0,0:0:0:0:
192,192,119510,1,0,0:0:0:0:
192,192,119703,1,0,0:0:0:0:
64,192,119799,1,0,0:0:0:0:
448,192,119799,1,0,0:0:0:0:
320,192,119799,1,0,0:0:0:0:
192,192,119895,1,0,0:0:0:0:
448,192,119991,1,0,0:0:0:0:
320,192,119991,1,0,0:0:0:0:
320,192,120087,1,0,0:0:0:0:
192,192,120087,1,0,0:0:0:0:
448,192,120087,1,0,0:0:0:0:
64,192,120087,1,0,0:0:0:0:
192,192,120376,1,0,0:0:0:0:
320,192,120472,1,0,0:0:0:0:
64,192,120568,1,0,0:0:0:0:
192,192,120568,1,0,0:0:0:0:
448,192,120568,1,0,0:0:0:0:
64,192,120664,1,0,0:0:0:0:
320,192,120760,1,0,0:0:0:0:
64,192,120857,1,0,0:0:0:0:
320,192,120857,1,0,0:0:0:0:
448,192,120857,1,0,0:0:0:0:
192,192,120857,1,0,0:0:0:0:
64,192,121145,1,0,0:0:0:0:
448,192,121145,1,0,0:0:0:0:
320,192,121209,1,0,0:0:0:0:
192,192,121273,1,0,0:0:0:0:
448,192,121337,1,0,0:0:0:0:
64,192,121337,1,0,0:0:0:0:
320,192,121337,1,0,0:0:0:0:
320,192,121433,1,0,0:0:0:0:
448,192,121433,1,0,0:0:0:0:
192,192,121626,1,0,0:0:0:0:
320,192,121626,1,0,0:0:0:0:
64,192,121626,1,0,0:0:0:0:
448,192,121626,1,0,0:0:0:0:
64,192,121818,1,0,0:0:0:0:
448,192,121914,1,0,0:0:0:0:
320,192,122010,1,0,0:0:0:0:
192,192,122107,1,0,0:0:0:0:
64,192,122107,1,0,0:0:0:0:
448,192,122107,1,0,0:0:0:0:
192,192,122299,1,0,0:0:0:0:
448,192,122395,1,0,0:0:0:0:
320,192,122395,1,0,0:0:0:0:
192,192,122395,1,0,0:0:0:0:
64,192,122395,1,0,0:0:0:0:
320,192,122587,1,0,0:0:0:0:
192,192,122683,1,0,0:0:0:0:
64,192,122683,1,0,0:0:0:0:
448,192,122748,1,0,0:0:0:0:
64,192,122812,1,0,0:0:0:0:
320,192,122876,1,0,0:0:0:0:
192,192,122876,1,0,0:0:0:0:
448,192,122876,1,0,0:0:0:0:
320,192,122972,1,0,0:0:0:0:
64,192,122972,1,0,0:0:0:0:
448,192,123068,1,0,0:0:0:0:
192,192,123164,1,0,0:0:0:0:
64,192,123164,1,0,0:0:0:0:
64,192,123260,1,0,0:0:0:0:
448,192,123260,1,0,0:0:0:0:
320,192,123260,1,0,0:0:0:0:
320,192,123453,1,0,0:0:0:0:
192,192,123453,1,0,0:0:0:0:
64,192,123645,1,0,0:0:0:0:
192,192,123645,1,0,0:0:0:0:
320,192,123645,1,0,0:0:0:0:
192,192,123837,1,0,0:0:0:0:
64,192,123933,1,0,0:0:0:0:
448,192,123933,1,0,0:0:0:0:
320,192,123933,1,0,0:0:0:0:
192,192,124030,1,0,0:0:0:0:
448,192,124126,1,0,0:0:0:0:
64,192,124222,1,0,0:0:0:0:
320,192,124286,1,0,0:0:0:0:
64,192,124350,1,0,0:0:0:0:
192,192,124414,1,0,0:0:0:0:
448,192,124414,1,0,0:0:0:0:
320,192,124414,1,0,0:0:0:0:
448,192,124510,1,0,0:0:0:0:
320,192,124607,1,0,0:0:0:0:
64,192,124607,1,0,0:0:0:0:
192,192,124703,1,0,0:0:0:0:
192,192,124799,1,0,0:0:0:0:
448,192,124799,1,0,0:0:0:0:
64,192,124799,1,0,0:0:0:0:
320,192,124991,1,0,0:0:0:0:
448,192,124991,1,0,0:0:0:0:
64,192,125087,1,0,0:0:0:0:
192,192,125183,1,0,0:0:0:0:
320,192,125183,1,0,0:0:0:0:
448,192,125183,1,0,0:0:0:0:
448,192,125280,1,0,0:0:0:0:
64,192,125280,1,0,0:0:0:0:
320,192,125472,1,0,0:0:0:0:
192,192,125472,1,0,0:0:0:0:
448,192,125472,1,0,0:0:0:0:
64,192,125472,1,0,0:0:0:0:
320,192,125664,1,0,0:0:0:0:
64,192,125664,1,0,0:0:0:0:
448,192,125760,1,0,0:0:0:0:
192,192,125857,1,0,0:0:0:0:
448,192,125953,1,0,0:0:0:0:
320,192,125953,1,0,0:0:0:0:
64,192,125953,1,0,0:0:0:0:
192,192,126017,1,0,0:0:0:0:
448,192,126145,1,0,0:0:0:0:
320,192,126145,1,0,0:0:0:0:
192,192,126241,1,0,0:0:0:0:
64,192,126241,1,0,0:0:0:0:
448,192,126241,1,0,0:0:0:0:
64,192,126530,1,0,0:0:0:0:
192,192,126530,1,0,0:0:0:0:
448,192,126626,1,0,0:0:0:0:
320,192,126626,1,0,0:0:0:0:
448,192,126722,1,0,0:0:0:0:
64,192,126722,1,0,0:0:0:0:
192,192,126722,1,0,0:0:0:0:
64,192,126818,1,0,0:0:0:0:
320,192,126914,1,0,0:0:0:0:
448,192,126914,1,0,0:0:0:0:
192,192,127010,1,0,0:0:0:0:
64,192,127107,1,0,0:0:0:0:
192,192,127107,1,0,0:0:0:0:
320,192,127107,1,0,0:0:0:0:
448,192,127107,1,0,0:0:0:0:
64,192,127299,1,0,0:0:0:0:
192,192,127347,1,0,0:0:0:0:
320,192,127395,1,0,0:0:0:0:
192,192,127491,1,0,0:0:0:0:
320,192,127491,1,0,0:0:0:0:
448,192,127491,1,0,0:0:0:0:
64,192,127491,1,0,0:0:0:0:
64,192,127587,1,0,0:0:0:0:
448,192,127683,1,0,0:0:0:0:
192,192,127780,1,0,0:0:0:0:
64,192,127780,1,0,0:0:0:0:
320,192,127780,1,0,0:0:0:0:
448,192,127780,1,0,0:0:0:0:
192,192,127876,1,0,0:0:0:0:
64,192,127876,1,0,0:0:0:0:
320,192,128004,1,0,0:0:0:0:
448,192,128068,1,0,0:0:0:0:
64,192,128132,1,0,0:0:0:0:
192,192,128164,1,0,0:0:0:0:
320,192,128196,1,0,0:0:0:0:
192,192,128260,1,0,0:0:0:0:
64,192,128260,1,0,0:0:0:0:
448,192,128260,1,0,0:0:0:0:
192,192,128453,1,0,0:0:0:0:
192,192,128549,1,0,0:0:0:0:
64,192,128549,1,0,0:0:0:0:
320,192,128549,1,0,0:0:0:0:
448,192,128549,1,0,0:0:0:0:
320,192,128741,1,0,0:0:0:0:
64,192,128837,1,0,0:0:0:0:
192,192,128837,1,0,0:0:0:0:
448,192,128885,1,0,0:0:0:0:
320,192,128933,1,0,0:0:0:0:
192,192,128982,1,0,0:0:0:0:
64,192,129030,1,0,0:0:0:0:
448,192,129078,1,0,0:0:0:0:
320,192,129126,1,0,0:0:0:0:
192,192,129174,1,0,0:0:0:0:
448,192,129222,1,0,0:0:0:0:
320,192,129318,1,0,0:0:0:0:
448,192,129414,1,0,0:0:0:0:
64,192,129414,1,0,0:0:0:0:
192,192,129414,1,0,0:0:0:0:
448,192,129607,1,0,0:0:0:0:
320,192,129607,1,0,0:0:0:0:
192,192,129799,1,0,0:0:0:0:
64,192,129799,1,0,0:0:0:0:
448,192,129799,1,0,0:0:0:0:
320,192,129799,1,0,0:0:0:0:
320,192,130087,1,0,0:0:0:0:
192,192,130087,1,0,0:0:0:0:
64,192,130087,1,0,0:0:0:0:
448,192,130183,1,0,0:0:0:0:
320,192,130280,1,0,0:0:0:0:
192,192,130376,1,0,0:0:0:0:
448,192,130440,1,0,0:0:0:0:
192,192,130504,1,0,0:0:0:0:
448,192,130568,1,0,0:0:0:0:
64,192,130568,1,0,0:0:0:0:
320,192,130568,1,0,0:0:0:0:
320,192,130664,1,0,0:0:0:0:
64,192,130760,1,0,0:0:0:0:
448,192,130760,1,0,0:0:0:0:
192,192,130857,1,0,0:0:0:0:
192,192,130953,1,0,0:0:0:0:
448,192,130953,1,0,0:0:0:0:
320,192,130953,1,0,0:0:0:0:
64,192,131145,1,0,0:0:0:0:
320,192,131145,1,0,0:0:0:0:
192,192,131241,1,0,0:0:0:0:
64,192,131337,1,0,0:0:0:0:
320,192,131337,1,0,0:0:0:0:
448,192,131337,1,0,0:0:0:0:
192,192,131433,1,0,0:0:0:0:
448,192,131433,1,0,0:0:0:0:
192,192,131626,1,0,0:0:0:0:
448,192,131626,1,0,0:0:0:0:
320,192,131626,1,0,0:0:0:0:
64,192,131626,1,0,0:0:0:0:
64,192,131818,1,0,0:0:0:0:
192,192,131818,1,0,0:0:0:0:
192,192,132010,1,0,0:0:0:0:
64,192,132107,1,0,0:0:0:0:
448,192,132107,1,0,0:0:0:0:
320,192,132107,1,0,0:0:0:0:
192,192,132203,1,0,0:0:0:0:
448,192,132299,1,0,0:0:0:0:
320,192,132299,1,0,0:0:0:0:
192,192,132395,1,0,0:0:0:0:
64,192,132395,1,0,0:0:0:0:
448,192,132395,1,0,0:0:0:0:
320,192,132395,1,0,0:0:0:0:
448,192,132683,1,0,0:0:0:0:
320,192,132780,1,0,0:0:0:0:
448,192,132876,1,0,0:0:0:0:
64,192,132876,1,0,0:0:0:0:
192,192,132876,1,0,0:0:0:0:
64,192,132972,1,0,0:0:0:0:
320,192,133068,1,0,0:0:0:0:
448,192,133164,1,0,0:0:0:0:
64,192,133164,1,0,0:0:0:0:
320,192,133164,1,0,0:0:0:0:
448,192,133453,1,0,0:0:0:0:
64,192,133453,1,0,0:0:0:0:
320,192,133517,1,0,0:0:0:0:
192,192,133581,1,0,0:0:0:0:
320,192,133645,1,0,0:0:0:0:
448,192,133645,1,0,0:0:0:0:
64,192,133645,1,0,0:0:0:0:
320,192,133741,1,0,0:0:0:0:
448,192,133741,1,0,0:0:0:0:
192,192,133933,1,0,0:0:0:0:
64,192,133933,1,0,0:0:0:0:
320,192,133933,1,0,0:0:0:0:
448,192,133933,1,0,0:0:0:0:
64,192,134126,1,0,0:0:0:0:
448,192,134222,1,0,0:0:0:0:
64,192,134318,1,0,0:0:0:0:
192,192,134414,1,0,0:0:0:0:
320,192,134414,1,0,0:0:0:0:
448,192,134414,1,0,0:0:0:0:
192,192,134607,1,0,0:0:0:0:
64,192,134703,1,0,0:0:0:0:
192,192,134703,1,0,0:0:0:0:
320,192,134703,1,0,0:0:0:0:
448,192,134703,1,0,0:0:0:0:
320,192,134895,1,0,0:0:0:0:
192,192,134991,1,0,0:0:0:0:
64,192,134991,1,0,0:0:0:0:
448,192,135055,1,0,0:0:0:0:
192,192,135119,1,0,0:0:0:0:
320,192,135183,1,0,0:0:0:0:
64,192,135183,1,0,0:0:0:0:
64,192,135280,1,0,0:0:0:0:
448,192,135280,1,0,0:0:0:0:
192,192,135376,1,0,0:0:0:0:
448,192,135472,1,0,0:0:0:0:
320,192,135472,1,0,0:0:0:0:
64,192,135568,1,0,0:0:0:0:
192,192,135568,1,0,0:0:0:0:
448,192,135568,1,0,0:0:0:0:
192,192,135760,1,0,0:0:0:0:
320,192,135760,1,0,0:0:0:0:
448,192,135953,1,0,0:0:0:0:
320,192,135953,1,0,0:0:0:0:
192,192,135953,1,0,0:0:0:0:
448,192,136145,1,0,0:0:0:0:
320,192,136241,1,0,0:0:0:0:
64,192,136241,1,0,0:0:0:0:
192,192,136241,1,0,0:0:0:0:
448,192,136337,1,0,0:0:0:0:
192,192,136433,1,0,0:0:0:0:
64,192,136530,1,0,0:0:0:0:
320,192,136594,1,0,0:0:0:0:
64,192,136658,1,0,0:0:0:0:
192,192,136722,1,0,0:0:0:0:
448,192,136722,1,0,0:0:0:0:
320,192,136722,1,0,0:0:0:0:
448,192,136818,1,0,0:0:0:0:
64,192,136914,1,0,0:0:0:0:
320,192,136914,1,0,0:0:0:0:
192,192,137010,1,0,0:0:0:0:
64,192,137107,1,0,0:0:0:0:
448,192,137107,1,0,0:0:0:0:
192,192,137107,1,0,0:0:0:0:
448,192,137299,1,0,0:0:0:0:
320,192,137299,1,0,0:0:0:0:
192,192,137395,1,0,0:0:0:0:
320,192,137491,1,0,0:0:0:0:
64,192,137491,1,0,0:0:0:0:
448,192,137491,1,0,0:0:0:0:
192,192,137587,1,0,0:0:0:0:
320,192,137587,1,0,0:0:0:0:
448,192,137780,1,0,0:0:0:0:
320,192,137780,1,0,0:0:0:0:
192,192,137780,1,0,0:0:0:0:
64,192,137780,1,0,0:0:0:0:
192,192,137972,1,0,0:0:0:0:
64,192,137972,1,0,0:0:0:0:
192,192,138068,1,0,0:0:0:0:
448,192,138164,1,0,0:0:0:0:
320,192,138164,1,0,0:0:0:0:
192,192,138260,1,0,0:0:0:0:
64,192,138260,1,0,0:0:0:0:
448,192,138260,1,0,0:0:0:0:
320,192,138324,1,0,0:0:0:0:
192,192,138389,1,0,0:0:0:0:
320,192,138453,1,0,0:0:0:0:
448,192,138453,1,0,0:0:0:0:
192,192,138549,1,0,0:0:0:0:
64,192,138549,1,0,0:0:0:0:
448,192,138549,1,0,0:0:0:0:
320,192,138549,1,0,0:0:0:0:
320,192,138837,1,0,0:0:0:0:
192,192,138837,1,0,0:0:0:0:
448,192,138933,1,0,0:0:0:0:
192,192,138933,1,0,0:0:0:0:
64,192,139030,1,0,0:0:0:0:
448,192,139030,1,0,0:0:0:0:
320,192,139030,1,0,0:0:0:0:
320,192,139126,1,0,0:0:0:0:
64,192,139222,1,0,0:0:0:0:
192,192,139318,1,0,0:0:0:0:
64,192,139414,1,0,0:0:0:0:
192,192,139414,1,0,0:0:0:0:
448,192,139414,1,0,0:0:0:0:
320,192,139414,1,0,0:0:0:0:
448,192,139607,1,0,0:0:0:0:
64,192,139671,1,0,0:0:0:0:
320,192,139735,1,0,0:0:0:0:
64,192,139799,1,0,0:0:0:0:
192,192,139799,1,0,0:0:0:0:
448,192,139799,1,0,0:0:0:0:
448,192,139895,1,0,0:0:0:0:
192,192,139991,1,0,0:0:0:0:
192,192,140087,1,0,0:0:0:0:
64,192,140087,1,0,0:0:0:0:
320,192,140087,1,0,0:0:0:0:
448,192,140087,1,0,0:0:0:0:
320,192,140183,1,0,0:0:0:0:
64,192,140183,1,0,0:0:0:0:
448,192,140304,1,0,0:0:0:0:
192,192,140376,1,0,0:0:0:0:
320,192,140424,1,0,0:0:0:0:
64,192,140472,1,0,0:0:0:0:
448,192,140472,1,0,0:0:0:0:
192,192,140568,1,0,0:0:0:0:
320,192,140568,1,0,0:0:0:0:
64,192,140568,1,0,0:0:0:0:
192,192,140760,1,0,0:0:0:0:
192,192,140857,1,0,0:0:0:0:
64,192,140857,1,0,0:0:0:0:
320,192,140857,1,0,0:0:0:0:
448,192,140857,1,0,0:0:0:0:
320,192,141049,1,0,0:0:0:0:
64,192,141145,1,0,0:0:0:0:
192,192,141145,1,0,0:0:0:0:
448,192,141193,1,0,0:0:0:0:
320,192,141241,1,0,0:0:0:0:
192,192,141289,1,0,0:0:0:0:
64,192,141337,1,0,0:0:0:0:
448,192,141385,1,0,0:0:0:0:
320,192,141433,1,0,0:0:0:0:
192,192,141482,1,0,0:0:0:0:
448,192,141530,1,0,0:0:0:0:
320,192,141626,1,0,0:0:0:0:
192,192,141722,1,0,0:0:0:0:
448,192,141722,1,0,0:0:0:0:
192,192,142010,1,0,0:0:0:0:
192,192,142107,1,0,0:0:0:0:
64,192,142107,1,0,0:0:0:0:
448,192,142107,1,0,0:0:0:0:
320,192,142107,1,0,0:0:0:0:
448,192,142395,1,0,0:0:0:0:
320,192,142491,1,0,0:0:0:0:
64,192,142780,1,0,0:0:0:0:
320,192,142876,1,0,0:0:0:0:
448,192,143068,1,0,0:0:0:0:
64,192,143164,1,0,0:0:0:0:
448,192,143260,1,0,0:0:0:0:
64,192,143453,1,0,0:0:0:0:
448,192,143453,1,0,0:0:0:0:
320,192,143453,1,0,0:0:0:0:
192,192,143645,1,0,0:0:0:0:
448,192,143741,1,0,0:0:0:0:
64,192,143837,1,0,0:0:0:0:
320,192,143837,1,0,0:0:0:0:
448,192,144030,1,0,0:0:0:0:
64,192,144126,1,0,0:0:0:0:
448,192,144222,1,0,0:0:0:0:
320,192,144222,1,0,0:0:0:0:
192,192,144414,1,0,0:0:0:0:
320,192,144510,1,0,0:0:0:0:
192,192,144607,1,0,0:0:0:0:
64,192,144607,1,0,0:0:0:0:
320,192,144799,1,0,0:0:0:0:
64,192,144799,1,0,0:0:0:0:
448,192,144799,1,0,0:0:0:0:
192,192,144895,1,0,0:0:0:0:
320,192,144991,1,0,0:0:0:0:
64,192,145087,1,0,0:0:0:0:
192,192,145135,1,0,0:0:0:0:
448,192,145183,1,0,0:0:0:0:
320,192,145183,1,0,0:0:0:0:
192,192,145376,1,0,0:0:0:0:
64,192,145472,1,0,0:0:0:0:
448,192,145568,1,0,0:0:0:0:
320,192,145568,1,0,0:0:0:0:
64,192,145760,1,0,0:0:0:0:
320,192,145857,1,0,0:0:0:0:
192,192,145857,1,0,0:0:0:0:
448,192,146049,1,0,0:0:0:0:
192,192,146145,1,0,0:0:0:0:
64,192,146145,1,0,0:0:0:0:
64,192,146337,1,0,0:0:0:0:
320,192,146337,1,0,0:0:0:0:
192,192,146337,1,0,0:0:0:0:
192,192,146433,1,0,0:0:0:0:
448,192,146530,1,0,0:0:0:0:
64,192,146530,1,0,0:0:0:0:
448,192,146626,1,0,0:0:0:0:
320,192,146722,1,0,0:0:0:0:
64,192,146722,1,0,0:0:0:0:
64,192,146818,1,0,0:0:0:0:
448,192,146914,1,0,0:0:0:0:
320,192,146914,1,0,0:0:0:0:
320,192,147010,1,0,0:0:0:0:
192,192,147107,1,0,0:0:0:0:
448,192,147107,1,0,0:0:0:0:
64,192,147107,1,0,0:0:0:0:
320,192,147171,1,0,0:0:0:0:
192,192,147235,1,0,0:0:0:0:
64,192,147299,1,0,0:0:0:0:
320,192,147395,1,0,0:0:0:0:
448,192,147491,1,0,0:0:0:0:
64,192,147491,1,0,0:0:0:0:
64,192,147587,1,0,0:0:0:0:
448,192,147683,1,0,0:0:0:0:
192,192,147780,1,0,0:0:0:0:
320,192,147828,1,0,0:0:0:0:
192,192,147876,1,0,0:0:0:0:
448,192,147876,1,0,0:0:0:0:
64,192,147876,1,0,0:0:0:0:
320,192,148068,1,0,0:0:0:0:
192,192,148164,1,0,0:0:0:0:
448,192,148260,1,0,0:0:0:0:
320,192,148260,1,0,0:0:0:0:
64,192,148453,1,0,0:0:0:0:
320,192,148549,1,0,0:0:0:0:
192,192,148645,1,0,0:0:0:0:
448,192,148645,1,0,0:0:0:0:
64,192,148837,1,0,0:0:0:0:
192,192,148933,1,0,0:0:0:0:
320,192,148933,1,0,0:0:0:0:
448,192,149126,1,0,0:0:0:0:
320,192,149222,1,0,0:0:0:0:
64,192,149222,1,0,0:0:0:0:
192,192,149414,1,0,0:0:0:0:
448,192,149414,1,0,0:0:0:0:
448,192,149510,1,0,0:0:0:0:
192,192,149607,1,0,0:0:0:0:
64,192,149607,1,0,0:0:0:0:
64,192,149703,1,0,0:0:0:0:
448,192,149799,1,0,0:0:0:0:
320,192,149799,1,0,0:0:0:0:
320,192,149895,1,0,0:0:0:0:
448,192,149991,1,0,0:0:0:0:
192,192,149991,1,0,0:0:0:0:
192,192,150087,1,0,0:0:0:0:
64,192,150183,1,0,0:0:0:0:
320,192,150183,1,0,0:0:0:0:
320,192,150280,1,0,0:0:0:0:
64,192,150376,1,0,0:0:0:0:
192,192,150376,1,0,0:0:0:0:
320,192,150472,1,0,0:0:0:0:
192,192,150472,1,0,0:0:0:0:
448,192,150568,1,0,0:0:0:0:
320,192,150568,1,0,0:0:0:0:
192,192,150664,1,0,0:0:0:0:
448,192,150696,1,0,0:0:0:0:
64,192,150760,1,0,0:0:0:0:
448,192,150824,1,0,0:0:0:0:
192,192,150857,1,0,0:0:0:0:
64,192,150953,1,0,0:0:0:0:
320,192,150953,1,0,0:0:0:0:
320,192,151145,1,0,0:0:0:0:
448,192,151145,1,0,0:0:0:0:
192,192,151241,1,0,0:0:0:0:
64,192,151241,1,0,0:0:0:0:
320,192,151337,1,0,0:0:0:0:
192,192,151433,1,0,0:0:0:0:
448,192,151433,1,0,0:0:0:0:
320,192,151530,1,0,0:0:0:0:
64,192,151530,1,0,0:0:0:0:
192,192,151626,1,0,0:0:0:0:
320,192,151722,1,0,0:0:0:0:
448,192,151722,1,0,0:0:0:0:
320,192,151818,1,0,0:0:0:0:
64,192,151818,1,0,0:0:0:0:
192,192,151914,1,0,0:0:0:0:
192,192,152010,1,0,0:0:0:0:
448,192,152010,1,0,0:0:0:0:
320,192,152107,1,0,0:0:0:0:
64,192,152107,1,0,0:0:0:0:
320,192,152203,1,0,0:0:0:0:
192,192,152299,1,0,0:0:0:0:
448,192,152299,1,0,0:0:0:0:
192,192,152395,1,0,0:0:0:0:
64,192,152395,1,0,0:0:0:0:
320,192,152491,1,0,0:0:0:0:
64,192,152587,1,0,0:0:0:0:
192,192,152587,1,0,0:0:0:0:
448,192,152587,1,0,0:0:0:0:
64,192,152683,1,0,0:0:0:0:
192,192,152683,1,0,0:0:0:0:
320,192,152780,1,0,0:0:0:0:
64,192,152876,1,0,0:0:0:0:
192,192,152876,1,0,0:0:0:0:
448,192,152876,1,0,0:0:0:0:
64,192,152972,1,0,0:0:0:0:
192,192,152972,1,0,0:0:0:0:
320,192,153068,1,0,0:0:0:0:
64,192,153164,1,0,0:0:0:0:
192,192,153164,1,0,0:0:0:0:
448,192,153164,1,0,0:0:0:0:
448,192,153260,1,0,0:0:0:0:
192,192,153260,1,0,0:0:0:0:
64,192,153260,1,0,0:0:0:0:
64,192,153389,1,0,0:0:0:0:
192,192,153389,1,0,0:0:0:0:
448,192,153389,1,0,0:0:0:0:
64,192,153517,1,0,0:0:0:0:
192,192,153517,1,0,0:0:0:0:
448,192,153517,1,0,0:0:0:0:
320,192,153645,1,0,0:0:0:0:
64,192,153645,1,0,0:0:0:0:
448,192,153645,1,0,0:0:0:0:
448,192,153773,1,0,0:0:0:0:
64,192,153773,1,0,0:0:0:0:
192,192,153773,1,0,0:0:0:0:
192,192,154030,1,0,0:0:0:0:
64,192,154030,1,0,0:0:0:0:
320,192,154094,1,0,0:0:0:0:
64,192,154158,1,0,0:0:0:0:
192,192,154359,1,0,0:0:0:0:
448,192,154414,1,0,0:0:0:0:
320,192,154414,1,0,0:0:0:0:
64,192,154607,1,0,0:0:0:0:
448,192,154799,1,0,0:0:0:0:
320,192,154895,1,0,0:0:0:0:
448,192,154991,1,0,0:0:0:0:
192,192,155087,1,0,0:0:0:0:
64,192,155087,1,0,0:0:0:0:
320,192,155183,1,0,0:0:0:0:
64,192,155280,1,0,0:0:0:0:
448,192,155376,1,0,0:0:0:0:
320,192,155472,1,0,0:0:0:0:
192,192,155568,1,0,0:0:0:0:
64,192,155568,1,0,0:0:0:0:
320,192,155600,1,0,0:0:0:0:
448,192,155760,1,0,0:0:0:0:
192,192,155760,1,0,0:0:0:0:
448,192,155953,1,0,0:0:0:0:
64,192,155953,1,0,0:0:0:0:
320,192,155953,1,0,0:0:0:0:
192,192,156145,1,0,0:0:0:0:
448,192,156337,1,0,0:0:0:0:
320,192,156337,1,0,0:0:0:0:
64,192,156337,1,0,0:0:0:0:
192,192,156433,1,0,0:0:0:0:
320,192,156530,1,0,0:0:0:0:
64,192,156530,1,0,0:0:0:0:
320,192,156626,1,0,0:0:0:0:
192,192,156722,1,0,0:0:0:0:
64,192,156818,1,0,0:0:0:0:
448,192,156818,1,0,0:0:0:0:
448,192,156914,1,0,0:0:0:0:
192,192,157010,1,0,0:0:0:0:
320,192,157107,1,0,0:0:0:0:
448,192,157107,1,0,0:0:0:0:
192,192,157107,1,0,0:0:0:0:
64,192,157107,1,0,0:0:0:0:
448,192,157683,1,0,0:0:0:0:
64,192,157683,1,0,0:0:0:0:
192,192,157732,1,0,0:0:0:0:
320,192,157780,1,0,0:0:0:0:
64,192,158260,1,0,0:0:0:0:
448,192,158709,1,0,0:0:0:0:
192,192,158741,1,0,0:0:0:0:
320,192,158837,1,0,0:0:0:0:
64,192,158901,1,0,0:0:0:0:
448,192,158965,1,0,0:0:0:0:
192,192,159030,1,0,0:0:0:0:
64,192,159094,1,0,0:0:0:0:
320,192,159158,1,0,0:0:0:0:
192,192,159222,1,0,0:0:0:0:
448,192,159246,1,0,0:0:0:0:
64,192,159318,1,0,0:0:0:0:
448,192,159414,1,0,0:0:0:0:
64,192,159478,1,0,0:0:0:0:
448,192,159542,1,0,0:0:0:0:
64,192,159607,1,0,0:0:0:0:
448,192,159671,1,0,0:0:0:0:
64,192,159735,1,0,0:0:0:0:
448,192,159799,1,0,0:0:0:0:
64,192,159879,1,0,0:0:0:0:
448,192,159959,1,0,0:0:0:0:
192,192,160055,1,0,0:0:0:0:
64,192,160055,1,0,0:0:0:0:
320,192,160135,1,0,0:0:0:0:
64,192,160183,1,0,0:0:0:0:
448,192,160183,1,0,0:0:0:0:
192,192,160215,1,0,0:0:0:0:
320,192,160248,1,0,0:0:0:0:
64,192,160712,1,0,0:0:0:0:
192,192,160736,1,0,0:0:0:0:
448,192,160760,1,0,0:0:0:0:
320,192,160760,1,0,0:0:0:0:
64,192,161337,1,0,0:0:0:0:
192,192,161914,1,0,0:0:0:0:
64,192,162107,1,0,0:0:0:0:
320,192,162107,1,0,0:0:0:0:
192,192,162299,1,0,0:0:0:0:
448,192,162299,1,0,0:0:0:0:
64,192,162491,1,0,0:0:0:0:
448,192,162491,1,0,0:0:0:0:
448,192,162780,1,0,0:0:0:0:
320,192,162780,1,0,0:0:0:0:
320,192,163068,1,0,0:0:0:0:
192,192,163068,1,0,0:0:0:0:
192,192,163260,1,0,0:0:0:0:
448,192,163260,1,0,0:0:0:0:
320,192,163260,1,0,0:0:0:0:
64,192,163260,1,0,0:0:0:0:
64,192,163837,1,0,0:0:0:0:
448,192,163837,1,0,0:0:0:0:
320,192,164054,1,0,0:0:0:0:
192,192,164222,1,0,0:0:0:0:
448,192,164350,1,0,0:0:0:0:
64,192,164414,1,0,0:0:0:0:
192,192,164414,1,0,0:0:0:0:
320,192,164510,1,0,0:0:0:0:
192,192,164574,1,0,0:0:0:0:
448,192,164655,1,0,0:0:0:0:
320,192,164751,1,0,0:0:0:0:
64,192,164842,1,0,0:0:0:0:
448,192,164895,1,0,0:0:0:0:
320,192,164991,1,0,0:0:0:0:
192,192,165087,1,0,0:0:0:0:
64,192,165183,1,0,0:0:0:0:
448,192,165267,1,0,0:0:0:0:
192,192,165339,1,0,0:0:0:0:
64,192,165424,1,0,0:0:0:0:
448,192,165568,1,0,0:0:0:0:
320,192,165568,1,0,0:0:0:0:
64,192,165857,1,0,0:0:0:0:
320,192,165857,1,0,0:0:0:0:
192,192,166097,1,0,0:0:0:0:
448,192,166337,1,0,0:0:0:0:
64,192,166337,1,0,0:0:0:0:
64,192,166626,1,0,0:0:0:0:
448,192,166882,1,0,0:0:0:0:
320,192,166882,1,0,0:0:0:0:
192,192,166882,1,0,0:0:0:0:
64,192,167459,1,0,0:0:0:0:
320,192,167491,1,0,0:0:0:0:
64,192,168068,1,0,0:0:0:0:
192,192,168068,1,0,0:0:0:0:
320,192,168453,1,0,0:0:0:0:
64,192,168453,1,0,0:0:0:0:
320,192,168837,1,0,0:0:0:0:
192,192,169198,1,0,0:0:0:0:
448,192,169222,1,0,0:0:0:0:
64,192,169414,1,0,0:0:0:0:
448,192,169414,1,0,0:0:0:0:
320,192,169414,1,0,0:0:0:0:
64,192,169991,1,0,0:0:0:0:
320,192,170504,1,0,0:0:0:0:
448,192,170664,1,0,0:0:0:0:
192,192,170921,1,0,0:0:0:0:
320,192,171049,1,0,0:0:0:0:
64,192,171241,1,0,0:0:0:0:
448,192,171337,1,0,0:0:0:0:
320,192,171498,1,0,0:0:0:0:
448,192,171562,1,0,0:0:0:0:
192,192,171722,1,0,0:0:0:0:
448,192,171770,1,0,0:0:0:0:
192,192,171914,1,0,0:0:0:0:
320,192,171978,1,0,0:0:0:0:
64,192,172107,1,0,0:0:0:0:
448,192,172171,1,0,0:0:0:0:
192,192,172299,1,0,0:0:0:0:
64,192,172363,1,0,0:0:0:0:
320,192,172363,1,0,0:0:0:0:
192,192,172459,1,0,0:0:0:0:
64,192,172491,1,0,0:0:0:0:
320,192,172523,1,0,0:0:0:0:
448,192,172555,1,0,0:0:0:0:
192,192,172683,1,0,0:0:0:0:
320,192,172748,1,0,0:0:0:0:
64,192,172876,1,0,0:0:0:0:
448,192,172940,1,0,0:0:0:0:
64,192,173068,1,0,0:0:0:0:
320,192,173132,1,0,0:0:0:0:
192,192,173260,1,0,0:0:0:0:
320,192,173324,1,0,0:0:0:0:
64,192,173421,1,0,0:0:0:0:
448,192,173485,1,0,0:0:0:0:
320,192,173581,1,0,0:0:0:0:
448,192,173645,1,0,0:0:0:0:
192,192,173773,1,0,0:0:0:0:
448,192,173837,1,0,0:0:0:0:
64,192,173965,1,0,0:0:0:0:
448,192,174030,1,0,0:0:0:0:
192,192,174126,1,0,0:0:0:0:
320,192,174190,1,0,0:0:0:0:
64,192,174318,1,0,0:0:0:0:
320,192,174414,1,0,0:0:0:0:
64,192,174510,1,0,0:0:0:0:
192,192,174607,1,0,0:0:0:0:
448,192,174703,1,0,0:0:0:0:
64,192,174799,1,0,0:0:0:0:
320,192,174895,1,0,0:0:0:0:
192,192,174991,1,0,0:0:0:0:
448,192,175087,1,0,0:0:0:0:
320,192,175183,1,0,0:0:0:0:
192,192,175280,1,0,0:0:0:0:
448,192,175376,1,0,0:0:0:0:
192,192,175376,1,0,0:0:0:0:
64,192,175376,1,0,0:0:0:0:
320,192,175376,1,0,0:0:0:0:
448,192,175760,1,0,0:0:0:0:
320,192,175760,1,0,0:0:0:0:
64,192,176337,1,0,0:0:0:0:
192,192,176433,1,0,0:0:0:0:
64,192,176530,1,0,0:0:0:0:
192,192,176626,1,0,0:0:0:0:
64,192,176722,1,0,0:0:0:0:
192,192,176818,1,0,0:0:0:0:
64,192,176914,1,0,0:0:0:0:
192,192,177010,1,0,0:0:0:0:
320,192,177107,1,0,0:0:0:0:
448,192,177107,1,0,0:0:0:0:
192,192,177203,1,0,0:0:0:0:
64,192,177299,1,0,0:0:0:0:
192,192,177395,1,0,0:0:0:0:
320,192,177491,1,0,0:0:0:0:
448,192,177491,1,0,0:0:0:0:
192,192,177587,1,0,0:0:0:0:
64,192,177683,1,0,0:0:0:0:
192,192,177780,1,0,0:0:0:0:
320,192,177876,1,0,0:0:0:0:
448,192,177876,1,0,0:0:0:0:
192,192,177972,1,0,0:0:0:0:
64,192,178068,1,0,0:0:0:0:
192,192,178164,1,0,0:0:0:0:
320,192,178260,1,0,0:0:0:0:
448,192,178260,1,0,0:0:0:0:
192,192,178357,1,0,0:0:0:0:
64,192,178357,1,0,0:0:0:0:
320,192,178453,1,0,0:0:0:0:
64,192,178549,1,0,0:0:0:0:
192,192,178549,1,0,0:0:0:0:
64,192,178645,1,0,0:0:0:0:
192,192,178645,1,0,0:0:0:0:
448,192,178645,1,0,0:0:0:0:
320,192,178933,1,0,0:0:0:0:
192,192,178933,1,0,0:0:0:0:
64,192,179222,1,0,0:0:0:0:
448,192,179222,1,0,0:0:0:0:
320,192,179222,1,0,0:0:0:0:
192,192,179607,1,0,0:0:0:0:
64,192,179799,1,0,0:0:0:0:
192,192,179799,1,0,0:0:0:0:
448,192,179799,1,0,0:0:0:0:
448,192,179991,1,0,0:0:0:0:
320,192,179991,1,0,0:0:0:0:
192,192,180183,1,0,0:0:0:0:
320,192,180183,1,0,0:0:0:0:
64,192,180183,1,0,0:0:0:0:
448,192,180280,1,0,0:0:0:0:
192,192,180376,1,0,0:0:0:0:
320,192,180376,1,0,0:0:0:0:
448,192,180472,1,0,0:0:0:0:
320,192,180568,1,0,0:0:0:0:
64,192,180568,1,0,0:0:0:0:
64,192,180664,1,0,0:0:0:0:
192,192,180760,1,0,0:0:0:0:
448,192,180760,1,0,0:0:0:0:
448,192,180857,1,0,0:0:0:0:
192,192,180953,1,0,0:0:0:0:
64,192,180953,1,0,0:0:0:0:
192,192,181049,1,0,0:0:0:0:
64,192,181049,1,0,0:0:0:0:
448,192,181145,1,0,0:0:0:0:
320,192,181145,1,0,0:0:0:0:
448,192,181241,1,0,0:0:0:0:
320,192,181241,1,0,0:0:0:0:
192,192,181337,1,0,0:0:0:0:
64,192,181337,1,0,0:0:0:0:
448,192,181401,1,0,0:0:0:0:
320,192,181433,1,0,0:0:0:0:
192,192,181465,1,0,0:0:0:0:
320,192,181530,1,0,0:0:0:0:
448,192,181530,1,0,0:0:0:0:
64,192,181626,1,0,0:0:0:0:
64,192,181722,1,0,0:0:0:0:
320,192,181722,1,0,0:0:0:0:
448,192,181722,1,0,0:0:0:0:
192,192,181722,1,0,0:0:0:0:
64,192,181914,1,0,0:0:0:0:
448,192,182010,1,0,0:0:0:0:
320,192,182010,1,0,0:0:0:0:
64,192,182010,1,0,0:0:0:0:
64,192,182203,1,0,0:0:0:0:
448,192,182299,1,0,0:0:0:0:
320,192,182299,1,0,0:0:0:0:
64,192,182299,1,0,0:0:0:0:
320,192,182683,1,0,0:0:0:0:
192,192,182876,1,0,0:0:0:0:
64,192,182876,1,0,0:0:0:0:
448,192,182972,1,0,0:0:0:0:
192,192,183068,1,0,0:0:0:0:
320,192,183164,1,0,0:0:0:0:
448,192,183260,1,0,0:0:0:0:
64,192,183837,1,0,0:0:0:0:
192,192,184030,1,0,0:0:0:0:
448,192,184030,1,0,0:0:0:0:
64,192,184126,1,0,0:0:0:0:
192,192,184222,1,0,0:0:0:0:
448,192,184318,1,0,0:0:0:0:
320,192,184318,1,0,0:0:0:0:
64,192,184414,1,0,0:0:0:0:
192,192,184414,1,0,0:0:0:0:
448,192,184478,1,0,0:0:0:0:
320,192,184542,1,0,0:0:0:0:
64,192,184607,1,0,0:0:0:0:
448,192,184671,1,0,0:0:0:0:
192,192,184735,1,0,0:0:0:0:
448,192,184799,1,0,0:0:0:0:
320,192,184799,1,0,0:0:0:0:
64,192,184799,1,0,0:0:0:0:
320,192,184991,1,0,0:0:0:0:
64,192,185087,1,0,0:0:0:0:
320,192,185087,1,0,0:0:0:0:
448,192,185087,1,0,0:0:0:0:
320,192,185280,1,0,0:0:0:0:
64,192,185376,1,0,0:0:0:0:
320,192,185376,1,0,0:0:0:0:
448,192,185376,1,0,0:0:0:0:
64,192,185760,1,0,0:0:0:0:
192,192,185760,1,0,0:0:0:0:
448,192,185953,1,0,0:0:0:0:
64,192,185953,1,0,0:0:0:0:
448,192,186145,1,0,0:0:0:0:
320,192,186145,1,0,0:0:0:0:
192,192,186209,1,0,0:0:0:0:
320,192,186273,1,0,0:0:0:0:
64,192,186337,1,0,0:0:0:0:
448,192,186337,1,0,0:0:0:0:
192,192,186433,1,0,0:0:0:0:
64,192,186530,1,0,0:0:0:0:
448,192,186626,1,0,0:0:0:0:
320,192,186626,1,0,0:0:0:0:
192,192,186722,1,0,0:0:0:0:
320,192,186818,1,0,0:0:0:0:
448,192,186914,1,0,0:0:0:0:
64,192,186914,1,0,0:0:0:0:
192,192,187010,1,0,0:0:0:0:
448,192,187107,1,0,0:0:0:0:
320,192,187107,1,0,0:0:0:0:
64,192,187203,1,0,0:0:0:0:
320,192,187299,1,0,0:0:0:0:
64,192,187395,1,0,0:0:0:0:
448,192,187395,1,0,0:0:0:0:
320,192,187491,1,0,0:0:0:0:
192,192,187491,1,0,0:0:0:0:
448,192,187587,1,0,0:0:0:0:
320,192,187683,1,0,0:0:0:0:
64,192,187683,1,0,0:0:0:0:
192,192,187683,1,0,0:0:0:0:
448,192,187780,1,0,0:0:0:0:
192,192,187876,1,0,0:0:0:0:
448,192,187876,1,0,0:0:0:0:
64,192,187876,1,0,0:0:0:0:
448,192,188068,1,0,0:0:0:0:
64,192,188164,1,0,0:0:0:0:
192,192,188164,1,0,0:0:0:0:
448,192,188164,1,0,0:0:0:0:
448,192,188357,1,0,0:0:0:0:
64,192,188453,1,0,0:0:0:0:
192,192,188453,1,0,0:0:0:0:
448,192,188453,1,0,0:0:0:0:
320,192,188741,1,0,0:0:0:0:
192,192,188837,1,0,0:0:0:0:
64,192,188837,1,0,0:0:0:0:
448,192,189030,1,0,0:0:0:0:
64,192,189222,1,0,0:0:0:0:
320,192,189222,1,0,0:0:0:0:
192,192,189318,1,0,0:0:0:0:
448,192,189414,1,0,0:0:0:0:
320,192,189510,1,0,0:0:0:0:
64,192,189607,1,0,0:0:0:0:
448,192,189703,1,0,0:0:0:0:
64,192,189799,1,0,0:0:0:0:
320,192,189799,1,0,0:0:0:0:
448,192,189799,1,0,0:0:0:0:
448,192,189991,1,0,0:0:0:0:
448,192,190087,1,0,0:0:0:0:
320,192,190087,1,0,0:0:0:0:
64,192,190183,1,0,0:0:0:0:
192,192,190280,1,0,0:0:0:0:
448,192,190376,1,0,0:0:0:0:
64,192,190376,1,0,0:0:0:0:
448,192,190568,1,0,0:0:0:0:
320,192,190568,1,0,0:0:0:0:
64,192,190632,1,0,0:0:0:0:
192,192,190696,1,0,0:0:0:0:
448,192,190760,1,0,0:0:0:0:
320,192,190857,1,0,0:0:0:0:
320,192,190953,1,0,0:0:0:0:
448,192,190953,1,0,0:0:0:0:
192,192,190953,1,0,0:0:0:0:
64,192,190953,1,0,0:0:0:0:
192,192,191145,1,0,0:0:0:0:
448,192,191241,1,0,0:0:0:0:
64,192,191241,1,0,0:0:0:0:
192,192,191241,1,0,0:0:0:0:
320,192,191433,1,0,0:0:0:0:
64,192,191530,1,0,0:0:0:0:
448,192,191530,1,0,0:0:0:0:
320,192,191530,1,0,0:0:0:0:
448,192,191818,1,0,0:0:0:0:
192,192,191914,1,0,0:0:0:0:
64,192,191914,1,0,0:0:0:0:
320,192,192107,1,0,0:0:0:0:
192,192,192107,1,0,0:0:0:0:
320,192,192203,1,0,0:0:0:0:
64,192,192299,1,0,0:0:0:0:
192,192,192395,1,0,0:0:0:0:
448,192,192395,1,0,0:0:0:0:
320,192,192395,1,0,0:0:0:0:
64,192,192491,1,0,0:0:0:0:
448,192,192587,1,0,0:0:0:0:
192,192,192683,1,0,0:0:0:0:
448,192,192683,1,0,0:0:0:0:
320,192,192780,1,0,0:0:0:0:
64,192,192876,1,0,0:0:0:0:
192,192,192876,1,0,0:0:0:0:
448,192,192972,1,0,0:0:0:0:
64,192,193068,1,0,0:0:0:0:
320,192,193068,1,0,0:0:0:0:
192,192,193164,1,0,0:0:0:0:
64,192,193164,1,0,0:0:0:0:
448,192,193260,1,0,0:0:0:0:
320,192,193324,1,0,0:0:0:0:
192,192,193389,1,0,0:0:0:0:
448,192,193453,1,0,0:0:0:0:
64,192,193453,1,0,0:0:0:0:
320,192,193517,1,0,0:0:0:0:
192,192,193581,1,0,0:0:0:0:
320,192,193645,1,0,0:0:0:0:
64,192,193645,1,0,0:0:0:0:
448,192,193709,1,0,0:0:0:0:
192,192,193773,1,0,0:0:0:0:
320,192,193837,1,0,0:0:0:0:
64,192,193901,1,0,0:0:0:0:
192,192,193965,1,0,0:0:0:0:
64,192,194030,1,0,0:0:0:0:
448,192,194030,1,0,0:0:0:0:
320,192,194030,1,0,0:0:0:0:
192,192,194222,1,0,0:0:0:0:
64,192,194318,1,0,0:0:0:0:
448,192,194318,1,0,0:0:0:0:
320,192,194318,1,0,0:0:0:0:
448,192,194414,1,0,0:0:0:0:
320,192,194414,1,0,0:0:0:0:
64,192,194607,1,0,0:0:0:0:
448,192,194607,1,0,0:0:0:0:
320,192,194607,1,0,0:0:0:0:
192,192,194703,1,0,0:0:0:0:
64,192,194799,1,0,0:0:0:0:
448,192,194991,1,0,0:0:0:0:
320,192,194991,1,0,0:0:0:0:
64,192,195087,1,0,0:0:0:0:
192,192,195183,1,0,0:0:0:0:
192,192,195376,1,0,0:0:0:0:
64,192,195376,1,0,0:0:0:0:
448,192,195376,1,0,0:0:0:0:
320,192,195472,1,0,0:0:0:0:
64,192,195568,1,0,0:0:0:0:
448,192,195664,1,0,0:0:0:0:
192,192,195760,1,0,0:0:0:0:
320,192,195857,1,0,0:0:0:0:
64,192,195953,1,0,0:0:0:0:
448,192,195953,1,0,0:0:0:0:
320,192,196049,1,0,0:0:0:0:
192,192,196145,1,0,0:0:0:0:
192,192,196241,1,0,0:0:0:0:
320,192,196337,1,0,0:0:0:0:
448,192,196337,1,0,0:0:0:0:
64,192,196401,1,0,0:0:0:0:
192,192,196465,1,0,0:0:0:0:
320,192,196530,1,0,0:0:0:0:
64,192,196626,1,0,0:0:0:0:
192,192,196626,1,0,0:0:0:0:
448,192,196626,1,0,0:0:0:0:
320,192,196722,1,0,0:0:0:0:
64,192,196914,1,0,0:0:0:0:
192,192,196914,1,0,0:0:0:0:
448,192,196914,1,0,0:0:0:0:
320,192,196914,1,0,0:0:0:0:
192,192,197010,1,0,0:0:0:0:
64,192,197107,1,0,0:0:0:0:
320,192,197203,1,0,0:0:0:0:
192,192,197299,1,0,0:0:0:0:
448,192,197299,1,0,0:0:0:0:
448,192,197395,1,0,0:0:0:0:
64,192,197491,1,0,0:0:0:0:
320,192,197491,1,0,0:0:0:0:
64,192,197587,1,0,0:0:0:0:
448,192,197683,1,0,0:0:0:0:
192,192,197780,1,0,0:0:0:0:
448,192,197780,1,0,0:0:0:0:
320,192,197780,1,0,0:0:0:0:
64,192,197876,1,0,0:0:0:0:
64,192,198068,1,0,0:0:0:0:
192,192,198068,1,0,0:0:0:0:
448,192,198068,1,0,0:0:0:0:
320,192,198068,1,0,0:0:0:0:
192,192,198164,1,0,0:0:0:0:
320,192,198260,1,0,0:0:0:0:
448,192,198260,1,0,0:0:0:0:
64,192,198260,1,0,0:0:0:0:
64,192,198453,1,0,0:0:0:0:
192,192,198453,1,0,0:0:0:0:
448,192,198453,1,0,0:0:0:0:
320,192,198549,1,0,0:0:0:0:
448,192,198645,1,0,0:0:0:0:
192,192,198741,1,0,0:0:0:0:
320,192,198837,1,0,0:0:0:0:
192,192,198837,1,0,0:0:0:0:
64,192,198837,1,0,0:0:0:0:
448,192,198933,1,0,0:0:0:0:
320,192,199030,1,0,0:0:0:0:
64,192,199030,1,0,0:0:0:0:
192,192,199030,1,0,0:0:0:0:
64,192,199126,1,0,0:0:0:0:
320,192,199222,1,0,0:0:0:0:
448,192,199318,1,0,0:0:0:0:
192,192,199414,1,0,0:0:0:0:
64,192,199414,1,0,0:0:0:0:
320,192,199510,1,0,0:0:0:0:
320,192,199607,1,0,0:0:0:0:
64,192,199703,1,0,0:0:0:0:
448,192,199799,1,0,0:0:0:0:
192,192,199799,1,0,0:0:0:0:
448,192,199895,1,0,0:0:0:0:
64,192,199991,1,0,0:0:0:0:
320,192,200087,1,0,0:0:0:0:
192,192,200183,1,0,0:0:0:0:
64,192,200183,1,0,0:0:0:0:
448,192,200183,1,0,0:0:0:0:
320,192,200183,1,0,0:0:0:0:
64,192,200376,1,0,0:0:0:0:
448,192,200376,1,0,0:0:0:0:
320,192,200472,1,0,0:0:0:0:
448,192,200472,1,0,0:0:0:0:
64,192,200568,1,0,0:0:0:0:
192,192,200568,1,0,0:0:0:0:
192,192,200664,1,0,0:0:0:0:
448,192,200760,1,0,0:0:0:0:
320,192,200857,1,0,0:0:0:0:
192,192,200857,1,0,0:0:0:0:
64,192,200953,1,0,0:0:0:0:
448,192,200953,1,0,0:0:0:0:
448,192,201049,1,0,0:0:0:0:
320,192,201145,1,0,0:0:0:0:
192,192,201241,1,0,0:0:0:0:
64,192,201241,1,0,0:0:0:0:
320,192,201337,1,0,0:0:0:0:
64,192,201337,1,0,0:0:0:0:
448,192,201337,1,0,0:0:0:0:
448,192,201433,1,0,0:0:0:0:
64,192,201530,1,0,0:0:0:0:
192,192,201594,1,0,0:0:0:0:
320,192,201658,1,0,0:0:0:0:
64,192,201722,1,0,0:0:0:0:
192,192,201722,1,0,0:0:0:0:
448,192,201722,1,0,0:0:0:0:
64,192,201818,1,0,0:0:0:0:
320,192,201914,1,0,0:0:0:0:
64,192,202010,1,0,0:0:0:0:
192,192,202010,1,0,0:0:0:0:
64,192,202107,1,0,0:0:0:0:
320,192,202107,1,0,0:0:0:0:
448,192,202107,1,0,0:0:0:0:
320,192,202203,1,0,0:0:0:0:
192,192,202299,1,0,0:0:0:0:
64,192,202395,1,0,0:0:0:0:
448,192,202395,1,0,0:0:0:0:
320,192,202491,1,0,0:0:0:0:
192,192,202491,1,0,0:0:0:0:
192,192,202587,1,0,0:0:0:0:
64,192,202683,1,0,0:0:0:0:
448,192,202780,1,0,0:0:0:0:
320,192,202780,1,0,0:0:0:0:
448,192,202876,1,0,0:0:0:0:
192,192,202876,1,0,0:0:0:0:
64,192,202876,1,0,0:0:0:0:
64,192,202972,1,0,0:0:0:0:
448,192,203068,1,0,0:0:0:0:
320,192,203068,1,0,0:0:0:0:
192,192,203164,1,0,0:0:0:0:
448,192,203260,1,0,0:0:0:0:
64,192,203260,1,0,0:0:0:0:
192,192,203453,1,0,0:0:0:0:
64,192,203453,1,0,0:0:0:0:
320,192,203453,1,0,0:0:0:0:
448,192,203549,1,0,0:0:0:0:
448,192,203645,1,0,0:0:0:0:
64,192,203645,1,0,0:0:0:0:
320,192,203645,1,0,0:0:0:0:
320,192,203837,1,0,0:0:0:0:
192,192,203933,1,0,0:0:0:0:
192,192,204030,1,0,0:0:0:0:
448,192,204030,1,0,0:0:0:0:
64,192,204030,1,0,0:0:0:0:
448,192,204222,1,0,0:0:0:0:
192,192,204318,1,0,0:0:0:0:
64,192,204318,1,0,0:0:0:0:
448,192,204318,1,0,0:0:0:0:
320,192,204510,1,0,0:0:0:0:
448,192,204607,1,0,0:0:0:0:
64,192,204607,1,0,0:0:0:0:
320,192,204607,1,0,0:0:0:0:
192,192,204799,1,0,0:0:0:0:
448,192,204895,1,0,0:0:0:0:
320,192,204895,1,0,0:0:0:0:
192,192,204895,1,0,0:0:0:0:
64,192,205087,1,0,0:0:0:0:
448,192,205183,1,0,0:0:0:0:
320,192,205183,1,0,0:0:0:0:
64,192,205183,1,0,0:0:0:0:
64,192,205376,1,0,0:0:0:0:
192,192,205376,1,0,0:0:0:0:
320,192,205440,1,0,0:0:0:0:
192,192,205504,1,0,0:0:0:0:
64,192,205568,1,0,0:0:0:0:
448,192,205568,1,0,0:0:0:0:
320,192,205632,1,0,0:0:0:0:
192,192,205696,1,0,0:0:0:0:
448,192,205760,1,0,0:0:0:0:
192,192,205857,1,0,0:0:0:0:
64,192,205857,1,0,0:0:0:0:
320,192,205953,1,0,0:0:0:0:
192,192,206017,1,0,0:0:0:0:
320,192,206081,1,0,0:0:0:0:
64,192,206145,1,0,0:0:0:0:
448,192,206209,1,0,0:0:0:0:
64,192,206273,1,0,0:0:0:0:
448,192,206337,1,0,0:0:0:0:
192,192,206337,1,0,0:0:0:0:
320,192,206337,1,0,0:0:0:0:
448,192,206722,1,0,0:0:0:0:
320,192,206818,1,0,0:0:0:0:
64,192,206914,1,0,0:0:0:0:
448,192,207010,1,0,0:0:0:0:
192,192,207107,1,0,0:0:0:0:
64,192,207203,1,0,0:0:0:0:
320,192,207299,1,0,0:0:0:0:
192,192,207395,1,0,0:0:0:0:
448,192,207491,1,0,0:0:0:0:
320,192,207587,1,0,0:0:0:0:
192,192,207683,1,0,0:0:0:0:
64,192,207780,1,0,0:0:0:0:
448,192,207876,1,0,0:0:0:0:
320,192,207876,1,0,0:0:0:0:
320,192,208270,1,0,0:0:0:0:
192,192,208369,1,0,0:0:0:0:
64,192,208468,1,0,0:0:0:0:
448,192,208566,1,0,0:0:0:0:
320,192,208665,1,0,0:0:0:0:
64,192,208764,1,0,0:0:0:0:
448,192,208862,1,0,0:0:0:0:
192,192,208961,1,0,0:0:0:0:
64,192,209060,1,0,0:0:0:0:
320,192,209158,1,0,0:0:0:0:
192,192,209257,1,0,0:0:0:0:
64,192,209356,1,0,0:0:0:0:
320,192,209454,1,0,0:0:0:0:
192,192,209454,1,0,0:0:0:0:
448,192,209479,1,0,0:0:0:0:
64,192,209751,1,0,0:0:0:0:
320,192,210014,1,0,0:0:0:0:
448,192,210047,1,0,0:0:0:0:
64,192,210441,1,0,0:0:0:0:
192,192,210638,1,0,0:0:0:0:
448,192,211043,1,0,0:0:0:0:
192,192,211043,1,0,0:0:0:0:
64,192,211243,1,0,0:0:0:0:
192,192,211309,1,0,0:0:0:0:
320,192,211376,1,0,0:0:0:0:
448,192,211443,1,0,0:0:0:0:
320,192,211509,1,0,0:0:0:0:
192,192,211576,1,0,0:0:0:0:
64,192,211643,1,0,0:0:0:0:
192,192,212043,1,0,0:0:0:0:
64,192,212247,1,0,0:0:0:0:
448,192,212451,1,0,0:0:0:0:
192,192,212653,1,0,0:0:0:0:
64,192,212653,1,0,0:0:0:0:
320,192,212686,1,0,0:0:0:0:
192,192,213022,1,0,0:0:0:0:
448,192,213055,1,0,0:0:0:0:
320,192,213460,1,0,0:0:0:0:
192,192,213745,1,0,0:0:0:0:
64,192,214011,1,0,0:0:0:0:
192,192,214257,1,0,0:0:0:0:
320,192,214536,1,0,0:0:0:0:
64,192,214816,1,0,0:0:0:0:
448,192,215094,1,0,0:0:0:0:
192,192,215311,1,0,0:0:0:0:
448,192,215383,1,0,0:0:0:0:
192,192,215456,1,0,0:0:0:0:
320,192,215673,1,0,0:0:0:0:
192,192,215936,1,0,0:0:0:0:
448,192,215963,1,0,0:0:0:0:
64,192,215963,1,0,0:0:0:0:
192,192,216385,1,0,0:0:0:0:
320,192,216787,1,0,0:0:0:0:
192,192,217039,1,0,0:0:0:0:
448,192,217089,1,0,0:0:0:0:
320,192,217593,1,0,0:0:0:0:
192,192,217712,1,0,0:0:0:0:
320,192,217772,1,0,0:0:0:0:
448,192,217862,1,0,0:0:0:0:
64,192,217953,1,0,0:0:0:0:
448,192,218024,1,0,0:0:0:0:
320,192,218096,1,0,0:0:0:0:
192,192,218168,1,0,0:0:0:0:
320,192,218384,1,0,0:0:0:0:
64,192,218682,1,0,0:0:0:0:
448,192,218980,1,0,0:0:0:0:
192,192,219035,1,0,0:0:0:0:
320,192,219090,1,0,0:0:0:0:
64,192,219145,1,0,0:0:0:0:
192,192,219173,1,0,0:0:0:0:
448,192,219200,1,0,0:0:0:0:
320,192,219200,1,0,0:0:0:0:
64,192,219589,1,0,0:0:0:0:
448,192,219784,1,0,0:0:0:0:
64,192,219881,1,0,0:0:0:0:
320,192,219954,1,0,0:0:0:0:
192,192,219954,1,0,0:0:0:0:
64,192,220174,1,0,0:0:0:0:
320,192,220466,1,0,0:0:0:0:
448,192,220466,1,0,0:0:0:0:
64,192,220466,1,0,0:0:0:0:
192,192,220563,1,0,0:0:0:0:
320,192,220661,1,0,0:0:0:0:
64,192,220734,1,0,0:0:0:0:
192,192,220757,1,0,0:0:0:0:
448,192,220757,1,0,0:0:0:0:
448,192,220853,1,0,0:0:0:0:
320,192,220949,1,0,0:0:0:0:
64,192,221045,1,0,0:0:0:0:
192,192,221045,1,0,0:0:0:0:
320,192,221141,1,0,0:0:0:0:
192,192,221237,1,0,0:0:0:0:
64,192,221333,1,0,0:0:0:0:
448,192,221333,1,0,0:0:0:0:
64,192,221430,1,0,0:0:0:0:
448,192,221526,1,0,0:0:0:0:
320,192,221526,1,0,0:0:0:0:
192,192,221622,1,0,0:0:0:0:
64,192,221622,1,0,0:0:0:0:
448,192,221622,1,0,0:0:0:0:
192,192,221718,1,0,0:0:0:0:
448,192,221814,1,0,0:0:0:0:
64,192,221910,1,0,0:0:0:0:
320,192,221910,1,0,0:0:0:0:
320,192,222007,1,0,0:0:0:0:
192,192,222103,1,0,0:0:0:0:
64,192,222103,1,0,0:0:0:0:
448,192,222103,1,0,0:0:0:0:
320,192,222199,1,0,0:0:0:0:
64,192,222295,1,0,0:0:0:0:
320,192,222295,1,0,0:0:0:0:
448,192,222295,1,0,0:0:0:0:
192,192,222295,1,0,0:0:0:0:
64,192,222487,1,0,0:0:0:0:
192,192,222487,1,0,0:0:0:0:
448,192,222680,1,0,0:0:0:0:
64,192,222680,1,0,0:0:0:0:
192,192,222680,1,0,0:0:0:0:
320,192,222872,1,0,0:0:0:0:
448,192,222920,1,0,0:0:0:0:
64,192,222968,1,0,0:0:0:0:
192,192,222968,1,0,0:0:0:0:
320,192,223064,1,0,0:0:0:0:
64,192,223257,1,0,0:0:0:0:
192,192,223257,1,0,0:0:0:0:
448,192,223449,1,0,0:0:0:0:
64,192,223545,1,0,0:0:0:0:
192,192,223545,1,0,0:0:0:0:
64,192,223737,1,0,0:0:0:0:
320,192,223737,1,0,0:0:0:0:
448,192,223833,1,0,0:0:0:0:
64,192,224002,1,0,0:0:0:0:
192,192,224026,1,0,0:0:0:0:
320,192,224122,1,0,0:0:0:0:
64,192,224218,1,0,0:0:0:0:
448,192,224218,1,0,0:0:0:0:
192,192,224242,1,0,0:0:0:0:
320,192,224410,1,0,0:0:0:0:
192,192,224531,1,0,0:0:0:0:
320,192,224579,1,0,0:0:0:0:
64,192,224603,1,0,0:0:0:0:
448,192,224603,1,0,0:0:0:0:
192,192,224819,1,0,0:0:0:0:
320,192,224867,1,0,0:0:0:0:
64,192,224891,1,0,0:0:0:0:
448,192,224891,1,0,0:0:0:0:
192,192,224987,1,0,0:0:0:0:
320,192,225132,1,0,0:0:0:0:
64,192,225180,1,0,0:0:0:0:
448,192,225180,1,0,0:0:0:0:
192,192,225276,1,0,0:0:0:0:
320,192,225372,1,0,0:0:0:0:
448,192,225564,1,0,0:0:0:0:
64,192,225564,1,0,0:0:0:0:
192,192,225564,1,0,0:0:0:0:
320,192,225660,1,0,0:0:0:0:
448,192,225757,1,0,0:0:0:0:
192,192,225757,1,0,0:0:0:0:
64,192,225757,1,0,0:0:0:0:
192,192,225853,1,0,0:0:0:0:
320,192,225853,1,0,0:0:0:0:
64,192,225949,1,0,0:0:0:0:
320,192,226045,1,0,0:0:0:0:
64,192,226141,1,0,0:0:0:0:
448,192,226141,1,0,0:0:0:0:
192,192,226237,1,0,0:0:0:0:
64,192,226237,1,0,0:0:0:0:
320,192,226333,1,0,0:0:0:0:
448,192,226430,1,0,0:0:0:0:
192,192,226430,1,0,0:0:0:0:
320,192,226526,1,0,0:0:0:0:
64,192,226526,1,0,0:0:0:0:
192,192,226622,1,0,0:0:0:0:
320,192,226622,1,0,0:0:0:0:
448,192,226718,1,0,0:0:0:0:
64,192,226718,1,0,0:0:0:0:
192,192,226814,1,0,0:0:0:0:
64,192,226910,1,0,0:0:0:0:
448,192,226910,1,0,0:0:0:0:
320,192,227007,1,0,0:0:0:0:
448,192,227007,1,0,0:0:0:0:
64,192,227103,1,0,0:0:0:0:
320,192,227199,1,0,0:0:0:0:
192,192,227295,1,0,0:0:0:0:
448,192,227295,1,0,0:0:0:0:
192,192,227391,1,0,0:0:0:0:
320,192,227391,1,0,0:0:0:0:
64,192,227487,1,0,0:0:0:0:
448,192,227487,1,0,0:0:0:0:
192,192,227583,1,0,0:0:0:0:
320,192,227680,1,0,0:0:0:0:
448,192,227680,1,0,0:0:0:0:
64,192,227680,1,0,0:0:0:0:
192,192,227776,1,0,0:0:0:0:
64,192,227776,1,0,0:0:0:0:
320,192,227872,1,0,0:0:0:0:
448,192,227968,1,0,0:0:0:0:
192,192,227968,1,0,0:0:0:0:
64,192,228064,1,0,0:0:0:0:
448,192,228064,1,0,0:0:0:0:
320,192,228064,1,0,0:0:0:0:
320,192,228257,1,0,0:0:0:0:
448,192,228257,1,0,0:0:0:0:
64,192,228449,1,0,0:0:0:0:
448,192,228641,1,0,0:0:0:0:
320,192,228641,1,0,0:0:0:0:
192,192,228641,1,0,0:0:0:0:
64,192,228737,1,0,0:0:0:0:
320,192,228833,1,0,0:0:0:0:
448,192,229026,1,0,0:0:0:0:
192,192,229026,1,0,0:0:0:0:
64,192,229026,1,0,0:0:0:0:
320,192,229122,1,0,0:0:0:0:
192,192,229218,1,0,0:0:0:0:
320,192,229410,1,0,0:0:0:0:
64,192,229410,1,0,0:0:0:0:
448,192,229507,1,0,0:0:0:0:
320,192,229603,1,0,0:0:0:0:
192,192,229603,1,0,0:0:0:0:
448,192,229795,1,0,0:0:0:0:
192,192,229795,1,0,0:0:0:0:
64,192,229795,1,0,0:0:0:0:
320,192,229891,1,0,0:0:0:0:
192,192,229987,1,0,0:0:0:0:
448,192,229987,1,0,0:0:0:0:
192,192,230180,1,0,0:0:0:0:
64,192,230180,1,0,0:0:0:0:
448,192,230276,1,0,0:0:0:0:
320,192,230276,1,0,0:0:0:0:
192,192,230372,1,0,0:0:0:0:
448,192,230372,1,0,0:0:0:0:
64,192,230468,1,0,0:0:0:0:
320,192,230516,1,0,0:0:0:0:
192,192,230516,1,0,0:0:0:0:
448,192,230660,1,0,0:0:0:0:
192,192,230732,1,0,0:0:0:0:
64,192,230732,1,0,0:0:0:0:
320,192,230757,1,0,0:0:0:0:
448,192,230853,1,0,0:0:0:0:
192,192,230997,1,0,0:0:0:0:
320,192,230997,1,0,0:0:0:0:
448,192,231045,1,0,0:0:0:0:
64,192,231141,1,0,0:0:0:0:
320,192,231237,1,0,0:0:0:0:
448,192,231237,1,0,0:0:0:0:
64,192,231333,1,0,0:0:0:0:
320,192,231398,1,0,0:0:0:0:
192,192,231462,1,0,0:0:0:0:
320,192,231526,1,0,0:0:0:0:
64,192,231526,1,0,0:0:0:0:
448,192,231526,1,0,0:0:0:0:
320,192,231718,1,0,0:0:0:0:
192,192,231718,1,0,0:0:0:0:
64,192,231814,1,0,0:0:0:0:
448,192,231814,1,0,0:0:0:0:
320,192,231814,1,0,0:0:0:0:
320,192,232007,1,0,0:0:0:0:
192,192,232007,1,0,0:0:0:0:
448,192,232199,1,0,0:0:0:0:
192,192,232199,1,0,0:0:0:0:
64,192,232199,1,0,0:0:0:0:
192,192,232391,1,0,0:0:0:0:
448,192,232487,1,0,0:0:0:0:
64,192,232487,1,0,0:0:0:0:
320,192,232583,1,0,0:0:0:0:
64,192,232680,1,0,0:0:0:0:
192,192,232680,1,0,0:0:0:0:
448,192,232744,1,0,0:0:0:0:
192,192,232808,1,0,0:0:0:0:
448,192,232872,1,0,0:0:0:0:
320,192,232872,1,0,0:0:0:0:
448,192,233064,1,0,0:0:0:0:
64,192,233064,1,0,0:0:0:0:
192,192,233064,1,0,0:0:0:0:
192,192,233160,1,0,0:0:0:0:
448,192,233160,1,0,0:0:0:0:
64,192,233160,1,0,0:0:0:0:
320,192,233353,1,0,0:0:0:0:
192,192,233353,1,0,0:0:0:0:
64,192,233353,1,0,0:0:0:0:
448,192,233545,1,0,0:0:0:0:
320,192,233545,1,0,0:0:0:0:
64,192,233545,1,0,0:0:0:0:
448,192,233737,1,0,0:0:0:0:
320,192,233737,1,0,0:0:0:0:
192,192,233737,1,0,0:0:0:0:
64,192,233833,1,0,0:0:0:0:
192,192,233962,1,0,0:0:0:0:
448,192,234026,1,0,0:0:0:0:
320,192,234026,1,0,0:0:0:0:
192,192,234090,1,0,0:0:0:0:
64,192,234090,1,0,0:0:0:0:
448,192,234218,1,0,0:0:0:0:
448,192,234346,1,0,0:0:0:0:
192,192,234410,1,0,0:0:0:0:
64,192,234410,1,0,0:0:0:0:
448,192,234474,1,0,0:0:0:0:
64,192,234603,1,0,0:0:0:0:
448,192,234603,1,0,0:0:0:0:
320,192,234603,1,0,0:0:0:0:
192,192,234603,1,0,0:0:0:0:
320,192,234699,1,0,0:0:0:0:
192,192,234795,1,0,0:0:0:0:
64,192,234891,1,0,0:0:0:0:
448,192,234987,1,0,0:0:0:0:
320,192,234987,1,0,0:0:0:0:
192,192,235035,1,0,0:0:0:0:
64,192,235083,1,0,0:0:0:0:
448,192,235132,1,0,0:0:0:0:
320,192,235180,1,0,0:0:0:0:
192,192,235228,1,0,0:0:0:0:
448,192,235276,1,0,0:0:0:0:
64,192,235276,1,0,0:0:0:0:
192,192,235372,1,0,0:0:0:0:
320,192,235436,1,0,0:0:0:0:
192,192,235500,1,0,0:0:0:0:
64,192,235564,1,0,0:0:0:0:
448,192,235564,1,0,0:0:0:0:
320,192,235628,1,0,0:0:0:0:
64,192,235692,1,0,0:0:0:0:
320,192,235757,1,0,0:0:0:0:
448,192,235757,1,0,0:0:0:0:
192,192,235821,1,0,0:0:0:0:
448,192,235885,1,0,0:0:0:0:
64,192,235949,1,0,0:0:0:0:
192,192,235949,1,0,0:0:0:0:
320,192,236045,1,0,0:0:0:0:
192,192,236093,1,0,0:0:0:0:
320,192,236141,1,0,0:0:0:0:
448,192,236141,1,0,0:0:0:0:
64,192,236141,1,0,0:0:0:0:
192,192,236205,1,0,0:0:0:0:
448,192,236269,1,0,0:0:0:0:
64,192,236333,1,0,0:0:0:0:
320,192,236430,1,0,0:0:0:0:
192,192,236526,1,0,0:0:0:0:
320,192,236622,1,0,0:0:0:0:
64,192,236718,1,0,0:0:0:0:
192,192,236814,1,0,0:0:0:0:
448,192,236910,1,0,0:0:0:0:
320,192,236910,1,0,0:0:0:0:
64,192,237039,1,0,0:0:0:0:
448,192,237039,1,0,0:0:0:0:
64,192,237167,1,0,0:0:0:0:
448,192,237167,1,0,0:0:0:0:
320,192,237295,1,0,0:0:0:0:
448,192,237295,1,0,0:0:0:0:
192,192,237295,1,0,0:0:0:0:
64,192,237680,1,0,0:0:0:0:
192,192,237680,1,0,0:0:0:0:
192,192,237872,1,0,0:0:0:0:
448,192,237872,1,0,0:0:0:0:
320,192,237968,1,0,0:0:0:0:
448,192,238064,1,0,0:0:0:0:
192,192,238064,1,0,0:0:0:0:
64,192,238064,1,0,0:0:0:0:
320,192,238064,1,0,0:0:0:0:
64,192,238160,1,0,0:0:0:0:
320,192,238353,1,0,0:0:0:0:
320,192,238545,1,0,0:0:0:0:
64,192,238641,1,0,0:0:0:0:
320,192,238641,1,0,0:0:0:0:
448,192,238641,1,0,0:0:0:0:
192,192,238641,1,0,0:0:0:0:
192,192,238737,1,0,0:0:0:0:
320,192,238833,1,0,0:0:0:0:
192,192,238930,1,0,0:0:0:0:
64,192,239026,1,0,0:0:0:0:
448,192,239026,1,0,0:0:0:0:
192,192,239074,1,0,0:0:0:0:
320,192,239122,1,0,0:0:0:0:
448,192,239170,1,0,0:0:0:0:
64,192,239218,1,0,0:0:0:0:
320,192,239314,1,0,0:0:0:0:
192,192,239410,1,0,0:0:0:0:
64,192,239410,1,0,0:0:0:0:
320,192,239410,1,0,0:0:0:0:
448,192,239410,1,0,0:0:0:0:
192,192,239507,1,0,0:0:0:0:
448,192,239603,1,0,0:0:0:0:
448,192,239699,1,0,0:0:0:0:
192,192,239699,1,0,0:0:0:0:
320,192,239699,1,0,0:0:0:0:
64,192,239699,1,0,0:0:0:0:
320,192,239891,1,0,0:0:0:0:
320,192,240083,1,0,0:0:0:0:
64,192,240083,1,0,0:0:0:0:
192,192,240083,1,0,0:0:0:0:
448,192,240083,1,0,0:0:0:0:
192,192,240276,1,0,0:0:0:0:
64,192,240276,1,0,0:0:0:0:
320,192,240276,1,0,0:0:0:0:
448,192,240276,1,0,0:0:0:0:
64,192,240468,1,0,0:0:0:0:
64,192,240564,1,0,0:0:0:0:
448,192,240564,1,0,0:0:0:0:
320,192,240564,1,0,0:0:0:0:
320,192,240660,1,0,0:0:0:0:
448,192,240757,1,0,0:0:0:0:
64,192,240853,1,0,0:0:0:0:
192,192,240853,1,0,0:0:0:0:
320,192,240949,1,0,0:0:0:0:
64,192,240949,1,0,0:0:0:0:
448,192,240949,1,0,0:0:0:0:
192,192,241045,1,0,0:0:0:0:
448,192,241141,1,0,0:0:0:0:
320,192,241333,1,0,0:0:0:0:
192,192,241430,1,0,0:0:0:0:
448,192,241526,1,0,0:0:0:0:
320,192,241526,1,0,0:0:0:0:
64,192,241526,1,0,0:0:0:0:
192,192,241622,1,0,0:0:0:0:
448,192,241718,1,0,0:0:0:0:
320,192,241814,1,0,0:0:0:0:
64,192,241910,1,0,0:0:0:0:
192,192,241910,1,0,0:0:0:0:
64,192,242007,1,0,0:0:0:0:
448,192,242007,1,0,0:0:0:0:
320,192,242007,1,0,0:0:0:0:
192,192,242103,1,0,0:0:0:0:
448,192,242199,1,0,0:0:0:0:
320,192,242199,1,0,0:0:0:0:
64,192,242199,1,0,0:0:0:0:
64,192,242391,1,0,0:0:0:0:
448,192,242391,1,0,0:0:0:0:
320,192,242391,1,0,0:0:0:0:
320,192,242487,1,0,0:0:0:0:
192,192,242583,1,0,0:0:0:0:
448,192,242680,1,0,0:0:0:0:
192,192,242680,1,0,0:0:0:0:
320,192,242776,1,0,0:0:0:0:
448,192,242872,1,0,0:0:0:0:
64,192,242872,1,0,0:0:0:0:
192,192,242968,1,0,0:0:0:0:
320,192,243064,1,0,0:0:0:0:
448,192,243064,1,0,0:0:0:0:
64,192,243257,1,0,0:0:0:0:
192,192,243257,1,0,0:0:0:0:
448,192,243353,1,0,0:0:0:0:
320,192,243401,1,0,0:0:0:0:
192,192,243449,1,0,0:0:0:0:
64,192,243545,1,0,0:0:0:0:
448,192,243545,1,0,0:0:0:0:
320,192,243641,1,0,0:0:0:0:
64,192,243737,1,0,0:0:0:0:
192,192,243737,1,0,0:0:0:0:
192,192,243833,1,0,0:0:0:0:
64,192,244026,1,0,0:0:0:0:
448,192,244026,1,0,0:0:0:0:
320,192,244122,1,0,0:0:0:0:
448,192,244218,1,0,0:0:0:0:
64,192,244218,1,0,0:0:0:0:
192,192,244218,1,0,0:0:0:0:
320,192,244218,1,0,0:0:0:0:
64,192,244314,1,0,0:0:0:0:
192,192,244507,1,0,0:0:0:0:
192,192,244699,1,0,0:0:0:0:
192,192,244795,1,0,0:0:0:0:
64,192,244795,1,0,0:0:0:0:
320,192,244795,1,0,0:0:0:0:
448,192,244795,1,0,0:0:0:0:
320,192,244891,1,0,0:0:0:0:
448,192,244987,1,0,0:0:0:0:
192,192,245083,1,0,0:0:0:0:
448,192,245180,1,0,0:0:0:0:
320,192,245180,1,0,0:0:0:0:
64,192,245228,1,0,0:0:0:0:
192,192,245276,1,0,0:0:0:0:
320,192,245324,1,0,0:0:0:0:
64,192,245372,1,0,0:0:0:0:
192,192,245468,1,0,0:0:0:0:
192,192,245564,1,0,0:0:0:0:
64,192,245564,1,0,0:0:0:0:
448,192,245564,1,0,0:0:0:0:
320,192,245564,1,0,0:0:0:0:
320,192,245660,1,0,0:0:0:0:
64,192,245757,1,0,0:0:0:0:
448,192,245757,1,0,0:0:0:0:
192,192,245853,1,0,0:0:0:0:
64,192,245853,1,0,0:0:0:0:
448,192,245853,1,0,0:0:0:0:
320,192,245853,1,0,0:0:0:0:
320,192,246045,1,0,0:0:0:0:
64,192,246141,1,0,0:0:0:0:
320,192,246237,1,0,0:0:0:0:
64,192,246237,1,0,0:0:0:0:
192,192,246237,1,0,0:0:0:0:
448,192,246237,1,0,0:0:0:0:
64,192,246430,1,0,0:0:0:0:
192,192,246430,1,0,0:0:0:0:
320,192,246430,1,0,0:0:0:0:
448,192,246430,1,0,0:0:0:0:
192,192,246622,1,0,0:0:0:0:
192,192,246718,1,0,0:0:0:0:
320,192,246718,1,0,0:0:0:0:
448,192,246718,1,0,0:0:0:0:
320,192,246814,1,0,0:0:0:0:
192,192,246910,1,0,0:0:0:0:
448,192,246910,1,0,0:0:0:0:
64,192,247007,1,0,0:0:0:0:
448,192,247103,1,0,0:0:0:0:
192,192,247103,1,0,0:0:0:0:
320,192,247103,1,0,0:0:0:0:
64,192,247199,1,0,0:0:0:0:
320,192,247295,1,0,0:0:0:0:
448,192,247487,1,0,0:0:0:0:
64,192,247583,1,0,0:0:0:0:
320,192,247680,1,0,0:0:0:0:
448,192,247680,1,0,0:0:0:0:
192,192,247680,1,0,0:0:0:0:
64,192,247776,1,0,0:0:0:0:
320,192,247872,1,0,0:0:0:0:
448,192,247968,1,0,0:0:0:0:
192,192,248040,1,0,0:0:0:0:
64,192,248040,1,0,0:0:0:0:
320,192,248064,1,0,0:0:0:0:
448,192,248160,1,0,0:0:0:0:
64,192,248160,1,0,0:0:0:0:
192,192,248160,1,0,0:0:0:0:
320,192,248257,1,0,0:0:0:0:
192,192,248353,1,0,0:0:0:0:
64,192,248353,1,0,0:0:0:0:
448,192,248353,1,0,0:0:0:0:
448,192,248545,1,0,0:0:0:0:
64,192,248545,1,0,0:0:0:0:
192,192,248545,1,0,0:0:0:0:
448,192,248641,1,0,0:0:0:0:
192,192,248737,1,0,0:0:0:0:
448,192,248833,1,0,0:0:0:0:
192,192,248833,1,0,0:0:0:0:
64,192,248930,1,0,0:0:0:0:
448,192,249026,1,0,0:0:0:0:
192,192,249026,1,0,0:0:0:0:
320,192,249122,1,0,0:0:0:0:
448,192,249218,1,0,0:0:0:0:
64,192,249218,1,0,0:0:0:0:
64,192,249410,1,0,0:0:0:0:
448,192,249410,1,0,0:0:0:0:
192,192,249507,1,0,0:0:0:0:
448,192,249555,1,0,0:0:0:0:
64,192,249603,1,0,0:0:0:0:
320,192,249603,1,0,0:0:0:0:
64,192,249699,1,0,0:0:0:0:
448,192,249699,1,0,0:0:0:0:
192,192,249795,1,0,0:0:0:0:
64,192,249891,1,0,0:0:0:0:
448,192,249891,1,0,0:0:0:0:
320,192,249987,1,0,0:0:0:0:
192,192,249987,1,0,0:0:0:0:
448,192,250083,1,0,0:0:0:0:
64,192,250180,1,0,0:0:0:0:
192,192,250180,1,0,0:0:0:0:
320,192,250276,1,0,0:0:0:0:
192,192,250372,1,0,0:0:0:0:
64,192,250372,1,0,0:0:0:0:
448,192,250372,1,0,0:0:0:0:
320,192,250372,1,0,0:0:0:0:
64,192,250468,1,0,0:0:0:0:
320,192,250564,1,0,0:0:0:0:
448,192,250660,1,0,0:0:0:0:
64,192,250757,1,0,0:0:0:0:
192,192,250757,1,0,0:0:0:0:
448,192,250853,1,0,0:0:0:0:
64,192,250853,1,0,0:0:0:0:
320,192,250853,1,0,0:0:0:0:
192,192,250853,1,0,0:0:0:0:
320,192,250949,1,0,0:0:0:0:
448,192,250949,1,0,0:0:0:0:
192,192,251045,1,0,0:0:0:0:
64,192,251141,1,0,0:0:0:0:
320,192,251141,1,0,0:0:0:0:
64,192,251237,1,0,0:0:0:0:
448,192,251237,1,0,0:0:0:0:
192,192,251237,1,0,0:0:0:0:
320,192,251333,1,0,0:0:0:0:
64,192,251430,1,0,0:0:0:0:
192,192,251430,1,0,0:0:0:0:
448,192,251430,1,0,0:0:0:0:
64,192,251526,1,0,0:0:0:0:
320,192,251526,1,0,0:0:0:0:
448,192,251526,1,0,0:0:0:0:
320,192,251718,1,0,0:0:0:0:
192,192,251718,1,0,0:0:0:0:
64,192,251718,1,0,0:0:0:0:
448,192,251814,1,0,0:0:0:0:
64,192,251910,1,0,0:0:0:0:
320,192,251910,1,0,0:0:0:0:
192,192,252007,1,0,0:0:0:0:
320,192,252007,1,0,0:0:0:0:
448,192,252007,1,0,0:0:0:0:
192,192,252199,1,0,0:0:0:0:
64,192,252199,1,0,0:0:0:0:
448,192,252199,1,0,0:0:0:0:
192,192,252391,1,0,0:0:0:0:
448,192,252391,1,0,0:0:0:0:
320,192,252391,1,0,0:0:0:0:
320,192,252487,1,0,0:0:0:0:
64,192,252487,1,0,0:0:0:0:
448,192,252551,1,0,0:0:0:0:
64,192,252615,1,0,0:0:0:0:
448,192,252680,1,0,0:0:0:0:
320,192,252680,1,0,0:0:0:0:
64,192,252776,1,0,0:0:0:0:
192,192,252776,1,0,0:0:0:0:
64,192,252872,1,0,0:0:0:0:
448,192,252872,1,0,0:0:0:0:
320,192,252872,1,0,0:0:0:0:
448,192,252968,1,0,0:0:0:0:
64,192,253064,1,0,0:0:0:0:
320,192,253064,1,0,0:0:0:0:
320,192,253257,1,0,0:0:0:0:
448,192,253257,1,0,0:0:0:0:
448,192,253353,1,0,0:0:0:0:
192,192,253353,1,0,0:0:0:0:
320,192,253449,1,0,0:0:0:0:
64,192,253449,1,0,0:0:0:0:
448,192,253545,1,0,0:0:0:0:
192,192,253641,1,0,0:0:0:0:
64,192,253641,1,0,0:0:0:0:
64,192,253737,1,0,0:0:0:0:
320,192,253737,1,0,0:0:0:0:
64,192,253930,1,0,0:0:0:0:
448,192,253930,1,0,0:0:0:0:
64,192,254026,1,0,0:0:0:0:
192,192,254026,1,0,0:0:0:0:
320,192,254122,1,0,0:0:0:0:
448,192,254122,1,0,0:0:0:0:
64,192,254218,1,0,0:0:0:0:
448,192,254218,1,0,0:0:0:0:
320,192,254218,1,0,0:0:0:0:
192,192,254314,1,0,0:0:0:0:
64,192,254314,1,0,0:0:0:0:
320,192,254410,1,0,0:0:0:0:
192,192,254410,1,0,0:0:0:0:
448,192,254507,1,0,0:0:0:0:
320,192,254507,1,0,0:0:0:0:
64,192,254603,1,0,0:0:0:0:
192,192,254603,1,0,0:0:0:0:
448,192,254795,1,0,0:0:0:0:
64,192,254987,1,0,0:0:0:0:
448,192,255180,1,0,0:0:0:0:
320,192,255244,1,0,0:0:0:0:
192,192,255308,1,0,0:0:0:0:
320,192,255372,1,0,0:0:0:0:
448,192,255372,1,0,0:0:0:0:
64,192,255372,1,0,0:0:0:0:
448,192,255564,1,0,0:0:0:0:
64,192,255628,1,0,0:0:0:0:
192,192,255692,1,0,0:0:0:0:
64,192,255757,1,0,0:0:0:0:
448,192,255757,1,0,0:0:0:0:
320,192,255757,1,0,0:0:0:0:
192,192,255853,1,0,0:0:0:0:
448,192,255949,1,0,0:0:0:0:
320,192,256013,1,0,0:0:0:0:
192,192,256077,1,0,0:0:0:0:
448,192,256141,1,0,0:0:0:0:
320,192,256141,1,0,0:0:0:0:
64,192,256141,1,0,0:0:0:0:
192,192,256333,1,0,0:0:0:0:
448,192,256430,1,0,0:0:0:0:
64,192,256526,1,0,0:0:0:0:
320,192,256718,1,0,0:0:0:0:
192,192,256814,1,0,0:0:0:0:
64,192,256910,1,0,0:0:0:0:
448,192,257103,1,0,0:0:0:0:
320,192,257199,1,0,0:0:0:0:
192,192,257295,1,0,0:0:0:0:
320,192,257487,1,0,0:0:0:0:
64,192,257583,1,0,0:0:0:0:
448,192,257680,1,0,0:0:0:0:
320,192,257872,1,0,0:0:0:0:
192,192,257872,1,0,0:0:0:0:
448,192,257968,1,0,0:0:0:0:
64,192,258064,1,0,0:0:0:0:
320,192,258064,1,0,0:0:0:0:
448,192,258257,1,0,0:0:0:0:
192,192,258257,1,0,0:0:0:0:
320,192,258353,1,0,0:0:0:0:
448,192,258449,1,0,0:0:0:0:
64,192,258449,1,0,0:0:0:0:
320,192,258545,1,0,0:0:0:0:
192,192,258641,1,0,0:0:0:0:
64,192,258641,1,0,0:0:0:0:
320,192,258737,1,0,0:0:0:0:
64,192,258833,1,0,0:0:0:0:
448,192,258833,1,0,0:0:0:0:
64,192,259026,1,0,0:0:0:0:
192,192,259026,1,0,0:0:0:0:
320,192,259122,1,0,0:0:0:0:
192,192,259218,1,0,0:0:0:0:
448,192,259218,1,0,0:0:0:0:
192,192,259410,1,0,0:0:0:0:
448,192,259507,1,0,0:0:0:0:
320,192,259507,1,0,0:0:0:0:
64,192,259603,1,0,0:0:0:0:
192,192,259795,1,0,0:0:0:0:
320,192,259795,1,0,0:0:0:0:
448,192,259987,1,0,0:0:0:0:
64,192,260180,1,0,0:0:0:0:
192,192,260180,1,0,0:0:0:0:
320,192,260276,1,0,0:0:0:0:
192,192,260372,1,0,0:0:0:0:
448,192,260372,1,0,0:0:0:0:
64,192,260468,1,0,0:0:0:0:
320,192,260564,1,0,0:0:0:0:
192,192,260660,1,0,0:0:0:0:
64,192,260660,1,0,0:0:0:0:
448,192,260757,1,0,0:0:0:0:
320,192,260757,1,0,0:0:0:0:
448,192,260949,1,0,0:0:0:0:
192,192,261045,1,0,0:0:0:0:
448,192,261141,1,0,0:0:0:0:
320,192,261141,1,0,0:0:0:0:
448,192,261333,1,0,0:0:0:0:
64,192,261430,1,0,0:0:0:0:
192,192,261430,1,0,0:0:0:0:
448,192,261526,1,0,0:0:0:0:
320,192,261526,1,0,0:0:0:0:
320,192,261622,1,0,0:0:0:0:
192,192,261718,1,0,0:0:0:0:
448,192,261814,1,0,0:0:0:0:
320,192,261814,1,0,0:0:0:0:
64,192,261910,1,0,0:0:0:0:
448,192,261910,1,0,0:0:0:0:
64,192,262007,1,0,0:0:0:0:
192,192,262007,1,0,0:0:0:0:
448,192,262103,1,0,0:0:0:0:
192,192,262167,1,0,0:0:0:0:
320,192,262231,1,0,0:0:0:0:
64,192,262295,1,0,0:0:0:0:
192,192,262295,1,0,0:0:0:0:
448,192,262295,1,0,0:0:0:0:
320,192,262487,1,0,0:0:0:0:
192,192,262583,1,0,0:0:0:0:
448,192,262680,1,0,0:0:0:0:
64,192,262680,1,0,0:0:0:0:
320,192,262872,1,0,0:0:0:0:
64,192,262968,1,0,0:0:0:0:
192,192,262968,1,0,0:0:0:0:
448,192,263064,1,0,0:0:0:0:
320,192,263064,1,0,0:0:0:0:
64,192,263160,1,0,0:0:0:0:
320,192,263257,1,0,0:0:0:0:
192,192,263257,1,0,0:0:0:0:
448,192,263353,1,0,0:0:0:0:
192,192,263449,1,0,0:0:0:0:
64,192,263449,1,0,0:0:0:0:
320,192,263545,1,0,0:0:0:0:
192,192,263641,1,0,0:0:0:0:
448,192,263641,1,0,0:0:0:0:
64,192,263737,1,0,0:0:0:0:
320,192,263833,1,0,0:0:0:0:
448,192,263833,1,0,0:0:0:0:
192,192,264026,1,0,0:0:0:0:
64,192,264122,1,0,0:0:0:0:
320,192,264122,1,0,0:0:0:0:
192,192,264218,1,0,0:0:0:0:
448,192,264218,1,0,0:0:0:0:
64,192,264314,1,0,0:0:0:0:
448,192,264410,1,0,0:0:0:0:
320,192,264410,1,0,0:0:0:0:
64,192,264507,1,0,0:0:0:0:
320,192,264603,1,0,0:0:0:0:
192,192,264603,1,0,0:0:0:0:
320,192,264795,1,0,0:0:0:0:
64,192,264795,1,0,0:0:0:0:
192,192,264891,1,0,0:0:0:0:
448,192,264987,1,0,0:0:0:0:
320,192,264987,1,0,0:0:0:0:
192,192,265083,1,0,0:0:0:0:
448,192,265180,1,0,0:0:0:0:
320,192,265180,1,0,0:0:0:0:
64,192,265180,1,0,0:0:0:0:
192,192,265276,1,0,0:0:0:0:
448,192,265372,1,0,0:0:0:0:
320,192,265372,1,0,0:0:0:0:
64,192,265564,1,0,0:0:0:0:
448,192,265564,1,0,0:0:0:0:
448,192,265660,1,0,0:0:0:0:
320,192,265660,1,0,0:0:0:0:
64,192,265853,1,0,0:0:0:0:
448,192,265853,1,0,0:0:0:0:
320,192,265949,1,0,0:0:0:0:
448,192,265949,1,0,0:0:0:0:
64,192,266141,1,0,0:0:0:0:
448,192,266141,1,0,0:0:0:0:
448,192,266237,1,0,0:0:0:0:
320,192,266237,1,0,0:0:0:0:
64,192,266430,1,0,0:0:0:0:
448,192,266430,1,0,0:0:0:0:
448,192,266526,1,0,0:0:0:0:
320,192,266526,1,0,0:0:0:0:
192,192,266590,1,0,0:0:0:0:
64,192,266654,1,0,0:0:0:0:
320,192,266718,1,0,0:0:0:0:
448,192,266718,1,0,0:0:0:0:
192,192,266814,1,0,0:0:0:0:
320,192,266910,1,0,0:0:0:0:
448,192,266910,1,0,0:0:0:0:
64,192,267039,1,0,0:0:0:0:
448,192,267039,1,0,0:0:0:0:
64,192,267167,1,0,0:0:0:0:
320,192,267167,1,0,0:0:0:0:
320,192,267295,1,0,0:0:0:0:
192,192,267295,1,0,0:0:0:0:
448,192,267423,1,0,0:0:0:0:
192,192,267423,1,0,0:0:0:0:
64,192,267551,1,0,0:0:0:0:
448,192,267551,1,0,0:0:0:0:
64,192,267680,1,0,0:0:0:0:
320,192,267680,1,0,0:0:0:0:
448,192,267744,1,0,0:0:0:0:
192,192,267808,1,0,0:0:0:0:
64,192,268000,1,0,0:0:0:0:
192,192,268064,1,0,0:0:0:0:
448,192,268064,1,0,0:0:0:0:
320,192,268064,1,0,0:0:0:0:
64,192,268160,1,0,0:0:0:0:
192,192,268257,1,0,0:0:0:0:
448,192,268353,1,0,0:0:0:0:
320,192,268353,1,0,0:0:0:0:
64,192,268449,1,0,0:0:0:0:
448,192,268641,1,0,0:0:0:0:
320,192,268641,1,0,0:0:0:0:
320,192,268833,1,0,0:0:0:0:
192,192,268833,1,0,0:0:0:0:
192,192,269026,1,0,0:0:0:0:
64,192,269026,1,0,0:0:0:0:
320,192,269090,1,0,0:0:0:0:
448,192,269090,1,0,0:0:0:0:
64,192,269154,1,0,0:0:0:0:
192,192,269218,1,0,0:0:0:0:
448,192,269218,1,0,0:0:0:0:
320,192,269218,1,0,0:0:0:0:
64,192,269410,1,0,0:0:0:0:
320,192,269474,1,0,0:0:0:0:
192,192,269539,1,0,0:0:0:0:
448,192,269603,1,0,0:0:0:0:
320,192,269603,1,0,0:0:0:0:
64,192,269603,1,0,0:0:0:0:
320,192,269987,1,0,0:0:0:0:
448,192,269987,1,0,0:0:0:0:
192,192,270051,1,0,0:0:0:0:
448,192,270115,1,0,0:0:0:0:
64,192,270115,1,0,0:0:0:0:
320,192,270180,1,0,0:0:0:0:
192,192,270244,1,0,0:0:0:0:
64,192,270244,1,0,0:0:0:0:
448,192,270308,1,0,0:0:0:0:
320,192,270372,1,0,0:0:0:0:
192,192,270372,1,0,0:0:0:0:
64,192,270372,1,0,0:0:0:0:
64,192,271526,1,0,0:0:0:0:
448,192,271718,1,0,0:0:0:0:
320,192,271718,1,0,0:0:0:0:
192,192,271910,1,0,0:0:0:0:
448,192,271910,1,0,0:0:0:0:
320,192,272103,1,0,0:0:0:0:
64,192,272199,1,0,0:0:0:0:
192,192,272199,1,0,0:0:0:0:
448,192,272295,1,0,0:0:0:0:
192,192,272487,1,0,0:0:0:0:
448,192,272551,1,0,0:0:0:0:
192,192,272615,1,0,0:0:0:0:
64,192,272680,1,0,0:0:0:0:
448,192,272680,1,0,0:0:0:0:
320,192,272776,1,0,0:0:0:0:
64,192,272872,1,0,0:0:0:0:
192,192,272872,1,0,0:0:0:0:
448,192,272968,1,0,0:0:0:0:
64,192,273064,1,0,0:0:0:0:
320,192,273064,1,0,0:0:0:0:
448,192,273257,1,0,0:0:0:0:
192,192,273353,1,0,0:0:0:0:
64,192,273449,1,0,0:0:0:0:
320,192,273449,1,0,0:0:0:0:
64,192,273545,1,0,0:0:0:0:
448,192,273545,1,0,0:0:0:0:
192,192,273737,1,0,0:0:0:0:
320,192,273737,1,0,0:0:0:0:
448,192,273833,1,0,0:0:0:0:
192,192,273930,1,0,0:0:0:0:
320,192,273930,1,0,0:0:0:0:
64,192,274218,1,0,0:0:0:0:
192,192,274218,1,0,0:0:0:0:
448,192,274410,1,0,0:0:0:0:
320,192,274410,1,0,0:0:0:0:
64,192,274507,1,0,0:0:0:0:
448,192,274507,1,0,0:0:0:0:
192,192,274603,1,0,0:0:0:0:
64,192,274795,1,0,0:0:0:0:
320,192,274795,1,0,0:0:0:0:
448,192,274891,1,0,0:0:0:0:
64,192,274987,1,0,0:0:0:0:
192,192,274987,1,0,0:0:0:0:
192,192,275083,1,0,0:0:0:0:
448,192,275180,1,0,0:0:0:0:
320,192,275276,1,0,0:0:0:0:
64,192,275276,1,0,0:0:0:0:
448,192,275276,1,0,0:0:0:0:
192,192,275372,1,0,0:0:0:0:
320,192,275468,1,0,0:0:0:0:
64,192,275564,1,0,0:0:0:0:
448,192,275564,1,0,0:0:0:0:
320,192,275628,1,0,0:0:0:0:
192,192,275692,1,0,0:0:0:0:
448,192,275757,1,0,0:0:0:0:
320,192,275757,1,0,0:0:0:0:
64,192,275757,1,0,0:0:0:0:
448,192,275853,1,0,0:0:0:0:
320,192,275853,1,0,0:0:0:0:
320,192,276045,1,0,0:0:0:0:
448,192,276045,1,0,0:0:0:0:
192,192,276045,1,0,0:0:0:0:
64,192,276045,1,0,0:0:0:0:
320,192,276237,1,0,0:0:0:0:
64,192,276333,1,0,0:0:0:0:
320,192,276430,1,0,0:0:0:0:
64,192,276526,1,0,0:0:0:0:
192,192,276526,1,0,0:0:0:0:
448,192,276526,1,0,0:0:0:0:
320,192,276718,1,0,0:0:0:0:
192,192,276814,1,0,0:0:0:0:
64,192,276814,1,0,0:0:0:0:
448,192,276814,1,0,0:0:0:0:
320,192,276814,1,0,0:0:0:0:
320,192,277103,1,0,0:0:0:0:
64,192,277103,1,0,0:0:0:0:
192,192,277167,1,0,0:0:0:0:
320,192,277231,1,0,0:0:0:0:
448,192,277295,1,0,0:0:0:0:
64,192,277295,1,0,0:0:0:0:
192,192,277295,1,0,0:0:0:0:
320,192,277391,1,0,0:0:0:0:
448,192,277391,1,0,0:0:0:0:
192,192,277487,1,0,0:0:0:0:
320,192,277583,1,0,0:0:0:0:
64,192,277680,1,0,0:0:0:0:
192,192,277680,1,0,0:0:0:0:
448,192,277680,1,0,0:0:0:0:
320,192,277872,1,0,0:0:0:0:
192,192,277872,1,0,0:0:0:0:
64,192,278064,1,0,0:0:0:0:
192,192,278064,1,0,0:0:0:0:
320,192,278064,1,0,0:0:0:0:
64,192,278257,1,0,0:0:0:0:
448,192,278353,1,0,0:0:0:0:
320,192,278353,1,0,0:0:0:0:
192,192,278353,1,0,0:0:0:0:
64,192,278449,1,0,0:0:0:0:
448,192,278545,1,0,0:0:0:0:
192,192,278641,1,0,0:0:0:0:
320,192,278705,1,0,0:0:0:0:
192,192,278769,1,0,0:0:0:0:
448,192,278833,1,0,0:0:0:0:
320,192,278833,1,0,0:0:0:0:
64,192,278833,1,0,0:0:0:0:
448,192,278930,1,0,0:0:0:0:
320,192,279026,1,0,0:0:0:0:
64,192,279026,1,0,0:0:0:0:
192,192,279122,1,0,0:0:0:0:
64,192,279218,1,0,0:0:0:0:
448,192,279218,1,0,0:0:0:0:
192,192,279218,1,0,0:0:0:0:
448,192,279410,1,0,0:0:0:0:
320,192,279410,1,0,0:0:0:0:
192,192,279507,1,0,0:0:0:0:
320,192,279603,1,0,0:0:0:0:
448,192,279603,1,0,0:0:0:0:
64,192,279603,1,0,0:0:0:0:
192,192,279699,1,0,0:0:0:0:
320,192,279699,1,0,0:0:0:0:
192,192,279891,1,0,0:0:0:0:
448,192,279891,1,0,0:0:0:0:
320,192,279891,1,0,0:0:0:0:
64,192,279891,1,0,0:0:0:0:
64,192,280083,1,0,0:0:0:0:
192,192,280083,1,0,0:0:0:0:
192,192,280276,1,0,0:0:0:0:
64,192,280372,1,0,0:0:0:0:
448,192,280372,1,0,0:0:0:0:
320,192,280372,1,0,0:0:0:0:
192,192,280436,1,0,0:0:0:0:
64,192,280564,1,0,0:0:0:0:
448,192,280564,1,0,0:0:0:0:
192,192,280660,1,0,0:0:0:0:
64,192,280660,1,0,0:0:0:0:
448,192,280660,1,0,0:0:0:0:
320,192,280660,1,0,0:0:0:0:
64,192,280949,1,0,0:0:0:0:
192,192,280949,1,0,0:0:0:0:
448,192,281045,1,0,0:0:0:0:
320,192,281045,1,0,0:0:0:0:
448,192,281141,1,0,0:0:0:0:
64,192,281141,1,0,0:0:0:0:
192,192,281141,1,0,0:0:0:0:
320,192,281237,1,0,0:0:0:0:
448,192,281333,1,0,0:0:0:0:
64,192,281333,1,0,0:0:0:0:
192,192,281430,1,0,0:0:0:0:
64,192,281526,1,0,0:0:0:0:
192,192,281526,1,0,0:0:0:0:
320,192,281526,1,0,0:0:0:0:
448,192,281526,1,0,0:0:0:0:
64,192,281718,1,0,0:0:0:0:
192,192,281782,1,0,0:0:0:0:
320,192,281846,1,0,0:0:0:0:
192,192,281910,1,0,0:0:0:0:
64,192,281910,1,0,0:0:0:0:
448,192,281910,1,0,0:0:0:0:
64,192,282007,1,0,0:0:0:0:
448,192,282103,1,0,0:0:0:0:
192,192,282199,1,0,0:0:0:0:
64,192,282199,1,0,0:0:0:0:
320,192,282199,1,0,0:0:0:0:
448,192,282199,1,0,0:0:0:0:
192,192,282295,1,0,0:0:0:0:
64,192,282295,1,0,0:0:0:0:
448,192,282423,1,0,0:0:0:0:
192,192,282487,1,0,0:0:0:0:
320,192,282551,1,0,0:0:0:0:
64,192,282583,1,0,0:0:0:0:
448,192,282615,1,0,0:0:0:0:
64,192,282680,1,0,0:0:0:0:
320,192,282680,1,0,0:0:0:0:
192,192,282680,1,0,0:0:0:0:
192,192,282872,1,0,0:0:0:0:
192,192,282968,1,0,0:0:0:0:
64,192,282968,1,0,0:0:0:0:
320,192,282968,1,0,0:0:0:0:
448,192,282968,1,0,0:0:0:0:
320,192,283160,1,0,0:0:0:0:
64,192,283257,1,0,0:0:0:0:
192,192,283257,1,0,0:0:0:0:
448,192,283305,1,0,0:0:0:0:
320,192,283353,1,0,0:0:0:0:
192,192,283401,1,0,0:0:0:0:
64,192,283449,1,0,0:0:0:0:
448,192,283497,1,0,0:0:0:0:
320,192,283545,1,0,0:0:0:0:
192,192,283593,1,0,0:0:0:0:
448,192,283641,1,0,0:0:0:0:
320,192,283737,1,0,0:0:0:0:
448,192,283833,1,0,0:0:0:0:
64,192,283833,1,0,0:0:0:0:
192,192,283833,1,0,0:0:0:0:
320,192,284026,1,0,0:0:0:0:
192,192,284026,1,0,0:0:0:0:
320,192,284218,1,0,0:0:0:0:
448,192,284218,1,0,0:0:0:0:
64,192,284218,1,0,0:0:0:0:
192,192,284218,1,0,0:0:0:0:
64,192,284507,1,0,0:0:0:0:
192,192,284507,1,0,0:0:0:0:
320,192,284507,1,0,0:0:0:0:
448,192,284603,1,0,0:0:0:0:
192,192,284699,1,0,0:0:0:0:
64,192,284795,1,0,0:0:0:0:
448,192,284859,1,0,0:0:0:0:
64,192,284923,1,0,0:0:0:0:
448,192,284987,1,0,0:0:0:0:
192,192,284987,1,0,0:0:0:0:
320,192,284987,1,0,0:0:0:0:
320,192,285083,1,0,0:0:0:0:
448,192,285180,1,0,0:0:0:0:
64,192,285180,1,0,0:0:0:0:
192,192,285276,1,0,0:0:0:0:
192,192,285372,1,0,0:0:0:0:
448,192,285372,1,0,0:0:0:0:
64,192,285372,1,0,0:0:0:0:
64,192,285564,1,0,0:0:0:0:
320,192,285564,1,0,0:0:0:0:
192,192,285660,1,0,0:0:0:0:
64,192,285757,1,0,0:0:0:0:
448,192,285757,1,0,0:0:0:0:
320,192,285757,1,0,0:0:0:0:
192,192,285853,1,0,0:0:0:0:
448,192,285853,1,0,0:0:0:0:
64,192,286045,1,0,0:0:0:0:
192,192,286045,1,0,0:0:0:0:
448,192,286045,1,0,0:0:0:0:
320,192,286045,1,0,0:0:0:0:
192,192,286237,1,0,0:0:0:0:
320,192,286237,1,0,0:0:0:0:
320,192,286430,1,0,0:0:0:0:
64,192,286526,1,0,0:0:0:0:
192,192,286526,1,0,0:0:0:0:
448,192,286526,1,0,0:0:0:0:
320,192,286622,1,0,0:0:0:0:
64,192,286718,1,0,0:0:0:0:
192,192,286718,1,0,0:0:0:0:
192,192,286814,1,0,0:0:0:0:
64,192,286814,1,0,0:0:0:0:
448,192,286814,1,0,0:0:0:0:
320,192,286814,1,0,0:0:0:0:
320,192,287103,1,0,0:0:0:0:
192,192,287199,1,0,0:0:0:0:
320,192,287295,1,0,0:0:0:0:
448,192,287295,1,0,0:0:0:0:
64,192,287295,1,0,0:0:0:0:
64,192,287391,1,0,0:0:0:0:
320,192,287487,1,0,0:0:0:0:
64,192,287583,1,0,0:0:0:0:
448,192,287583,1,0,0:0:0:0:
320,192,287583,1,0,0:0:0:0:
192,192,287583,1,0,0:0:0:0:
64,192,287872,1,0,0:0:0:0:
320,192,287872,1,0,0:0:0:0:
448,192,287936,1,0,0:0:0:0:
192,192,288000,1,0,0:0:0:0:
448,192,288064,1,0,0:0:0:0:
320,192,288064,1,0,0:0:0:0:
64,192,288064,1,0,0:0:0:0:
320,192,288160,1,0,0:0:0:0:
448,192,288160,1,0,0:0:0:0:
192,192,288192,1,0,0:0:0:0:
320,192,288353,1,0,0:0:0:0:
448,192,288353,1,0,0:0:0:0:
64,192,288353,1,0,0:0:0:0:
192,192,288353,1,0,0:0:0:0:
448,192,288545,1,0,0:0:0:0:
64,192,288641,1,0,0:0:0:0:
448,192,288737,1,0,0:0:0:0:
192,192,288833,1,0,0:0:0:0:
64,192,288833,1,0,0:0:0:0:
320,192,288833,1,0,0:0:0:0:
192,192,289026,1,0,0:0:0:0:
448,192,289122,1,0,0:0:0:0:
320,192,289122,1,0,0:0:0:0:
192,192,289122,1,0,0:0:0:0:
64,192,289122,1,0,0:0:0:0:
320,192,289314,1,0,0:0:0:0:
448,192,289410,1,0,0:0:0:0:
64,192,289410,1,0,0:0:0:0:
320,192,289474,1,0,0:0:0:0:
64,192,289539,1,0,0:0:0:0:
320,192,289603,1,0,0:0:0:0:
192,192,289603,1,0,0:0:0:0:
448,192,289603,1,0,0:0:0:0:
448,192,289699,1,0,0:0:0:0:
64,192,289699,1,0,0:0:0:0:
320,192,289795,1,0,0:0:0:0:
192,192,289891,1,0,0:0:0:0:
64,192,289891,1,0,0:0:0:0:
64,192,289987,1,0,0:0:0:0:
448,192,289987,1,0,0:0:0:0:
320,192,289987,1,0,0:0:0:0:
320,192,290180,1,0,0:0:0:0:
192,192,290180,1,0,0:0:0:0:
448,192,290276,1,0,0:0:0:0:
64,192,290372,1,0,0:0:0:0:
448,192,290372,1,0,0:0:0:0:
320,192,290372,1,0,0:0:0:0:
192,192,290372,1,0,0:0:0:0:
64,192,290564,1,0,0:0:0:0:
192,192,290660,1,0,0:0:0:0:
320,192,290660,1,0,0:0:0:0:
448,192,290660,1,0,0:0:0:0:
64,192,290757,1,0,0:0:0:0:
320,192,290853,1,0,0:0:0:0:
192,192,290949,1,0,0:0:0:0:
448,192,291013,1,0,0:0:0:0:
192,192,291077,1,0,0:0:0:0:
448,192,291141,1,0,0:0:0:0:
320,192,291141,1,0,0:0:0:0:
64,192,291141,1,0,0:0:0:0:
320,192,291237,1,0,0:0:0:0:
192,192,291333,1,0,0:0:0:0:
448,192,291333,1,0,0:0:0:0:
64,192,291430,1,0,0:0:0:0:
448,192,291526,1,0,0:0:0:0:
320,192,291526,1,0,0:0:0:0:
64,192,291526,1,0,0:0:0:0:
320,192,291718,1,0,0:0:0:0:
192,192,291718,1,0,0:0:0:0:
64,192,291814,1,0,0:0:0:0:
448,192,291910,1,0,0:0:0:0:
320,192,291910,1,0,0:0:0:0:
192,192,291910,1,0,0:0:0:0:
448,192,292007,1,0,0:0:0:0:
64,192,292007,1,0,0:0:0:0:
320,192,292199,1,0,0:0:0:0:
448,192,292199,1,0,0:0:0:0:
64,192,292199,1,0,0:0:0:0:
192,192,292199,1,0,0:0:0:0:
320,192,292391,1,0,0:0:0:0:
64,192,292391,1,0,0:0:0:0:
64,192,292487,1,0,0:0:0:0:
448,192,292583,1,0,0:0:0:0:
320,192,292583,1,0,0:0:0:0:
192,192,292680,1,0,0:0:0:0:
64,192,292680,1,0,0:0:0:0:
448,192,292680,1,0,0:0:0:0:
320,192,292744,1,0,0:0:0:0:
192,192,292808,1,0,0:0:0:0:
64,192,292872,1,0,0:0:0:0:
448,192,292872,1,0,0:0:0:0:
192,192,292968,1,0,0:0:0:0:
64,192,292968,1,0,0:0:0:0:
448,192,292968,1,0,0:0:0:0:
320,192,292968,1,0,0:0:0:0:
448,192,293257,1,0,0:0:0:0:
192,192,293257,1,0,0:0:0:0:
320,192,293353,1,0,0:0:0:0:
192,192,293353,1,0,0:0:0:0:
64,192,293449,1,0,0:0:0:0:
448,192,293449,1,0,0:0:0:0:
320,192,293449,1,0,0:0:0:0:
64,192,293545,1,0,0:0:0:0:
192,192,293641,1,0,0:0:0:0:
320,192,293737,1,0,0:0:0:0:
64,192,293833,1,0,0:0:0:0:
192,192,293833,1,0,0:0:0:0:
448,192,293833,1,0,0:0:0:0:
320,192,293833,1,0,0:0:0:0:
448,192,294026,1,0,0:0:0:0:
64,192,294090,1,0,0:0:0:0:
320,192,294154,1,0,0:0:0:0:
64,192,294218,1,0,0:0:0:0:
192,192,294218,1,0,0:0:0:0:
448,192,294218,1,0,0:0:0:0:
448,192,294314,1,0,0:0:0:0:
64,192,294410,1,0,0:0:0:0:
192,192,294507,1,0,0:0:0:0:
64,192,294507,1,0,0:0:0:0:
320,192,294507,1,0,0:0:0:0:
448,192,294507,1,0,0:0:0:0:
192,192,294603,1,0,0:0:0:0:
448,192,294603,1,0,0:0:0:0:
64,192,294731,1,0,0:0:0:0:
448,192,294795,1,0,0:0:0:0:
192,192,294859,1,0,0:0:0:0:
64,192,294891,1,0,0:0:0:0:
320,192,294923,1,0,0:0:0:0:
448,192,294987,1,0,0:0:0:0:
192,192,294987,1,0,0:0:0:0:
64,192,294987,1,0,0:0:0:0:
192,192,295180,1,0,0:0:0:0:
192,192,295276,1,0,0:0:0:0:
64,192,295276,1,0,0:0:0:0:
320,192,295276,1,0,0:0:0:0:
448,192,295276,1,0,0:0:0:0:
320,192,295468,1,0,0:0:0:0:
64,192,295564,1,0,0:0:0:0:
192,192,295564,1,0,0:0:0:0:
448,192,295612,1,0,0:0:0:0:
320,192,295660,1,0,0:0:0:0:
192,192,295708,1,0,0:0:0:0:
64,192,295757,1,0,0:0:0:0:
448,192,295805,1,0,0:0:0:0:
320,192,295853,1,0,0:0:0:0:
192,192,295901,1,0,0:0:0:0:
448,192,295949,1,0,0:0:0:0:
320,192,296045,1,0,0:0:0:0:
448,192,296141,1,0,0:0:0:0:
192,192,296141,1,0,0:0:0:0:
448,192,296333,1,0,0:0:0:0:
64,192,296333,1,0,0:0:0:0:
192,192,296430,1,0,0:0:0:0:
64,192,296526,1,0,0:0:0:0:
448,192,296526,1,0,0:0:0:0:
320,192,296622,1,0,0:0:0:0:
192,192,296718,1,0,0:0:0:0:
448,192,296814,1,0,0:0:0:0:
64,192,296814,1,0,0:0:0:0:
192,192,297007,1,0,0:0:0:0:
320,192,297103,1,0,0:0:0:0:
192,192,297295,1,0,0:0:0:0:
64,192,297295,1,0,0:0:0:0:
320,192,297359,1,0,0:0:0:0:
448,192,297423,1,0,0:0:0:0:
64,192,297487,1,0,0:0:0:0:
192,192,297551,1,0,0:0:0:0:
320,192,297615,1,0,0:0:0:0:
64,192,297680,1,0,0:0:0:0:
448,192,297680,1,0,0:0:0:0:
192,192,297872,1,0,0:0:0:0:
320,192,297968,1,0,0:0:0:0:
448,192,298064,1,0,0:0:0:0:
320,192,298257,1,0,0:0:0:0:
192,192,298449,1,0,0:0:0:0:
64,192,298641,1,0,0:0:0:0:
448,192,298833,1,0,0:0:0:0:
320,192,298930,1,0,0:0:0:0:
192,192,299026,1,0,0:0:0:0:
64,192,299122,1,0,0:0:0:0:
192,192,299218,1,0,0:0:0:0:
448,192,299218,1,0,0:0:0:0:
320,192,299218,1,0,0:0:0:0:
64,192,299410,1,0,0:0:0:0:
448,192,299410,1,0,0:0:0:0:
320,192,299410,1,0,0:0:0:0:
192,192,299507,1,0,0:0:0:0:
64,192,299507,1,0,0:0:0:0:
192,192,299603,1,0,0:0:0:0:
320,192,299603,1,0,0:0:0:0:
448,192,299699,1,0,0:0:0:0:
64,192,299795,1,0,0:0:0:0:
192,192,299795,1,0,0:0:0:0:
192,192,299891,1,0,0:0:0:0:
320,192,299891,1,0,0:0:0:0:
448,192,299987,1,0,0:0:0:0:
192,192,300083,1,0,0:0:0:0:
64,192,300083,1,0,0:0:0:0:
320,192,300180,1,0,0:0:0:0:
192,192,300180,1,0,0:0:0:0:
64,192,300276,1,0,0:0:0:0:
448,192,300276,1,0,0:0:0:0:
320,192,300372,1,0,0:0:0:0:
192,192,300372,1,0,0:0:0:0:
64,192,300372,1,0,0:0:0:0:
320,192,300468,1,0,0:0:0:0:
192,192,300468,1,0,0:0:0:0:
448,192,300564,1,0,0:0:0:0:
192,192,300660,1,0,0:0:0:0:
64,192,300660,1,0,0:0:0:0:
320,192,300757,1,0,0:0:0:0:
192,192,300757,1,0,0:0:0:0:
320,192,300853,1,0,0:0:0:0:
192,192,300949,1,0,0:0:0:0:
64,192,300949,1,0,0:0:0:0:
320,192,301045,1,0,0:0:0:0:
192,192,301045,1,0,0:0:0:0:
448,192,301141,1,0,0:0:0:0:
192,192,301237,1,0,0:0:0:0:
64,192,301237,1,0,0:0:0:0:
320,192,301333,1,0,0:0:0:0:
192,192,301333,1,0,0:0:0:0:
448,192,301430,1,0,0:0:0:0:
320,192,301430,1,0,0:0:0:0:
64,192,301526,1,0,0:0:0:0:
448,192,301526,1,0,0:0:0:0:
320,192,301622,1,0,0:0:0:0:
64,192,301622,1,0,0:0:0:0:
192,192,301718,1,0,0:0:0:0:
448,192,301814,1,0,0:0:0:0:
320,192,301814,1,0,0:0:0:0:
448,192,301910,1,0,0:0:0:0:
192,192,301910,1,0,0:0:0:0:
64,192,301910,1,0,0:0:0:0:
192,192,302007,1,0,0:0:0:0:
64,192,302007,1,0,0:0:0:0:
448,192,302103,1,0,0:0:0:0:
320,192,302103,1,0,0:0:0:0:
448,192,302199,1,0,0:0:0:0:
192,192,302199,1,0,0:0:0:0:
64,192,302199,1,0,0:0:0:0:
192,192,302487,1,0,0:0:0:0:
64,192,302487,1,0,0:0:0:0:
448,192,302487,1,0,0:0:0:0:
320,192,302583,1,0,0:0:0:0:
448,192,302583,1,0,0:0:0:0:
192,192,302680,1,0,0:0:0:0:
320,192,302680,1,0,0:0:0:0:
64,192,302776,1,0,0:0:0:0:
320,192,302872,1,0,0:0:0:0:
448,192,302872,1,0,0:0:0:0:
192,192,302968,1,0,0:0:0:0:
320,192,302968,1,0,0:0:0:0:
448,192,303064,1,0,0:0:0:0:
64,192,303064,1,0,0:0:0:0:
320,192,303160,1,0,0:0:0:0:
448,192,303160,1,0,0:0:0:0:
64,192,303257,1,0,0:0:0:0:
320,192,303257,1,0,0:0:0:0:
192,192,303353,1,0,0:0:0:0:
448,192,303353,1,0,0:0:0:0:
192,192,303449,1,0,0:0:0:0:
64,192,303449,1,0,0:0:0:0:
320,192,303545,1,0,0:0:0:0:
64,192,303641,1,0,0:0:0:0:
192,192,303737,1,0,0:0:0:0:
448,192,303737,1,0,0:0:0:0:
448,192,303833,1,0,0:0:0:0:
64,192,303833,1,0,0:0:0:0:
64,192,303930,1,0,0:0:0:0:
192,192,304026,1,0,0:0:0:0:
320,192,304026,1,0,0:0:0:0:
64,192,304122,1,0,0:0:0:0:
320,192,304122,1,0,0:0:0:0:
448,192,304218,1,0,0:0:0:0:
64,192,304218,1,0,0:0:0:0:
192,192,304218,1,0,0:0:0:0:
448,192,304314,1,0,0:0:0:0:
192,192,304410,1,0,0:0:0:0:
448,192,304507,1,0,0:0:0:0:
320,192,304507,1,0,0:0:0:0:
192,192,304603,1,0,0:0:0:0:
64,192,304603,1,0,0:0:0:0:
64,192,304699,1,0,0:0:0:0:
320,192,304699,1,0,0:0:0:0:
320,192,304795,1,0,0:0:0:0:
192,192,304891,1,0,0:0:0:0:
448,192,304891,1,0,0:0:0:0:
448,192,304987,1,0,0:0:0:0:
64,192,304987,1,0,0:0:0:0:
64,192,305083,1,0,0:0:0:0:
192,192,305180,1,0,0:0:0:0:
448,192,305180,1,0,0:0:0:0:
320,192,305180,1,0,0:0:0:0:
64,192,305276,1,0,0:0:0:0:
320,192,305276,1,0,0:0:0:0:
448,192,305276,1,0,0:0:0:0:
192,192,305372,1,0,0:0:0:0:
448,192,305468,1,0,0:0:0:0:
192,192,305564,1,0,0:0:0:0:
64,192,305564,1,0,0:0:0:0:
448,192,305564,1,0,0:0:0:0:
320,192,305564,1,0,0:0:0:0:
64,192,305660,1,0,0:0:0:0:
192,192,305660,1,0,0:0:0:0:
448,192,305757,1,0,0:0:0:0:
320,192,305757,1,0,0:0:0:0:
192,192,305853,1,0,0:0:0:0:
64,192,305853,1,0,0:0:0:0:
448,192,305949,1,0,0:0:0:0:
64,192,305949,1,0,0:0:0:0:
320,192,306045,1,0,0:0:0:0:
448,192,306141,1,0,0:0:0:0:
64,192,306141,1,0,0:0:0:0:
192,192,306141,1,0,0:0:0:0:
448,192,306237,1,0,0:0:0:0:
64,192,306237,1,0,0:0:0:0:
320,192,306333,1,0,0:0:0:0:
192,192,306430,1,0,0:0:0:0:
64,192,306430,1,0,0:0:0:0:
64,192,306526,1,0,0:0:0:0:
448,192,306526,1,0,0:0:0:0:
320,192,306622,1,0,0:0:0:0:
64,192,306718,1,0,0:0:0:0:
192,192,306718,1,0,0:0:0:0:
448,192,306814,1,0,0:0:0:0:
320,192,306814,1,0,0:0:0:0:
64,192,306814,1,0,0:0:0:0:
448,192,306910,1,0,0:0:0:0:
192,192,307007,1,0,0:0:0:0:
64,192,307007,1,0,0:0:0:0:
64,192,307103,1,0,0:0:0:0:
448,192,307103,1,0,0:0:0:0:
192,192,307199,1,0,0:0:0:0:
320,192,307295,1,0,0:0:0:0:
64,192,307295,1,0,0:0:0:0:
192,192,307391,1,0,0:0:0:0:
320,192,307391,1,0,0:0:0:0:
64,192,307487,1,0,0:0:0:0:
448,192,307551,1,0,0:0:0:0:
320,192,307615,1,0,0:0:0:0:
64,192,307680,1,0,0:0:0:0:
192,192,307680,1,0,0:0:0:0:
448,192,307680,1,0,0:0:0:0:
192,192,307776,1,0,0:0:0:0:
64,192,307776,1,0,0:0:0:0:
320,192,307872,1,0,0:0:0:0:
448,192,307872,1,0,0:0:0:0:
64,192,307968,1,0,0:0:0:0:
192,192,307968,1,0,0:0:0:0:
320,192,307968,1,0,0:0:0:0:
448,192,308064,1,0,0:0:0:0:
64,192,308064,1,0,0:0:0:0:
192,192,308160,1,0,0:0:0:0:
448,192,308160,1,0,0:0:0:0:
320,192,308160,1,0,0:0:0:0:
64,192,308257,1,0,0:0:0:0:
192,192,308257,1,0,0:0:0:0:
64,192,308353,1,0,0:0:0:0:
320,192,308353,1,0,0:0:0:0:
448,192,308353,1,0,0:0:0:0:
448,192,308449,1,0,0:0:0:0:
320,192,308449,1,0,0:0:0:0:
64,192,308641,1,0,0:0:0:0:
448,192,308641,1,0,0:0:0:0:
320,192,308641,1,0,0:0:0:0:
448,192,308737,1,0,0:0:0:0:
320,192,308737,1,0,0:0:0:0:
64,192,308833,1,0,0:0:0:0:
192,192,308833,1,0,0:0:0:0:
64,192,308930,1,0,0:0:0:0:
448,192,308930,1,0,0:0:0:0:
320,192,308930,1,0,0:0:0:0:
320,192,309026,1,0,0:0:0:0:
448,192,309026,1,0,0:0:0:0:
192,192,309122,1,0,0:0:0:0:
320,192,309218,1,0,0:0:0:0:
64,192,309218,1,0,0:0:0:0:
448,192,309218,1,0,0:0:0:0:
64,192,309314,1,0,0:0:0:0:
448,192,309314,1,0,0:0:0:0:
320,192,309410,1,0,0:0:0:0:
448,192,309507,1,0,0:0:0:0:
64,192,309507,1,0,0:0:0:0:
192,192,309507,1,0,0:0:0:0:
64,192,309603,1,0,0:0:0:0:
192,192,309603,1,0,0:0:0:0:
320,192,309699,1,0,0:0:0:0:
192,192,309795,1,0,0:0:0:0:
64,192,309795,1,0,0:0:0:0:
448,192,309795,1,0,0:0:0:0:
192,192,309891,1,0,0:0:0:0:
448,192,309891,1,0,0:0:0:0:
320,192,309987,1,0,0:0:0:0:
448,192,310083,1,0,0:0:0:0:
64,192,310083,1,0,0:0:0:0:
192,192,310083,1,0,0:0:0:0:
64,192,310180,1,0,0:0:0:0:
192,192,310180,1,0,0:0:0:0:
448,192,310276,1,0,0:0:0:0:
320,192,310276,1,0,0:0:0:0:
192,192,310372,1,0,0:0:0:0:
64,192,310372,1,0,0:0:0:0:
448,192,310372,1,0,0:0:0:0:
192,192,310468,1,0,0:0:0:0:
64,192,310468,1,0,0:0:0:0:
448,192,310564,1,0,0:0:0:0:
320,192,310564,1,0,0:0:0:0:
64,192,310660,1,0,0:0:0:0:
448,192,310660,1,0,0:0:0:0:
320,192,310692,1,0,0:0:0:0:
192,192,310757,1,0,0:0:0:0:
64,192,310757,1,0,0:0:0:0:
320,192,310853,1,0,0:0:0:0:
192,192,310853,1,0,0:0:0:0:
448,192,310853,1,0,0:0:0:0:
64,192,310949,1,0,0:0:0:0:
192,192,311045,1,0,0:0:0:0:
448,192,311045,1,0,0:0:0:0:
320,192,311045,1,0,0:0:0:0:
64,192,311141,1,0,0:0:0:0:
320,192,311189,1,0,0:0:0:0:
192,192,311237,1,0,0:0:0:0:
64,192,311237,1,0,0:0:0:0:
448,192,311237,1,0,0:0:0:0:
320,192,311333,1,0,0:0:0:0:
192,192,311382,1,0,0:0:0:0:
64,192,311430,1,0,0:0:0:0:
320,192,311430,1,0,0:0:0:0:
448,192,311430,1,0,0:0:0:0:
64,192,311526,1,0,0:0:0:0:
192,192,311526,1,0,0:0:0:0:
64,192,311910,1,0,0:0:0:0:
448,192,311910,1,0,0:0:0:0:
64,192,312103,1,0,0:0:0:0:
448,192,312295,1,0,0:0:0:0:
320,192,312295,1,0,0:0:0:0:
192,192,312391,1,0,0:0:0:0:
320,192,312487,1,0,0:0:0:0:
64,192,312583,1,0,0:0:0:0:
192,192,312680,1,0,0:0:0:0:
64,192,312776,1,0,0:0:0:0:
448,192,312872,1,0,0:0:0:0:
192,192,312968,1,0,0:0:0:0:
448,192,313064,1,0,0:0:0:0:
320,192,313064,1,0,0:0:0:0:
64,192,313128,1,0,0:0:0:0:
320,192,313192,1,0,0:0:0:0:
192,192,313257,1,0,0:0:0:0:
448,192,313321,1,0,0:0:0:0:
192,192,313385,1,0,0:0:0:0:
64,192,313449,1,0,0:0:0:0:
448,192,313513,1,0,0:0:0:0:
64,192,313577,1,0,0:0:0:0:
320,192,313641,1,0,0:0:0:0:
192,192,313705,1,0,0:0:0:0:
320,192,313769,1,0,0:0:0:0:
64,192,313833,1,0,0:0:0:0:
192,192,313833,1,0,0:0:0:0:
448,192,313898,1,0,0:0:0:0:
64,192,313962,1,0,0:0:0:0:
448,192,314026,1,0,0:0:0:0:
320,192,314026,1,0,0:0:0:0:
64,192,314090,1,0,0:0:0:0:
448,192,314154,1,0,0:0:0:0:
64,192,314218,1,0,0:0:0:0:
192,192,314218,1,0,0:0:0:0:
448,192,314314,1,0,0:0:0:0:
320,192,314314,1,0,0:0:0:0:
448,192,314507,1,0,0:0:0:0:
320,192,314603,1,0,0:0:0:0:
448,192,314603,1,0,0:0:0:0:
448,192,314795,1,0,0:0:0:0:
320,192,314795,1,0,0:0:0:0:
192,192,314795,1,0,0:0:0:0:
64,192,314891,1,0,0:0:0:0:
64,192,314987,1,0,0:0:0:0:
192,192,314987,1,0,0:0:0:0:
448,192,314987,1,0,0:0:0:0:
320,192,315051,1,0,0:0:0:0:
192,192,315115,1,0,0:0:0:0:
448,192,315180,1,0,0:0:0:0:
64,192,315180,1,0,0:0:0:0:
192,192,315276,1,0,0:0:0:0:
320,192,315276,1,0,0:0:0:0:
64,192,315372,1,0,0:0:0:0:
448,192,315372,1,0,0:0:0:0:
320,192,315372,1,0,0:0:0:0:
64,192,315564,1,0,0:0:0:0:
448,192,315660,1,0,0:0:0:0:
320,192,315660,1,0,0:0:0:0:
64,192,315660,1,0,0:0:0:0:
192,192,315660,1,0,0:0:0:0:
448,192,315853,1,0,0:0:0:0:
192,192,315949,1,0,0:0:0:0:
64,192,315949,1,0,0:0:0:0:
448,192,315949,1,0,0:0:0:0:
320,192,315949,1,0,0:0:0:0:
320,192,316333,1,0,0:0:0:0:
448,192,316333,1,0,0:0:0:0:
192,192,316382,1,0,0:0:0:0:
64,192,316430,1,0,0:0:0:0:
448,192,316478,1,0,0:0:0:0:
192,192,316526,1,0,0:0:0:0:
320,192,316558,1,0,0:0:0:0:
448,192,316590,1,0,0:0:0:0:
64,192,316622,1,0,0:0:0:0:
192,192,316654,1,0,0:0:0:0:
320,192,316686,1,0,0:0:0:0:
448,192,316718,1,0,0:0:0:0:
320,192,316910,1,0,0:0:0:0:
192,192,316910,1,0,0:0:0:0:
448,192,316910,1,0,0:0:0:0:
64,192,316910,1,0,0:0:0:0:
320,192,317199,1,0,0:0:0:0:
192,192,317199,1,0,0:0:0:0:
448,192,317199,1,0,0:0:0:0:
64,192,317199,1,0,0:0:0:0:
