osu file format v14

[General]
AudioFilename: Xi - Death Piano.mp3
AudioLeadIn: 0
PreviewTime: -1
Countdown: 0
SampleSet: Soft
StackLeniency: 0.7
Mode: 3
LetterboxInBreaks: 0
SpecialStyle: 0
WidescreenStoryboard: 1

[Editor]
DistanceSpacing: 1
BeatDivisor: 4
GridSize: 4
TimelineZoom: 2.2

[Metadata]
Title:Death Piano
TitleUnicode:Death Piano
Artist:xi
ArtistUnicode:xi
Creator:nowsmart
Version:Lv.9
Source:
Tags:
BeatmapID:755333
BeatmapSetID:337156

[Difficulty]
HPDrainRate:7
CircleSize:7
OverallDifficulty:7
ApproachRate:5
SliderMultiplier:1.4
SliderTickRate:1

[Events]
//Background and Video events
0,0,"bg.jpg",0,0
//Break Periods
2,121253,125402
//Storyboard Layer 0 (Background)
//Storyboard Layer 1 (Fail)
//Storyboard Layer 2 (Pass)
//Storyboard Layer 3 (Foreground)
//Storyboard Sound Samples

[TimingPoints]
620,352.941176470588,4,2,0,20,1,0
37325,468.75,4,2,0,20,1,0
37325,-75.187969924812,4,2,0,20,0,0
44825,352.941176470588,4,2,0,20,1,0
44825,-100,4,2,0,20,0,0
92824,352.941176470588,5,2,0,20,1,0
94588,352.941176470588,3,2,0,20,1,0
100940,352.941176470588,5,2,0,20,1,0
102704,352.941176470588,3,2,0,20,1,0
109056,352.941176470588,5,2,0,20,1,0
110820,352.941176470588,3,2,0,20,1,0
117172,352.941176470588,5,2,0,20,1,0
118936,352.941176470588,3,2,0,20,1,0
121053,346.820809248555,4,2,0,20,1,0
121053,-102.040816326531,4,2,0,20,0,0
126602,428.571428571429,4,2,0,20,1,0
126602,-82.6446280991736,4,2,0,20,0,0
130030,413.793103448276,4,2,0,20,1,0
130030,-85.4700854700855,4,2,0,20,0,0
133340,400,4,2,0,20,1,0
133340,-88.4955752212389,4,2,0,20,0,0
134940,387.096774193548,4,2,0,20,1,0
134940,-90.9090909090909,4,2,0,20,0,0
136488,375,4,2,0,20,1,0
136488,-94.3396226415094,4,2,0,20,0,0
137238,363.636363636364,4,2,0,20,1,0
137238,-97.0873786407767,4,2,0,20,0,0
137965,352.941176470588,4,2,0,20,1,0
137965,-100,4,2,0,20,0,0
142200,-100,4,2,0,20,0,1
154906,342.857142857143,4,2,0,20,1,0
154906,-103.092783505155,4,2,0,20,0,1
156277,333.333333333333,4,2,0,20,1,0
156277,-106.382978723404,4,2,0,20,0,1
157610,324.324324324324,4,2,0,20,1,0
157610,-108.695652173913,4,2,0,20,0,1
158907,315.789473684211,4,2,0,20,1,0
158907,-112.359550561798,4,2,0,20,0,1
161433,307.692307692308,4,2,0,20,1,0
161433,-114.942528735632,4,2,0,20,0,1
163894,319.148936170213,4,2,0,20,1,0
163894,-111.111111111111,4,2,0,20,0,0

[HitObjects]
475,192,620,5,0,0:0:0:40:A5S_s.wav
36,192,620,1,0,0:0:0:40:E3S_s.wav
402,192,1325,1,0,0:0:0:40:C5S_s.wav
109,192,2031,1,0,0:0:0:40:F4S_s.wav
329,192,2031,1,0,0:0:0:40:F6S_s.wav
402,192,2737,128,0,3443:0:0:0:40:F4S_s.wav
475,192,2737,128,0,3443:0:0:0:40:F6S_s.wav
36,192,3443,1,0,0:0:0:0:
329,192,3619,1,0,0:0:0:40:B7S_s.wav
256,192,3796,1,0,0:0:0:40:B6S_s.wav
109,192,3972,1,0,0:0:0:0:
475,192,3972,1,0,0:0:0:0:
36,192,4149,1,0,0:0:0:40:E3S_s.wav
256,192,4502,1,0,0:0:0:0:
329,192,4678,1,0,0:0:0:0:
402,192,4855,1,0,0:0:0:0:
109,192,4855,1,0,0:0:0:40:F4S_s.wav
36,192,5208,1,0,0:0:0:0:
329,192,5208,1,0,0:0:0:0:
475,192,5561,1,0,0:0:0:0:
182,192,5561,1,0,0:0:0:0:
402,192,5914,1,0,0:0:0:40:D7S_s.wav
256,192,5914,1,0,0:0:0:0:
36,192,6267,1,0,0:0:0:0:
475,192,6267,1,0,0:0:0:40:C7S_s.wav
329,192,6531,1,0,0:0:0:0:
182,192,6708,1,0,0:0:0:0:
109,192,6972,1,0,0:0:0:40:A6S_s.wav
402,192,6972,1,0,0:0:0:40:E7S_s.wav
256,192,7325,1,0,0:0:0:40:E6S_s.wav
182,192,7678,1,0,0:0:0:40:D6S_s.wav
475,192,7678,1,0,0:0:0:40:A#6S_Bb6S_s.wav
36,192,7855,1,0,0:0:0:40:C7S_s.wav
256,192,8031,1,0,0:0:0:40:D7S_s.wav
329,192,8208,1,0,0:0:0:40:E7S_s.wav
402,192,8384,1,0,0:0:0:40:F6S_s.wav
109,192,8384,1,0,0:0:0:40:A#6S_Bb6S_s.wav
475,192,8737,1,0,0:0:0:40:A7S_s.wav
36,192,9090,128,0,9443:0:0:0:0:
256,192,9090,1,0,0:0:0:40:G7S_s.wav
182,192,9443,128,0,9796:0:0:0:0:
475,192,9443,1,0,0:0:0:40:E7S_s.wav
329,192,9796,128,0,10149:0:0:0:0:
36,192,9796,1,0,0:0:0:40:C7S_s.wav
402,192,10149,128,0,10502:0:0:0:0:
182,192,10149,1,0,0:0:0:40:A6S_s.wav
109,192,10502,128,0,10855:0:0:0:0:
475,192,10502,1,0,0:0:0:40:D7S_s.wav
182,192,10855,128,0,11208:0:0:0:0:
329,192,10855,1,0,0:0:0:40:B6S_s.wav
36,192,11208,1,0,0:0:0:40:G6S_s.wav
402,192,11208,128,0,11561:0:0:0:0:
475,192,11561,128,0,11914:0:0:0:0:
182,192,11561,1,0,0:0:0:40:E6S_s.wav
109,192,11914,1,0,0:0:0:40:E3S_s.wav
36,192,11914,128,0,14737:0:0:0:40:E5S_s.wav
256,192,14737,1,0,0:0:0:0:
402,192,14737,1,0,0:0:0:0:
109,192,15443,1,0,0:0:0:0:
475,192,15443,1,0,0:0:0:0:
329,192,16149,1,0,0:0:0:0:
182,192,16149,1,0,0:0:0:0:
402,192,16855,1,0,0:0:0:0:
36,192,16855,1,0,0:0:0:0:
256,192,17561,128,0,20384:0:0:0:0:
182,192,18972,1,0,0:0:0:0:
329,192,19325,1,0,0:0:0:0:
402,192,19678,1,0,0:0:0:0:
475,192,20031,1,0,0:0:0:0:
36,192,20384,1,0,0:0:0:0:
109,192,20384,1,0,0:0:0:0:
182,192,21090,1,0,0:0:0:0:
402,192,21090,1,0,0:0:0:0:
256,192,21796,1,0,0:0:0:0:
329,192,21796,1,0,0:0:0:0:
109,192,22502,1,0,0:0:0:0:
475,192,22502,1,0,0:0:0:0:
256,192,23208,128,0,26031:0:0:0:0:
475,192,24619,128,0,26031:0:0:0:0:
36,192,24619,1,0,0:0:0:0:
109,192,24972,1,0,0:0:0:0:
329,192,25325,1,0,0:0:0:0:
402,192,25678,1,0,0:0:0:0:
182,192,26031,1,0,0:0:0:0:
36,192,26031,1,0,0:0:0:0:
402,192,26737,1,0,0:0:0:0:
475,192,26737,1,0,0:0:0:0:
109,192,27443,1,0,0:0:0:0:
329,192,27443,1,0,0:0:0:0:
256,192,28149,1,0,0:0:0:0:
402,192,28149,1,0,0:0:0:0:
36,192,28855,1,0,0:0:0:0:
182,192,28855,1,0,0:0:0:0:
402,192,29561,1,0,0:0:0:0:
475,192,29561,1,0,0:0:0:0:
109,192,30267,1,0,0:0:0:0:
329,192,30267,1,0,0:0:0:0:
402,192,30972,1,0,0:0:0:0:
256,192,30972,1,0,0:0:0:0:
36,192,31678,128,0,32384:0:0:0:0:
109,192,31678,1,0,0:0:0:0:
475,192,32384,128,0,33090:0:0:0:0:
402,192,32384,1,0,0:0:0:0:
36,192,33090,128,0,33796:0:0:0:0:
109,192,33090,1,0,0:0:0:0:
475,192,33796,128,0,34502:0:0:0:0:
402,192,33796,1,0,0:0:0:0:
109,192,34502,128,0,37325:0:0:0:0:
256,192,34502,1,0,0:0:0:0:
475,192,34855,1,0,0:0:0:0:
402,192,35208,1,0,0:0:0:0:
36,192,35561,1,0,0:0:0:0:
329,192,35914,1,0,0:0:0:0:
36,192,36267,1,0,0:0:0:0:
402,192,36619,1,0,0:0:0:0:
256,192,36972,1,0,0:0:0:0:
182,192,37325,1,0,0:0:0:0:
475,192,37325,1,0,0:0:0:0:
182,192,37793,1,0,0:0:0:0:
475,192,37793,1,0,0:0:0:0:
182,192,38262,1,0,0:0:0:0:
475,192,38262,1,0,0:0:0:0:
36,192,38731,1,0,0:0:0:0:
256,192,38731,1,0,0:0:0:0:
475,192,39200,1,0,0:0:0:0:
182,192,39200,1,0,0:0:0:0:
402,192,39668,1,0,0:0:0:0:
329,192,39668,1,0,0:0:0:0:
109,192,40137,1,0,0:0:0:0:
475,192,40137,1,0,0:0:0:0:
402,192,44825,1,0,0:0:0:0:
36,192,44825,1,0,0:0:0:0:
329,192,45001,1,0,0:0:0:0:
402,192,45177,1,0,0:0:0:0:
36,192,45177,1,0,0:0:0:0:
109,192,45530,1,0,0:0:0:0:
182,192,45530,1,0,0:0:0:0:
182,192,45883,1,0,0:0:0:0:
256,192,46236,1,0,0:0:0:0:
475,192,46236,1,0,0:0:0:0:
109,192,46501,1,0,0:0:0:0:
475,192,46589,1,0,0:0:0:0:
182,192,46942,1,0,0:0:0:0:
402,192,46942,1,0,0:0:0:0:
329,192,47119,1,0,0:0:0:0:
182,192,47295,1,0,0:0:0:0:
402,192,47295,1,0,0:0:0:0:
329,192,47472,1,0,0:0:0:0:
256,192,47648,1,0,0:0:0:0:
36,192,47648,1,0,0:0:0:0:
402,192,47913,1,0,0:0:0:0:
109,192,48001,1,0,0:0:0:0:
475,192,48177,1,0,0:0:0:0:
182,192,48354,1,0,0:0:0:0:
329,192,48354,1,0,0:0:0:0:
36,192,48707,1,0,0:0:0:0:
256,192,48707,1,0,0:0:0:0:
475,192,48942,1,0,0:0:0:0:
109,192,49060,1,0,0:0:0:0:
182,192,49060,1,0,0:0:0:0:
402,192,49325,1,0,0:0:0:0:
36,192,49413,1,0,0:0:0:0:
475,192,49766,1,0,0:0:0:0:
256,192,49766,1,0,0:0:0:0:
182,192,50119,1,0,0:0:0:0:
402,192,50119,1,0,0:0:0:0:
109,192,50472,1,0,0:0:0:0:
329,192,50472,1,0,0:0:0:0:
36,192,50736,1,0,0:0:0:0:
329,192,50825,1,0,0:0:0:0:
256,192,51001,1,0,0:0:0:0:
109,192,51177,1,0,0:0:0:0:
329,192,51177,1,0,0:0:0:0:
475,192,51354,1,0,0:0:0:0:
182,192,51530,1,0,0:0:0:0:
402,192,51530,1,0,0:0:0:0:
36,192,51707,1,0,0:0:0:0:
109,192,51883,1,0,0:0:0:0:
329,192,51883,1,0,0:0:0:0:
256,192,52236,1,0,0:0:0:0:
182,192,52589,1,0,0:0:0:0:
109,192,52942,1,0,0:0:0:0:
36,192,53295,1,0,0:0:0:0:
329,192,53295,1,0,0:0:0:0:
182,192,53472,1,0,0:0:0:0:
329,192,53648,1,0,0:0:0:0:
402,192,53824,1,0,0:0:0:0:
475,192,54001,1,0,0:0:0:0:
182,192,54354,1,0,0:0:0:0:
475,192,54530,1,0,0:0:0:0:
402,192,54707,1,0,0:0:0:0:
256,192,54707,1,0,0:0:0:0:
36,192,55060,1,0,0:0:0:0:
182,192,55060,1,0,0:0:0:0:
329,192,55413,1,0,0:0:0:0:
475,192,55413,1,0,0:0:0:0:
36,192,55766,1,0,0:0:0:0:
182,192,55766,1,0,0:0:0:0:
109,192,56119,1,0,0:0:0:0:
402,192,56119,128,0,57530:0:0:0:0:
182,192,57530,128,0,58942:0:0:0:0:
475,192,57530,1,0,0:0:0:0:
402,192,58942,128,0,60354:0:0:0:0:
36,192,58942,1,0,0:0:0:0:
109,192,60354,1,0,0:0:0:0:
475,192,60354,128,0,61766:0:0:0:0:
182,192,61766,1,0,0:0:0:0:
109,192,61766,128,0,62472:0:0:0:0:
475,192,62472,128,0,63177:0:0:0:0:
402,192,63177,128,0,64589:0:0:0:0:
256,192,63177,1,0,0:0:0:0:
329,192,64589,1,0,0:0:0:0:
109,192,64589,128,0,65295:0:0:0:0:
402,192,65295,128,0,65824:0:0:0:0:
402,192,66001,128,0,66707:0:0:0:0:
256,192,66001,1,0,0:0:0:0:
182,192,66707,128,0,67413:0:0:0:0:
256,192,66707,1,0,0:0:0:0:
402,192,67413,128,0,68824:0:0:0:0:
475,192,67413,128,0,69530:0:0:0:0:
36,192,67413,1,0,0:0:0:0:
182,192,68824,128,0,70236:0:0:0:0:
109,192,68824,1,0,0:0:0:0:
402,192,70236,128,0,71648:0:0:0:0:
36,192,70236,128,0,71295:0:0:0:0:
256,192,70236,1,0,0:0:0:0:
475,192,71648,128,0,73060:0:0:0:0:
109,192,71648,1,0,0:0:0:0:
109,192,73060,128,0,73766:0:0:0:0:
182,192,73060,1,0,0:0:0:0:
475,192,73766,128,0,74472:0:0:0:0:
256,192,74472,1,0,0:0:0:0:
402,192,74472,128,0,75883:0:0:0:0:
182,192,75883,128,0,77295:0:0:0:0:
329,192,75883,1,0,0:0:0:0:
329,192,76589,1,0,0:0:0:0:
109,192,77295,1,0,0:0:0:0:
475,192,77295,128,0,78707:0:0:0:0:
36,192,78001,1,0,0:0:0:0:
329,192,78354,1,0,0:0:0:0:
109,192,78707,1,0,0:0:0:0:
256,192,78707,1,0,0:0:0:0:
109,192,79060,1,0,0:0:0:0:
256,192,79060,1,0,0:0:0:0:
36,192,79413,1,0,0:0:0:0:
109,192,79766,1,0,0:0:0:0:
402,192,79766,1,0,0:0:0:0:
182,192,80119,1,0,0:0:0:0:
475,192,80119,128,0,80824:0:0:0:0:
182,192,80472,1,0,0:0:0:0:
36,192,80824,128,0,81530:0:0:0:0:
329,192,80824,1,0,0:0:0:0:
256,192,81530,1,0,0:0:0:0:
402,192,81530,1,0,0:0:0:0:
256,192,81883,1,0,0:0:0:0:
402,192,81883,1,0,0:0:0:0:
109,192,82236,128,0,82942:0:0:0:0:
329,192,82236,1,0,0:0:0:0:
182,192,82942,1,0,0:0:0:0:
475,192,82942,128,0,84354:0:0:0:0:
402,192,83295,1,0,0:0:0:0:
109,192,83648,1,0,0:0:0:0:
36,192,84001,1,0,0:0:0:0:
182,192,84354,1,0,0:0:0:0:
256,192,84354,1,0,0:0:0:0:
182,192,84707,1,0,0:0:0:0:
256,192,84707,1,0,0:0:0:0:
36,192,85060,1,0,0:0:0:0:
402,192,85413,1,0,0:0:0:0:
182,192,85413,1,0,0:0:0:0:
475,192,85766,128,0,86472:0:0:0:0:
256,192,85766,1,0,0:0:0:0:
256,192,86119,1,0,0:0:0:0:
36,192,86472,128,0,87177:0:0:0:0:
109,192,86472,1,0,0:0:0:0:
256,192,87177,1,0,0:0:0:0:
329,192,87177,1,0,0:0:0:0:
256,192,87530,1,0,0:0:0:0:
329,192,87530,1,0,0:0:0:0:
475,192,87883,1,0,0:0:0:0:
182,192,87883,128,0,88589:0:0:0:0:
475,192,88236,1,0,0:0:0:0:
402,192,88589,128,0,90001:0:0:0:0:
109,192,88589,1,0,0:0:0:0:
36,192,88942,1,0,0:0:0:0:
256,192,89295,1,0,0:0:0:0:
475,192,89648,1,0,0:0:0:0:
109,192,90001,1,0,0:0:0:0:
36,192,90001,1,0,0:0:0:0:
36,192,92824,1,0,0:0:0:0:
402,192,92824,1,0,0:0:0:0:
109,192,93176,1,0,0:0:0:0:
256,192,93529,1,0,0:0:0:0:
402,192,93882,1,0,0:0:0:0:
475,192,94235,1,0,0:0:0:0:
329,192,94588,1,0,0:0:0:0:
109,192,94588,1,0,0:0:0:0:
36,192,94940,1,0,0:0:0:0:
329,192,95293,1,0,0:0:0:0:
182,192,95646,1,0,0:0:0:0:
329,192,95646,1,0,0:0:0:0:
109,192,95999,1,0,0:0:0:0:
475,192,96352,1,0,0:0:0:0:
256,192,96705,1,0,0:0:0:0:
402,192,96705,1,0,0:0:0:0:
36,192,97058,1,0,0:0:0:0:
109,192,97411,1,0,0:0:0:0:
402,192,97764,1,0,0:0:0:0:
182,192,97764,1,0,0:0:0:0:
475,192,98117,1,0,0:0:0:0:
109,192,98293,1,0,0:0:0:0:
475,192,98470,1,0,0:0:0:0:
36,192,98823,1,0,0:0:0:0:
402,192,98823,1,0,0:0:0:0:
109,192,99176,1,0,0:0:0:0:
402,192,99352,1,0,0:0:0:0:
475,192,99352,1,0,0:0:0:0:
182,192,99529,1,0,0:0:0:0:
256,192,99882,1,0,0:0:0:0:
329,192,99882,1,0,0:0:0:0:
36,192,100235,1,0,0:0:0:0:
475,192,100411,1,0,0:0:0:0:
109,192,100411,1,0,0:0:0:0:
329,192,100588,1,0,0:0:0:0:
402,192,100940,1,0,0:0:0:0:
182,192,100940,1,0,0:0:0:0:
36,192,101292,1,0,0:0:0:0:
109,192,101645,1,0,0:0:0:0:
256,192,101998,1,0,0:0:0:0:
475,192,102351,1,0,0:0:0:0:
402,192,102704,1,0,0:0:0:0:
36,192,102704,1,0,0:0:0:0:
109,192,103056,1,0,0:0:0:0:
402,192,103409,1,0,0:0:0:0:
109,192,103762,1,0,0:0:0:0:
256,192,103762,1,0,0:0:0:0:
329,192,104115,1,0,0:0:0:0:
402,192,104468,1,0,0:0:0:0:
329,192,104645,1,0,0:0:0:0:
109,192,104821,1,0,0:0:0:0:
36,192,104821,1,0,0:0:0:0:
182,192,105174,1,0,0:0:0:0:
256,192,105527,1,0,0:0:0:0:
402,192,105880,1,0,0:0:0:0:
329,192,105880,1,0,0:0:0:0:
475,192,106233,1,0,0:0:0:0:
109,192,106409,1,0,0:0:0:0:
475,192,106586,1,0,0:0:0:0:
402,192,106939,1,0,0:0:0:0:
36,192,106939,1,0,0:0:0:0:
182,192,107292,1,0,0:0:0:0:
109,192,107468,1,0,0:0:0:0:
329,192,107468,1,0,0:0:0:0:
402,192,107645,1,0,0:0:0:0:
256,192,107998,1,0,0:0:0:0:
182,192,107998,1,0,0:0:0:0:
36,192,108351,1,0,0:0:0:0:
402,192,108527,1,0,0:0:0:0:
475,192,108527,1,0,0:0:0:0:
329,192,108704,1,0,0:0:0:0:
182,192,109056,1,0,0:0:0:0:
256,192,109056,1,0,0:0:0:0:
36,192,109408,1,0,0:0:0:0:
109,192,109761,1,0,0:0:0:0:
256,192,110114,1,0,0:0:0:0:
475,192,110114,1,0,0:0:0:0:
402,192,110467,1,0,0:0:0:0:
329,192,110820,1,0,0:0:0:0:
182,192,110820,1,0,0:0:0:0:
36,192,111172,1,0,0:0:0:0:
329,192,111525,1,0,0:0:0:0:
36,192,111878,1,0,0:0:0:0:
109,192,111878,1,0,0:0:0:0:
182,192,112231,1,0,0:0:0:0:
402,192,112408,1,0,0:0:0:0:
329,192,112408,1,0,0:0:0:0:
256,192,112584,1,0,0:0:0:0:
475,192,112937,1,0,0:0:0:0:
36,192,112937,1,0,0:0:0:0:
109,192,113290,1,0,0:0:0:0:
256,192,113643,1,0,0:0:0:0:
182,192,113996,1,0,0:0:0:0:
402,192,113996,1,0,0:0:0:0:
109,192,114349,1,0,0:0:0:0:
475,192,114525,1,0,0:0:0:0:
329,192,114525,1,0,0:0:0:0:
256,192,114702,1,0,0:0:0:0:
402,192,115055,1,0,0:0:0:0:
36,192,115055,1,0,0:0:0:0:
182,192,115408,1,0,0:0:0:0:
256,192,115584,1,0,0:0:0:0:
36,192,115761,1,0,0:0:0:0:
402,192,115761,1,0,0:0:0:0:
109,192,116114,1,0,0:0:0:0:
475,192,116114,1,0,0:0:0:0:
329,192,116467,1,0,0:0:0:0:
182,192,116643,1,0,0:0:0:0:
256,192,116643,1,0,0:0:0:0:
402,192,116820,1,0,0:0:0:0:
36,192,117172,1,0,0:0:0:0:
109,192,117172,1,0,0:0:0:0:
182,192,117524,1,0,0:0:0:0:
256,192,117877,1,0,0:0:0:0:
402,192,118230,1,0,0:0:0:0:
475,192,118583,1,0,0:0:0:0:
109,192,118936,1,0,0:0:0:0:
329,192,118936,1,0,0:0:0:0:
36,192,119288,1,0,0:0:0:0:
329,192,119641,1,0,0:0:0:0:
36,192,119994,1,0,0:0:0:0:
256,192,119994,1,0,0:0:0:0:
109,192,120347,1,0,0:0:0:0:
182,192,120700,128,0,121053:0:0:0:0:
402,192,121053,1,0,0:0:0:0:
475,192,121053,1,0,0:0:0:0:
182,192,126602,5,0,0:0:0:0:
329,192,126602,1,0,0:0:0:0:
36,192,126602,128,0,130030:0:0:0:0:
109,192,130030,128,0,133340:0:0:0:0:
256,192,130030,1,0,0:0:0:0:
402,192,130030,1,0,0:0:0:0:
329,192,133340,1,0,0:0:0:0:
475,192,133340,1,0,0:0:0:0:
182,192,133340,128,0,134940:0:0:0:0:
329,192,134940,128,0,136488:0:0:0:0:
109,192,134940,1,0,0:0:0:0:
256,192,134940,1,0,0:0:0:0:
402,192,136488,128,0,137238:0:0:0:0:
182,192,136488,1,0,0:0:0:0:
36,192,136488,1,0,0:0:0:0:
475,192,137238,128,0,137965:0:0:0:0:
109,192,137238,1,0,0:0:0:0:
256,192,137238,1,0,0:0:0:0:
182,192,137965,1,0,0:0:0:0:
36,192,137965,1,0,0:0:0:0:
182,192,138200,1,0,0:0:0:0:
36,192,138200,1,0,0:0:0:0:
182,192,138435,1,0,0:0:0:0:
36,192,138435,1,0,0:0:0:0:
182,192,138670,1,0,0:0:0:0:
36,192,138670,1,0,0:0:0:0:
329,192,138847,1,0,0:0:0:0:
475,192,138847,1,0,0:0:0:0:
182,192,139023,1,0,0:0:0:0:
36,192,139023,1,0,0:0:0:0:
329,192,139141,1,0,0:0:0:0:
475,192,139141,1,0,0:0:0:0:
182,192,139259,1,0,0:0:0:0:
36,192,139259,1,0,0:0:0:0:
329,192,139376,1,0,0:0:0:0:
475,192,139376,1,0,0:0:0:0:
256,192,140082,1,0,0:0:0:0:
36,192,140788,1,0,0:0:0:0:
109,192,140965,1,0,0:0:0:0:
182,192,141141,1,0,0:0:0:0:
256,192,141317,1,0,0:0:0:0:
329,192,141494,1,0,0:0:0:0:
475,192,141670,1,0,0:0:0:0:
402,192,141847,1,0,0:0:0:0:
329,192,142023,1,0,0:0:0:0:
36,192,142200,1,0,0:0:0:0:
109,192,142200,1,0,0:0:0:0:
402,192,142376,1,0,0:0:0:0:
475,192,142376,1,0,0:0:0:0:
109,192,142553,1,0,0:0:0:0:
36,192,142553,1,0,0:0:0:0:
256,192,142906,128,0,143612:0:0:0:0:
475,192,142906,1,0,0:0:0:0:
329,192,143259,1,0,0:0:0:0:
36,192,143612,1,0,0:0:0:0:
109,192,143612,1,0,0:0:0:0:
402,192,143876,1,0,0:0:0:0:
109,192,143965,1,0,0:0:0:0:
182,192,144317,1,0,0:0:0:0:
475,192,144317,1,0,0:0:0:0:
402,192,144494,1,0,0:0:0:0:
329,192,144670,1,0,0:0:0:0:
109,192,144670,1,0,0:0:0:0:
402,192,144847,1,0,0:0:0:0:
36,192,145023,1,0,0:0:0:0:
182,192,145023,1,0,0:0:0:0:
402,192,145288,1,0,0:0:0:0:
109,192,145376,1,0,0:0:0:0:
256,192,145376,1,0,0:0:0:0:
182,192,145729,1,0,0:0:0:0:
329,192,145729,1,0,0:0:0:0:
475,192,146082,1,0,0:0:0:0:
402,192,146082,1,0,0:0:0:0:
36,192,146347,1,0,0:0:0:0:
475,192,146435,1,0,0:0:0:0:
329,192,146435,1,0,0:0:0:0:
109,192,146700,1,0,0:0:0:0:
402,192,146788,1,0,0:0:0:0:
256,192,147141,1,0,0:0:0:0:
329,192,147141,1,0,0:0:0:0:
182,192,147494,1,0,0:0:0:0:
256,192,147494,1,0,0:0:0:0:
109,192,147847,1,0,0:0:0:0:
182,192,147847,1,0,0:0:0:0:
402,192,148112,1,0,0:0:0:0:
109,192,148200,1,0,0:0:0:0:
329,192,148376,1,0,0:0:0:0:
109,192,148553,1,0,0:0:0:0:
182,192,148553,1,0,0:0:0:0:
475,192,148729,1,0,0:0:0:0:
402,192,148906,1,0,0:0:0:0:
256,192,149082,1,0,0:0:0:0:
36,192,149259,1,0,0:0:0:0:
109,192,149259,1,0,0:0:0:0:
109,192,149612,1,0,0:0:0:0:
182,192,149612,1,0,0:0:0:0:
182,192,149965,1,0,0:0:0:0:
329,192,149965,1,0,0:0:0:0:
329,192,150317,1,0,0:0:0:0:
402,192,150317,1,0,0:0:0:0:
475,192,150670,1,0,0:0:0:0:
36,192,150670,1,0,0:0:0:0:
36,192,150847,1,0,0:0:0:0:
329,192,151023,1,0,0:0:0:0:
109,192,151200,1,0,0:0:0:0:
256,192,151376,1,0,0:0:0:0:
402,192,151729,1,0,0:0:0:0:
256,192,151906,1,0,0:0:0:0:
329,192,152082,128,0,152435:0:0:0:0:
109,192,152082,1,0,0:0:0:0:
36,192,152435,128,0,152788:0:0:0:0:
402,192,152435,1,0,0:0:0:0:
475,192,152788,128,0,153141:0:0:0:0:
182,192,152788,1,0,0:0:0:0:
36,192,153141,128,0,153494:0:0:0:0:
329,192,153141,1,0,0:0:0:0:
182,192,153494,1,0,0:0:0:0:
402,192,153494,1,0,0:0:0:0:
475,192,153847,1,0,0:0:0:0:
402,192,154200,1,0,0:0:0:0:
256,192,154553,1,0,0:0:0:0:
182,192,154906,1,0,0:0:0:0:
402,192,154906,1,0,0:0:0:0:
475,192,155248,1,0,0:0:0:0:
402,192,155591,1,0,0:0:0:0:
256,192,155934,1,0,0:0:0:0:
182,192,156277,1,0,0:0:0:0:
402,192,156277,1,0,0:0:0:0:
36,192,156610,1,0,0:0:0:0:
475,192,156610,128,0,156943:0:0:0:0:
109,192,156943,1,0,0:0:0:0:
182,192,156943,1,0,0:0:0:0:
182,192,157277,1,0,0:0:0:0:
256,192,157277,1,0,0:0:0:0:
256,192,157610,1,0,0:0:0:0:
329,192,157610,1,0,0:0:0:0:
329,192,157934,1,0,0:0:0:0:
402,192,157934,1,0,0:0:0:0:
402,192,158258,1,0,0:0:0:0:
475,192,158258,1,0,0:0:0:0:
36,192,158582,1,0,0:0:0:0:
109,192,158582,1,0,0:0:0:0:
402,192,158907,1,0,0:0:0:0:
475,192,158907,1,0,0:0:0:0:
182,192,159222,1,0,0:0:0:0:
329,192,159538,1,0,0:0:0:0:
402,192,159854,1,0,0:0:0:0:
256,192,160170,1,0,0:0:0:0:
36,192,160170,1,0,0:0:0:0:
182,192,160485,1,0,0:0:0:0:
329,192,160801,1,0,0:0:0:0:
402,192,161117,1,0,0:0:0:0:
256,192,161433,1,0,0:0:0:0:
36,192,161433,1,0,0:0:0:0:
475,192,161740,128,0,162048:0:0:0:0:
402,192,161740,1,0,0:0:0:0:
36,192,162048,1,0,0:0:0:0:
256,192,162048,1,0,0:0:0:0:
475,192,162356,128,0,162663:0:0:0:0:
402,192,162356,1,0,0:0:0:0:
36,192,162663,1,0,0:0:0:0:
256,192,162663,1,0,0:0:0:0:
402,192,162971,1,0,0:0:0:0:
475,192,162971,128,0,163279:0:0:0:0:
256,192,163279,1,0,0:0:0:0:
36,192,163279,1,0,0:0:0:0:
329,192,163484,1,0,0:0:0:0:
36,192,163689,1,0,0:0:0:0:
182,192,163894,128,0,166766:0:0:0:0:
475,192,163894,128,0,166766:0:0:0:0:
256,192,166766,1,0,0:0:0:0:
109,192,167511,1,0,0:0:0:0:
256,192,167511,1,0,0:0:0:0:
