osu file format v14

[General]
AudioFilename: breakthru.mp3
AudioLeadIn: 0
PreviewTime: 124997
Countdown: 0
SampleSet: Normal
StackLeniency: 0.7
Mode: 1
LetterboxInBreaks: 0
WidescreenStoryboard: 0

[Editor]
DistanceSpacing: 0.6
BeatDivisor: 6
GridSize: 32
TimelineZoom: 2

[Metadata]
Title:Breakthrough Atmosphere
TitleUnicode:Breakthrough Atmosphere
Artist:xi
ArtistUnicode:xi
Creator:Nishizumi
Version:Oni
Source:
Tags:parousia tasuke912 Nardoxyribonucleic
BeatmapID:952389
BeatmapSetID:440905

[Difficulty]
HPDrainRate:5
CircleSize:4
OverallDifficulty:5.5
ApproachRate:6
SliderMultiplier:1.4
SliderTickRate:3

[Events]
//Background and Video events
0,0,"atmosphere.jpg",0,0
//Break Periods
//Storyboard Layer 0 (Background)
//Storyboard Layer 1 (Fail)
//Storyboard Layer 2 (Pass)
//Storyboard Layer 3 (Foreground)
//Storyboard Sound Samples

[TimingPoints]
1960,379.746835443038,4,1,0,85,1,0
150820,-100,4,1,0,85,0,1
174744,-100,4,1,0,85,0,0
175124,-100,4,1,0,85,0,1
199428,-100,4,1,0,85,0,0

[HitObjects]
256,192,1960,5,8,0:0:0:0:
256,192,2339,1,8,0:0:0:0:
256,192,3478,1,0,0:0:0:0:
256,192,4997,1,8,0:0:0:0:
256,192,5377,1,8,0:0:0:0:
256,192,6516,1,0,0:0:0:0:
256,192,8035,1,8,0:0:0:0:
256,192,8415,1,8,0:0:0:0:
256,192,9554,1,0,0:0:0:0:
256,192,11073,1,8,0:0:0:0:
256,192,11453,1,8,0:0:0:0:
256,192,12592,1,0,0:0:0:0:
256,192,13732,1,8,0:0:0:0:
256,192,14111,1,8,0:0:0:0:
256,192,14491,1,8,0:0:0:0:
256,192,15630,1,0,0:0:0:0:
256,192,17149,1,8,0:0:0:0:
256,192,17529,1,8,0:0:0:0:
256,192,18668,1,0,0:0:0:0:
256,192,20187,1,8,0:0:0:0:
256,192,20567,1,8,0:0:0:0:
256,192,21706,1,0,0:0:0:0:
256,192,23225,1,8,0:0:0:0:
256,192,23605,1,8,0:0:0:0:
256,192,24744,1,0,0:0:0:0:
256,192,25884,1,8,0:0:0:0:
256,192,26263,1,12,0:0:0:0:
256,192,26643,1,8,0:0:0:0:
256,192,27023,1,0,0:0:0:0:
256,192,27403,1,0,0:0:0:0:
256,192,27656,1,0,0:0:0:0:
256,192,27782,1,8,0:0:0:0:
256,192,28162,1,0,0:0:0:0:
256,192,28542,1,8,0:0:0:0:
256,192,28795,1,8,0:0:0:0:
256,192,28922,1,0,0:0:0:0:
256,192,29301,1,8,0:0:0:0:
256,192,29681,1,8,0:0:0:0:
256,192,30061,1,0,0:0:0:0:
256,192,30441,1,0,0:0:0:0:
256,192,30694,1,0,0:0:0:0:
256,192,30820,1,8,0:0:0:0:
256,192,31200,1,0,0:0:0:0:
256,192,31453,1,0,0:0:0:0:
256,192,31580,1,8,0:0:0:0:
256,192,31833,1,8,0:0:0:0:
256,192,31960,1,0,0:0:0:0:
256,192,32339,1,8,0:0:0:0:
256,192,32719,1,8,0:0:0:0:
256,192,33099,1,0,0:0:0:0:
256,192,33479,1,0,0:0:0:0:
256,192,33732,1,0,0:0:0:0:
256,192,33858,1,8,0:0:0:0:
256,192,34238,1,0,0:0:0:0:
256,192,34618,1,8,0:0:0:0:
256,192,34871,1,8,0:0:0:0:
256,192,34998,1,0,0:0:0:0:
256,192,35377,1,8,0:0:0:0:
256,192,35757,1,8,0:0:0:0:
256,192,36137,1,0,0:0:0:0:
256,192,36517,1,0,0:0:0:0:
256,192,36770,1,0,0:0:0:0:
256,192,36896,1,8,0:0:0:0:
256,192,37276,1,0,0:0:0:0:
256,192,37529,1,0,0:0:0:0:
256,192,37656,1,8,0:0:0:0:
256,192,37909,1,8,0:0:0:0:
256,192,38035,1,0,0:0:0:0:
256,192,38415,1,12,0:0:0:0:
256,192,38795,1,8,0:0:0:0:
256,192,39175,1,0,0:0:0:0:
256,192,39428,1,8,0:0:0:0:
256,192,39555,1,0,0:0:0:0:
256,192,39808,1,0,0:0:0:0:
256,192,39934,1,8,0:0:0:0:
256,192,40314,1,0,0:0:0:0:
256,192,40567,1,0,0:0:0:0:
256,192,40694,1,8,0:0:0:0:
256,192,40947,1,8,0:0:0:0:
256,192,41073,1,0,0:0:0:0:
256,192,41453,1,12,0:0:0:0:
256,192,41833,1,8,0:0:0:0:
256,192,42213,1,0,0:0:0:0:
256,192,42466,1,8,0:0:0:0:
256,192,42592,1,0,0:0:0:0:
256,192,42846,1,0,0:0:0:0:
256,192,42972,1,8,0:0:0:0:
256,192,43352,1,0,0:0:0:0:
256,192,43605,1,0,0:0:0:0:
256,192,43732,1,8,0:0:0:0:
256,192,43858,1,8,0:0:0:0:
256,192,43985,1,8,0:0:0:0:
256,192,44111,1,0,0:0:0:0:
256,192,44491,1,12,0:0:0:0:
256,192,44871,1,8,0:0:0:0:
256,192,45251,1,0,0:0:0:0:
256,192,45504,1,8,0:0:0:0:
256,192,45630,1,0,0:0:0:0:
256,192,45884,1,0,0:0:0:0:
256,192,46010,1,12,0:0:0:0:
256,192,46390,1,0,0:0:0:0:
256,192,46643,1,0,0:0:0:0:
256,192,46770,1,8,0:0:0:0:
256,192,47023,1,8,0:0:0:0:
256,192,47149,1,0,0:0:0:0:
256,192,47403,1,0,0:0:0:0:
256,192,47529,1,8,0:0:0:0:
256,192,47909,1,0,0:0:0:0:
256,192,48162,1,8,0:0:0:0:
256,192,48289,1,0,0:0:0:0:
256,192,48542,1,0,0:0:0:0:
256,192,48668,1,8,0:0:0:0:
256,192,48922,1,0,0:0:0:0:
256,192,49048,1,8,0:0:0:0:
256,192,49175,1,8,0:0:0:0:
256,192,49301,1,8,0:0:0:0:
256,192,49428,1,0,0:0:0:0:
256,192,49681,1,0,0:0:0:0:
256,192,49808,1,8,0:0:0:0:
256,192,49871,1,8,0:0:0:0:
256,192,49934,1,8,0:0:0:0:
256,192,50061,1,0,0:0:0:0:
256,192,50187,1,8,0:0:0:0:
256,192,50441,1,8,0:0:0:0:
256,192,50567,1,0,0:0:0:0:
256,192,52086,1,4,0:0:0:0:
256,192,52339,1,0,0:0:0:0:
256,192,52466,1,8,0:0:0:0:
256,192,52719,1,8,0:0:0:0:
256,192,52846,1,0,0:0:0:0:
256,192,53225,1,8,0:0:0:0:
256,192,53478,1,8,0:0:0:0:
256,192,53605,1,0,0:0:0:0:
256,192,53858,1,0,0:0:0:0:
256,192,53985,1,8,0:0:0:0:
256,192,54238,1,8,0:0:0:0:
256,192,54365,1,0,0:0:0:0:
256,192,54744,1,8,0:0:0:0:
256,192,54997,1,8,0:0:0:0:
256,192,55061,1,8,0:0:0:0:
256,192,55124,1,0,0:0:0:0:
256,192,55377,1,0,0:0:0:0:
256,192,55504,1,8,0:0:0:0:
256,192,55757,1,8,0:0:0:0:
256,192,55884,1,0,0:0:0:0:
256,192,56263,1,8,0:0:0:0:
256,192,56516,1,8,0:0:0:0:
256,192,56643,1,0,0:0:0:0:
256,192,56896,1,0,0:0:0:0:
256,192,57023,1,8,0:0:0:0:
256,192,57276,1,8,0:0:0:0:
256,192,57403,1,0,0:0:0:0:
256,192,57529,1,8,0:0:0:0:
256,192,57592,1,8,0:0:0:0:
256,192,57656,1,8,0:0:0:0:
256,192,57782,1,0,0:0:0:0:
256,192,58162,1,4,0:0:0:0:
256,192,58415,1,0,0:0:0:0:
256,192,58542,1,8,0:0:0:0:
256,192,58795,1,8,0:0:0:0:
256,192,58922,1,0,0:0:0:0:
256,192,59301,1,8,0:0:0:0:
256,192,59554,1,8,0:0:0:0:
256,192,59681,1,0,0:0:0:0:
256,192,59934,1,0,0:0:0:0:
256,192,60061,1,8,0:0:0:0:
256,192,60314,1,8,0:0:0:0:
256,192,60441,1,0,0:0:0:0:
256,192,60820,1,0,0:0:0:0:
256,192,61073,1,0,0:0:0:0:
256,192,61200,1,8,0:0:0:0:
256,192,61580,1,0,0:0:0:0:
256,192,61833,1,8,0:0:0:0:
256,192,61960,1,0,0:0:0:0:
256,192,62339,1,0,0:0:0:0:
256,192,62592,1,0,0:0:0:0:
256,192,62719,1,8,0:0:0:0:
256,192,63099,1,0,0:0:0:0:
256,192,63352,1,0,0:0:0:0:
256,192,63478,1,8,0:0:0:0:
256,192,63732,1,0,0:0:0:0:
256,192,63858,1,8,0:0:0:0:
256,192,63922,1,8,0:0:0:0:
256,192,63985,1,8,0:0:0:0:
256,192,64111,1,8,0:0:0:0:
256,192,64238,1,4,0:0:0:0:
256,192,64491,1,0,0:0:0:0:
256,192,64618,1,8,0:0:0:0:
256,192,64871,1,8,0:0:0:0:
256,192,64997,1,0,0:0:0:0:
256,192,65377,1,8,0:0:0:0:
256,192,65630,1,8,0:0:0:0:
256,192,65757,1,0,0:0:0:0:
256,192,66010,1,0,0:0:0:0:
256,192,66137,1,8,0:0:0:0:
256,192,66390,1,8,0:0:0:0:
256,192,66516,1,0,0:0:0:0:
256,192,66643,1,0,0:0:0:0:
256,192,66770,1,8,0:0:0:0:
256,192,66896,1,0,0:0:0:0:
256,192,67149,1,8,0:0:0:0:
256,192,67213,1,8,0:0:0:0:
256,192,67276,1,0,0:0:0:0:
256,192,67656,1,8,0:0:0:0:
256,192,67909,1,8,0:0:0:0:
256,192,68035,1,8,0:0:0:0:
256,192,68162,1,0,0:0:0:0:
256,192,68415,1,0,0:0:0:0:
256,192,68668,1,8,0:0:0:0:
256,192,68732,1,8,0:0:0:0:
256,192,68795,1,8,0:0:0:0:
256,192,69175,1,0,0:0:0:0:
256,192,69428,1,0,0:0:0:0:
256,192,69554,1,8,0:0:0:0:
256,192,69681,1,8,0:0:0:0:
256,192,69808,1,8,0:0:0:0:
256,192,69934,1,4,0:0:0:0:
256,192,70187,1,8,0:0:0:0:
256,192,70314,1,0,0:0:0:0:
256,192,70567,1,0,0:0:0:0:
256,192,70694,1,8,0:0:0:0:
256,192,70947,1,8,0:0:0:0:
256,192,71073,1,0,0:0:0:0:
256,192,71453,1,8,0:0:0:0:
256,192,71706,1,8,0:0:0:0:
256,192,71833,1,0,0:0:0:0:
256,192,72086,1,0,0:0:0:0:
256,192,72213,1,8,0:0:0:0:
256,192,72466,1,8,0:0:0:0:
256,192,72592,1,0,0:0:0:0:
256,192,72846,1,0,0:0:0:0:
256,192,72972,1,8,0:0:0:0:
256,192,73099,1,0,0:0:0:0:
256,192,73225,1,0,0:0:0:0:
256,192,73352,1,8,0:0:0:0:
256,192,73605,1,0,0:0:0:0:
256,192,73732,1,8,0:0:0:0:
256,192,73858,1,0,0:0:0:0:
256,192,73985,1,8,0:0:0:0:
256,192,74111,1,8,0:0:0:0:
256,192,74365,1,8,0:0:0:0:
256,192,74491,1,8,0:0:0:0:
256,192,74618,1,8,0:0:0:0:
256,192,74744,1,8,0:0:0:0:
256,192,74871,1,0,0:0:0:0:
256,192,75124,1,0,0:0:0:0:
256,192,75251,1,8,0:0:0:0:
256,192,75377,1,0,0:0:0:0:
256,192,75504,1,0,0:0:0:0:
256,192,75630,1,8,0:0:0:0:
256,192,75884,1,0,0:0:0:0:
256,192,76137,1,0,0:0:0:0:
256,192,76390,1,12,0:0:0:0:
256,192,76770,1,8,0:0:0:0:
256,192,77149,1,0,0:0:0:0:
256,192,77529,1,8,0:0:0:0:
256,192,77782,1,8,0:0:0:0:
256,192,77909,1,0,0:0:0:0:
256,192,78289,1,8,0:0:0:0:
256,192,78542,1,8,0:0:0:0:
256,192,78668,1,0,0:0:0:0:
256,192,79048,1,8,0:0:0:0:
256,192,79301,1,0,0:0:0:0:
256,192,79428,1,12,0:0:0:0:
256,192,79808,1,8,0:0:0:0:
256,192,80187,1,0,0:0:0:0:
256,192,80567,1,8,0:0:0:0:
256,192,80820,1,8,0:0:0:0:
256,192,80947,1,0,0:0:0:0:
256,192,81327,1,8,0:0:0:0:
256,192,81580,1,8,0:0:0:0:
256,192,81706,1,0,0:0:0:0:
256,192,81960,1,0,0:0:0:0:
256,192,82086,1,8,0:0:0:0:
256,192,82466,1,12,0:0:0:0:
256,192,82846,1,8,0:0:0:0:
256,192,83225,1,0,0:0:0:0:
256,192,83605,1,8,0:0:0:0:
256,192,83858,1,0,0:0:0:0:
256,192,83985,1,12,0:0:0:0:
256,192,84365,1,8,0:0:0:0:
256,192,84744,1,0,0:0:0:0:
256,192,84997,1,0,0:0:0:0:
256,192,85124,1,8,0:0:0:0:
256,192,85377,1,0,0:0:0:0:
256,192,85504,1,8,0:0:0:0:
256,192,85884,1,8,0:0:0:0:
256,192,86137,1,8,0:0:0:0:
256,192,86263,1,0,0:0:0:0:
256,192,86516,1,8,0:0:0:0:
256,192,86643,1,8,0:0:0:0:
256,192,86770,1,0,0:0:0:0:
256,192,86896,1,0,0:0:0:0:
256,192,87023,1,8,0:0:0:0:
256,192,87276,1,8,0:0:0:0:
256,192,87403,1,0,0:0:0:0:
256,192,87656,1,0,0:0:0:0:
256,192,87782,1,8,0:0:0:0:
256,192,87909,1,0,0:0:0:0:
256,192,87972,1,0,0:0:0:0:
256,192,88035,1,0,0:0:0:0:
256,192,88162,1,8,0:0:0:0:
256,192,88415,1,0,0:0:0:0:
256,192,88542,1,12,0:0:0:0:
256,192,88922,1,8,0:0:0:0:
256,192,89301,1,0,0:0:0:0:
256,192,89554,1,8,0:0:0:0:
256,192,89681,1,0,0:0:0:0:
256,192,89934,1,0,0:0:0:0:
256,192,90061,1,8,0:0:0:0:
256,192,90441,1,0,0:0:0:0:
256,192,90694,1,0,0:0:0:0:
256,192,90820,1,8,0:0:0:0:
256,192,91074,1,8,0:0:0:0:
256,192,91200,1,0,0:0:0:0:
256,192,91453,1,0,0:0:0:0:
256,192,91580,1,12,0:0:0:0:
256,192,91960,1,8,0:0:0:0:
256,192,92339,1,0,0:0:0:0:
256,192,92593,1,8,0:0:0:0:
256,192,92719,1,0,0:0:0:0:
256,192,92972,1,0,0:0:0:0:
256,192,93099,1,8,0:0:0:0:
256,192,93479,1,0,0:0:0:0:
256,192,93732,1,0,0:0:0:0:
256,192,93858,1,8,0:0:0:0:
256,192,94112,1,8,0:0:0:0:
256,192,94238,1,0,0:0:0:0:
256,192,94301,1,0,0:0:0:0:
256,192,94365,1,0,0:0:0:0:
256,192,94491,1,0,0:0:0:0:
256,192,94618,1,12,0:0:0:0:
256,192,94997,1,8,0:0:0:0:
256,192,95377,1,0,0:0:0:0:
256,192,95630,1,8,0:0:0:0:
256,192,95757,1,0,0:0:0:0:
256,192,96010,1,0,0:0:0:0:
256,192,96137,1,8,0:0:0:0:
256,192,96516,1,0,0:0:0:0:
256,192,96770,1,0,0:0:0:0:
256,192,96896,1,8,0:0:0:0:
256,192,97149,1,8,0:0:0:0:
256,192,97276,1,0,0:0:0:0:
256,192,97529,1,0,0:0:0:0:
256,192,97656,1,8,0:0:0:0:
256,192,97782,1,0,0:0:0:0:
256,192,97909,1,0,0:0:0:0:
256,192,98035,1,8,0:0:0:0:
256,192,98289,1,8,0:0:0:0:
256,192,98415,1,8,0:0:0:0:
256,192,98542,1,0,0:0:0:0:
256,192,98668,1,0,0:0:0:0:
256,192,98795,1,8,0:0:0:0:
256,192,99048,1,0,0:0:0:0:
256,192,99175,1,8,0:0:0:0:
256,192,99301,1,0,0:0:0:0:
256,192,99365,1,0,0:0:0:0:
256,192,99428,1,8,0:0:0:0:
256,192,99554,1,8,0:0:0:0:
256,192,99808,1,0,0:0:0:0:
256,192,99934,1,8,0:0:0:0:
256,192,100061,1,8,0:0:0:0:
256,192,100124,1,0,0:0:0:0:
256,192,100187,1,8,0:0:0:0:
256,192,100314,1,0,0:0:0:0:
256,192,100567,1,0,0:0:0:0:
256,192,100694,1,12,0:0:0:0:
256,192,102213,1,0,0:0:0:0:
256,192,102782,1,0,0:0:0:0:
256,192,103732,1,8,0:0:0:0:
256,192,105251,1,0,0:0:0:0:
256,192,105820,1,0,0:0:0:0:
256,192,106770,1,8,0:0:0:0:
256,192,108289,1,0,0:0:0:0:
256,192,108858,1,0,0:0:0:0:
256,192,109808,1,8,0:0:0:0:
256,192,111327,1,0,0:0:0:0:
256,192,111896,1,0,0:0:0:0:
256,192,112466,1,8,0:0:0:0:
256,192,112719,1,8,0:0:0:0:
256,192,112846,1,4,0:0:0:0:
256,192,113225,1,8,0:0:0:0:
256,192,113478,1,8,0:0:0:0:
256,192,113605,1,0,0:0:0:0:
256,192,113985,1,8,0:0:0:0:
256,192,114238,1,8,0:0:0:0:
256,192,114365,1,0,0:0:0:0:
256,192,114744,1,8,0:0:0:0:
256,192,114871,1,8,0:0:0:0:
256,192,114997,1,8,0:0:0:0:
256,192,115124,1,0,0:0:0:0:
256,192,115377,1,0,0:0:0:0:
256,192,115504,1,8,0:0:0:0:
256,192,115757,1,8,0:0:0:0:
256,192,115884,1,0,0:0:0:0:
256,192,116263,1,8,0:0:0:0:
256,192,116516,1,8,0:0:0:0:
256,192,116643,1,0,0:0:0:0:
256,192,117023,1,8,0:0:0:0:
256,192,117276,1,8,0:0:0:0:
256,192,117403,1,0,0:0:0:0:
256,192,117782,1,8,0:0:0:0:
256,192,118035,1,8,0:0:0:0:
256,192,118162,1,0,0:0:0:0:
256,192,118289,1,8,0:0:0:0:
256,192,118415,1,0,0:0:0:0:
256,192,118542,1,8,0:0:0:0:
256,192,118795,1,8,0:0:0:0:
256,192,118922,1,0,0:0:0:0:
256,192,119301,1,8,0:0:0:0:
256,192,119554,1,8,0:0:0:0:
256,192,119681,1,0,0:0:0:0:
256,192,120061,1,8,0:0:0:0:
256,192,120314,1,8,0:0:0:0:
256,192,120441,1,0,0:0:0:0:
256,192,120820,1,8,0:0:0:0:
256,192,120947,1,8,0:0:0:0:
256,192,121073,1,8,0:0:0:0:
256,192,121200,1,0,0:0:0:0:
256,192,121453,1,0,0:0:0:0:
256,192,121580,1,8,0:0:0:0:
256,192,121833,1,8,0:0:0:0:
256,192,121960,1,0,0:0:0:0:
256,192,122339,1,8,0:0:0:0:
256,192,122592,1,8,0:0:0:0:
256,192,122719,1,0,0:0:0:0:
256,192,123099,1,8,0:0:0:0:
256,192,123352,1,8,0:0:0:0:
256,192,123478,1,0,0:0:0:0:
256,192,123858,1,8,0:0:0:0:
256,192,124111,1,8,0:0:0:0:
256,192,124238,1,0,0:0:0:0:
256,192,124365,1,8,0:0:0:0:
256,192,124491,1,0,0:0:0:0:
256,192,124618,1,8,0:0:0:0:
256,192,124681,1,8,0:0:0:0:
256,192,124744,1,0,0:0:0:0:
256,192,124871,1,0,0:0:0:0:
256,192,124997,1,12,0:0:0:0:
256,192,125377,1,8,0:0:0:0:
256,192,125630,1,8,0:0:0:0:
256,192,125757,1,0,0:0:0:0:
256,192,126010,1,0,0:0:0:0:
256,192,126137,1,8,0:0:0:0:
256,192,126390,1,8,0:0:0:0:
256,192,126516,1,0,0:0:0:0:
256,192,126896,1,8,0:0:0:0:
256,192,127023,1,8,0:0:0:0:
256,192,127149,1,8,0:0:0:0:
256,192,127276,1,0,0:0:0:0:
256,192,127529,1,0,0:0:0:0:
256,192,127656,1,8,0:0:0:0:
256,192,127909,1,8,0:0:0:0:
256,192,128035,1,4,0:0:0:0:
256,192,128415,1,8,0:0:0:0:
256,192,128668,1,8,0:0:0:0:
256,192,128795,1,0,0:0:0:0:
256,192,129048,1,0,0:0:0:0:
256,192,129175,1,8,0:0:0:0:
256,192,129428,1,8,0:0:0:0:
256,192,129554,1,0,0:0:0:0:
256,192,129934,1,8,0:0:0:0:
256,192,130187,1,8,0:0:0:0:
256,192,130314,1,0,0:0:0:0:
256,192,130441,1,0,0:0:0:0:
256,192,130567,1,0,0:0:0:0:
256,192,130694,1,8,0:0:0:0:
256,192,130947,1,8,0:0:0:0:
256,192,131073,1,4,0:0:0:0:
256,192,131453,1,8,0:0:0:0:
256,192,131706,1,8,0:0:0:0:
256,192,131833,1,0,0:0:0:0:
256,192,132086,1,0,0:0:0:0:
256,192,132213,1,8,0:0:0:0:
256,192,132466,1,8,0:0:0:0:
256,192,132592,1,0,0:0:0:0:
256,192,132972,1,8,0:0:0:0:
256,192,133099,1,0,0:0:0:0:
256,192,133225,1,8,0:0:0:0:
256,192,133352,1,8,0:0:0:0:
256,192,133605,1,8,0:0:0:0:
256,192,133732,1,0,0:0:0:0:
256,192,133985,1,0,0:0:0:0:
256,192,134112,1,8,0:0:0:0:
256,192,134491,1,0,0:0:0:0:
256,192,134744,1,0,0:0:0:0:
256,192,134871,1,8,0:0:0:0:
256,192,135251,1,0,0:0:0:0:
256,192,135504,1,0,0:0:0:0:
256,192,135630,1,8,0:0:0:0:
256,192,135757,1,0,0:0:0:0:
256,192,135884,1,8,0:0:0:0:
256,192,136010,1,8,0:0:0:0:
256,192,136263,1,0,0:0:0:0:
256,192,136390,1,8,0:0:0:0:
256,192,136453,1,8,0:0:0:0:
256,192,136517,1,8,0:0:0:0:
256,192,136643,1,8,0:0:0:0:
256,192,136770,1,0,0:0:0:0:
256,192,137023,1,0,0:0:0:0:
256,192,137149,1,12,0:0:0:0:
256,192,137529,1,8,0:0:0:0:
256,192,137782,1,8,0:0:0:0:
256,192,137909,1,0,0:0:0:0:
256,192,138162,1,0,0:0:0:0:
256,192,138289,1,8,0:0:0:0:
256,192,138542,1,8,0:0:0:0:
256,192,138668,1,0,0:0:0:0:
256,192,139048,1,8,0:0:0:0:
256,192,139175,1,0,0:0:0:0:
256,192,139301,1,8,0:0:0:0:
256,192,139428,1,8,0:0:0:0:
256,192,139681,1,0,0:0:0:0:
256,192,139808,1,8,0:0:0:0:
256,192,140061,1,8,0:0:0:0:
256,192,140187,1,4,0:0:0:0:
256,192,140567,1,8,0:0:0:0:
256,192,140820,1,8,0:0:0:0:
256,192,140947,1,0,0:0:0:0:
256,192,141200,1,0,0:0:0:0:
256,192,141327,1,8,0:0:0:0:
256,192,141580,1,8,0:0:0:0:
256,192,141706,1,0,0:0:0:0:
256,192,142086,1,8,0:0:0:0:
256,192,142339,1,8,0:0:0:0:
256,192,142466,1,0,0:0:0:0:
256,192,142592,1,0,0:0:0:0:
256,192,142719,1,0,0:0:0:0:
256,192,142846,1,8,0:0:0:0:
256,192,143099,1,8,0:0:0:0:
256,192,143225,1,4,0:0:0:0:
256,192,143605,1,8,0:0:0:0:
256,192,143858,1,8,0:0:0:0:
256,192,143985,1,8,0:0:0:0:
256,192,144111,1,0,0:0:0:0:
256,192,144238,1,0,0:0:0:0:
256,192,144365,1,8,0:0:0:0:
256,192,144618,1,0,0:0:0:0:
256,192,144744,1,8,0:0:0:0:
256,192,145124,1,0,0:0:0:0:
256,192,145377,1,8,0:0:0:0:
256,192,145504,1,0,0:0:0:0:
256,192,145757,1,0,0:0:0:0:
256,192,145884,1,8,0:0:0:0:
256,192,146010,1,0,0:0:0:0:
256,192,146137,1,0,0:0:0:0:
256,192,146263,1,8,0:0:0:0:
256,192,146516,1,0,0:0:0:0:
256,192,146643,1,8,0:0:0:0:
256,192,146896,1,0,0:0:0:0:
256,192,147023,1,8,0:0:0:0:
256,192,147149,1,8,0:0:0:0:
256,192,147276,1,8,0:0:0:0:
256,192,147403,1,8,0:0:0:0:
256,192,147656,1,8,0:0:0:0:
256,192,147782,1,8,0:0:0:0:
256,192,147846,1,8,0:0:0:0:
256,192,147909,1,0,0:0:0:0:
256,192,148035,1,8,0:0:0:0:
256,192,148162,1,0,0:0:0:0:
256,192,148415,1,0,0:0:0:0:
256,192,148542,1,8,0:0:0:0:
256,192,148668,1,0,0:0:0:0:
256,192,148795,1,0,0:0:0:0:
256,192,148858,1,0,0:0:0:0:
256,192,148922,1,8,0:0:0:0:
256,192,149175,1,8,0:0:0:0:
256,192,149301,1,0,0:0:0:0:
256,192,150820,5,4,0:0:0:0:
256,192,151200,1,8,0:0:0:0:
256,192,151453,1,8,0:0:0:0:
256,192,151580,1,0,0:0:0:0:
256,192,151833,1,0,0:0:0:0:
256,192,151960,1,8,0:0:0:0:
256,192,152213,1,8,0:0:0:0:
256,192,152339,1,0,0:0:0:0:
256,192,152719,1,8,0:0:0:0:
256,192,152972,1,8,0:0:0:0:
256,192,153099,1,0,0:0:0:0:
256,192,153225,1,0,0:0:0:0:
256,192,153352,1,8,0:0:0:0:
256,192,153478,1,0,0:0:0:0:
256,192,153542,1,0,0:0:0:0:
256,192,153605,1,0,0:0:0:0:
256,192,153668,1,0,0:1:0:0:
256,192,153732,5,0,0:0:0:0:
256,192,153858,1,8,0:0:0:0:
256,192,154238,1,8,0:0:0:0:
256,192,154491,1,8,0:0:0:0:
256,192,154618,1,0,0:0:0:0:
256,192,154871,1,0,0:0:0:0:
256,192,154997,1,8,0:0:0:0:
256,192,155251,1,8,0:0:0:0:
256,192,155377,1,0,0:0:0:0:
256,192,155757,1,8,0:0:0:0:
256,192,156010,1,0,0:0:0:0:
256,192,156137,1,8,0:0:0:0:
256,192,156200,1,8,0:0:0:0:
256,192,156263,1,8,0:0:0:0:
256,192,156327,1,8,0:0:0:0:
256,192,156390,1,8,0:0:0:0:
256,192,156516,1,0,0:0:0:0:
256,192,156770,1,8,0:0:0:0:
256,192,156896,1,4,0:0:0:0:
256,192,157276,1,8,0:0:0:0:
256,192,157529,1,8,0:0:0:0:
256,192,157656,1,0,0:0:0:0:
256,192,157909,1,0,0:0:0:0:
256,192,158035,1,8,0:0:0:0:
256,192,158162,1,0,0:0:0:0:
256,192,158289,1,0,0:0:0:0:
256,192,158415,1,12,0:0:0:0:
256,192,158795,1,0,0:0:0:0:
256,192,159048,1,0,0:0:0:0:
256,192,159175,1,8,0:0:0:0:
256,192,159238,1,8,0:0:0:0:
256,192,159301,1,0,0:0:0:0:
256,192,159428,1,8,0:0:0:0:
256,192,159554,1,0,0:0:0:0:
256,192,159808,1,0,0:0:0:0:
256,192,159934,1,8,0:0:0:0:
256,192,160314,1,0,0:0:0:0:
256,192,160567,1,0,0:0:0:0:
256,192,160694,1,8,0:0:0:0:
256,192,160947,1,8,0:0:0:0:
256,192,161073,1,0,0:0:0:0:
256,192,161327,1,0,0:0:0:0:
256,192,161453,1,8,0:0:0:0:
256,192,161516,1,8,0:0:0:0:
256,192,161580,1,8,0:0:0:0:
256,192,161643,1,8,0:0:0:0:
256,192,161706,1,8,0:0:0:0:
256,192,161833,1,0,0:0:0:0:
256,192,162086,1,0,0:0:0:0:
256,192,162213,1,8,0:0:0:0:
256,192,162339,1,8,0:0:0:0:
256,192,162466,1,0,0:0:0:0:
256,192,162592,1,8,0:0:0:0:
256,192,162656,1,8,0:0:0:0:
256,192,162719,1,8,0:0:0:0:
256,192,162782,1,8,0:0:0:0:
256,192,162846,1,8,0:0:0:0:
256,192,162972,1,4,0:0:0:0:
256,192,163352,1,8,0:0:0:0:
256,192,163605,1,8,0:0:0:0:
256,192,163732,1,0,0:0:0:0:
256,192,163985,1,0,0:0:0:0:
256,192,164111,1,8,0:0:0:0:
256,192,164365,1,8,0:0:0:0:
256,192,164491,1,0,0:0:0:0:
256,192,164871,1,8,0:0:0:0:
256,192,165124,1,8,0:0:0:0:
256,192,165251,1,0,0:0:0:0:
256,192,165377,1,0,0:0:0:0:
256,192,165504,1,0,0:0:0:0:
256,192,165630,1,8,0:0:0:0:
256,192,165694,1,8,0:0:0:0:
256,192,165757,1,8,0:0:0:0:
256,192,165884,1,8,0:0:0:0:
256,192,166010,1,4,0:0:0:0:
256,192,166390,1,8,0:0:0:0:
256,192,166643,1,8,0:0:0:0:
256,192,166770,1,0,0:0:0:0:
256,192,167023,1,0,0:0:0:0:
256,192,167149,1,8,0:0:0:0:
256,192,167403,1,8,0:0:0:0:
256,192,167529,1,0,0:0:0:0:
256,192,167782,1,0,0:0:0:0:
256,192,167909,1,8,0:0:0:0:
256,192,168035,1,0,0:0:0:0:
256,192,168099,1,0,0:0:0:0:
256,192,168162,1,0,0:0:0:0:
256,192,168289,1,8,0:0:0:0:
256,192,168542,1,0,0:0:0:0:
256,192,168668,1,8,0:0:0:0:
256,192,168732,1,8,0:0:0:0:
256,192,168795,1,8,0:0:0:0:
256,192,168922,1,8,0:0:0:0:
256,192,169048,1,4,0:0:0:0:
256,192,169428,1,8,0:0:0:0:
256,192,169681,1,8,0:0:0:0:
256,192,169808,1,0,0:0:0:0:
256,192,170061,1,0,0:0:0:0:
256,192,170187,1,8,0:0:0:0:
256,192,170441,1,8,0:0:0:0:
256,192,170567,1,0,0:0:0:0:
256,192,170947,1,8,0:0:0:0:
256,192,171200,1,8,0:0:0:0:
256,192,171327,1,0,0:0:0:0:
256,192,171580,1,0,0:0:0:0:
256,192,171706,1,8,0:0:0:0:
256,192,171960,1,8,0:0:0:0:
256,192,172086,1,0,0:0:0:0:
256,192,172339,1,0,0:0:0:0:
256,192,172466,1,8,0:0:0:0:
256,192,172592,1,0,0:0:0:0:
256,192,172719,1,8,0:0:0:0:
256,192,172846,1,8,0:0:0:0:
256,192,173099,1,0,0:0:0:0:
256,192,173225,1,8,0:0:0:0:
256,192,173289,1,8,0:0:0:0:
256,192,173352,1,8,0:0:0:0:
256,192,173415,1,8,0:0:0:0:
256,192,173478,1,8,0:0:0:0:
256,192,173605,1,0,0:0:0:0:
256,192,173858,1,8,0:0:0:0:
256,192,173985,1,8,0:0:0:0:
256,192,174111,1,0,0:0:0:0:
256,192,174238,1,0,0:0:0:0:
256,192,174365,5,12,0:0:0:0:
256,192,174618,1,4,0:0:0:0:
256,192,174871,1,4,0:0:0:0:
256,192,175124,1,12,0:0:0:0:
256,192,175503,1,8,0:0:0:0:
256,192,175756,1,8,0:0:0:0:
256,192,175883,1,0,0:0:0:0:
256,192,176136,1,0,0:0:0:0:
256,192,176263,1,8,0:0:0:0:
256,192,176389,1,0,0:0:0:0:
256,192,176516,1,8,0:0:0:0:
256,192,176642,1,0,0:0:0:0:
256,192,177022,1,8,0:0:0:0:
256,192,177275,1,8,0:0:0:0:
256,192,177402,1,0,0:0:0:0:
256,192,177655,1,0,0:0:0:0:
256,192,177782,1,8,0:0:0:0:
256,192,177908,1,8,0:0:0:0:
256,192,178035,1,8,0:0:0:0:
256,192,178161,1,4,0:0:0:0:
256,192,178541,1,8,0:0:0:0:
256,192,178794,1,8,0:0:0:0:
256,192,178921,1,0,0:0:0:0:
256,192,179174,1,0,0:0:0:0:
256,192,179301,1,8,0:0:0:0:
256,192,179427,1,0,0:0:0:0:
256,192,179554,1,8,0:0:0:0:
256,192,179680,1,0,0:0:0:0:
256,192,180060,1,8,0:0:0:0:
256,192,180313,1,8,0:0:0:0:
256,192,180440,1,0,0:0:0:0:
256,192,180694,1,0,0:0:0:0:
256,192,180820,1,8,0:0:0:0:
256,192,180947,1,8,0:0:0:0:
256,192,181073,1,8,0:0:0:0:
256,192,181199,1,4,0:0:0:0:
256,192,181579,1,8,0:0:0:0:
256,192,181832,1,8,0:0:0:0:
256,192,181959,1,0,0:0:0:0:
256,192,182212,1,0,0:0:0:0:
256,192,182339,1,8,0:0:0:0:
256,192,182592,1,8,0:0:0:0:
256,192,182719,1,0,0:0:0:0:
256,192,183099,1,0,0:0:0:0:
256,192,183478,1,8,0:0:0:0:
256,192,183731,1,8,0:0:0:0:
256,192,183858,1,0,0:0:0:0:
256,192,183985,1,0,0:0:0:0:
256,192,184111,1,0,0:0:0:0:
256,192,184238,1,8,0:0:0:0:
256,192,184491,1,0,0:0:0:0:
256,192,184617,1,8,0:0:0:0:
256,192,184744,1,8,0:0:0:0:
256,192,184870,1,8,0:0:0:0:
256,192,184997,1,0,0:0:0:0:
256,192,185250,1,0,0:0:0:0:
256,192,185377,1,8,0:0:0:0:
256,192,185504,1,8,0:0:0:0:
256,192,185630,1,0,0:0:0:0:
256,192,185756,1,8,0:0:0:0:
256,192,186010,1,8,0:0:0:0:
256,192,186136,1,8,0:0:0:0:
256,192,186263,1,0,0:0:0:0:
256,192,186389,1,0,0:0:0:0:
256,192,186516,1,8,0:0:0:0:
256,192,186770,1,0,0:0:0:0:
256,192,186896,1,8,0:0:0:0:
256,192,186960,1,8,0:0:0:0:
256,192,187022,1,8,0:0:0:0:
256,192,187086,1,8,0:0:0:0:
256,192,187149,1,8,0:0:0:0:
256,192,187276,1,4,0:0:0:0:
256,192,187655,1,8,0:0:0:0:
256,192,187908,1,8,0:0:0:0:
256,192,188035,1,0,0:0:0:0:
256,192,188288,1,0,0:0:0:0:
256,192,188415,1,8,0:0:0:0:
256,192,188541,1,0,0:0:0:0:
256,192,188668,1,8,0:0:0:0:
256,192,188794,1,0,0:0:0:0:
256,192,189174,1,8,0:0:0:0:
256,192,189427,1,8,0:0:0:0:
256,192,189554,1,0,0:0:0:0:
256,192,189807,1,0,0:0:0:0:
256,192,189934,1,8,0:0:0:0:
256,192,190060,1,8,0:0:0:0:
256,192,190187,1,8,0:0:0:0:
256,192,190313,1,4,0:0:0:0:
256,192,190693,1,8,0:0:0:0:
256,192,190946,1,8,0:0:0:0:
256,192,191073,1,0,0:0:0:0:
256,192,191326,1,0,0:0:0:0:
256,192,191453,1,8,0:0:0:0:
256,192,191579,1,0,0:0:0:0:
256,192,191706,1,0,0:0:0:0:
256,192,191832,1,8,0:0:0:0:
256,192,192086,1,8,0:0:0:0:
256,192,192212,1,8,0:0:0:0:
256,192,192339,1,0,0:0:0:0:
256,192,192465,1,0,0:0:0:0:
256,192,192592,1,8,0:0:0:0:
256,192,192846,1,0,0:0:0:0:
256,192,192972,1,8,0:0:0:0:
256,192,193098,1,0,0:0:0:0:
256,192,193162,1,0,0:0:0:0:
256,192,193225,1,0,0:0:0:0:
256,192,193351,1,12,0:0:0:0:
256,192,193731,1,8,0:0:0:0:
256,192,193984,1,8,0:0:0:0:
256,192,194111,1,0,0:0:0:0:
256,192,194364,1,0,0:0:0:0:
256,192,194491,1,8,0:0:0:0:
256,192,194617,1,0,0:0:0:0:
256,192,194744,1,8,0:0:0:0:
256,192,194871,1,0,0:0:0:0:
256,192,195124,1,0,0:0:0:0:
256,192,195251,1,8,0:0:0:0:
256,192,195377,1,8,0:0:0:0:
256,192,195503,1,8,0:0:0:0:
256,192,195630,1,0,0:0:0:0:
256,192,196010,1,8,0:0:0:0:
256,192,196263,1,0,0:0:0:0:
256,192,196390,1,8,0:0:0:0:
256,192,196516,1,0,0:0:0:0:
256,192,196643,1,0,0:0:0:0:
256,192,196769,1,8,0:0:0:0:
256,192,196896,1,0,0:0:0:0:
256,192,197022,1,0,0:0:0:0:
256,192,197149,1,8,0:0:0:0:
256,192,197402,1,8,0:0:0:0:
256,192,197529,1,8,0:0:0:0:
256,192,197656,1,0,0:0:0:0:
256,192,197782,1,0,0:0:0:0:
256,192,197908,1,8,0:0:0:0:
256,192,198036,1,0,0:0:0:0:
256,192,198162,1,8,0:0:0:0:
256,192,198288,1,8,0:0:0:0:
256,192,198541,1,8,0:0:0:0:
256,192,198668,1,8,0:0:0:0:
256,192,198795,1,0,0:0:0:0:
256,192,198921,1,0,0:0:0:0:
256,192,198985,1,0,0:0:0:0:
256,192,199048,1,8,0:0:0:0:
256,192,199111,1,0,0:0:0:0:
256,192,199174,1,8,0:0:0:0:
256,192,199301,1,8,0:0:0:0:
256,192,199428,1,4,0:0:0:0:
256,192,199681,1,0,0:0:0:0:
256,192,199808,1,8,0:0:0:0:
256,192,200187,1,0,0:0:0:0:
256,192,200567,1,8,0:0:0:0:
256,192,200820,1,8,0:0:0:0:
256,192,200947,1,0,0:0:0:0:
256,192,201327,1,8,0:0:0:0:
256,192,201580,1,8,0:0:0:0:
256,192,201706,1,0,0:0:0:0:
256,192,201960,1,0,0:0:0:0:
256,192,202086,1,8,0:0:0:0:
256,192,202466,1,4,0:0:0:0:
256,192,202719,1,0,0:0:0:0:
256,192,202846,1,8,0:0:0:0:
256,192,203225,1,0,0:0:0:0:
256,192,203605,1,8,0:0:0:0:
256,192,203858,1,8,0:0:0:0:
256,192,203985,1,0,0:0:0:0:
256,192,204365,1,8,0:0:0:0:
256,192,204744,1,0,0:0:0:0:
256,192,204871,1,8,0:0:0:0:
256,192,204998,1,8,0:0:0:0:
256,192,205124,1,4,0:0:0:0:
256,192,205504,1,4,0:0:0:0:
256,192,205757,1,0,0:0:0:0:
256,192,205884,1,8,0:0:0:0:
256,192,206263,1,0,0:0:0:0:
256,192,206643,1,8,0:0:0:0:
256,192,206896,1,8,0:0:0:0:
256,192,207023,1,4,0:0:0:0:
256,192,207403,1,8,0:0:0:0:
256,192,207782,1,0,0:0:0:0:
256,192,207909,1,8,0:0:0:0:
256,192,208035,1,0,0:0:0:0:
256,192,208162,1,8,0:0:0:0:
256,192,208415,1,0,0:0:0:0:
256,192,208542,1,8,0:0:0:0:
256,192,208668,1,8,0:0:0:0:
256,192,208795,1,8,0:0:0:0:
256,192,208922,1,0,0:0:0:0:
256,192,209175,1,8,0:0:0:0:
256,192,209301,1,0,0:0:0:0:
256,192,209428,1,0,0:0:0:0:
256,192,209554,1,0,0:0:0:0:
256,192,209681,1,8,0:0:0:0:
256,192,209934,1,0,0:0:0:0:
256,192,210061,1,0,0:0:0:0:
256,192,210187,1,8,0:0:0:0:
256,192,210251,1,8,0:0:0:0:
256,192,210314,1,8,0:0:0:0:
256,192,210441,1,0,0:0:0:0:
256,192,210694,1,8,0:0:0:0:
256,192,210820,1,8,0:0:0:0:
256,192,210947,1,0,0:0:0:0:
256,192,211010,1,0,0:0:0:0:
256,192,211073,1,0,0:0:0:0:
256,192,211200,1,8,0:0:0:0:
256,192,211453,1,8,0:0:0:0:
256,192,211580,1,4,0:0:0:0:
256,192,211833,1,0,0:0:0:0:
256,192,211960,1,8,0:0:0:0:
256,192,212339,1,0,0:0:0:0:
256,192,212592,1,0,0:0:0:0:
256,192,212719,1,8,0:0:0:0:
256,192,212972,1,8,0:0:0:0:
256,192,213099,1,0,0:0:0:0:
256,192,213479,1,8,0:0:0:0:
256,192,213732,1,0,0:0:0:0:
256,192,213858,1,8,0:0:0:0:
256,192,214112,1,8,0:0:0:0:
256,192,214238,1,0,0:0:0:0:
256,192,214301,1,0,0:0:0:0:
256,192,214365,1,0,0:0:0:0:
256,192,214491,1,8,0:0:0:0:
256,192,214618,1,4,0:0:0:0:
256,192,214871,1,0,0:0:0:0:
256,192,214998,1,8,0:0:0:0:
256,192,215377,1,0,0:0:0:0:
256,192,215631,1,0,0:0:0:0:
256,192,215757,1,8,0:0:0:0:
256,192,216010,1,8,0:0:0:0:
256,192,216137,1,0,0:0:0:0:
256,192,216390,1,8,0:0:0:0:
256,192,216517,1,8,0:0:0:0:
256,192,216643,1,0,0:0:0:0:
256,192,216770,1,0,0:0:0:0:
256,192,216896,1,8,0:0:0:0:
256,192,217150,1,0,0:0:0:0:
256,192,217276,1,8,0:0:0:0:
256,192,217339,1,8,0:0:0:0:
256,192,217403,1,8,0:0:0:0:
256,192,217529,1,8,0:0:0:0:
256,192,217656,1,4,0:0:0:0:
256,192,217909,1,0,0:0:0:0:
256,192,218035,1,8,0:0:0:0:
256,192,218415,1,0,0:0:0:0:
256,192,218668,1,0,0:0:0:0:
256,192,218795,1,8,0:0:0:0:
256,192,219048,1,8,0:0:0:0:
256,192,219175,1,0,0:0:0:0:
256,192,219554,1,8,0:0:0:0:
256,192,219808,1,8,0:0:0:0:
256,192,219934,1,0,0:0:0:0:
256,192,220187,1,0,0:0:0:0:
256,192,220314,1,8,0:0:0:0:
256,192,220567,1,8,0:0:0:0:
256,192,220694,1,0,0:0:0:0:
256,192,220820,1,0,0:0:0:0:
256,192,220947,1,8,0:0:0:0:
256,192,221073,1,0,0:0:0:0:
256,192,221327,1,0,0:0:0:0:
256,192,221453,1,8,0:0:0:0:
256,192,221580,1,0,0:0:0:0:
256,192,221706,1,0,0:0:0:0:
256,192,221833,1,8,0:0:0:0:
256,192,222086,1,0,0:0:0:0:
256,192,222213,1,8,0:0:0:0:
256,192,222339,1,0,0:0:0:0:
256,192,222403,1,0,0:0:0:0:
256,192,222466,1,8,0:0:0:0:
256,192,222592,1,8,0:0:0:0:
256,192,222846,1,0,0:0:0:0:
256,192,222972,1,8,0:0:0:0:
256,192,223225,1,0,0:0:0:0:
256,192,223352,1,8,0:0:0:0:
256,192,223478,1,0,0:0:0:0:
256,192,223542,1,0,0:0:0:0:
256,192,223605,1,0,0:0:0:0:
256,192,223732,5,12,0:0:0:0:
256,192,225251,1,0,0:0:0:0:
256,192,225820,1,0,0:0:0:0:
256,192,226770,1,8,0:0:0:0:
256,192,228289,1,0,0:0:0:0:
256,192,228858,1,0,0:0:0:0:
256,192,229808,1,8,0:0:0:0:
256,192,231327,1,0,0:0:0:0:
256,192,231896,1,0,0:0:0:0:
256,192,232846,1,8,0:0:0:0:
256,192,234365,1,0,0:0:0:0:
256,192,234744,1,8,0:0:0:0:
256,192,234997,1,0,0:0:0:0:
256,192,235124,1,8,0:0:0:0:
256,192,235251,1,0,0:0:0:0:
256,192,235377,1,0,0:0:0:0:
256,192,235504,1,8,0:0:0:0:
256,192,235884,1,4,0:0:0:0:
