osu file format v14

[General]
AudioFilename: audio.mp3
AudioLeadIn: 0
PreviewTime: 149681
Countdown: 0
SampleSet: Soft
StackLeniency: 0.7
Mode: 3
LetterboxInBreaks: 0
SpecialStyle: 0
WidescreenStoryboard: 1

[Editor]
Bookmarks: 64238,137149,175124,181200,187276,199428
DistanceSpacing: 0.6
BeatDivisor: 3
GridSize: 8
TimelineZoom: 2.499999

[Metadata]
Title:Breakthrough Atmosphere
TitleUnicode:Breakthrough Atmosphere
Artist:xi
ArtistUnicode:xi
Creator:JamesHappy
Version:Aeon
Source:
Tags:
BeatmapID:1577294
BeatmapSetID:748759

[Difficulty]
HPDrainRate:8.4
CircleSize:7
OverallDifficulty:9.2
ApproachRate:5
SliderMultiplier:1.4
SliderTickRate:1

[Events]
//Background and Video events
0,0,"6940286-earth.jpg",0,0
//Break Periods
//Storyboard Layer 0 (Background)
//Storyboard Layer 1 (Fail)
//Storyboard Layer 2 (Pass)
//Storyboard Layer 3 (Foreground)
//Storyboard Sound Samples

[TimingPoints]
1960,379.746835443038,4,2,0,5,1,0

[HitObjects]
36,192,1960,5,0,0:0:0:0:
109,192,1960,1,0,0:0:0:0:
256,192,1960,1,0,0:0:0:0:
402,192,1960,1,0,0:0:0:0:
182,192,2339,1,0,0:0:0:0:
109,192,2339,1,0,0:0:0:0:
475,192,3478,1,0,0:0:0:0:
36,192,3478,1,0,0:0:0:0:
402,192,4997,1,0,0:0:0:0:
475,192,4997,1,0,0:0:0:0:
475,192,5377,1,0,0:0:0:0:
402,192,5377,1,0,0:0:0:0:
36,192,6516,1,0,0:0:0:0:
182,192,6516,1,0,0:0:0:0:
36,192,8035,1,0,0:0:0:0:
109,192,8035,1,0,0:0:0:0:
36,192,8415,1,0,0:0:0:0:
109,192,8415,1,0,0:0:0:0:
329,192,9554,1,0,0:0:0:0:
475,192,9554,1,0,0:0:0:0:
402,192,11073,1,0,0:0:0:0:
109,192,11073,1,0,0:0:0:0:
109,192,11453,1,0,0:0:0:0:
402,192,11453,1,0,0:0:0:0:
182,192,12592,1,0,0:0:0:0:
329,192,12592,1,0,0:0:0:0:
36,192,13732,1,0,0:0:0:0:
109,192,13732,1,0,0:0:0:0:
402,192,14111,1,0,0:0:0:0:
475,192,14111,1,0,0:0:0:0:
402,192,14491,1,0,0:0:0:0:
475,192,14491,1,0,0:0:0:0:
36,192,15630,1,0,0:0:0:0:
256,192,15630,1,0,0:0:0:0:
36,192,17149,1,0,0:0:0:0:
109,192,17149,1,0,0:0:0:0:
36,192,17529,1,0,0:0:0:0:
109,192,17529,1,0,0:0:0:0:
256,192,18668,1,0,0:0:0:0:
475,192,18668,1,0,0:0:0:0:
402,192,20187,1,0,0:0:0:0:
109,192,20187,1,0,0:0:0:0:
109,192,20567,1,0,0:0:0:0:
402,192,20567,1,0,0:0:0:0:
182,192,21706,1,0,0:0:0:0:
329,192,21706,1,0,0:0:0:0:
36,192,23225,1,0,0:0:0:0:
182,192,23225,1,0,0:0:0:0:
36,192,23605,1,0,0:0:0:0:
182,192,23605,1,0,0:0:0:0:
402,192,24744,1,0,0:0:0:0:
475,192,24744,1,0,0:0:0:0:
182,192,25884,1,0,0:0:0:0:
256,192,25884,1,0,0:0:0:0:
329,192,26263,1,0,0:0:0:0:
402,192,26263,1,0,0:0:0:0:
475,192,26263,1,0,0:0:0:0:
109,192,26263,1,0,0:0:0:0:
36,192,26263,1,0,0:0:0:0:
109,192,26643,1,0,0:0:0:0:
36,192,26643,1,0,0:0:0:0:
109,192,27213,1,0,0:0:0:0:
182,192,27213,1,0,0:0:0:0:
256,192,27782,1,0,0:0:0:0:
182,192,27782,1,0,0:0:0:0:
109,192,28352,1,0,0:0:0:0:
182,192,28352,1,0,0:0:0:0:
256,192,28922,1,0,0:0:0:0:
329,192,28922,1,0,0:0:0:0:
182,192,29301,1,0,0:0:0:0:
109,192,29301,1,0,0:0:0:0:
109,192,29681,1,0,0:0:0:0:
182,192,29681,1,0,0:0:0:0:
256,192,30251,1,0,0:0:0:0:
182,192,30251,1,0,0:0:0:0:
329,192,30820,1,0,0:0:0:0:
256,192,30820,1,0,0:0:0:0:
182,192,31390,1,0,0:0:0:0:
256,192,31390,1,0,0:0:0:0:
402,192,31960,1,0,0:0:0:0:
329,192,31960,1,0,0:0:0:0:
182,192,32339,1,0,0:0:0:0:
256,192,32339,1,0,0:0:0:0:
182,192,32719,1,0,0:0:0:0:
256,192,32719,1,0,0:0:0:0:
256,192,33289,1,0,0:0:0:0:
329,192,33289,1,0,0:0:0:0:
329,192,33858,1,0,0:0:0:0:
402,192,33858,1,0,0:0:0:0:
256,192,34428,1,0,0:0:0:0:
329,192,34428,1,0,0:0:0:0:
475,192,34997,1,0,0:0:0:0:
402,192,34997,1,0,0:0:0:0:
329,192,35377,1,0,0:0:0:0:
256,192,35377,1,0,0:0:0:0:
329,192,35757,1,0,0:0:0:0:
256,192,35757,1,0,0:0:0:0:
402,192,36327,1,0,0:0:0:0:
329,192,36327,1,0,0:0:0:0:
475,192,36896,1,0,0:0:0:0:
402,192,36896,1,0,0:0:0:0:
402,192,37466,1,0,0:0:0:0:
329,192,37466,1,0,0:0:0:0:
475,192,38035,1,0,0:0:0:0:
36,192,38035,1,0,0:0:0:0:
402,192,38415,1,0,0:0:0:0:
475,192,38415,1,0,0:0:0:0:
36,192,38415,1,0,0:0:0:0:
256,192,38415,1,0,0:0:0:0:
109,192,38415,1,0,0:0:0:0:
475,192,38795,1,0,0:0:0:0:
402,192,38795,1,0,0:0:0:0:
109,192,38795,1,0,0:0:0:0:
109,192,39175,1,0,0:0:0:0:
329,192,39365,1,0,0:0:0:0:
402,192,39365,1,0,0:0:0:0:
109,192,39554,1,0,0:0:0:0:
109,192,39808,1,0,0:0:0:0:
329,192,39934,1,0,0:0:0:0:
256,192,39934,1,0,0:0:0:0:
109,192,39934,1,0,0:0:0:0:
36,192,40314,1,0,0:0:0:0:
182,192,40441,1,0,0:0:0:0:
329,192,40504,1,0,0:0:0:0:
402,192,40504,1,0,0:0:0:0:
36,192,40567,1,0,0:0:0:0:
182,192,40694,1,0,0:0:0:0:
109,192,40947,1,0,0:0:0:0:
182,192,41073,1,0,0:0:0:0:
256,192,41073,1,0,0:0:0:0:
402,192,41073,1,0,0:0:0:0:
475,192,41073,1,0,0:0:0:0:
109,192,41327,1,0,0:0:0:0:
402,192,41453,1,0,0:0:0:0:
329,192,41453,1,0,0:0:0:0:
36,192,41453,1,0,0:0:0:0:
475,192,41453,1,0,0:0:0:0:
329,192,41833,1,0,0:0:0:0:
402,192,41833,1,0,0:0:0:0:
36,192,41833,1,0,0:0:0:0:
36,192,42213,1,0,0:0:0:0:
329,192,42403,1,0,0:0:0:0:
256,192,42403,1,0,0:0:0:0:
36,192,42592,1,0,0:0:0:0:
36,192,42846,1,0,0:0:0:0:
256,192,42972,1,0,0:0:0:0:
182,192,42972,1,0,0:0:0:0:
36,192,42972,1,0,0:0:0:0:
36,192,43352,1,0,0:0:0:0:
256,192,43542,1,0,0:0:0:0:
329,192,43542,1,0,0:0:0:0:
182,192,43605,1,0,0:0:0:0:
36,192,43732,1,0,0:0:0:0:
182,192,43858,1,0,0:0:0:0:
36,192,43985,1,0,0:0:0:0:
182,192,44111,1,0,0:0:0:0:
109,192,44111,1,0,0:0:0:0:
402,192,44111,1,0,0:0:0:0:
475,192,44111,1,0,0:0:0:0:
36,192,44365,1,0,0:0:0:0:
256,192,44491,1,0,0:0:0:0:
329,192,44491,1,0,0:0:0:0:
475,192,44491,1,0,0:0:0:0:
109,192,44491,1,0,0:0:0:0:
182,192,44618,1,0,0:0:0:0:
36,192,44744,1,0,0:0:0:0:
256,192,44871,1,0,0:0:0:0:
329,192,44871,1,0,0:0:0:0:
109,192,44997,1,0,0:0:0:0:
475,192,45124,1,0,0:0:0:0:
329,192,45251,1,0,0:0:0:0:
475,192,45377,1,0,0:0:0:0:
182,192,45441,1,0,0:0:0:0:
256,192,45441,1,0,0:0:0:0:
402,192,45504,1,0,0:0:0:0:
329,192,45630,1,0,0:0:0:0:
475,192,45757,1,0,0:0:0:0:
329,192,45884,1,0,0:0:0:0:
109,192,46010,1,0,0:0:0:0:
182,192,46010,1,0,0:0:0:0:
402,192,46010,1,0,0:0:0:0:
36,192,46010,1,0,0:0:0:0:
475,192,46137,1,0,0:0:0:0:
329,192,46263,1,0,0:0:0:0:
475,192,46390,1,0,0:0:0:0:
402,192,46516,1,0,0:0:0:0:
182,192,46580,1,0,0:0:0:0:
256,192,46580,1,0,0:0:0:0:
109,192,46643,1,0,0:0:0:0:
329,192,46770,1,0,0:0:0:0:
182,192,46896,1,0,0:0:0:0:
329,192,47023,1,0,0:0:0:0:
109,192,47149,1,0,0:0:0:0:
36,192,47149,1,0,0:0:0:0:
256,192,47149,1,0,0:0:0:0:
475,192,47276,1,0,0:0:0:0:
329,192,47403,1,0,0:0:0:0:
402,192,47403,1,0,0:0:0:0:
109,192,47403,1,0,0:0:0:0:
256,192,47529,1,0,0:0:0:0:
182,192,47529,1,0,0:0:0:0:
36,192,47529,1,0,0:0:0:0:
475,192,47529,1,0,0:0:0:0:
329,192,47529,1,0,0:0:0:0:
109,192,47656,1,0,0:0:0:0:
329,192,47782,1,0,0:0:0:0:
256,192,47909,1,0,0:0:0:0:
182,192,47909,1,0,0:0:0:0:
109,192,48035,1,0,0:0:0:0:
329,192,48162,1,0,0:0:0:0:
256,192,48289,1,0,0:0:0:0:
36,192,48289,1,0,0:0:0:0:
402,192,48289,1,0,0:0:0:0:
475,192,48289,1,0,0:0:0:0:
329,192,48415,1,0,0:0:0:0:
182,192,48478,1,0,0:0:0:0:
109,192,48478,1,0,0:0:0:0:
402,192,48542,1,0,0:0:0:0:
256,192,48668,1,0,0:0:0:0:
402,192,48795,1,0,0:0:0:0:
182,192,48922,1,0,0:0:0:0:
109,192,49048,1,0,0:0:0:0:
36,192,49048,1,0,0:0:0:0:
329,192,49048,1,0,0:0:0:0:
475,192,49048,1,0,0:0:0:0:
182,192,49175,1,0,0:0:0:0:
329,192,49301,1,0,0:0:0:0:
256,192,49428,1,0,0:0:0:0:
36,192,49428,1,0,0:0:0:0:
402,192,49428,1,0,0:0:0:0:
475,192,49428,1,0,0:0:0:0:
329,192,49554,1,0,0:0:0:0:
182,192,49618,1,0,0:0:0:0:
109,192,49618,1,0,0:0:0:0:
36,192,49681,1,0,0:0:0:0:
256,192,49808,1,0,0:0:0:0:
475,192,49808,1,0,0:0:0:0:
182,192,49934,1,0,0:0:0:0:
402,192,49934,1,0,0:0:0:0:
109,192,50061,1,0,0:0:0:0:
329,192,50061,1,0,0:0:0:0:
475,192,50187,1,0,0:0:0:0:
36,192,50187,1,0,0:0:0:0:
402,192,50187,1,0,0:0:0:0:
256,192,50187,1,0,0:0:0:0:
182,192,50314,1,0,0:0:0:0:
256,192,50441,1,0,0:0:0:0:
329,192,50441,1,0,0:0:0:0:
109,192,50441,1,0,0:0:0:0:
36,192,50441,1,0,0:0:0:0:
182,192,50567,1,0,0:0:0:0:
402,192,50567,1,0,0:0:0:0:
475,192,50694,1,0,0:0:0:0:
256,192,50947,1,0,0:0:0:0:
182,192,51073,1,0,0:0:0:0:
109,192,51200,1,0,0:0:0:0:
329,192,51327,1,0,0:0:0:0:
402,192,51453,1,0,0:0:0:0:
475,192,51580,1,0,0:0:0:0:
256,192,51706,128,0,52086:0:0:0:0:
182,192,51960,128,0,52086:0:0:0:0:
36,192,52086,1,0,0:0:0:0:
109,192,52086,1,0,0:0:0:0:
329,192,52086,1,0,0:0:0:0:
402,192,52086,1,0,0:0:0:0:
475,192,52086,1,0,0:0:0:0:
256,192,52466,1,0,0:0:0:0:
182,192,52466,1,0,0:0:0:0:
329,192,52466,1,0,0:0:0:0:
475,192,52846,1,0,0:0:0:0:
182,192,52846,1,0,0:0:0:0:
402,192,52846,1,0,0:0:0:0:
256,192,53225,1,0,0:0:0:0:
109,192,53225,1,0,0:0:0:0:
36,192,53225,1,0,0:0:0:0:
402,192,53478,1,0,0:0:0:0:
475,192,53478,1,0,0:0:0:0:
329,192,53478,1,0,0:0:0:0:
109,192,53605,1,0,0:0:0:0:
36,192,53605,1,0,0:0:0:0:
182,192,53605,1,0,0:0:0:0:
256,192,53985,1,0,0:0:0:0:
329,192,53985,1,0,0:0:0:0:
475,192,53985,1,0,0:0:0:0:
182,192,54111,1,0,0:0:0:0:
256,192,54111,1,0,0:0:0:0:
402,192,54111,1,0,0:0:0:0:
109,192,54238,1,0,0:0:0:0:
182,192,54238,1,0,0:0:0:0:
329,192,54238,1,0,0:0:0:0:
36,192,54365,1,0,0:0:0:0:
109,192,54365,1,0,0:0:0:0:
256,192,54365,1,0,0:0:0:0:
475,192,54365,1,0,0:0:0:0:
329,192,54618,1,0,0:0:0:0:
402,192,54618,1,0,0:0:0:0:
475,192,54618,1,0,0:0:0:0:
36,192,54744,1,0,0:0:0:0:
109,192,54744,1,0,0:0:0:0:
182,192,54744,1,0,0:0:0:0:
329,192,54997,1,0,0:0:0:0:
402,192,54997,1,0,0:0:0:0:
475,192,54997,1,0,0:0:0:0:
36,192,55061,1,0,0:0:0:0:
109,192,55061,1,0,0:0:0:0:
475,192,55124,1,0,0:0:0:0:
329,192,55124,1,0,0:0:0:0:
182,192,55124,1,0,0:0:0:0:
256,192,55124,1,0,0:0:0:0:
402,192,55124,1,0,0:0:0:0:
36,192,55504,1,0,0:0:0:0:
109,192,55504,1,0,0:0:0:0:
182,192,55504,1,0,0:0:0:0:
329,192,55884,1,0,0:0:0:0:
256,192,55884,1,0,0:0:0:0:
402,192,55884,1,0,0:0:0:0:
109,192,56263,1,0,0:0:0:0:
182,192,56263,1,0,0:0:0:0:
256,192,56263,1,0,0:0:0:0:
329,192,56516,1,0,0:0:0:0:
402,192,56516,1,0,0:0:0:0:
475,192,56516,1,0,0:0:0:0:
36,192,56643,1,0,0:0:0:0:
109,192,56643,1,0,0:0:0:0:
182,192,56643,1,0,0:0:0:0:
256,192,57023,1,0,0:0:0:0:
329,192,57023,1,0,0:0:0:0:
475,192,57023,1,0,0:0:0:0:
182,192,57276,1,0,0:0:0:0:
36,192,57276,1,0,0:0:0:0:
109,192,57276,1,0,0:0:0:0:
329,192,57403,1,0,0:0:0:0:
402,192,57403,1,0,0:0:0:0:
475,192,57403,1,0,0:0:0:0:
182,192,57529,1,0,0:0:0:0:
109,192,57529,1,0,0:0:0:0:
36,192,57529,1,0,0:0:0:0:
329,192,57592,1,0,0:0:0:0:
402,192,57592,1,0,0:0:0:0:
475,192,57592,1,0,0:0:0:0:
182,192,57656,1,0,0:0:0:0:
109,192,57656,1,0,0:0:0:0:
36,192,57656,1,0,0:0:0:0:
329,192,57719,1,0,0:0:0:0:
402,192,57719,1,0,0:0:0:0:
475,192,57719,1,0,0:0:0:0:
182,192,57782,128,0,58035:0:0:0:0:
109,192,57782,128,0,58035:0:0:0:0:
36,192,57782,128,0,58035:0:0:0:0:
402,192,58035,1,0,0:0:0:0:
475,192,58035,1,0,0:0:0:0:
329,192,58162,1,0,0:0:0:0:
256,192,58162,1,0,0:0:0:0:
182,192,58162,1,0,0:0:0:0:
109,192,58162,1,0,0:0:0:0:
36,192,58162,1,0,0:0:0:0:
402,192,58542,1,0,0:0:0:0:
475,192,58542,1,0,0:0:0:0:
182,192,58542,1,0,0:0:0:0:
256,192,58922,1,0,0:0:0:0:
329,192,58922,1,0,0:0:0:0:
36,192,58922,1,0,0:0:0:0:
109,192,59301,1,0,0:0:0:0:
182,192,59301,1,0,0:0:0:0:
402,192,59301,1,0,0:0:0:0:
329,192,59554,1,0,0:0:0:0:
256,192,59554,1,0,0:0:0:0:
475,192,59554,1,0,0:0:0:0:
182,192,59681,1,0,0:0:0:0:
109,192,59681,1,0,0:0:0:0:
36,192,59681,1,0,0:0:0:0:
402,192,59681,1,0,0:0:0:0:
329,192,59681,1,0,0:0:0:0:
182,192,60061,1,0,0:0:0:0:
256,192,60061,1,0,0:0:0:0:
475,192,60061,1,0,0:0:0:0:
329,192,60314,1,0,0:0:0:0:
402,192,60314,1,0,0:0:0:0:
109,192,60314,1,0,0:0:0:0:
36,192,60441,1,0,0:0:0:0:
256,192,60441,1,0,0:0:0:0:
475,192,60441,1,0,0:0:0:0:
109,192,60820,128,0,61073:0:0:0:0:
256,192,60820,128,0,61073:0:0:0:0:
402,192,60820,128,0,61073:0:0:0:0:
109,192,61200,1,0,0:0:0:0:
256,192,61200,1,0,0:0:0:0:
402,192,61200,1,0,0:0:0:0:
182,192,61200,128,0,61453:0:0:0:0:
329,192,61200,128,0,61453:0:0:0:0:
36,192,61580,1,0,0:0:0:0:
109,192,61580,1,0,0:0:0:0:
402,192,61580,1,0,0:0:0:0:
475,192,61580,1,0,0:0:0:0:
182,192,61960,1,0,0:0:0:0:
329,192,61960,1,0,0:0:0:0:
109,192,61960,128,0,62339:0:0:0:0:
402,192,61960,128,0,62339:0:0:0:0:
182,192,62339,1,0,0:0:0:0:
36,192,62339,1,0,0:0:0:0:
329,192,62339,1,0,0:0:0:0:
475,192,62339,1,0,0:0:0:0:
402,192,62592,1,0,0:0:0:0:
475,192,62592,1,0,0:0:0:0:
256,192,62719,1,0,0:0:0:0:
182,192,62719,1,0,0:0:0:0:
109,192,62719,1,0,0:0:0:0:
329,192,62719,1,0,0:0:0:0:
36,192,62846,1,0,0:0:0:0:
182,192,62972,1,0,0:0:0:0:
329,192,63099,1,0,0:0:0:0:
402,192,63099,1,0,0:0:0:0:
475,192,63099,1,0,0:0:0:0:
109,192,63225,1,0,0:0:0:0:
256,192,63352,1,0,0:0:0:0:
329,192,63352,1,0,0:0:0:0:
402,192,63352,1,0,0:0:0:0:
182,192,63478,1,0,0:0:0:0:
256,192,63478,1,0,0:0:0:0:
329,192,63478,1,0,0:0:0:0:
109,192,63605,1,0,0:0:0:0:
182,192,63605,1,0,0:0:0:0:
256,192,63605,1,0,0:0:0:0:
36,192,63732,1,0,0:0:0:0:
109,192,63732,1,0,0:0:0:0:
182,192,63732,1,0,0:0:0:0:
475,192,63858,1,0,0:0:0:0:
402,192,63890,1,0,0:0:0:0:
329,192,63922,1,0,0:0:0:0:
256,192,63953,1,0,0:0:0:0:
182,192,63985,1,0,0:0:0:0:
109,192,64016,1,0,0:0:0:0:
36,192,64048,1,0,0:0:0:0:
475,192,64080,1,0,0:0:0:0:
402,192,64111,1,0,0:0:0:0:
329,192,64143,1,0,0:0:0:0:
256,192,64175,1,0,0:0:0:0:
182,192,64206,1,0,0:0:0:0:
109,192,64238,1,0,0:0:0:0:
36,192,64238,1,0,0:0:0:0:
402,192,64238,1,0,0:0:0:0:
475,192,64238,1,0,0:0:0:0:
256,192,64618,1,0,0:0:0:0:
329,192,64618,1,0,0:0:0:0:
182,192,64618,1,0,0:0:0:0:
36,192,64997,1,0,0:0:0:0:
329,192,64997,1,0,0:0:0:0:
109,192,64997,1,0,0:0:0:0:
256,192,65377,1,0,0:0:0:0:
402,192,65377,1,0,0:0:0:0:
475,192,65377,1,0,0:0:0:0:
109,192,65630,1,0,0:0:0:0:
36,192,65630,1,0,0:0:0:0:
182,192,65630,1,0,0:0:0:0:
402,192,65757,1,0,0:0:0:0:
475,192,65757,1,0,0:0:0:0:
329,192,65757,1,0,0:0:0:0:
256,192,66137,1,0,0:0:0:0:
182,192,66137,1,0,0:0:0:0:
36,192,66137,1,0,0:0:0:0:
475,192,66516,1,0,0:0:0:0:
402,192,66516,1,0,0:0:0:0:
256,192,66516,1,0,0:0:0:0:
36,192,66516,1,0,0:0:0:0:
329,192,66643,1,0,0:0:0:0:
402,192,66643,1,0,0:0:0:0:
182,192,66643,1,0,0:0:0:0:
256,192,66770,1,0,0:0:0:0:
109,192,66770,1,0,0:0:0:0:
329,192,66770,1,0,0:0:0:0:
475,192,66896,1,0,0:0:0:0:
402,192,66896,1,0,0:0:0:0:
182,192,66896,1,0,0:0:0:0:
182,192,67149,1,0,0:0:0:0:
109,192,67149,1,0,0:0:0:0:
36,192,67149,1,0,0:0:0:0:
475,192,67213,1,0,0:0:0:0:
402,192,67213,1,0,0:0:0:0:
36,192,67276,1,0,0:0:0:0:
182,192,67276,1,0,0:0:0:0:
329,192,67276,1,0,0:0:0:0:
256,192,67276,1,0,0:0:0:0:
109,192,67276,1,0,0:0:0:0:
475,192,67656,1,0,0:0:0:0:
402,192,67656,1,0,0:0:0:0:
329,192,67656,1,0,0:0:0:0:
329,192,67909,1,0,0:0:0:0:
402,192,67909,1,0,0:0:0:0:
475,192,67909,1,0,0:0:0:0:
36,192,67972,1,0,0:0:0:0:
109,192,67972,1,0,0:0:0:0:
182,192,67972,1,0,0:0:0:0:
475,192,68035,1,0,0:0:0:0:
329,192,68035,1,0,0:0:0:0:
402,192,68035,1,0,0:0:0:0:
402,192,68415,1,0,0:0:0:0:
329,192,68415,1,0,0:0:0:0:
256,192,68415,1,0,0:0:0:0:
36,192,68542,1,0,0:0:0:0:
109,192,68573,1,0,0:0:0:0:
182,192,68605,1,0,0:0:0:0:
256,192,68637,1,0,0:0:0:0:
475,192,68668,1,0,0:0:0:0:
402,192,68700,1,0,0:0:0:0:
329,192,68732,1,0,0:0:0:0:
256,192,68763,1,0,0:0:0:0:
182,192,68795,1,0,0:0:0:0:
109,192,68795,128,0,69048:0:0:0:0:
36,192,68795,128,0,69048:0:0:0:0:
256,192,69175,1,0,0:0:0:0:
109,192,69175,1,0,0:0:0:0:
36,192,69175,1,0,0:0:0:0:
329,192,69428,1,0,0:0:0:0:
402,192,69428,128,0,69808:0:0:0:0:
475,192,69428,128,0,69808:0:0:0:0:
182,192,69554,1,0,0:0:0:0:
109,192,69554,1,0,0:0:0:0:
36,192,69554,1,0,0:0:0:0:
475,192,69934,1,0,0:0:0:0:
402,192,69934,1,0,0:0:0:0:
329,192,69934,1,0,0:0:0:0:
109,192,70187,1,0,0:0:0:0:
36,192,70187,1,0,0:0:0:0:
182,192,70187,1,0,0:0:0:0:
256,192,70314,1,0,0:0:0:0:
329,192,70314,1,0,0:0:0:0:
402,192,70314,1,0,0:0:0:0:
475,192,70314,1,0,0:0:0:0:
109,192,70694,1,0,0:0:0:0:
36,192,70694,1,0,0:0:0:0:
329,192,70694,1,0,0:0:0:0:
256,192,71073,1,0,0:0:0:0:
182,192,71073,1,0,0:0:0:0:
475,192,71073,1,0,0:0:0:0:
402,192,71453,1,0,0:0:0:0:
329,192,71453,1,0,0:0:0:0:
109,192,71453,1,0,0:0:0:0:
329,192,71833,1,0,0:0:0:0:
402,192,71833,1,0,0:0:0:0:
475,192,71833,1,0,0:0:0:0:
109,192,71833,1,0,0:0:0:0:
36,192,71833,1,0,0:0:0:0:
329,192,72213,1,0,0:0:0:0:
256,192,72213,1,0,0:0:0:0:
36,192,72213,1,0,0:0:0:0:
475,192,72592,1,0,0:0:0:0:
256,192,72592,1,0,0:0:0:0:
109,192,72592,1,0,0:0:0:0:
402,192,72972,128,0,73225:0:0:0:0:
256,192,72972,128,0,73225:0:0:0:0:
109,192,72972,128,0,73225:0:0:0:0:
36,192,73225,1,0,0:0:0:0:
182,192,73225,1,0,0:0:0:0:
329,192,73225,1,0,0:0:0:0:
256,192,73352,1,0,0:0:0:0:
109,192,73352,128,0,73605:0:0:0:0:
402,192,73352,128,0,73605:0:0:0:0:
256,192,73732,1,0,0:0:0:0:
36,192,73732,128,0,73985:0:0:0:0:
475,192,73732,128,0,73985:0:0:0:0:
182,192,73985,1,0,0:0:0:0:
329,192,73985,1,0,0:0:0:0:
329,192,74111,1,0,0:0:0:0:
182,192,74111,1,0,0:0:0:0:
402,192,74111,128,0,74491:0:0:0:0:
109,192,74111,128,0,74491:0:0:0:0:
36,192,74365,1,0,0:0:0:0:
475,192,74365,1,0,0:0:0:0:
475,192,74491,1,0,0:0:0:0:
256,192,74491,1,0,0:0:0:0:
36,192,74491,1,0,0:0:0:0:
329,192,74618,1,0,0:0:0:0:
402,192,74618,1,0,0:0:0:0:
109,192,74744,1,0,0:0:0:0:
36,192,74744,1,0,0:0:0:0:
256,192,74871,1,0,0:0:0:0:
329,192,74871,1,0,0:0:0:0:
402,192,74871,1,0,0:0:0:0:
182,192,74871,1,0,0:0:0:0:
475,192,74997,1,0,0:0:0:0:
402,192,74997,1,0,0:0:0:0:
329,192,75124,1,0,0:0:0:0:
256,192,75124,1,0,0:0:0:0:
182,192,75251,5,0,0:0:0:0:
109,192,75251,1,0,0:0:0:0:
36,192,75251,1,0,0:0:0:0:
402,192,75377,1,0,0:0:0:0:
475,192,75377,1,0,0:0:0:0:
256,192,75504,1,0,0:0:0:0:
182,192,75504,1,0,0:0:0:0:
109,192,75504,1,0,0:0:0:0:
329,192,75630,1,0,0:0:0:0:
256,192,75630,1,0,0:0:0:0:
182,192,75630,1,0,0:0:0:0:
402,192,75757,1,0,0:0:0:0:
329,192,75757,1,0,0:0:0:0:
256,192,75757,1,0,0:0:0:0:
475,192,75884,1,0,0:0:0:0:
402,192,75884,1,0,0:0:0:0:
329,192,75884,1,0,0:0:0:0:
256,192,76010,1,0,0:0:0:0:
109,192,76010,1,0,0:0:0:0:
36,192,76010,1,0,0:0:0:0:
329,192,76137,1,0,0:0:0:0:
402,192,76137,1,0,0:0:0:0:
475,192,76137,1,0,0:0:0:0:
182,192,76263,1,0,0:0:0:0:
109,192,76263,1,0,0:0:0:0:
36,192,76263,1,0,0:0:0:0:
256,192,76390,1,0,0:0:0:0:
402,192,76390,1,0,0:0:0:0:
475,192,76390,1,0,0:0:0:0:
329,192,76390,1,0,0:0:0:0:
109,192,76770,1,0,0:0:0:0:
182,192,76770,1,0,0:0:0:0:
475,192,77339,1,0,0:0:0:0:
402,192,77339,1,0,0:0:0:0:
256,192,77909,1,0,0:0:0:0:
329,192,77909,1,0,0:0:0:0:
329,192,78478,1,0,0:0:0:0:
402,192,78478,1,0,0:0:0:0:
402,192,79048,1,0,0:0:0:0:
475,192,79048,1,0,0:0:0:0:
36,192,79428,1,0,0:0:0:0:
109,192,79428,1,0,0:0:0:0:
256,192,79428,1,0,0:0:0:0:
402,192,79428,1,0,0:0:0:0:
475,192,79428,1,0,0:0:0:0:
36,192,79808,1,0,0:0:0:0:
182,192,79808,1,0,0:0:0:0:
329,192,80377,1,0,0:0:0:0:
475,192,80377,1,0,0:0:0:0:
109,192,80947,1,0,0:0:0:0:
256,192,80947,1,0,0:0:0:0:
182,192,81516,1,0,0:0:0:0:
329,192,81516,1,0,0:0:0:0:
256,192,82086,1,0,0:0:0:0:
402,192,82086,1,0,0:0:0:0:
475,192,82086,1,0,0:0:0:0:
36,192,82086,1,0,0:0:0:0:
109,192,82086,1,0,0:0:0:0:
36,192,82466,1,0,0:0:0:0:
109,192,82466,1,0,0:0:0:0:
329,192,82466,1,0,0:0:0:0:
402,192,82466,1,0,0:0:0:0:
256,192,82846,1,0,0:0:0:0:
36,192,82846,1,0,0:0:0:0:
256,192,83415,1,0,0:0:0:0:
475,192,83415,1,0,0:0:0:0:
109,192,83985,1,0,0:0:0:0:
402,192,83985,1,0,0:0:0:0:
36,192,83985,1,0,0:0:0:0:
475,192,83985,1,0,0:0:0:0:
256,192,83985,1,0,0:0:0:0:
182,192,84554,1,0,0:0:0:0:
402,192,84554,1,0,0:0:0:0:
256,192,85124,1,0,0:0:0:0:
475,192,85124,1,0,0:0:0:0:
36,192,85377,1,0,0:0:0:0:
109,192,85377,1,0,0:0:0:0:
402,192,85377,1,0,0:0:0:0:
329,192,85377,1,0,0:0:0:0:
475,192,85377,1,0,0:0:0:0:
256,192,85504,1,0,0:0:0:0:
182,192,85504,1,0,0:0:0:0:
329,192,85884,1,0,0:0:0:0:
256,192,85884,1,0,0:0:0:0:
36,192,86263,1,0,0:0:0:0:
109,192,86263,1,0,0:0:0:0:
256,192,86263,1,0,0:0:0:0:
402,192,86263,1,0,0:0:0:0:
475,192,86263,1,0,0:0:0:0:
329,192,86453,1,0,0:0:0:0:
182,192,86453,1,0,0:0:0:0:
329,192,86896,1,0,0:0:0:0:
475,192,86896,1,0,0:0:0:0:
36,192,86896,1,0,0:0:0:0:
182,192,86896,1,0,0:0:0:0:
256,192,87023,1,0,0:0:0:0:
109,192,87023,1,0,0:0:0:0:
402,192,87023,1,0,0:0:0:0:
329,192,87023,1,0,0:0:0:0:
182,192,87023,1,0,0:0:0:0:
36,192,87403,1,0,0:0:0:0:
109,192,87403,1,0,0:0:0:0:
402,192,87403,1,0,0:0:0:0:
475,192,87403,1,0,0:0:0:0:
182,192,87782,1,0,0:0:0:0:
109,192,87782,1,0,0:0:0:0:
329,192,87782,1,0,0:0:0:0:
402,192,87782,1,0,0:0:0:0:
109,192,87909,1,0,0:0:0:0:
256,192,87909,1,0,0:0:0:0:
402,192,87909,1,0,0:0:0:0:
109,192,88035,1,0,0:0:0:0:
402,192,88035,1,0,0:0:0:0:
182,192,88162,1,0,0:0:0:0:
256,192,88162,1,0,0:0:0:0:
329,192,88162,1,0,0:0:0:0:
36,192,88162,1,0,0:0:0:0:
475,192,88162,1,0,0:0:0:0:
182,192,88289,1,0,0:0:0:0:
329,192,88289,1,0,0:0:0:0:
256,192,88415,128,0,88542:0:0:0:0:
182,192,88415,128,0,88542:0:0:0:0:
329,192,88415,128,0,88542:0:0:0:0:
36,192,88542,1,0,0:0:0:0:
109,192,88542,1,0,0:0:0:0:
402,192,88542,1,0,0:0:0:0:
475,192,88542,1,0,0:0:0:0:
109,192,88795,1,0,0:0:0:0:
329,192,88922,1,0,0:0:0:0:
402,192,88922,1,0,0:0:0:0:
182,192,88922,1,0,0:0:0:0:
475,192,88922,1,0,0:0:0:0:
109,192,89175,1,0,0:0:0:0:
256,192,89301,1,0,0:0:0:0:
329,192,89301,1,0,0:0:0:0:
109,192,89491,1,0,0:0:0:0:
36,192,89491,1,0,0:0:0:0:
182,192,89491,1,0,0:0:0:0:
329,192,89681,1,0,0:0:0:0:
402,192,89681,1,0,0:0:0:0:
475,192,89681,1,0,0:0:0:0:
402,192,89934,1,0,0:0:0:0:
182,192,90061,1,0,0:0:0:0:
256,192,90061,1,0,0:0:0:0:
109,192,90061,1,0,0:0:0:0:
329,192,90314,1,0,0:0:0:0:
402,192,90441,1,0,0:0:0:0:
475,192,90441,1,0,0:0:0:0:
109,192,90630,1,0,0:0:0:0:
182,192,90630,1,0,0:0:0:0:
329,192,90630,1,0,0:0:0:0:
402,192,90820,1,0,0:0:0:0:
475,192,90820,1,0,0:0:0:0:
329,192,91073,1,0,0:0:0:0:
36,192,91200,1,0,0:0:0:0:
109,192,91200,1,0,0:0:0:0:
256,192,91200,1,0,0:0:0:0:
182,192,91453,1,0,0:0:0:0:
109,192,91580,1,0,0:0:0:0:
36,192,91580,1,0,0:0:0:0:
256,192,91580,1,0,0:0:0:0:
475,192,91580,1,0,0:0:0:0:
402,192,91580,1,0,0:0:0:0:
182,192,91833,1,0,0:0:0:0:
329,192,91960,1,0,0:0:0:0:
475,192,91960,1,0,0:0:0:0:
402,192,91960,1,0,0:0:0:0:
256,192,92213,1,0,0:0:0:0:
329,192,92339,1,0,0:0:0:0:
402,192,92339,1,0,0:0:0:0:
36,192,92529,1,0,0:0:0:0:
182,192,92529,1,0,0:0:0:0:
109,192,92529,1,0,0:0:0:0:
402,192,92719,128,0,92972:0:0:0:0:
475,192,92719,128,0,92972:0:0:0:0:
402,192,93099,1,0,0:0:0:0:
475,192,93099,1,0,0:0:0:0:
256,192,93099,128,0,93668:0:0:0:0:
36,192,93352,1,0,0:0:0:0:
109,192,93352,1,0,0:0:0:0:
402,192,93478,1,0,0:0:0:0:
475,192,93478,1,0,0:0:0:0:
182,192,93668,1,0,0:0:0:0:
329,192,93668,1,0,0:0:0:0:
109,192,93668,1,0,0:0:0:0:
402,192,93858,1,0,0:0:0:0:
256,192,94111,1,0,0:0:0:0:
329,192,94111,1,0,0:0:0:0:
36,192,94238,1,0,0:0:0:0:
109,192,94270,1,0,0:0:0:0:
182,192,94301,1,0,0:0:0:0:
475,192,94333,1,0,0:0:0:0:
402,192,94365,1,0,0:0:0:0:
329,192,94396,1,0,0:0:0:0:
36,192,94428,1,0,0:0:0:0:
109,192,94460,1,0,0:0:0:0:
182,192,94491,1,0,0:0:0:0:
475,192,94523,1,0,0:0:0:0:
402,192,94554,1,0,0:0:0:0:
329,192,94586,1,0,0:0:0:0:
182,192,94618,1,0,0:0:0:0:
109,192,94618,1,0,0:0:0:0:
36,192,94618,1,0,0:0:0:0:
256,192,94618,1,0,0:0:0:0:
402,192,94871,1,0,0:0:0:0:
475,192,94997,1,0,0:0:0:0:
256,192,94997,1,0,0:0:0:0:
109,192,94997,1,0,0:0:0:0:
329,192,95377,1,0,0:0:0:0:
402,192,95377,1,0,0:0:0:0:
475,192,95377,1,0,0:0:0:0:
36,192,95567,1,0,0:0:0:0:
256,192,95567,1,0,0:0:0:0:
109,192,95567,1,0,0:0:0:0:
402,192,95757,1,0,0:0:0:0:
475,192,95757,1,0,0:0:0:0:
182,192,96010,1,0,0:0:0:0:
329,192,96010,1,0,0:0:0:0:
36,192,96137,1,0,0:0:0:0:
256,192,96137,1,0,0:0:0:0:
475,192,96137,1,0,0:0:0:0:
402,192,96137,1,0,0:0:0:0:
109,192,96137,1,0,0:0:0:0:
182,192,96390,1,0,0:0:0:0:
256,192,96516,1,0,0:0:0:0:
402,192,96516,1,0,0:0:0:0:
109,192,96706,1,0,0:0:0:0:
329,192,96706,1,0,0:0:0:0:
182,192,96706,1,0,0:0:0:0:
475,192,96896,1,0,0:0:0:0:
256,192,96896,1,0,0:0:0:0:
402,192,96896,1,0,0:0:0:0:
109,192,97149,1,0,0:0:0:0:
36,192,97276,1,0,0:0:0:0:
256,192,97276,1,0,0:0:0:0:
329,192,97276,1,0,0:0:0:0:
182,192,97529,1,0,0:0:0:0:
36,192,97529,1,0,0:0:0:0:
109,192,97529,1,0,0:0:0:0:
475,192,97529,1,0,0:0:0:0:
402,192,97529,1,0,0:0:0:0:
329,192,97656,1,0,0:0:0:0:
256,192,97656,1,0,0:0:0:0:
402,192,97656,1,0,0:0:0:0:
475,192,97656,1,0,0:0:0:0:
109,192,97909,1,0,0:0:0:0:
36,192,97909,1,0,0:0:0:0:
256,192,98035,1,0,0:0:0:0:
182,192,98035,1,0,0:0:0:0:
329,192,98035,1,0,0:0:0:0:
402,192,98035,1,0,0:0:0:0:
329,192,98162,1,0,0:0:0:0:
182,192,98289,1,0,0:0:0:0:
256,192,98289,1,0,0:0:0:0:
109,192,98415,1,0,0:0:0:0:
36,192,98415,1,0,0:0:0:0:
256,192,98415,1,0,0:0:0:0:
475,192,98415,1,0,0:0:0:0:
402,192,98415,1,0,0:0:0:0:
329,192,98605,1,0,0:0:0:0:
182,192,98605,1,0,0:0:0:0:
256,192,98605,1,0,0:0:0:0:
402,192,98795,1,0,0:0:0:0:
109,192,98795,1,0,0:0:0:0:
256,192,98922,1,0,0:0:0:0:
329,192,99048,1,0,0:0:0:0:
182,192,99048,1,0,0:0:0:0:
256,192,99175,1,0,0:0:0:0:
109,192,99175,1,0,0:0:0:0:
402,192,99175,1,0,0:0:0:0:
182,192,99301,1,0,0:0:0:0:
329,192,99301,1,0,0:0:0:0:
475,192,99428,1,0,0:0:0:0:
402,192,99428,1,0,0:0:0:0:
109,192,99554,5,0,0:0:0:0:
36,192,99554,1,0,0:0:0:0:
475,192,99554,1,0,0:0:0:0:
402,192,99554,1,0,0:0:0:0:
109,192,99681,1,0,0:0:0:0:
36,192,99681,1,0,0:0:0:0:
182,192,99808,1,0,0:0:0:0:
329,192,99808,1,0,0:0:0:0:
182,192,99934,1,0,0:0:0:0:
109,192,99934,1,0,0:0:0:0:
329,192,99934,1,0,0:0:0:0:
402,192,99934,1,0,0:0:0:0:
109,192,100061,1,0,0:0:0:0:
256,192,100061,1,0,0:0:0:0:
402,192,100061,1,0,0:0:0:0:
109,192,100187,1,0,0:0:0:0:
402,192,100187,1,0,0:0:0:0:
475,192,100187,1,0,0:0:0:0:
475,192,100314,1,0,0:0:0:0:
36,192,100314,1,0,0:0:0:0:
182,192,100314,1,0,0:0:0:0:
329,192,100314,1,0,0:0:0:0:
256,192,100314,1,0,0:0:0:0:
182,192,100441,1,0,0:0:0:0:
329,192,100441,1,0,0:0:0:0:
182,192,100567,1,0,0:0:0:0:
329,192,100567,1,0,0:0:0:0:
256,192,100694,128,0,103732:0:0:0:0:
109,192,100694,1,0,0:0:0:0:
36,192,100694,1,0,0:0:0:0:
475,192,100694,1,0,0:0:0:0:
402,192,100694,1,0,0:0:0:0:
109,192,102213,128,0,106770:0:0:0:0:
36,192,102213,1,0,0:0:0:0:
402,192,103732,128,0,106770:0:0:0:0:
475,192,103732,1,0,0:0:0:0:
256,192,105251,128,0,106770:0:0:0:0:
182,192,105251,1,0,0:0:0:0:
329,192,106770,128,0,111327:0:0:0:0:
475,192,106770,128,0,111327:0:0:0:0:
182,192,108289,128,0,111327:0:0:0:0:
109,192,108289,1,0,0:0:0:0:
36,192,109808,128,0,111327:0:0:0:0:
256,192,109808,1,0,0:0:0:0:
256,192,111327,128,0,111453:0:0:0:0:
402,192,111453,128,0,111580:0:0:0:0:
109,192,111706,128,0,111833:0:0:0:0:
256,192,111833,128,0,111960:0:0:0:0:
36,192,111960,128,0,112086:0:0:0:0:
329,192,112086,128,0,112213:0:0:0:0:
182,192,112213,128,0,112339:0:0:0:0:
475,192,112339,128,0,112466:0:0:0:0:
402,192,112466,128,0,112846:0:0:0:0:
36,192,112592,1,0,0:0:0:0:
182,192,112719,1,0,0:0:0:0:
36,192,112846,1,0,0:0:0:0:
109,192,112846,1,0,0:0:0:0:
256,192,112846,1,0,0:0:0:0:
329,192,112846,1,0,0:0:0:0:
475,192,112846,1,0,0:0:0:0:
182,192,112972,1,0,0:0:0:0:
109,192,113099,1,0,0:0:0:0:
329,192,113225,1,0,0:0:0:0:
475,192,113352,1,0,0:0:0:0:
329,192,113478,1,0,0:0:0:0:
475,192,113605,1,0,0:0:0:0:
256,192,113732,1,0,0:0:0:0:
109,192,113858,1,0,0:0:0:0:
475,192,113985,1,0,0:0:0:0:
329,192,114111,1,0,0:0:0:0:
475,192,114238,1,0,0:0:0:0:
329,192,114365,1,0,0:0:0:0:
256,192,114365,1,0,0:0:0:0:
109,192,114491,1,0,0:0:0:0:
36,192,114618,1,0,0:0:0:0:
329,192,114744,1,0,0:0:0:0:
475,192,114871,1,0,0:0:0:0:
329,192,114997,1,0,0:0:0:0:
475,192,115124,1,0,0:0:0:0:
182,192,115251,1,0,0:0:0:0:
109,192,115377,1,0,0:0:0:0:
402,192,115504,1,0,0:0:0:0:
402,192,115630,1,0,0:0:0:0:
36,192,115757,1,0,0:0:0:0:
182,192,115884,1,0,0:0:0:0:
256,192,115884,1,0,0:0:0:0:
329,192,116010,1,0,0:0:0:0:
402,192,116137,1,0,0:0:0:0:
182,192,116263,1,0,0:0:0:0:
36,192,116390,1,0,0:0:0:0:
182,192,116516,1,0,0:0:0:0:
36,192,116643,1,0,0:0:0:0:
256,192,116770,1,0,0:0:0:0:
402,192,116896,1,0,0:0:0:0:
36,192,117023,1,0,0:0:0:0:
182,192,117149,1,0,0:0:0:0:
36,192,117276,1,0,0:0:0:0:
256,192,117403,1,0,0:0:0:0:
182,192,117403,1,0,0:0:0:0:
402,192,117529,1,0,0:0:0:0:
475,192,117656,1,0,0:0:0:0:
182,192,117782,1,0,0:0:0:0:
36,192,117909,1,0,0:0:0:0:
182,192,118035,1,0,0:0:0:0:
36,192,118162,1,0,0:0:0:0:
329,192,118289,1,0,0:0:0:0:
402,192,118415,1,0,0:0:0:0:
109,192,118542,1,0,0:0:0:0:
109,192,118668,1,0,0:0:0:0:
475,192,118795,1,0,0:0:0:0:
256,192,118922,1,0,0:0:0:0:
329,192,118922,1,0,0:0:0:0:
182,192,119048,1,0,0:0:0:0:
109,192,119175,1,0,0:0:0:0:
329,192,119301,1,0,0:0:0:0:
475,192,119428,1,0,0:0:0:0:
329,192,119554,1,0,0:0:0:0:
475,192,119681,1,0,0:0:0:0:
256,192,119808,1,0,0:0:0:0:
109,192,119934,1,0,0:0:0:0:
475,192,120061,1,0,0:0:0:0:
329,192,120187,1,0,0:0:0:0:
475,192,120314,1,0,0:0:0:0:
329,192,120441,1,0,0:0:0:0:
256,192,120441,1,0,0:0:0:0:
109,192,120567,1,0,0:0:0:0:
36,192,120694,1,0,0:0:0:0:
329,192,120820,1,0,0:0:0:0:
475,192,120947,1,0,0:0:0:0:
256,192,121073,1,0,0:0:0:0:
402,192,121200,1,0,0:0:0:0:
182,192,121327,1,0,0:0:0:0:
329,192,121453,1,0,0:0:0:0:
475,192,121580,1,0,0:0:0:0:
475,192,121706,1,0,0:0:0:0:
36,192,121833,1,0,0:0:0:0:
329,192,121960,1,0,0:0:0:0:
182,192,121960,1,0,0:0:0:0:
402,192,122086,1,0,0:0:0:0:
109,192,122213,1,0,0:0:0:0:
256,192,122339,1,0,0:0:0:0:
329,192,122466,1,0,0:0:0:0:
402,192,122592,1,0,0:0:0:0:
182,192,122719,1,0,0:0:0:0:
256,192,122846,1,0,0:0:0:0:
329,192,122972,1,0,0:0:0:0:
109,192,123099,1,0,0:0:0:0:
256,192,123225,1,0,0:0:0:0:
402,192,123352,1,0,0:0:0:0:
329,192,123478,1,0,0:0:0:0:
36,192,123478,128,0,123605:0:0:0:0:
329,192,123605,1,0,0:0:0:0:
109,192,123605,128,0,123732:0:0:0:0:
475,192,123732,1,0,0:0:0:0:
402,192,123858,1,0,0:0:0:0:
36,192,123858,128,0,123985:0:0:0:0:
256,192,123985,1,0,0:0:0:0:
109,192,123985,128,0,124111:0:0:0:0:
402,192,124111,1,0,0:0:0:0:
182,192,124111,128,0,124238:0:0:0:0:
329,192,124238,1,0,0:0:0:0:
36,192,124238,128,0,124365:0:0:0:0:
475,192,124365,1,0,0:0:0:0:
182,192,124365,128,0,124491:0:0:0:0:
402,192,124491,1,0,0:0:0:0:
109,192,124491,128,0,124618:0:0:0:0:
256,192,124618,1,0,0:0:0:0:
36,192,124618,128,0,124997:0:0:0:0:
329,192,124744,1,0,0:0:0:0:
475,192,124871,1,0,0:0:0:0:
402,192,124871,1,0,0:0:0:0:
182,192,124871,1,0,0:0:0:0:
109,192,124871,1,0,0:0:0:0:
329,192,124997,1,0,0:0:0:0:
256,192,124997,1,0,0:0:0:0:
402,192,124997,1,0,0:0:0:0:
475,192,124997,1,0,0:0:0:0:
329,192,125124,1,0,0:0:0:0:
256,192,125124,1,0,0:0:0:0:
475,192,125251,1,0,0:0:0:0:
402,192,125251,1,0,0:0:0:0:
109,192,125377,1,0,0:0:0:0:
182,192,125377,1,0,0:0:0:0:
329,192,125377,1,0,0:0:0:0:
402,192,125504,1,0,0:0:0:0:
475,192,125504,1,0,0:0:0:0:
256,192,125630,1,0,0:0:0:0:
402,192,125630,1,0,0:0:0:0:
182,192,125757,1,0,0:0:0:0:
256,192,125757,1,0,0:0:0:0:
402,192,125884,1,0,0:0:0:0:
475,192,125884,1,0,0:0:0:0:
36,192,126010,1,0,0:0:0:0:
109,192,126010,1,0,0:0:0:0:
329,192,126010,1,0,0:0:0:0:
182,192,126137,1,0,0:0:0:0:
256,192,126137,1,0,0:0:0:0:
402,192,126263,1,0,0:0:0:0:
475,192,126263,1,0,0:0:0:0:
329,192,126390,1,0,0:0:0:0:
256,192,126390,1,0,0:0:0:0:
109,192,126516,1,0,0:0:0:0:
182,192,126516,1,0,0:0:0:0:
36,192,126516,1,0,0:0:0:0:
402,192,126643,1,0,0:0:0:0:
475,192,126643,1,0,0:0:0:0:
182,192,126770,1,0,0:0:0:0:
329,192,126770,1,0,0:0:0:0:
256,192,126896,1,0,0:0:0:0:
402,192,126896,1,0,0:0:0:0:
329,192,127023,1,0,0:0:0:0:
475,192,127023,1,0,0:0:0:0:
36,192,127086,1,0,0:0:0:0:
109,192,127086,1,0,0:0:0:0:
182,192,127086,1,0,0:0:0:0:
329,192,127149,1,0,0:0:0:0:
475,192,127149,1,0,0:0:0:0:
256,192,127276,1,0,0:0:0:0:
402,192,127276,1,0,0:0:0:0:
182,192,127403,1,0,0:0:0:0:
329,192,127403,1,0,0:0:0:0:
109,192,127529,1,0,0:0:0:0:
256,192,127529,1,0,0:0:0:0:
402,192,127656,1,0,0:0:0:0:
329,192,127656,1,0,0:0:0:0:
475,192,127656,1,0,0:0:0:0:
36,192,127782,1,0,0:0:0:0:
182,192,127782,1,0,0:0:0:0:
109,192,127909,1,0,0:0:0:0:
256,192,127909,1,0,0:0:0:0:
36,192,128035,1,0,0:0:0:0:
182,192,128035,1,0,0:0:0:0:
402,192,128035,1,0,0:0:0:0:
329,192,128035,1,0,0:0:0:0:
475,192,128035,1,0,0:0:0:0:
329,192,128162,1,0,0:0:0:0:
182,192,128162,1,0,0:0:0:0:
36,192,128289,1,0,0:0:0:0:
109,192,128289,1,0,0:0:0:0:
402,192,128415,1,0,0:0:0:0:
182,192,128415,1,0,0:0:0:0:
329,192,128415,1,0,0:0:0:0:
36,192,128542,1,0,0:0:0:0:
109,192,128542,1,0,0:0:0:0:
256,192,128668,1,0,0:0:0:0:
109,192,128668,1,0,0:0:0:0:
329,192,128795,1,0,0:0:0:0:
256,192,128795,1,0,0:0:0:0:
36,192,128922,1,0,0:0:0:0:
109,192,128922,1,0,0:0:0:0:
475,192,129048,1,0,0:0:0:0:
402,192,129048,1,0,0:0:0:0:
182,192,129048,1,0,0:0:0:0:
329,192,129175,1,0,0:0:0:0:
256,192,129175,1,0,0:0:0:0:
182,192,129301,1,0,0:0:0:0:
36,192,129301,1,0,0:0:0:0:
182,192,129428,1,0,0:0:0:0:
256,192,129428,1,0,0:0:0:0:
475,192,129554,1,0,0:0:0:0:
402,192,129554,1,0,0:0:0:0:
329,192,129554,1,0,0:0:0:0:
36,192,129681,1,0,0:0:0:0:
109,192,129681,1,0,0:0:0:0:
329,192,129808,1,0,0:0:0:0:
182,192,129808,1,0,0:0:0:0:
256,192,129934,1,0,0:0:0:0:
109,192,129934,1,0,0:0:0:0:
182,192,130061,1,0,0:0:0:0:
36,192,130061,1,0,0:0:0:0:
402,192,130124,1,0,0:0:0:0:
475,192,130124,1,0,0:0:0:0:
329,192,130124,1,0,0:0:0:0:
182,192,130187,1,0,0:0:0:0:
36,192,130187,1,0,0:0:0:0:
256,192,130314,1,0,0:0:0:0:
109,192,130314,1,0,0:0:0:0:
475,192,130441,1,0,0:0:0:0:
402,192,130441,1,0,0:0:0:0:
256,192,130567,1,0,0:0:0:0:
402,192,130567,1,0,0:0:0:0:
109,192,130694,1,0,0:0:0:0:
36,192,130694,1,0,0:0:0:0:
182,192,130694,1,0,0:0:0:0:
329,192,130820,1,0,0:0:0:0:
402,192,130820,1,0,0:0:0:0:
329,192,130947,1,0,0:0:0:0:
182,192,130947,1,0,0:0:0:0:
109,192,131073,1,0,0:0:0:0:
256,192,131073,1,0,0:0:0:0:
36,192,131073,1,0,0:0:0:0:
475,192,131073,1,0,0:0:0:0:
402,192,131200,1,0,0:0:0:0:
329,192,131200,1,0,0:0:0:0:
109,192,131327,1,0,0:0:0:0:
182,192,131327,1,0,0:0:0:0:
256,192,131453,1,0,0:0:0:0:
402,192,131453,1,0,0:0:0:0:
475,192,131453,1,0,0:0:0:0:
402,192,131580,1,0,0:0:0:0:
475,192,131580,1,0,0:0:0:0:
109,192,131706,1,0,0:0:0:0:
36,192,131706,1,0,0:0:0:0:
36,192,131833,1,0,0:0:0:0:
109,192,131833,1,0,0:0:0:0:
329,192,131833,1,0,0:0:0:0:
256,192,131960,1,0,0:0:0:0:
182,192,131960,1,0,0:0:0:0:
402,192,132086,1,0,0:0:0:0:
475,192,132086,1,0,0:0:0:0:
329,192,132213,1,0,0:0:0:0:
109,192,132213,1,0,0:0:0:0:
182,192,132213,1,0,0:0:0:0:
109,192,132339,1,0,0:0:0:0:
182,192,132339,1,0,0:0:0:0:
329,192,132466,1,0,0:0:0:0:
402,192,132466,1,0,0:0:0:0:
475,192,132466,1,0,0:0:0:0:
256,192,132592,1,0,0:0:0:0:
329,192,132592,1,0,0:0:0:0:
402,192,132592,1,0,0:0:0:0:
109,192,132592,1,0,0:0:0:0:
36,192,132719,1,0,0:0:0:0:
182,192,132719,1,0,0:0:0:0:
36,192,132846,1,0,0:0:0:0:
182,192,132846,1,0,0:0:0:0:
329,192,132972,1,0,0:0:0:0:
475,192,132972,1,0,0:0:0:0:
402,192,132972,1,0,0:0:0:0:
475,192,133099,1,0,0:0:0:0:
256,192,133099,1,0,0:0:0:0:
402,192,133225,1,0,0:0:0:0:
329,192,133225,1,0,0:0:0:0:
182,192,133352,1,0,0:0:0:0:
36,192,133352,1,0,0:0:0:0:
256,192,133352,1,0,0:0:0:0:
109,192,133478,1,0,0:0:0:0:
182,192,133478,1,0,0:0:0:0:
329,192,133605,1,0,0:0:0:0:
475,192,133605,1,0,0:0:0:0:
402,192,133732,1,0,0:0:0:0:
475,192,133732,1,0,0:0:0:0:
182,192,133732,1,0,0:0:0:0:
36,192,133858,1,0,0:0:0:0:
109,192,133858,1,0,0:0:0:0:
256,192,133985,1,0,0:0:0:0:
329,192,133985,1,0,0:0:0:0:
402,192,133985,1,0,0:0:0:0:
182,192,134111,1,0,0:0:0:0:
109,192,134111,1,0,0:0:0:0:
36,192,134111,1,0,0:0:0:0:
475,192,134111,1,0,0:0:0:0:
402,192,134111,1,0,0:0:0:0:
256,192,134238,1,0,0:0:0:0:
329,192,134238,1,0,0:0:0:0:
182,192,134365,1,0,0:0:0:0:
109,192,134365,1,0,0:0:0:0:
329,192,134491,1,0,0:0:0:0:
402,192,134491,1,0,0:0:0:0:
475,192,134491,1,0,0:0:0:0:
256,192,134618,1,0,0:0:0:0:
182,192,134618,1,0,0:0:0:0:
329,192,134744,1,0,0:0:0:0:
402,192,134744,1,0,0:0:0:0:
36,192,134871,1,0,0:0:0:0:
109,192,134871,1,0,0:0:0:0:
182,192,134871,1,0,0:0:0:0:
256,192,134871,1,0,0:0:0:0:
402,192,134997,1,0,0:0:0:0:
475,192,134997,1,0,0:0:0:0:
109,192,135124,1,0,0:0:0:0:
36,192,135124,1,0,0:0:0:0:
329,192,135251,1,0,0:0:0:0:
402,192,135251,1,0,0:0:0:0:
475,192,135251,1,0,0:0:0:0:
182,192,135377,1,0,0:0:0:0:
109,192,135377,1,0,0:0:0:0:
329,192,135504,1,0,0:0:0:0:
402,192,135504,1,0,0:0:0:0:
256,192,135630,1,0,0:0:0:0:
182,192,135630,1,0,0:0:0:0:
36,192,135630,1,0,0:0:0:0:
402,192,135630,1,0,0:0:0:0:
109,192,135757,1,0,0:0:0:0:
36,192,135757,1,0,0:0:0:0:
329,192,135884,1,0,0:0:0:0:
475,192,135884,1,0,0:0:0:0:
256,192,136010,1,0,0:0:0:0:
182,192,136010,1,0,0:0:0:0:
402,192,136010,1,0,0:0:0:0:
109,192,136137,1,0,0:0:0:0:
36,192,136137,1,0,0:0:0:0:
329,192,136263,1,0,0:0:0:0:
475,192,136263,1,0,0:0:0:0:
256,192,136390,1,0,0:0:0:0:
182,192,136390,1,0,0:0:0:0:
109,192,136390,1,0,0:0:0:0:
402,192,136516,1,0,0:0:0:0:
475,192,136516,1,0,0:0:0:0:
109,192,136643,1,0,0:0:0:0:
36,192,136643,1,0,0:0:0:0:
329,192,136770,1,0,0:0:0:0:
402,192,136770,1,0,0:0:0:0:
182,192,136896,1,0,0:0:0:0:
109,192,136896,1,0,0:0:0:0:
329,192,137023,1,0,0:0:0:0:
402,192,137023,1,0,0:0:0:0:
475,192,137023,1,0,0:0:0:0:
475,192,137149,1,0,0:0:0:0:
256,192,137149,1,0,0:0:0:0:
36,192,137149,1,0,0:0:0:0:
109,192,137149,1,0,0:0:0:0:
402,192,137149,1,0,0:0:0:0:
109,192,137276,1,0,0:0:0:0:
182,192,137276,1,0,0:0:0:0:
402,192,137403,1,0,0:0:0:0:
329,192,137403,1,0,0:0:0:0:
256,192,137529,1,0,0:0:0:0:
109,192,137529,1,0,0:0:0:0:
36,192,137529,1,0,0:0:0:0:
109,192,137656,1,0,0:0:0:0:
36,192,137656,1,0,0:0:0:0:
402,192,137782,1,0,0:0:0:0:
475,192,137782,1,0,0:0:0:0:
475,192,137909,1,0,0:0:0:0:
402,192,137909,1,0,0:0:0:0:
182,192,137909,1,0,0:0:0:0:
256,192,138035,1,0,0:0:0:0:
329,192,138035,1,0,0:0:0:0:
109,192,138162,1,0,0:0:0:0:
36,192,138162,1,0,0:0:0:0:
182,192,138289,1,0,0:0:0:0:
402,192,138289,1,0,0:0:0:0:
329,192,138289,1,0,0:0:0:0:
402,192,138415,1,0,0:0:0:0:
329,192,138415,1,0,0:0:0:0:
182,192,138542,1,0,0:0:0:0:
109,192,138542,1,0,0:0:0:0:
36,192,138542,1,0,0:0:0:0:
256,192,138668,1,0,0:0:0:0:
182,192,138668,1,0,0:0:0:0:
109,192,138668,1,0,0:0:0:0:
402,192,138668,1,0,0:0:0:0:
475,192,138795,1,0,0:0:0:0:
329,192,138795,1,0,0:0:0:0:
475,192,138922,1,0,0:0:0:0:
329,192,138922,1,0,0:0:0:0:
182,192,139048,1,0,0:0:0:0:
36,192,139048,1,0,0:0:0:0:
109,192,139048,1,0,0:0:0:0:
36,192,139175,1,0,0:0:0:0:
256,192,139175,1,0,0:0:0:0:
109,192,139301,1,0,0:0:0:0:
182,192,139301,1,0,0:0:0:0:
329,192,139428,1,0,0:0:0:0:
475,192,139428,1,0,0:0:0:0:
256,192,139428,1,0,0:0:0:0:
402,192,139554,1,0,0:0:0:0:
329,192,139554,1,0,0:0:0:0:
182,192,139681,1,0,0:0:0:0:
36,192,139681,1,0,0:0:0:0:
109,192,139808,1,0,0:0:0:0:
36,192,139808,1,0,0:0:0:0:
329,192,139808,1,0,0:0:0:0:
475,192,139934,1,0,0:0:0:0:
402,192,139934,1,0,0:0:0:0:
256,192,140061,1,0,0:0:0:0:
182,192,140061,1,0,0:0:0:0:
109,192,140061,1,0,0:0:0:0:
329,192,140187,1,0,0:0:0:0:
402,192,140187,1,0,0:0:0:0:
475,192,140187,1,0,0:0:0:0:
36,192,140187,1,0,0:0:0:0:
109,192,140187,1,0,0:0:0:0:
256,192,140314,1,0,0:0:0:0:
182,192,140314,1,0,0:0:0:0:
329,192,140441,1,0,0:0:0:0:
402,192,140441,1,0,0:0:0:0:
182,192,140567,1,0,0:0:0:0:
109,192,140567,1,0,0:0:0:0:
36,192,140567,1,0,0:0:0:0:
256,192,140694,1,0,0:0:0:0:
329,192,140694,1,0,0:0:0:0:
182,192,140820,1,0,0:0:0:0:
109,192,140820,1,0,0:0:0:0:
475,192,140947,1,0,0:0:0:0:
402,192,140947,1,0,0:0:0:0:
329,192,140947,1,0,0:0:0:0:
256,192,140947,1,0,0:0:0:0:
109,192,141073,1,0,0:0:0:0:
36,192,141073,1,0,0:0:0:0:
402,192,141200,1,0,0:0:0:0:
475,192,141200,1,0,0:0:0:0:
182,192,141327,1,0,0:0:0:0:
109,192,141327,1,0,0:0:0:0:
36,192,141327,1,0,0:0:0:0:
329,192,141453,1,0,0:0:0:0:
402,192,141453,1,0,0:0:0:0:
182,192,141580,1,0,0:0:0:0:
109,192,141580,1,0,0:0:0:0:
256,192,141706,1,0,0:0:0:0:
329,192,141706,1,0,0:0:0:0:
475,192,141706,1,0,0:0:0:0:
109,192,141706,1,0,0:0:0:0:
402,192,141833,1,0,0:0:0:0:
475,192,141833,1,0,0:0:0:0:
182,192,141960,1,0,0:0:0:0:
36,192,141960,1,0,0:0:0:0:
256,192,142086,1,0,0:0:0:0:
329,192,142086,1,0,0:0:0:0:
109,192,142086,1,0,0:0:0:0:
402,192,142213,1,0,0:0:0:0:
475,192,142213,1,0,0:0:0:0:
182,192,142339,1,0,0:0:0:0:
36,192,142339,1,0,0:0:0:0:
256,192,142466,1,0,0:0:0:0:
329,192,142466,1,0,0:0:0:0:
402,192,142466,1,0,0:0:0:0:
109,192,142592,1,0,0:0:0:0:
36,192,142592,1,0,0:0:0:0:
182,192,142656,1,0,0:0:0:0:
402,192,142719,1,0,0:0:0:0:
475,192,142719,1,0,0:0:0:0:
329,192,142782,1,0,0:0:0:0:
256,192,142846,1,0,0:0:0:0:
109,192,142846,1,0,0:0:0:0:
329,192,142972,1,0,0:0:0:0:
402,192,142972,1,0,0:0:0:0:
182,192,143099,1,0,0:0:0:0:
109,192,143099,1,0,0:0:0:0:
36,192,143099,1,0,0:0:0:0:
256,192,143225,1,0,0:0:0:0:
109,192,143225,1,0,0:0:0:0:
36,192,143225,1,0,0:0:0:0:
402,192,143225,1,0,0:0:0:0:
475,192,143225,1,0,0:0:0:0:
329,192,143352,1,0,0:0:0:0:
182,192,143352,1,0,0:0:0:0:
402,192,143478,1,0,0:0:0:0:
475,192,143478,1,0,0:0:0:0:
256,192,143605,1,0,0:0:0:0:
109,192,143605,1,0,0:0:0:0:
36,192,143605,1,0,0:0:0:0:
329,192,143732,1,0,0:0:0:0:
402,192,143732,1,0,0:0:0:0:
182,192,143858,1,0,0:0:0:0:
109,192,143858,1,0,0:0:0:0:
329,192,143985,1,0,0:0:0:0:
402,192,143985,1,0,0:0:0:0:
475,192,143985,1,0,0:0:0:0:
256,192,144111,1,0,0:0:0:0:
109,192,144111,1,0,0:0:0:0:
329,192,144238,1,0,0:0:0:0:
475,192,144238,1,0,0:0:0:0:
36,192,144365,1,0,0:0:0:0:
109,192,144365,1,0,0:0:0:0:
182,192,144365,1,0,0:0:0:0:
256,192,144491,1,0,0:0:0:0:
402,192,144491,1,0,0:0:0:0:
182,192,144618,1,0,0:0:0:0:
109,192,144618,1,0,0:0:0:0:
329,192,144618,1,0,0:0:0:0:
475,192,144618,1,0,0:0:0:0:
402,192,144618,1,0,0:0:0:0:
109,192,144744,1,0,0:0:0:0:
36,192,144744,1,0,0:0:0:0:
256,192,144744,1,0,0:0:0:0:
329,192,144744,1,0,0:0:0:0:
475,192,144744,1,0,0:0:0:0:
182,192,144871,1,0,0:0:0:0:
329,192,144997,1,0,0:0:0:0:
402,192,144997,1,0,0:0:0:0:
109,192,145124,1,0,0:0:0:0:
182,192,145124,1,0,0:0:0:0:
256,192,145124,1,0,0:0:0:0:
329,192,145251,1,0,0:0:0:0:
402,192,145251,1,0,0:0:0:0:
182,192,145377,1,0,0:0:0:0:
109,192,145377,1,0,0:0:0:0:
329,192,145504,1,0,0:0:0:0:
402,192,145504,1,0,0:0:0:0:
475,192,145504,1,0,0:0:0:0:
256,192,145504,1,0,0:0:0:0:
36,192,145630,1,0,0:0:0:0:
109,192,145630,1,0,0:0:0:0:
182,192,145694,1,0,0:0:0:0:
256,192,145757,1,0,0:0:0:0:
329,192,145820,1,0,0:0:0:0:
402,192,145884,5,0,0:0:0:0:
475,192,145884,1,0,0:0:0:0:
402,192,146010,1,0,0:0:0:0:
475,192,146010,1,0,0:0:0:0:
109,192,146137,1,0,0:0:0:0:
182,192,146137,1,0,0:0:0:0:
256,192,146137,1,0,0:0:0:0:
329,192,146263,1,0,0:0:0:0:
475,192,146263,1,0,0:0:0:0:
36,192,146390,1,0,0:0:0:0:
109,192,146390,1,0,0:0:0:0:
329,192,146516,1,0,0:0:0:0:
402,192,146516,1,0,0:0:0:0:
109,192,146643,1,0,0:0:0:0:
182,192,146643,1,0,0:0:0:0:
256,192,146643,1,0,0:0:0:0:
36,192,146643,1,0,0:0:0:0:
402,192,146770,1,0,0:0:0:0:
475,192,146770,1,0,0:0:0:0:
256,192,146896,1,0,0:0:0:0:
36,192,146896,1,0,0:0:0:0:
182,192,146896,1,0,0:0:0:0:
402,192,147023,5,0,0:0:0:0:
329,192,147023,1,0,0:0:0:0:
109,192,147023,1,0,0:0:0:0:
182,192,147023,1,0,0:0:0:0:
329,192,147149,1,0,0:0:0:0:
402,192,147149,1,0,0:0:0:0:
109,192,147149,1,0,0:0:0:0:
329,192,147276,1,0,0:0:0:0:
402,192,147276,1,0,0:0:0:0:
109,192,147276,1,0,0:0:0:0:
109,192,147403,1,0,0:0:0:0:
182,192,147403,1,0,0:0:0:0:
329,192,147403,1,0,0:0:0:0:
402,192,147403,1,0,0:0:0:0:
329,192,147529,1,0,0:0:0:0:
402,192,147529,1,0,0:0:0:0:
182,192,147529,1,0,0:0:0:0:
402,192,147656,1,0,0:0:0:0:
329,192,147656,1,0,0:0:0:0:
182,192,147656,1,0,0:0:0:0:
36,192,147782,5,0,0:0:0:0:
256,192,147782,1,0,0:0:0:0:
475,192,147782,1,0,0:0:0:0:
402,192,147846,1,0,0:0:0:0:
109,192,147846,1,0,0:0:0:0:
329,192,147909,1,0,0:0:0:0:
182,192,147909,1,0,0:0:0:0:
36,192,147972,1,0,0:0:0:0:
475,192,147972,1,0,0:0:0:0:
182,192,148035,1,0,0:0:0:0:
329,192,148035,1,0,0:0:0:0:
402,192,148099,1,0,0:0:0:0:
109,192,148099,1,0,0:0:0:0:
36,192,148162,1,0,0:0:0:0:
475,192,148162,1,0,0:0:0:0:
182,192,148225,1,0,0:0:0:0:
329,192,148225,1,0,0:0:0:0:
402,192,148289,1,0,0:0:0:0:
109,192,148289,1,0,0:0:0:0:
475,192,148352,1,0,0:0:0:0:
36,192,148352,1,0,0:0:0:0:
109,192,148415,1,0,0:0:0:0:
402,192,148415,1,0,0:0:0:0:
329,192,148478,1,0,0:0:0:0:
182,192,148478,1,0,0:0:0:0:
36,192,148542,1,0,0:0:0:0:
475,192,148542,1,0,0:0:0:0:
109,192,148605,1,0,0:0:0:0:
402,192,148605,1,0,0:0:0:0:
182,192,148668,1,0,0:0:0:0:
329,192,148668,1,0,0:0:0:0:
109,192,148732,1,0,0:0:0:0:
402,192,148732,1,0,0:0:0:0:
475,192,148795,1,0,0:0:0:0:
36,192,148795,1,0,0:0:0:0:
329,192,148858,1,0,0:0:0:0:
182,192,148858,1,0,0:0:0:0:
475,192,148922,1,0,0:0:0:0:
36,192,148922,1,0,0:0:0:0:
182,192,148985,1,0,0:0:0:0:
329,192,148985,1,0,0:0:0:0:
402,192,149048,1,0,0:0:0:0:
109,192,149048,1,0,0:0:0:0:
475,192,149111,1,0,0:0:0:0:
36,192,149111,1,0,0:0:0:0:
329,192,149175,1,0,0:0:0:0:
182,192,149175,1,0,0:0:0:0:
402,192,149238,1,0,0:0:0:0:
109,192,149238,1,0,0:0:0:0:
329,192,149301,1,0,0:0:0:0:
36,192,149301,1,0,0:0:0:0:
256,192,149301,1,0,0:0:0:0:
182,192,149301,1,0,0:0:0:0:
475,192,149301,1,0,0:0:0:0:
256,192,150820,5,0,0:0:0:0:
109,192,150820,1,0,0:0:0:0:
36,192,150820,1,0,0:0:0:0:
402,192,150820,1,0,0:0:0:0:
475,192,150820,1,0,0:0:0:0:
182,192,151073,1,0,0:0:0:0:
329,192,151073,1,0,0:0:0:0:
256,192,151200,1,0,0:0:0:0:
402,192,151200,1,0,0:0:0:0:
475,192,151200,1,0,0:0:0:0:
109,192,151200,1,0,0:0:0:0:
182,192,151453,1,0,0:0:0:0:
329,192,151453,1,0,0:0:0:0:
36,192,151580,1,0,0:0:0:0:
109,192,151580,1,0,0:0:0:0:
475,192,151580,1,0,0:0:0:0:
402,192,151580,1,0,0:0:0:0:
256,192,151833,1,0,0:0:0:0:
329,192,151833,1,0,0:0:0:0:
182,192,151960,1,0,0:0:0:0:
402,192,151960,1,0,0:0:0:0:
109,192,151960,1,0,0:0:0:0:
36,192,151960,1,0,0:0:0:0:
256,192,152213,1,0,0:0:0:0:
402,192,152213,1,0,0:0:0:0:
475,192,152213,1,0,0:0:0:0:
36,192,152339,1,0,0:0:0:0:
109,192,152339,1,0,0:0:0:0:
182,192,152339,1,0,0:0:0:0:
329,192,152339,1,0,0:0:0:0:
402,192,152592,1,0,0:0:0:0:
329,192,152592,1,0,0:0:0:0:
109,192,152719,1,0,0:0:0:0:
182,192,152719,1,0,0:0:0:0:
256,192,152719,1,0,0:0:0:0:
475,192,152719,1,0,0:0:0:0:
36,192,152972,1,0,0:0:0:0:
109,192,152972,1,0,0:0:0:0:
329,192,153099,1,0,0:0:0:0:
475,192,153099,1,0,0:0:0:0:
402,192,153099,1,0,0:0:0:0:
182,192,153099,1,0,0:0:0:0:
256,192,153352,1,0,0:0:0:0:
329,192,153352,1,0,0:0:0:0:
475,192,153478,1,0,0:0:0:0:
109,192,153478,1,0,0:0:0:0:
36,192,153478,1,0,0:0:0:0:
402,192,153478,1,0,0:0:0:0:
329,192,153510,1,0,0:0:0:0:
256,192,153542,1,0,0:0:0:0:
182,192,153573,1,0,0:0:0:0:
109,192,153605,1,0,0:0:0:0:
36,192,153637,1,0,0:0:0:0:
475,192,153668,1,0,0:0:0:0:
402,192,153700,1,0,0:0:0:0:
329,192,153732,1,0,0:0:0:0:
256,192,153763,1,0,0:0:0:0:
182,192,153795,1,0,0:0:0:0:
109,192,153827,1,0,0:0:0:0:
36,192,153858,1,0,0:0:0:0:
475,192,153858,1,0,0:0:0:0:
329,192,153858,1,0,0:0:0:0:
402,192,153858,1,0,0:0:0:0:
256,192,154111,1,0,0:0:0:0:
182,192,154111,1,0,0:0:0:0:
109,192,154238,1,0,0:0:0:0:
36,192,154238,1,0,0:0:0:0:
329,192,154238,1,0,0:0:0:0:
402,192,154238,1,0,0:0:0:0:
256,192,154491,1,0,0:0:0:0:
475,192,154491,1,0,0:0:0:0:
182,192,154618,1,0,0:0:0:0:
109,192,154618,1,0,0:0:0:0:
329,192,154618,1,0,0:0:0:0:
402,192,154618,1,0,0:0:0:0:
36,192,154871,1,0,0:0:0:0:
256,192,154871,1,0,0:0:0:0:
182,192,154997,1,0,0:0:0:0:
329,192,154997,1,0,0:0:0:0:
402,192,154997,1,0,0:0:0:0:
475,192,154997,1,0,0:0:0:0:
475,192,155251,1,0,0:0:0:0:
329,192,155251,1,0,0:0:0:0:
402,192,155251,1,0,0:0:0:0:
182,192,155377,1,0,0:0:0:0:
256,192,155377,1,0,0:0:0:0:
109,192,155377,128,0,155757:0:0:0:0:
36,192,155377,128,0,155757:0:0:0:0:
402,192,155630,1,0,0:0:0:0:
329,192,155630,1,0,0:0:0:0:
256,192,155757,1,0,0:0:0:0:
182,192,155757,1,0,0:0:0:0:
475,192,155757,1,0,0:0:0:0:
109,192,156010,1,0,0:0:0:0:
36,192,156010,1,0,0:0:0:0:
182,192,156137,1,0,0:0:0:0:
402,192,156137,128,0,156516:0:0:0:0:
475,192,156137,128,0,156516:0:0:0:0:
329,192,156137,1,0,0:0:0:0:
182,192,156390,1,0,0:0:0:0:
36,192,156390,1,0,0:0:0:0:
109,192,156516,1,0,0:0:0:0:
256,192,156516,1,0,0:0:0:0:
329,192,156516,1,0,0:0:0:0:
182,192,156770,1,0,0:0:0:0:
402,192,156770,1,0,0:0:0:0:
475,192,156770,1,0,0:0:0:0:
36,192,156770,1,0,0:0:0:0:
329,192,156770,1,0,0:0:0:0:
36,192,156896,1,0,0:0:0:0:
109,192,156896,1,0,0:0:0:0:
402,192,156896,1,0,0:0:0:0:
475,192,156896,1,0,0:0:0:0:
182,192,157149,1,0,0:0:0:0:
329,192,157149,1,0,0:0:0:0:
402,192,157276,1,0,0:0:0:0:
36,192,157276,1,0,0:0:0:0:
475,192,157276,1,0,0:0:0:0:
256,192,157276,1,0,0:0:0:0:
329,192,157529,1,0,0:0:0:0:
109,192,157529,1,0,0:0:0:0:
402,192,157529,1,0,0:0:0:0:
182,192,157656,1,0,0:0:0:0:
475,192,157656,1,0,0:0:0:0:
256,192,157656,1,0,0:0:0:0:
36,192,157656,1,0,0:0:0:0:
329,192,157909,1,0,0:0:0:0:
402,192,157909,1,0,0:0:0:0:
36,192,158035,1,0,0:0:0:0:
109,192,158035,1,0,0:0:0:0:
182,192,158035,1,0,0:0:0:0:
475,192,158035,1,0,0:0:0:0:
402,192,158099,1,0,0:0:0:0:
329,192,158162,1,0,0:0:0:0:
256,192,158162,1,0,0:0:0:0:
182,192,158225,1,0,0:0:0:0:
109,192,158225,1,0,0:0:0:0:
402,192,158289,1,0,0:0:0:0:
329,192,158289,1,0,0:0:0:0:
256,192,158352,1,0,0:0:0:0:
475,192,158415,1,0,0:0:0:0:
182,192,158415,1,0,0:0:0:0:
109,192,158415,1,0,0:0:0:0:
36,192,158415,1,0,0:0:0:0:
402,192,158415,1,0,0:0:0:0:
256,192,158668,1,0,0:0:0:0:
402,192,158668,1,0,0:0:0:0:
475,192,158795,1,0,0:0:0:0:
329,192,158795,1,0,0:0:0:0:
182,192,158795,1,0,0:0:0:0:
109,192,158795,1,0,0:0:0:0:
256,192,159048,1,0,0:0:0:0:
402,192,159048,1,0,0:0:0:0:
475,192,159111,1,0,0:0:0:0:
36,192,159175,1,0,0:0:0:0:
182,192,159175,1,0,0:0:0:0:
109,192,159175,1,0,0:0:0:0:
329,192,159238,1,0,0:0:0:0:
182,192,159301,1,0,0:0:0:0:
256,192,159365,1,0,0:0:0:0:
329,192,159428,1,0,0:0:0:0:
402,192,159428,1,0,0:0:0:0:
36,192,159554,1,0,0:0:0:0:
475,192,159554,1,0,0:0:0:0:
256,192,159554,1,0,0:0:0:0:
182,192,159554,1,0,0:0:0:0:
109,192,159808,1,0,0:0:0:0:
36,192,159808,1,0,0:0:0:0:
256,192,159808,1,0,0:0:0:0:
402,192,159808,1,0,0:0:0:0:
475,192,159808,1,0,0:0:0:0:
36,192,159934,1,0,0:0:0:0:
109,192,159934,1,0,0:0:0:0:
256,192,159934,1,0,0:0:0:0:
402,192,159934,1,0,0:0:0:0:
475,192,159934,1,0,0:0:0:0:
182,192,160187,1,0,0:0:0:0:
329,192,160187,1,0,0:0:0:0:
256,192,160314,1,0,0:0:0:0:
109,192,160314,1,0,0:0:0:0:
402,192,160314,1,0,0:0:0:0:
36,192,160314,1,0,0:0:0:0:
182,192,160567,1,0,0:0:0:0:
256,192,160567,1,0,0:0:0:0:
329,192,160567,1,0,0:0:0:0:
402,192,160694,1,0,0:0:0:0:
475,192,160694,1,0,0:0:0:0:
109,192,160694,1,0,0:0:0:0:
36,192,160694,1,0,0:0:0:0:
329,192,160947,1,0,0:0:0:0:
182,192,160947,1,0,0:0:0:0:
256,192,161073,1,0,0:0:0:0:
402,192,161073,1,0,0:0:0:0:
475,192,161073,1,0,0:0:0:0:
109,192,161073,1,0,0:0:0:0:
182,192,161327,1,0,0:0:0:0:
329,192,161327,1,0,0:0:0:0:
36,192,161453,1,0,0:0:0:0:
109,192,161453,1,0,0:0:0:0:
256,192,161453,1,0,0:0:0:0:
109,192,161580,1,0,0:0:0:0:
182,192,161706,1,0,0:0:0:0:
256,192,161706,1,0,0:0:0:0:
182,192,161833,1,0,0:0:0:0:
329,192,161833,1,0,0:0:0:0:
402,192,161833,1,0,0:0:0:0:
256,192,161960,1,0,0:0:0:0:
256,192,162086,1,0,0:0:0:0:
36,192,162086,1,0,0:0:0:0:
109,192,162086,1,0,0:0:0:0:
182,192,162213,1,0,0:0:0:0:
329,192,162213,1,0,0:0:0:0:
402,192,162213,1,0,0:0:0:0:
475,192,162213,1,0,0:0:0:0:
109,192,162339,1,0,0:0:0:0:
36,192,162339,1,0,0:0:0:0:
402,192,162339,128,0,162466:0:0:0:0:
329,192,162466,128,0,162592:0:0:0:0:
36,192,162592,1,0,0:0:0:0:
475,192,162592,128,0,162719:0:0:0:0:
109,192,162624,1,0,0:0:0:0:
182,192,162656,1,0,0:0:0:0:
256,192,162687,1,0,0:0:0:0:
36,192,162719,1,0,0:0:0:0:
329,192,162719,128,0,162846:0:0:0:0:
109,192,162751,1,0,0:0:0:0:
182,192,162782,1,0,0:0:0:0:
256,192,162814,1,0,0:0:0:0:
36,192,162846,1,0,0:0:0:0:
109,192,162846,1,0,0:0:0:0:
475,192,162846,128,0,162972:0:0:0:0:
256,192,162972,5,0,0:0:0:0:
402,192,162972,1,0,0:0:0:0:
36,192,162972,1,0,0:0:0:0:
109,192,162972,1,0,0:0:0:0:
329,192,163225,1,0,0:0:0:0:
182,192,163225,1,0,0:0:0:0:
256,192,163352,1,0,0:0:0:0:
109,192,163352,1,0,0:0:0:0:
36,192,163352,1,0,0:0:0:0:
402,192,163352,1,0,0:0:0:0:
329,192,163605,1,0,0:0:0:0:
182,192,163605,1,0,0:0:0:0:
475,192,163732,1,0,0:0:0:0:
402,192,163732,1,0,0:0:0:0:
36,192,163732,1,0,0:0:0:0:
109,192,163732,1,0,0:0:0:0:
256,192,163985,1,0,0:0:0:0:
182,192,163985,1,0,0:0:0:0:
329,192,164111,1,0,0:0:0:0:
109,192,164111,1,0,0:0:0:0:
402,192,164111,1,0,0:0:0:0:
475,192,164111,1,0,0:0:0:0:
256,192,164365,1,0,0:0:0:0:
109,192,164365,1,0,0:0:0:0:
36,192,164365,1,0,0:0:0:0:
475,192,164491,1,0,0:0:0:0:
402,192,164491,1,0,0:0:0:0:
329,192,164491,1,0,0:0:0:0:
182,192,164491,1,0,0:0:0:0:
109,192,164744,1,0,0:0:0:0:
182,192,164744,1,0,0:0:0:0:
402,192,164871,1,0,0:0:0:0:
329,192,164871,1,0,0:0:0:0:
256,192,164871,1,0,0:0:0:0:
36,192,164871,1,0,0:0:0:0:
475,192,165124,1,0,0:0:0:0:
402,192,165124,1,0,0:0:0:0:
256,192,165124,1,0,0:0:0:0:
182,192,165251,1,0,0:0:0:0:
36,192,165251,1,0,0:0:0:0:
109,192,165251,1,0,0:0:0:0:
329,192,165251,1,0,0:0:0:0:
256,192,165504,1,0,0:0:0:0:
182,192,165504,1,0,0:0:0:0:
329,192,165504,1,0,0:0:0:0:
36,192,165630,1,0,0:0:0:0:
402,192,165630,1,0,0:0:0:0:
475,192,165630,1,0,0:0:0:0:
109,192,165630,1,0,0:0:0:0:
182,192,165662,1,0,0:0:0:0:
256,192,165694,1,0,0:0:0:0:
329,192,165725,1,0,0:0:0:0:
402,192,165757,1,0,0:0:0:0:
36,192,165789,1,0,0:0:0:0:
109,192,165820,1,0,0:0:0:0:
182,192,165852,1,0,0:0:0:0:
256,192,165884,1,0,0:0:0:0:
475,192,165884,1,0,0:0:0:0:
329,192,165884,1,0,0:0:0:0:
402,192,165884,1,0,0:0:0:0:
475,192,166010,1,0,0:0:0:0:
36,192,166010,1,0,0:0:0:0:
256,192,166010,1,0,0:0:0:0:
329,192,166010,1,0,0:0:0:0:
109,192,166263,1,0,0:0:0:0:
182,192,166263,1,0,0:0:0:0:
402,192,166390,1,0,0:0:0:0:
475,192,166390,1,0,0:0:0:0:
329,192,166390,1,0,0:0:0:0:
36,192,166390,1,0,0:0:0:0:
256,192,166643,1,0,0:0:0:0:
36,192,166643,1,0,0:0:0:0:
329,192,166770,1,0,0:0:0:0:
402,192,166770,1,0,0:0:0:0:
182,192,166770,1,0,0:0:0:0:
109,192,166770,1,0,0:0:0:0:
475,192,167023,1,0,0:0:0:0:
256,192,167023,1,0,0:0:0:0:
329,192,167149,1,0,0:0:0:0:
182,192,167149,1,0,0:0:0:0:
109,192,167149,1,0,0:0:0:0:
36,192,167149,1,0,0:0:0:0:
36,192,167403,1,0,0:0:0:0:
182,192,167403,1,0,0:0:0:0:
109,192,167403,1,0,0:0:0:0:
329,192,167529,1,0,0:0:0:0:
256,192,167529,1,0,0:0:0:0:
402,192,167529,1,0,0:0:0:0:
475,192,167529,1,0,0:0:0:0:
109,192,167782,1,0,0:0:0:0:
182,192,167814,1,0,0:0:0:0:
256,192,167846,1,0,0:0:0:0:
329,192,167877,1,0,0:0:0:0:
109,192,167909,1,0,0:0:0:0:
402,192,167909,1,0,0:0:0:0:
36,192,167909,1,0,0:0:0:0:
475,192,167909,1,0,0:0:0:0:
475,192,168035,1,0,0:0:0:0:
402,192,168067,1,0,0:0:0:0:
329,192,168099,1,0,0:0:0:0:
256,192,168130,1,0,0:0:0:0:
182,192,168162,1,0,0:0:0:0:
475,192,168194,1,0,0:0:0:0:
402,192,168225,1,0,0:0:0:0:
329,192,168257,1,0,0:0:0:0:
256,192,168289,1,0,0:0:0:0:
109,192,168289,128,0,168668:0:0:0:0:
36,192,168289,128,0,168668:0:0:0:0:
182,192,168289,1,0,0:0:0:0:
256,192,168542,1,0,0:0:0:0:
329,192,168542,1,0,0:0:0:0:
475,192,168668,1,0,0:0:0:0:
182,192,168668,1,0,0:0:0:0:
402,192,168668,128,0,168795:0:0:0:0:
256,192,168795,128,0,168922:0:0:0:0:
329,192,168922,1,0,0:0:0:0:
109,192,168922,1,0,0:0:0:0:
36,192,168922,1,0,0:0:0:0:
475,192,168922,1,0,0:0:0:0:
182,192,168922,1,0,0:0:0:0:
475,192,169048,1,0,0:0:0:0:
402,192,169048,1,0,0:0:0:0:
109,192,169048,1,0,0:0:0:0:
36,192,169048,1,0,0:0:0:0:
256,192,169048,1,0,0:0:0:0:
329,192,169301,1,0,0:0:0:0:
182,192,169301,1,0,0:0:0:0:
109,192,169428,1,0,0:0:0:0:
475,192,169428,1,0,0:0:0:0:
36,192,169428,1,0,0:0:0:0:
256,192,169428,1,0,0:0:0:0:
182,192,169681,1,0,0:0:0:0:
402,192,169681,1,0,0:0:0:0:
329,192,169808,1,0,0:0:0:0:
36,192,169808,1,0,0:0:0:0:
256,192,169808,1,0,0:0:0:0:
475,192,169808,1,0,0:0:0:0:
182,192,170061,1,0,0:0:0:0:
109,192,170061,1,0,0:0:0:0:
475,192,170187,1,0,0:0:0:0:
402,192,170187,1,0,0:0:0:0:
329,192,170187,1,0,0:0:0:0:
36,192,170187,1,0,0:0:0:0:
109,192,170441,1,0,0:0:0:0:
182,192,170441,1,0,0:0:0:0:
256,192,170441,1,0,0:0:0:0:
36,192,170567,1,0,0:0:0:0:
329,192,170567,1,0,0:0:0:0:
402,192,170567,1,0,0:0:0:0:
475,192,170567,1,0,0:0:0:0:
109,192,170567,1,0,0:0:0:0:
256,192,170820,1,0,0:0:0:0:
109,192,170820,1,0,0:0:0:0:
36,192,170947,1,0,0:0:0:0:
182,192,170947,1,0,0:0:0:0:
329,192,170947,1,0,0:0:0:0:
402,192,170947,1,0,0:0:0:0:
256,192,171200,1,0,0:0:0:0:
109,192,171200,1,0,0:0:0:0:
36,192,171200,1,0,0:0:0:0:
475,192,171327,1,0,0:0:0:0:
329,192,171327,1,0,0:0:0:0:
402,192,171327,1,0,0:0:0:0:
182,192,171580,1,0,0:0:0:0:
109,192,171580,1,0,0:0:0:0:
475,192,171706,1,0,0:0:0:0:
36,192,171706,1,0,0:0:0:0:
256,192,171706,1,0,0:0:0:0:
329,192,171706,1,0,0:0:0:0:
402,192,171960,1,0,0:0:0:0:
475,192,171960,1,0,0:0:0:0:
256,192,171960,1,0,0:0:0:0:
109,192,171960,1,0,0:0:0:0:
36,192,171960,1,0,0:0:0:0:
475,192,172086,1,0,0:0:0:0:
402,192,172086,1,0,0:0:0:0:
256,192,172086,1,0,0:0:0:0:
109,192,172086,1,0,0:0:0:0:
36,192,172086,1,0,0:0:0:0:
329,192,172339,1,0,0:0:0:0:
182,192,172339,1,0,0:0:0:0:
256,192,172466,1,0,0:0:0:0:
402,192,172466,1,0,0:0:0:0:
109,192,172466,1,0,0:0:0:0:
475,192,172466,1,0,0:0:0:0:
36,192,172592,1,0,0:0:0:0:
182,192,172592,1,0,0:0:0:0:
329,192,172719,1,0,0:0:0:0:
256,192,172719,1,0,0:0:0:0:
182,192,172719,1,0,0:0:0:0:
109,192,172846,1,0,0:0:0:0:
36,192,172846,1,0,0:0:0:0:
402,192,172846,1,0,0:0:0:0:
475,192,172846,1,0,0:0:0:0:
256,192,172972,1,0,0:0:0:0:
402,192,172972,1,0,0:0:0:0:
182,192,173099,1,0,0:0:0:0:
329,192,173099,1,0,0:0:0:0:
256,192,173225,1,0,0:0:0:0:
109,192,173225,1,0,0:0:0:0:
36,192,173225,1,0,0:0:0:0:
475,192,173225,1,0,0:0:0:0:
402,192,173257,1,0,0:0:0:0:
329,192,173289,1,0,0:0:0:0:
36,192,173320,1,0,0:0:0:0:
109,192,173352,1,0,0:0:0:0:
182,192,173384,1,0,0:0:0:0:
475,192,173415,1,0,0:0:0:0:
402,192,173447,1,0,0:0:0:0:
329,192,173478,1,0,0:0:0:0:
36,192,173510,1,0,0:0:0:0:
109,192,173542,1,0,0:0:0:0:
182,192,173573,1,0,0:0:0:0:
475,192,173605,1,0,0:0:0:0:
402,192,173605,1,0,0:0:0:0:
256,192,173605,1,0,0:0:0:0:
402,192,173732,1,0,0:0:0:0:
182,192,173732,1,0,0:0:0:0:
329,192,173858,1,0,0:0:0:0:
256,192,173858,1,0,0:0:0:0:
329,192,173985,1,0,0:0:0:0:
182,192,173985,1,0,0:0:0:0:
109,192,173985,1,0,0:0:0:0:
256,192,174111,1,0,0:0:0:0:
36,192,174111,1,0,0:0:0:0:
109,192,174111,1,0,0:0:0:0:
256,192,174238,1,0,0:0:0:0:
475,192,174238,1,0,0:0:0:0:
402,192,174238,1,0,0:0:0:0:
329,192,174365,1,0,0:0:0:0:
182,192,174365,1,0,0:0:0:0:
109,192,174365,1,0,0:0:0:0:
36,192,174365,1,0,0:0:0:0:
402,192,174491,1,0,0:0:0:0:
475,192,174491,1,0,0:0:0:0:
109,192,174618,1,0,0:0:0:0:
256,192,174618,1,0,0:0:0:0:
182,192,174618,1,0,0:0:0:0:
36,192,174618,1,0,0:0:0:0:
475,192,174744,1,0,0:0:0:0:
402,192,174744,1,0,0:0:0:0:
36,192,174871,1,0,0:0:0:0:
109,192,174871,1,0,0:0:0:0:
329,192,174871,1,0,0:0:0:0:
256,192,174871,1,0,0:0:0:0:
182,192,174997,1,0,0:0:0:0:
475,192,174997,1,0,0:0:0:0:
109,192,175124,1,0,0:0:0:0:
402,192,175124,1,0,0:0:0:0:
256,192,175124,1,0,0:0:0:0:
329,192,175124,1,0,0:0:0:0:
36,192,175124,1,0,0:0:0:0:
182,192,175251,1,0,0:0:0:0:
329,192,175377,1,0,0:0:0:0:
475,192,175377,1,0,0:0:0:0:
109,192,175504,1,0,0:0:0:0:
182,192,175504,1,0,0:0:0:0:
256,192,175504,1,0,0:0:0:0:
36,192,175504,1,0,0:0:0:0:
329,192,175630,1,0,0:0:0:0:
182,192,175757,1,0,0:0:0:0:
36,192,175757,1,0,0:0:0:0:
256,192,175884,1,0,0:0:0:0:
475,192,175884,1,0,0:0:0:0:
402,192,175884,1,0,0:0:0:0:
402,192,176010,1,0,0:0:0:0:
36,192,176137,1,0,0:0:0:0:
182,192,176137,1,0,0:0:0:0:
256,192,176263,1,0,0:0:0:0:
329,192,176263,1,0,0:0:0:0:
475,192,176263,1,0,0:0:0:0:
109,192,176390,1,0,0:0:0:0:
36,192,176516,1,0,0:0:0:0:
182,192,176516,1,0,0:0:0:0:
256,192,176643,1,0,0:0:0:0:
329,192,176643,1,0,0:0:0:0:
402,192,176643,1,0,0:0:0:0:
475,192,176643,1,0,0:0:0:0:
109,192,176770,1,0,0:0:0:0:
475,192,176896,1,0,0:0:0:0:
329,192,176896,1,0,0:0:0:0:
36,192,177023,1,0,0:0:0:0:
182,192,177023,1,0,0:0:0:0:
109,192,177023,1,0,0:0:0:0:
182,192,177149,1,0,0:0:0:0:
329,192,177276,1,0,0:0:0:0:
475,192,177276,1,0,0:0:0:0:
36,192,177403,1,0,0:0:0:0:
109,192,177403,1,0,0:0:0:0:
256,192,177403,1,0,0:0:0:0:
109,192,177529,1,0,0:0:0:0:
329,192,177656,1,0,0:0:0:0:
475,192,177656,1,0,0:0:0:0:
36,192,177782,1,0,0:0:0:0:
182,192,177782,1,0,0:0:0:0:
256,192,177782,1,0,0:0:0:0:
109,192,177782,1,0,0:0:0:0:
36,192,177909,1,0,0:0:0:0:
329,192,178035,1,0,0:0:0:0:
475,192,178035,1,0,0:0:0:0:
402,192,178035,1,0,0:0:0:0:
109,192,178162,1,0,0:0:0:0:
256,192,178162,1,0,0:0:0:0:
475,192,178162,1,0,0:0:0:0:
36,192,178162,1,0,0:0:0:0:
402,192,178162,1,0,0:0:0:0:
329,192,178289,1,0,0:0:0:0:
182,192,178415,1,0,0:0:0:0:
36,192,178415,1,0,0:0:0:0:
402,192,178542,1,0,0:0:0:0:
329,192,178542,1,0,0:0:0:0:
256,192,178542,1,0,0:0:0:0:
475,192,178542,1,0,0:0:0:0:
182,192,178668,1,0,0:0:0:0:
329,192,178795,1,0,0:0:0:0:
475,192,178795,1,0,0:0:0:0:
256,192,178922,1,0,0:0:0:0:
36,192,178922,1,0,0:0:0:0:
109,192,178922,1,0,0:0:0:0:
109,192,179048,1,0,0:0:0:0:
475,192,179175,1,0,0:0:0:0:
329,192,179175,1,0,0:0:0:0:
256,192,179301,1,0,0:0:0:0:
182,192,179301,1,0,0:0:0:0:
36,192,179301,1,0,0:0:0:0:
402,192,179428,1,0,0:0:0:0:
475,192,179554,1,0,0:0:0:0:
329,192,179554,1,0,0:0:0:0:
256,192,179681,1,0,0:0:0:0:
182,192,179681,1,0,0:0:0:0:
109,192,179681,1,0,0:0:0:0:
36,192,179681,1,0,0:0:0:0:
402,192,179808,1,0,0:0:0:0:
36,192,179934,1,0,0:0:0:0:
182,192,179934,1,0,0:0:0:0:
475,192,180061,1,0,0:0:0:0:
329,192,180061,1,0,0:0:0:0:
402,192,180061,1,0,0:0:0:0:
329,192,180187,1,0,0:0:0:0:
182,192,180314,1,0,0:0:0:0:
36,192,180314,1,0,0:0:0:0:
475,192,180441,1,0,0:0:0:0:
402,192,180441,1,0,0:0:0:0:
256,192,180441,1,0,0:0:0:0:
402,192,180567,1,0,0:0:0:0:
182,192,180694,1,0,0:0:0:0:
36,192,180694,1,0,0:0:0:0:
475,192,180820,1,0,0:0:0:0:
329,192,180820,1,0,0:0:0:0:
256,192,180820,1,0,0:0:0:0:
402,192,180820,1,0,0:0:0:0:
475,192,180947,1,0,0:0:0:0:
182,192,181073,1,0,0:0:0:0:
36,192,181073,1,0,0:0:0:0:
256,192,181073,1,0,0:0:0:0:
402,192,181200,1,0,0:0:0:0:
475,192,181200,1,0,0:0:0:0:
256,192,181200,1,0,0:0:0:0:
36,192,181200,1,0,0:0:0:0:
109,192,181200,1,0,0:0:0:0:
182,192,181327,1,0,0:0:0:0:
329,192,181453,1,0,0:0:0:0:
475,192,181453,1,0,0:0:0:0:
109,192,181580,1,0,0:0:0:0:
182,192,181580,1,0,0:0:0:0:
256,192,181580,1,0,0:0:0:0:
36,192,181580,1,0,0:0:0:0:
402,192,181706,1,0,0:0:0:0:
182,192,181833,1,0,0:0:0:0:
36,192,181833,1,0,0:0:0:0:
256,192,181960,1,0,0:0:0:0:
475,192,181960,1,0,0:0:0:0:
402,192,181960,1,0,0:0:0:0:
402,192,182086,1,0,0:0:0:0:
36,192,182213,1,0,0:0:0:0:
182,192,182213,1,0,0:0:0:0:
256,192,182339,1,0,0:0:0:0:
329,192,182339,1,0,0:0:0:0:
475,192,182339,1,0,0:0:0:0:
329,192,182466,1,0,0:0:0:0:
36,192,182592,1,0,0:0:0:0:
182,192,182592,1,0,0:0:0:0:
109,192,182592,1,0,0:0:0:0:
256,192,182719,1,0,0:0:0:0:
402,192,182719,1,0,0:0:0:0:
36,192,182719,1,0,0:0:0:0:
475,192,182719,1,0,0:0:0:0:
109,192,182719,1,0,0:0:0:0:
182,192,182846,1,0,0:0:0:0:
475,192,182972,1,0,0:0:0:0:
329,192,182972,1,0,0:0:0:0:
36,192,183099,1,0,0:0:0:0:
182,192,183099,1,0,0:0:0:0:
109,192,183099,1,0,0:0:0:0:
256,192,183099,1,0,0:0:0:0:
182,192,183225,1,0,0:0:0:0:
329,192,183352,1,0,0:0:0:0:
475,192,183352,1,0,0:0:0:0:
36,192,183478,1,0,0:0:0:0:
109,192,183478,1,0,0:0:0:0:
256,192,183478,1,0,0:0:0:0:
402,192,183478,1,0,0:0:0:0:
109,192,183605,1,0,0:0:0:0:
329,192,183732,1,0,0:0:0:0:
475,192,183732,1,0,0:0:0:0:
36,192,183858,1,0,0:0:0:0:
402,192,183858,1,0,0:0:0:0:
256,192,183858,1,0,0:0:0:0:
182,192,183858,1,0,0:0:0:0:
109,192,183985,1,0,0:0:0:0:
329,192,183985,1,0,0:0:0:0:
256,192,183985,1,0,0:0:0:0:
475,192,183985,1,0,0:0:0:0:
329,192,184111,1,0,0:0:0:0:
182,192,184111,1,0,0:0:0:0:
402,192,184111,1,0,0:0:0:0:
36,192,184111,1,0,0:0:0:0:
109,192,184238,1,0,0:0:0:0:
256,192,184238,1,0,0:0:0:0:
475,192,184238,1,0,0:0:0:0:
36,192,184238,1,0,0:0:0:0:
402,192,184238,1,0,0:0:0:0:
329,192,184365,1,0,0:0:0:0:
475,192,184365,1,0,0:0:0:0:
182,192,184491,1,0,0:0:0:0:
36,192,184491,1,0,0:0:0:0:
402,192,184618,1,0,0:0:0:0:
329,192,184618,1,0,0:0:0:0:
256,192,184618,1,0,0:0:0:0:
475,192,184618,1,0,0:0:0:0:
182,192,184744,1,0,0:0:0:0:
36,192,184744,1,0,0:0:0:0:
329,192,184871,1,0,0:0:0:0:
475,192,184871,1,0,0:0:0:0:
256,192,184997,1,0,0:0:0:0:
36,192,184997,1,0,0:0:0:0:
109,192,184997,1,0,0:0:0:0:
402,192,184997,1,0,0:0:0:0:
109,192,185124,1,0,0:0:0:0:
36,192,185124,1,0,0:0:0:0:
329,192,185251,1,0,0:0:0:0:
402,192,185251,1,0,0:0:0:0:
329,192,185377,1,0,0:0:0:0:
182,192,185377,1,0,0:0:0:0:
109,192,185377,1,0,0:0:0:0:
402,192,185377,1,0,0:0:0:0:
182,192,185504,1,0,0:0:0:0:
109,192,185504,1,0,0:0:0:0:
475,192,185630,1,0,0:0:0:0:
329,192,185630,1,0,0:0:0:0:
402,192,185630,1,0,0:0:0:0:
402,192,185757,1,0,0:0:0:0:
182,192,185757,1,0,0:0:0:0:
109,192,185757,1,0,0:0:0:0:
36,192,185757,1,0,0:0:0:0:
256,192,185884,1,0,0:0:0:0:
182,192,185884,1,0,0:0:0:0:
475,192,185884,1,0,0:0:0:0:
329,192,186010,1,0,0:0:0:0:
256,192,186010,1,0,0:0:0:0:
36,192,186010,1,0,0:0:0:0:
109,192,186137,1,0,0:0:0:0:
329,192,186137,1,0,0:0:0:0:
402,192,186137,1,0,0:0:0:0:
182,192,186263,1,0,0:0:0:0:
256,192,186263,1,0,0:0:0:0:
475,192,186263,1,0,0:0:0:0:
109,192,186390,1,0,0:0:0:0:
36,192,186390,1,0,0:0:0:0:
329,192,186390,1,0,0:0:0:0:
475,192,186516,1,0,0:0:0:0:
402,192,186516,1,0,0:0:0:0:
256,192,186516,1,0,0:0:0:0:
182,192,186516,1,0,0:0:0:0:
109,192,186643,1,0,0:0:0:0:
36,192,186643,1,0,0:0:0:0:
182,192,186706,1,0,0:0:0:0:
256,192,186770,1,0,0:0:0:0:
475,192,186770,1,0,0:0:0:0:
329,192,186833,1,0,0:0:0:0:
36,192,186896,1,0,0:0:0:0:
402,192,186896,1,0,0:0:0:0:
109,192,186896,1,0,0:0:0:0:
182,192,186928,1,0,0:0:0:0:
256,192,186960,1,0,0:0:0:0:
329,192,186991,1,0,0:0:0:0:
402,192,187023,1,0,0:0:0:0:
475,192,187054,1,0,0:0:0:0:
36,192,187086,1,0,0:0:0:0:
109,192,187118,1,0,0:0:0:0:
182,192,187149,1,0,0:0:0:0:
256,192,187181,1,0,0:0:0:0:
329,192,187213,1,0,0:0:0:0:
402,192,187244,1,0,0:0:0:0:
475,192,187276,1,0,0:0:0:0:
256,192,187276,1,0,0:0:0:0:
36,192,187276,1,0,0:0:0:0:
109,192,187276,1,0,0:0:0:0:
329,192,187403,1,0,0:0:0:0:
402,192,187403,1,0,0:0:0:0:
182,192,187529,1,0,0:0:0:0:
36,192,187529,1,0,0:0:0:0:
402,192,187656,1,0,0:0:0:0:
329,192,187656,1,0,0:0:0:0:
256,192,187656,1,0,0:0:0:0:
475,192,187656,1,0,0:0:0:0:
182,192,187782,1,0,0:0:0:0:
109,192,187782,1,0,0:0:0:0:
329,192,187909,1,0,0:0:0:0:
475,192,187909,1,0,0:0:0:0:
256,192,188035,1,0,0:0:0:0:
36,192,188035,1,0,0:0:0:0:
109,192,188035,1,0,0:0:0:0:
182,192,188035,1,0,0:0:0:0:
329,192,188162,1,0,0:0:0:0:
402,192,188162,1,0,0:0:0:0:
182,192,188289,1,0,0:0:0:0:
109,192,188289,1,0,0:0:0:0:
475,192,188415,1,0,0:0:0:0:
402,192,188415,1,0,0:0:0:0:
256,192,188415,1,0,0:0:0:0:
36,192,188542,1,0,0:0:0:0:
109,192,188542,1,0,0:0:0:0:
475,192,188668,1,0,0:0:0:0:
329,192,188668,1,0,0:0:0:0:
402,192,188668,1,0,0:0:0:0:
256,192,188795,1,0,0:0:0:0:
182,192,188795,1,0,0:0:0:0:
109,192,188795,1,0,0:0:0:0:
36,192,188795,1,0,0:0:0:0:
402,192,188922,1,0,0:0:0:0:
475,192,188922,1,0,0:0:0:0:
36,192,189048,1,0,0:0:0:0:
182,192,189048,1,0,0:0:0:0:
475,192,189175,1,0,0:0:0:0:
329,192,189175,1,0,0:0:0:0:
402,192,189175,1,0,0:0:0:0:
256,192,189175,1,0,0:0:0:0:
36,192,189301,1,0,0:0:0:0:
109,192,189301,1,0,0:0:0:0:
182,192,189428,1,0,0:0:0:0:
329,192,189428,1,0,0:0:0:0:
475,192,189554,1,0,0:0:0:0:
402,192,189554,1,0,0:0:0:0:
256,192,189554,1,0,0:0:0:0:
329,192,189554,1,0,0:0:0:0:
36,192,189681,1,0,0:0:0:0:
109,192,189681,1,0,0:0:0:0:
182,192,189808,1,0,0:0:0:0:
329,192,189808,1,0,0:0:0:0:
475,192,189934,1,0,0:0:0:0:
36,192,189934,1,0,0:0:0:0:
256,192,189934,1,0,0:0:0:0:
402,192,189934,1,0,0:0:0:0:
109,192,189934,1,0,0:0:0:0:
329,192,190061,1,0,0:0:0:0:
182,192,190061,1,0,0:0:0:0:
402,192,190187,1,0,0:0:0:0:
109,192,190187,1,0,0:0:0:0:
256,192,190187,1,0,0:0:0:0:
402,192,190314,1,0,0:0:0:0:
256,192,190314,1,0,0:0:0:0:
36,192,190314,1,0,0:0:0:0:
475,192,190314,1,0,0:0:0:0:
109,192,190314,1,0,0:0:0:0:
182,192,190441,1,0,0:0:0:0:
329,192,190441,1,0,0:0:0:0:
402,192,190567,1,0,0:0:0:0:
475,192,190567,1,0,0:0:0:0:
109,192,190694,1,0,0:0:0:0:
182,192,190694,1,0,0:0:0:0:
256,192,190694,1,0,0:0:0:0:
36,192,190694,1,0,0:0:0:0:
329,192,190820,1,0,0:0:0:0:
475,192,190820,1,0,0:0:0:0:
182,192,190947,1,0,0:0:0:0:
36,192,190947,1,0,0:0:0:0:
256,192,191073,1,0,0:0:0:0:
475,192,191073,1,0,0:0:0:0:
402,192,191073,1,0,0:0:0:0:
109,192,191073,1,0,0:0:0:0:
329,192,191200,1,0,0:0:0:0:
182,192,191200,1,0,0:0:0:0:
36,192,191327,1,0,0:0:0:0:
109,192,191327,1,0,0:0:0:0:
256,192,191453,1,0,0:0:0:0:
182,192,191453,1,0,0:0:0:0:
475,192,191453,1,0,0:0:0:0:
402,192,191453,1,0,0:0:0:0:
402,192,191580,1,0,0:0:0:0:
329,192,191580,1,0,0:0:0:0:
109,192,191706,1,0,0:0:0:0:
182,192,191706,1,0,0:0:0:0:
256,192,191833,1,0,0:0:0:0:
329,192,191833,1,0,0:0:0:0:
402,192,191833,1,0,0:0:0:0:
475,192,191833,1,0,0:0:0:0:
109,192,191960,1,0,0:0:0:0:
36,192,191960,1,0,0:0:0:0:
475,192,192086,1,0,0:0:0:0:
329,192,192086,1,0,0:0:0:0:
36,192,192213,1,0,0:0:0:0:
182,192,192213,1,0,0:0:0:0:
109,192,192213,1,0,0:0:0:0:
256,192,192213,1,0,0:0:0:0:
182,192,192339,1,0,0:0:0:0:
109,192,192339,1,0,0:0:0:0:
329,192,192466,1,0,0:0:0:0:
475,192,192466,1,0,0:0:0:0:
402,192,192466,1,0,0:0:0:0:
36,192,192592,1,0,0:0:0:0:
109,192,192592,1,0,0:0:0:0:
256,192,192592,1,0,0:0:0:0:
182,192,192592,1,0,0:0:0:0:
109,192,192719,1,0,0:0:0:0:
256,192,192719,1,0,0:0:0:0:
329,192,192846,1,0,0:0:0:0:
475,192,192846,1,0,0:0:0:0:
36,192,192972,1,0,0:0:0:0:
182,192,192972,1,0,0:0:0:0:
256,192,192972,1,0,0:0:0:0:
109,192,192972,1,0,0:0:0:0:
36,192,193099,1,0,0:0:0:0:
182,192,193099,1,0,0:0:0:0:
329,192,193162,1,0,0:0:0:0:
475,192,193162,1,0,0:0:0:0:
36,192,193225,1,0,0:0:0:0:
182,192,193225,1,0,0:0:0:0:
329,192,193289,1,0,0:0:0:0:
475,192,193289,1,0,0:0:0:0:
109,192,193352,1,0,0:0:0:0:
36,192,193352,1,0,0:0:0:0:
256,192,193352,1,0,0:0:0:0:
182,192,193352,1,0,0:0:0:0:
402,192,193352,1,0,0:0:0:0:
329,192,193478,1,0,0:0:0:0:
475,192,193478,1,0,0:0:0:0:
182,192,193605,1,0,0:0:0:0:
36,192,193605,1,0,0:0:0:0:
402,192,193732,1,0,0:0:0:0:
329,192,193732,1,0,0:0:0:0:
256,192,193732,1,0,0:0:0:0:
475,192,193732,1,0,0:0:0:0:
109,192,193858,1,0,0:0:0:0:
182,192,193858,1,0,0:0:0:0:
329,192,193985,1,0,0:0:0:0:
475,192,193985,1,0,0:0:0:0:
256,192,194111,1,0,0:0:0:0:
36,192,194111,1,0,0:0:0:0:
109,192,194111,1,0,0:0:0:0:
402,192,194111,1,0,0:0:0:0:
109,192,194238,1,0,0:0:0:0:
182,192,194238,1,0,0:0:0:0:
475,192,194365,1,0,0:0:0:0:
329,192,194365,1,0,0:0:0:0:
256,192,194491,1,0,0:0:0:0:
182,192,194491,1,0,0:0:0:0:
36,192,194491,1,0,0:0:0:0:
402,192,194491,1,0,0:0:0:0:
182,192,194618,1,0,0:0:0:0:
36,192,194618,1,0,0:0:0:0:
475,192,194744,1,0,0:0:0:0:
329,192,194744,1,0,0:0:0:0:
402,192,194744,1,0,0:0:0:0:
256,192,194871,1,0,0:0:0:0:
109,192,194871,1,0,0:0:0:0:
475,192,194871,1,0,0:0:0:0:
36,192,194871,1,0,0:0:0:0:
402,192,194871,1,0,0:0:0:0:
329,192,194997,1,0,0:0:0:0:
36,192,195124,1,0,0:0:0:0:
182,192,195124,1,0,0:0:0:0:
475,192,195251,1,0,0:0:0:0:
329,192,195251,1,0,0:0:0:0:
402,192,195251,1,0,0:0:0:0:
256,192,195251,1,0,0:0:0:0:
329,192,195377,1,0,0:0:0:0:
182,192,195504,1,0,0:0:0:0:
36,192,195504,1,0,0:0:0:0:
475,192,195630,1,0,0:0:0:0:
402,192,195630,1,0,0:0:0:0:
256,192,195630,1,0,0:0:0:0:
109,192,195630,1,0,0:0:0:0:
402,192,195757,1,0,0:0:0:0:
329,192,195757,1,0,0:0:0:0:
182,192,195757,1,0,0:0:0:0:
402,192,195884,1,0,0:0:0:0:
36,192,195884,1,0,0:0:0:0:
109,192,195884,1,0,0:0:0:0:
475,192,196010,1,0,0:0:0:0:
256,192,196010,1,0,0:0:0:0:
329,192,196010,1,0,0:0:0:0:
182,192,196010,1,0,0:0:0:0:
36,192,196137,1,0,0:0:0:0:
109,192,196137,1,0,0:0:0:0:
182,192,196263,1,0,0:0:0:0:
256,192,196263,1,0,0:0:0:0:
402,192,196263,1,0,0:0:0:0:
475,192,196263,1,0,0:0:0:0:
402,192,196390,1,0,0:0:0:0:
256,192,196390,1,0,0:0:0:0:
36,192,196390,1,0,0:0:0:0:
475,192,196390,1,0,0:0:0:0:
109,192,196390,1,0,0:0:0:0:
182,192,196516,1,0,0:0:0:0:
36,192,196516,1,0,0:0:0:0:
109,192,196516,1,0,0:0:0:0:
329,192,196643,1,0,0:0:0:0:
475,192,196643,1,0,0:0:0:0:
402,192,196643,1,0,0:0:0:0:
256,192,196643,1,0,0:0:0:0:
109,192,196770,1,0,0:0:0:0:
182,192,196770,1,0,0:0:0:0:
329,192,196770,1,0,0:0:0:0:
36,192,196770,1,0,0:0:0:0:
182,192,196896,1,0,0:0:0:0:
475,192,196896,1,0,0:0:0:0:
402,192,196896,1,0,0:0:0:0:
256,192,196896,1,0,0:0:0:0:
329,192,197023,1,0,0:0:0:0:
36,192,197023,1,0,0:0:0:0:
109,192,197023,1,0,0:0:0:0:
256,192,197023,1,0,0:0:0:0:
182,192,197149,1,0,0:0:0:0:
475,192,197149,1,0,0:0:0:0:
402,192,197149,1,0,0:0:0:0:
109,192,197149,1,0,0:0:0:0:
402,192,197276,1,0,0:0:0:0:
475,192,197276,1,0,0:0:0:0:
182,192,197276,1,0,0:0:0:0:
256,192,197276,1,0,0:0:0:0:
256,192,197403,1,0,0:0:0:0:
109,192,197403,1,0,0:0:0:0:
36,192,197403,1,0,0:0:0:0:
329,192,197403,1,0,0:0:0:0:
182,192,197529,1,0,0:0:0:0:
329,192,197529,1,0,0:0:0:0:
402,192,197529,1,0,0:0:0:0:
109,192,197529,1,0,0:0:0:0:
182,192,197656,1,0,0:0:0:0:
402,192,197656,1,0,0:0:0:0:
256,192,197656,1,0,0:0:0:0:
475,192,197656,1,0,0:0:0:0:
36,192,197782,1,0,0:0:0:0:
182,192,197782,1,0,0:0:0:0:
109,192,197782,1,0,0:0:0:0:
329,192,197782,1,0,0:0:0:0:
109,192,197909,1,0,0:0:0:0:
329,192,197909,1,0,0:0:0:0:
402,192,197909,1,0,0:0:0:0:
475,192,197909,1,0,0:0:0:0:
256,192,198035,1,0,0:0:0:0:
329,192,198035,1,0,0:0:0:0:
36,192,198035,1,0,0:0:0:0:
182,192,198162,1,0,0:0:0:0:
256,192,198162,1,0,0:0:0:0:
475,192,198162,1,0,0:0:0:0:
402,192,198289,1,0,0:0:0:0:
182,192,198289,1,0,0:0:0:0:
109,192,198289,1,0,0:0:0:0:
329,192,198415,1,0,0:0:0:0:
256,192,198415,1,0,0:0:0:0:
36,192,198415,1,0,0:0:0:0:
402,192,198542,1,0,0:0:0:0:
475,192,198542,1,0,0:0:0:0:
182,192,198542,1,0,0:0:0:0:
36,192,198668,1,0,0:0:0:0:
109,192,198668,1,0,0:0:0:0:
256,192,198668,1,0,0:0:0:0:
329,192,198668,1,0,0:0:0:0:
402,192,198795,1,0,0:0:0:0:
475,192,198795,1,0,0:0:0:0:
182,192,198795,1,0,0:0:0:0:
329,192,198858,1,0,0:0:0:0:
256,192,198922,1,0,0:0:0:0:
182,192,198953,1,0,0:0:0:0:
109,192,198985,1,0,0:0:0:0:
36,192,199016,1,0,0:0:0:0:
475,192,199048,1,0,0:0:0:0:
402,192,199048,1,0,0:0:0:0:
329,192,199080,1,0,0:0:0:0:
256,192,199111,1,0,0:0:0:0:
182,192,199143,1,0,0:0:0:0:
109,192,199175,1,0,0:0:0:0:
36,192,199206,1,0,0:0:0:0:
475,192,199238,1,0,0:0:0:0:
402,192,199270,1,0,0:0:0:0:
329,192,199301,1,0,0:0:0:0:
256,192,199333,1,0,0:0:0:0:
182,192,199365,1,0,0:0:0:0:
109,192,199396,1,0,0:0:0:0:
36,192,199428,1,0,0:0:0:0:
256,192,199428,1,0,0:0:0:0:
475,192,199428,1,0,0:0:0:0:
402,192,199428,1,0,0:0:0:0:
402,192,199808,1,0,0:0:0:0:
329,192,199808,1,0,0:0:0:0:
36,192,200377,1,0,0:0:0:0:
109,192,200377,1,0,0:0:0:0:
256,192,200947,1,0,0:0:0:0:
182,192,200947,1,0,0:0:0:0:
182,192,201516,1,0,0:0:0:0:
109,192,201516,1,0,0:0:0:0:
109,192,202086,1,0,0:0:0:0:
36,192,202086,1,0,0:0:0:0:
475,192,202466,1,0,0:0:0:0:
402,192,202466,1,0,0:0:0:0:
256,192,202466,1,0,0:0:0:0:
109,192,202466,1,0,0:0:0:0:
36,192,202466,1,0,0:0:0:0:
475,192,202846,1,0,0:0:0:0:
329,192,202846,1,0,0:0:0:0:
182,192,203415,1,0,0:0:0:0:
36,192,203415,1,0,0:0:0:0:
402,192,203985,1,0,0:0:0:0:
256,192,203985,1,0,0:0:0:0:
329,192,204554,1,0,0:0:0:0:
182,192,204554,1,0,0:0:0:0:
256,192,205124,1,0,0:0:0:0:
109,192,205124,1,0,0:0:0:0:
36,192,205124,1,0,0:0:0:0:
475,192,205124,1,0,0:0:0:0:
402,192,205124,1,0,0:0:0:0:
475,192,205504,1,0,0:0:0:0:
402,192,205504,1,0,0:0:0:0:
182,192,205504,1,0,0:0:0:0:
109,192,205504,1,0,0:0:0:0:
256,192,205884,1,0,0:0:0:0:
475,192,205884,1,0,0:0:0:0:
256,192,206453,1,0,0:0:0:0:
36,192,206453,1,0,0:0:0:0:
402,192,207023,1,0,0:0:0:0:
109,192,207023,1,0,0:0:0:0:
475,192,207023,1,0,0:0:0:0:
36,192,207023,1,0,0:0:0:0:
256,192,207023,1,0,0:0:0:0:
329,192,207592,1,0,0:0:0:0:
109,192,207592,1,0,0:0:0:0:
256,192,208162,1,0,0:0:0:0:
36,192,208162,1,0,0:0:0:0:
475,192,208415,1,0,0:0:0:0:
402,192,208415,1,0,0:0:0:0:
109,192,208415,1,0,0:0:0:0:
182,192,208415,1,0,0:0:0:0:
36,192,208415,1,0,0:0:0:0:
256,192,208542,1,0,0:0:0:0:
329,192,208542,1,0,0:0:0:0:
182,192,208922,1,0,0:0:0:0:
256,192,208922,1,0,0:0:0:0:
475,192,209301,1,0,0:0:0:0:
402,192,209301,1,0,0:0:0:0:
256,192,209301,1,0,0:0:0:0:
109,192,209301,1,0,0:0:0:0:
36,192,209301,1,0,0:0:0:0:
182,192,209491,1,0,0:0:0:0:
329,192,209491,1,0,0:0:0:0:
182,192,209934,1,0,0:0:0:0:
36,192,209934,1,0,0:0:0:0:
475,192,209934,1,0,0:0:0:0:
329,192,209934,1,0,0:0:0:0:
256,192,210061,1,0,0:0:0:0:
402,192,210061,1,0,0:0:0:0:
109,192,210061,1,0,0:0:0:0:
182,192,210061,1,0,0:0:0:0:
329,192,210061,1,0,0:0:0:0:
475,192,210441,1,0,0:0:0:0:
402,192,210441,1,0,0:0:0:0:
109,192,210441,1,0,0:0:0:0:
36,192,210441,1,0,0:0:0:0:
329,192,210820,1,0,0:0:0:0:
402,192,210820,1,0,0:0:0:0:
182,192,210820,1,0,0:0:0:0:
109,192,210820,1,0,0:0:0:0:
402,192,210947,1,0,0:0:0:0:
256,192,210947,1,0,0:0:0:0:
109,192,210947,1,0,0:0:0:0:
402,192,211073,1,0,0:0:0:0:
109,192,211073,1,0,0:0:0:0:
329,192,211200,1,0,0:0:0:0:
256,192,211200,1,0,0:0:0:0:
182,192,211200,1,0,0:0:0:0:
475,192,211200,1,0,0:0:0:0:
36,192,211200,1,0,0:0:0:0:
329,192,211327,1,0,0:0:0:0:
182,192,211327,1,0,0:0:0:0:
256,192,211453,128,0,211580:0:0:0:0:
329,192,211453,128,0,211580:0:0:0:0:
182,192,211453,128,0,211580:0:0:0:0:
475,192,211580,1,0,0:0:0:0:
402,192,211580,1,0,0:0:0:0:
109,192,211580,1,0,0:0:0:0:
36,192,211580,1,0,0:0:0:0:
402,192,211833,1,0,0:0:0:0:
182,192,211960,1,0,0:0:0:0:
109,192,211960,1,0,0:0:0:0:
329,192,211960,1,0,0:0:0:0:
36,192,211960,1,0,0:0:0:0:
402,192,212213,1,0,0:0:0:0:
256,192,212339,1,0,0:0:0:0:
182,192,212339,1,0,0:0:0:0:
402,192,212529,1,0,0:0:0:0:
475,192,212529,1,0,0:0:0:0:
329,192,212529,1,0,0:0:0:0:
182,192,212719,1,0,0:0:0:0:
109,192,212719,1,0,0:0:0:0:
36,192,212719,1,0,0:0:0:0:
109,192,212972,1,0,0:0:0:0:
329,192,213099,1,0,0:0:0:0:
256,192,213099,1,0,0:0:0:0:
402,192,213099,1,0,0:0:0:0:
182,192,213352,1,0,0:0:0:0:
109,192,213478,1,0,0:0:0:0:
36,192,213478,1,0,0:0:0:0:
402,192,213668,1,0,0:0:0:0:
329,192,213668,1,0,0:0:0:0:
182,192,213668,1,0,0:0:0:0:
109,192,213858,1,0,0:0:0:0:
36,192,213858,1,0,0:0:0:0:
182,192,214111,1,0,0:0:0:0:
475,192,214238,1,0,0:0:0:0:
402,192,214238,1,0,0:0:0:0:
256,192,214238,1,0,0:0:0:0:
329,192,214491,1,0,0:0:0:0:
402,192,214618,1,0,0:0:0:0:
475,192,214618,1,0,0:0:0:0:
256,192,214618,1,0,0:0:0:0:
36,192,214618,1,0,0:0:0:0:
109,192,214618,1,0,0:0:0:0:
329,192,214871,1,0,0:0:0:0:
182,192,214997,1,0,0:0:0:0:
36,192,214997,1,0,0:0:0:0:
109,192,214997,1,0,0:0:0:0:
256,192,215251,1,0,0:0:0:0:
182,192,215377,1,0,0:0:0:0:
109,192,215377,1,0,0:0:0:0:
475,192,215567,1,0,0:0:0:0:
329,192,215567,1,0,0:0:0:0:
402,192,215567,1,0,0:0:0:0:
36,192,215757,1,0,0:0:0:0:
109,192,215757,1,0,0:0:0:0:
329,192,216010,1,0,0:0:0:0:
475,192,216010,1,0,0:0:0:0:
109,192,216137,1,0,0:0:0:0:
36,192,216137,1,0,0:0:0:0:
256,192,216137,1,0,0:0:0:0:
402,192,216390,1,0,0:0:0:0:
256,192,216516,1,0,0:0:0:0:
109,192,216516,1,0,0:0:0:0:
36,192,216516,1,0,0:0:0:0:
329,192,216706,1,0,0:0:0:0:
182,192,216706,1,0,0:0:0:0:
402,192,216706,1,0,0:0:0:0:
109,192,216896,1,0,0:0:0:0:
256,192,216896,128,0,217149:0:0:0:0:
329,192,217149,1,0,0:0:0:0:
182,192,217149,1,0,0:0:0:0:
475,192,217276,1,0,0:0:0:0:
402,192,217308,1,0,0:0:0:0:
329,192,217339,1,0,0:0:0:0:
36,192,217371,1,0,0:0:0:0:
109,192,217403,1,0,0:0:0:0:
182,192,217434,1,0,0:0:0:0:
475,192,217466,1,0,0:0:0:0:
402,192,217497,1,0,0:0:0:0:
329,192,217529,1,0,0:0:0:0:
36,192,217561,1,0,0:0:0:0:
109,192,217592,1,0,0:0:0:0:
182,192,217624,1,0,0:0:0:0:
329,192,217656,1,0,0:0:0:0:
402,192,217656,1,0,0:0:0:0:
475,192,217656,1,0,0:0:0:0:
256,192,217656,1,0,0:0:0:0:
109,192,217909,1,0,0:0:0:0:
36,192,218035,1,0,0:0:0:0:
256,192,218035,1,0,0:0:0:0:
402,192,218035,1,0,0:0:0:0:
182,192,218415,1,0,0:0:0:0:
109,192,218415,1,0,0:0:0:0:
36,192,218415,1,0,0:0:0:0:
475,192,218605,1,0,0:0:0:0:
256,192,218605,1,0,0:0:0:0:
402,192,218605,1,0,0:0:0:0:
109,192,218795,1,0,0:0:0:0:
36,192,218795,1,0,0:0:0:0:
329,192,219048,1,0,0:0:0:0:
182,192,219048,1,0,0:0:0:0:
475,192,219175,1,0,0:0:0:0:
256,192,219175,1,0,0:0:0:0:
36,192,219175,1,0,0:0:0:0:
109,192,219175,1,0,0:0:0:0:
402,192,219175,1,0,0:0:0:0:
329,192,219428,1,0,0:0:0:0:
256,192,219554,1,0,0:0:0:0:
109,192,219554,1,0,0:0:0:0:
402,192,219744,1,0,0:0:0:0:
182,192,219744,1,0,0:0:0:0:
329,192,219744,1,0,0:0:0:0:
36,192,219934,1,0,0:0:0:0:
256,192,219934,1,0,0:0:0:0:
109,192,219934,1,0,0:0:0:0:
402,192,220187,1,0,0:0:0:0:
475,192,220314,1,0,0:0:0:0:
256,192,220314,1,0,0:0:0:0:
182,192,220314,1,0,0:0:0:0:
329,192,220567,1,0,0:0:0:0:
475,192,220567,1,0,0:0:0:0:
402,192,220567,1,0,0:0:0:0:
36,192,220567,1,0,0:0:0:0:
109,192,220567,1,0,0:0:0:0:
182,192,220694,1,0,0:0:0:0:
256,192,220694,1,0,0:0:0:0:
109,192,220694,1,0,0:0:0:0:
36,192,220694,1,0,0:0:0:0:
402,192,220947,1,0,0:0:0:0:
475,192,220947,1,0,0:0:0:0:
256,192,221073,1,0,0:0:0:0:
329,192,221073,1,0,0:0:0:0:
182,192,221073,1,0,0:0:0:0:
109,192,221073,1,0,0:0:0:0:
182,192,221200,1,0,0:0:0:0:
329,192,221327,1,0,0:0:0:0:
256,192,221327,1,0,0:0:0:0:
402,192,221453,1,0,0:0:0:0:
475,192,221453,1,0,0:0:0:0:
256,192,221453,1,0,0:0:0:0:
36,192,221453,1,0,0:0:0:0:
109,192,221453,1,0,0:0:0:0:
182,192,221643,1,0,0:0:0:0:
329,192,221643,1,0,0:0:0:0:
256,192,221643,1,0,0:0:0:0:
109,192,221833,1,0,0:0:0:0:
402,192,221833,1,0,0:0:0:0:
256,192,221960,1,0,0:0:0:0:
182,192,222086,1,0,0:0:0:0:
329,192,222086,1,0,0:0:0:0:
256,192,222213,1,0,0:0:0:0:
402,192,222213,1,0,0:0:0:0:
109,192,222213,1,0,0:0:0:0:
329,192,222339,1,0,0:0:0:0:
182,192,222339,1,0,0:0:0:0:
36,192,222466,1,0,0:0:0:0:
109,192,222466,1,0,0:0:0:0:
402,192,222592,5,0,0:0:0:0:
36,192,222592,1,0,0:0:0:0:
475,192,222592,1,0,0:0:0:0:
109,192,222592,1,0,0:0:0:0:
402,192,222719,1,0,0:0:0:0:
475,192,222719,1,0,0:0:0:0:
329,192,222846,1,0,0:0:0:0:
182,192,222846,1,0,0:0:0:0:
329,192,222972,1,0,0:0:0:0:
402,192,222972,1,0,0:0:0:0:
182,192,222972,1,0,0:0:0:0:
109,192,222972,1,0,0:0:0:0:
402,192,223099,1,0,0:0:0:0:
109,192,223099,1,0,0:0:0:0:
402,192,223225,1,0,0:0:0:0:
109,192,223225,1,0,0:0:0:0:
256,192,223225,1,0,0:0:0:0:
36,192,223352,1,0,0:0:0:0:
475,192,223352,1,0,0:0:0:0:
329,192,223352,1,0,0:0:0:0:
182,192,223352,1,0,0:0:0:0:
256,192,223352,1,0,0:0:0:0:
109,192,223478,128,0,223732:0:0:0:0:
402,192,223478,128,0,223732:0:0:0:0:
256,192,223732,128,0,226770:0:0:0:0:
329,192,223732,1,0,0:0:0:0:
475,192,223732,1,0,0:0:0:0:
36,192,223732,1,0,0:0:0:0:
182,192,223732,1,0,0:0:0:0:
402,192,225251,128,0,229808:0:0:0:0:
475,192,225251,1,0,0:0:0:0:
109,192,226770,128,0,229808:0:0:0:0:
36,192,226770,1,0,0:0:0:0:
256,192,228289,128,0,229808:0:0:0:0:
329,192,228289,1,0,0:0:0:0:
182,192,229808,128,0,234365:0:0:0:0:
36,192,229808,128,0,234365:0:0:0:0:
329,192,231327,128,0,234365:0:0:0:0:
402,192,231327,1,0,0:0:0:0:
475,192,232846,128,0,234365:0:0:0:0:
256,192,232846,1,0,0:0:0:0:
256,192,234365,128,0,234491:0:0:0:0:
109,192,234491,128,0,234618:0:0:0:0:
402,192,234744,128,0,234871:0:0:0:0:
256,192,234871,128,0,234997:0:0:0:0:
475,192,234997,128,0,235124:0:0:0:0:
182,192,235124,128,0,235251:0:0:0:0:
329,192,235251,128,0,235377:0:0:0:0:
36,192,235377,128,0,235504:0:0:0:0:
109,192,235504,128,0,235884:0:0:0:0:
475,192,235630,1,0,0:0:0:0:
329,192,235757,1,0,0:0:0:0:
475,192,235884,1,0,0:0:0:0:
402,192,235884,1,0,0:0:0:0:
256,192,235884,1,0,0:0:0:0:
182,192,235884,1,0,0:0:0:0:
36,192,235884,1,0,0:0:0:0:
