osu file format v14

[General]
AudioFilename: audio.mp3
AudioLeadIn: 0
PreviewTime: -1
Countdown: 0
SampleSet: None
StackLeniency: 0.7
Mode: 3
LetterboxInBreaks: 0
SpecialStyle: 0
WidescreenStoryboard: 0

[Editor]
DistanceSpacing: 1.5
BeatDivisor: 4
GridSize: 4
TimelineZoom: 1.4

[Metadata]
Title:Breakthrough Atmosphere
TitleUnicode:Breakthrough Atmosphere
Artist:xi
ArtistUnicode:xi
Creator:Devvi-
Version:Malevolence
Source:
Tags:
BeatmapID:1878617
BeatmapSetID:899335

[Difficulty]
HPDrainRate:6
CircleSize:4
OverallDifficulty:7.5
ApproachRate:5
SliderMultiplier:1.4
SliderTickRate:1

[Events]
//Background and Video events
0,0,"bg oof.jpg",0,0
//Break Periods
2,2531,3789
2,5569,6827
2,8607,9865
2,11645,12524
2,14683,15941
2,17721,18979
2,20759,22017
2,23797,24676
//Storyboard Layer 0 (Background)
//Storyboard Layer 1 (Fail)
//Storyboard Layer 2 (Pass)
//Storyboard Layer 3 (Foreground)
//Storyboard Sound Samples

[TimingPoints]
1952,379.746835443038,4,1,0,68,1,0

[HitObjects]
64,192,1952,5,2,0:0:0:0:
64,192,2331,1,2,0:0:0:0:
192,192,4989,5,2,0:0:0:0:
192,192,5369,1,2,0:0:0:0:
320,192,8027,5,2,0:0:0:0:
320,192,8407,1,2,0:0:0:0:
448,192,11065,5,2,0:0:0:0:
448,192,11445,1,2,0:0:0:0:
64,192,13724,5,2,0:0:0:0:
320,192,14103,1,2,0:0:0:0:
320,192,14483,1,2,0:0:0:0:
64,192,17141,5,2,0:0:0:0:
64,192,17521,1,2,0:0:0:0:
320,192,20179,5,2,0:0:0:0:
320,192,20559,1,2,0:0:0:0:
448,192,23217,5,2,0:0:0:0:
448,192,23597,1,2,0:0:0:0:
64,192,25876,5,2,0:0:0:0:
320,192,26255,1,0,0:0:0:0:
448,192,26255,1,0,0:0:0:0:
64,192,26508,1,0,0:0:0:0:
192,192,26635,1,0,0:0:0:0:
320,192,26635,1,0,0:0:0:0:
448,192,26888,1,0,0:0:0:0:
192,192,27015,1,0,0:0:0:0:
64,192,27015,1,0,0:0:0:0:
448,192,27268,1,0,0:0:0:0:
320,192,27395,1,0,0:0:0:0:
192,192,27395,1,0,0:0:0:0:
64,192,27521,1,0,0:0:0:0:
448,192,27648,1,0,0:0:0:0:
320,192,27774,1,0,0:0:0:0:
192,192,27774,1,0,0:0:0:0:
64,192,28027,1,0,0:0:0:0:
320,192,28154,1,0,0:0:0:0:
448,192,28154,1,0,0:0:0:0:
192,192,28407,1,0,0:0:0:0:
64,192,28534,1,0,0:0:0:0:
448,192,28534,1,0,0:0:0:0:
320,192,28787,1,0,0:0:0:0:
192,192,28914,1,0,0:0:0:0:
64,192,28914,1,0,0:0:0:0:
448,192,29040,1,0,0:0:0:0:
320,192,29040,1,0,0:0:0:0:
192,192,29167,1,0,0:0:0:0:
64,192,29293,1,0,0:0:0:0:
320,192,29293,1,0,0:0:0:0:
448,192,29293,1,0,0:0:0:0:
192,192,29546,1,0,0:0:0:0:
448,192,29673,1,0,0:0:0:0:
320,192,29673,1,0,0:0:0:0:
192,192,29926,1,0,0:0:0:0:
64,192,30053,1,0,0:0:0:0:
448,192,30053,1,0,0:0:0:0:
320,192,30306,1,0,0:0:0:0:
448,192,30306,1,0,0:0:0:0:
192,192,30433,1,0,0:0:0:0:
64,192,30433,1,0,0:0:0:0:
448,192,30559,1,0,0:0:0:0:
320,192,30686,1,0,0:0:0:0:
192,192,30812,1,0,0:0:0:0:
64,192,30812,1,0,0:0:0:0:
448,192,31065,1,0,0:0:0:0:
64,192,31192,1,0,0:0:0:0:
192,192,31192,1,0,0:0:0:0:
192,192,31445,1,0,0:0:0:0:
448,192,31445,1,0,0:0:0:0:
64,192,31445,1,0,0:0:0:0:
320,192,31572,1,0,0:0:0:0:
192,192,31825,1,0,0:0:0:0:
448,192,31952,1,0,0:0:0:0:
64,192,31952,1,0,0:0:0:0:
320,192,32078,1,0,0:0:0:0:
64,192,32205,1,0,0:0:0:0:
448,192,32205,1,0,0:0:0:0:
192,192,32331,1,0,0:0:0:0:
320,192,32331,1,0,0:0:0:0:
448,192,32584,1,0,0:0:0:0:
64,192,32711,1,0,0:0:0:0:
192,192,32711,1,0,0:0:0:0:
64,192,32964,1,0,0:0:0:0:
192,192,32964,1,0,0:0:0:0:
320,192,33091,1,0,0:0:0:0:
448,192,33344,1,0,0:0:0:0:
64,192,33470,1,0,0:0:0:0:
192,192,33470,1,0,0:0:0:0:
448,192,33597,1,0,0:0:0:0:
192,192,33724,1,0,0:0:0:0:
320,192,33724,1,0,0:0:0:0:
64,192,33850,1,0,0:0:0:0:
448,192,33850,1,0,0:0:0:0:
192,192,34103,1,0,0:0:0:0:
448,192,34103,1,0,0:0:0:0:
320,192,34230,1,0,0:0:0:0:
64,192,34230,1,0,0:0:0:0:
192,192,34483,1,0,0:0:0:0:
320,192,34483,1,0,0:0:0:0:
448,192,34610,1,0,0:0:0:0:
64,192,34610,1,0,0:0:0:0:
192,192,34863,1,0,0:0:0:0:
448,192,34989,1,0,0:0:0:0:
64,192,34989,1,0,0:0:0:0:
320,192,35116,1,0,0:0:0:0:
192,192,35243,1,0,0:0:0:0:
64,192,35369,1,0,0:0:0:0:
448,192,35369,1,0,0:0:0:0:
320,192,35369,1,0,0:0:0:0:
192,192,35622,1,0,0:0:0:0:
448,192,35749,1,0,0:0:0:0:
320,192,35749,1,0,0:0:0:0:
64,192,36002,1,0,0:0:0:0:
448,192,36129,1,0,0:0:0:0:
192,192,36129,1,0,0:0:0:0:
64,192,36382,1,0,0:0:0:0:
192,192,36508,1,0,0:0:0:0:
448,192,36635,1,0,0:0:0:0:
320,192,36762,1,0,0:0:0:0:
192,192,36888,1,0,0:0:0:0:
64,192,36888,1,0,0:0:0:0:
320,192,37141,1,0,0:0:0:0:
448,192,37141,1,0,0:0:0:0:
192,192,37268,1,0,0:0:0:0:
448,192,37521,1,0,0:0:0:0:
320,192,37648,1,0,0:0:0:0:
64,192,37648,1,0,0:0:0:0:
192,192,37901,1,0,0:0:0:0:
320,192,38027,1,0,0:0:0:0:
448,192,38027,1,0,0:0:0:0:
64,192,38154,1,0,0:0:0:0:
448,192,38281,1,0,0:0:0:0:
320,192,38344,1,0,0:0:0:0:
192,192,38407,1,0,0:0:0:0:
64,192,38407,128,0,39926:0:0:0:0:
448,192,38660,1,0,0:0:0:0:
320,192,38787,1,0,0:0:0:0:
192,192,39040,1,0,0:0:0:0:
320,192,39167,1,0,0:0:0:0:
192,192,39420,1,0,0:0:0:0:
448,192,39546,1,0,0:0:0:0:
320,192,39673,1,0,0:0:0:0:
192,192,39800,1,0,0:0:0:0:
320,192,39926,1,0,0:0:0:0:
448,192,40179,1,0,0:0:0:0:
320,192,40306,1,0,0:0:0:0:
64,192,40559,1,0,0:0:0:0:
192,192,40686,1,0,0:0:0:0:
448,192,40686,1,0,0:0:0:0:
320,192,40939,1,0,0:0:0:0:
64,192,41065,1,0,0:0:0:0:
448,192,41065,128,0,41319:0:0:0:0:
192,192,41192,1,0,0:0:0:0:
64,192,41319,1,0,0:0:0:0:
320,192,41319,1,0,0:0:0:0:
448,192,41445,128,0,42964:0:0:0:0:
320,192,41698,1,0,0:0:0:0:
192,192,41825,1,0,0:0:0:0:
64,192,42078,1,0,0:0:0:0:
192,192,42205,1,0,0:0:0:0:
320,192,42205,1,0,0:0:0:0:
64,192,42458,1,0,0:0:0:0:
320,192,42584,1,0,0:0:0:0:
192,192,42711,1,0,0:0:0:0:
64,192,42838,1,0,0:0:0:0:
320,192,42964,1,0,0:0:0:0:
192,192,42964,1,0,0:0:0:0:
192,192,43217,1,0,0:0:0:0:
448,192,43344,1,0,0:0:0:0:
320,192,43344,1,0,0:0:0:0:
192,192,43597,1,0,0:0:0:0:
448,192,43724,1,0,0:0:0:0:
64,192,43724,1,0,0:0:0:0:
320,192,43977,1,0,0:0:0:0:
64,192,44103,128,0,44357:0:0:0:0:
192,192,44103,1,0,0:0:0:0:
448,192,44230,1,0,0:0:0:0:
320,192,44357,1,0,0:0:0:0:
64,192,44483,128,0,46002:0:0:0:0:
192,192,44483,1,0,0:0:0:0:
448,192,44483,1,0,0:0:0:0:
448,192,44736,1,0,0:0:0:0:
320,192,44863,1,0,0:0:0:0:
192,192,44863,1,0,0:0:0:0:
448,192,45116,1,0,0:0:0:0:
192,192,45116,1,0,0:0:0:0:
320,192,45243,1,0,0:0:0:0:
320,192,45496,1,0,0:0:0:0:
448,192,45622,1,0,0:0:0:0:
320,192,45749,1,0,0:0:0:0:
192,192,45876,1,0,0:0:0:0:
448,192,46002,128,0,46129:0:0:0:0:
320,192,46002,1,0,0:0:0:0:
192,192,46255,1,0,0:0:0:0:
64,192,46382,1,0,0:0:0:0:
448,192,46635,1,0,0:0:0:0:
320,192,46762,1,0,0:0:0:0:
192,192,46762,1,0,0:0:0:0:
64,192,47015,1,0,0:0:0:0:
448,192,47141,1,0,0:0:0:0:
320,192,47268,1,0,0:0:0:0:
192,192,47395,1,0,0:0:0:0:
64,192,47521,1,0,0:0:0:0:
320,192,47521,1,0,0:0:0:0:
448,192,47521,128,0,47774:0:0:0:0:
192,192,47774,1,0,0:0:0:0:
320,192,47901,1,0,0:0:0:0:
448,192,48154,1,0,0:0:0:0:
64,192,48281,128,0,48534:0:0:0:0:
320,192,48281,1,0,0:0:0:0:
192,192,48281,1,0,0:0:0:0:
448,192,48534,1,0,0:0:0:0:
192,192,48660,1,0,0:0:0:0:
320,192,48660,1,0,0:0:0:0:
64,192,48914,1,0,0:0:0:0:
448,192,49040,128,0,49293:0:0:0:0:
192,192,49040,1,0,0:0:0:0:
320,192,49040,1,0,0:0:0:0:
192,192,49293,1,0,0:0:0:0:
64,192,49420,128,0,49673:0:0:0:0:
320,192,49420,1,0,0:0:0:0:
320,192,49673,1,0,0:0:0:0:
448,192,49800,1,0,0:0:0:0:
320,192,49863,1,0,0:0:0:0:
192,192,49926,1,0,0:0:0:0:
64,192,49989,1,0,0:0:0:0:
448,192,50053,1,0,0:0:0:0:
320,192,50116,1,0,0:0:0:0:
192,192,50179,1,0,0:0:0:0:
64,192,50243,1,0,0:0:0:0:
448,192,50306,1,0,0:0:0:0:
320,192,50369,1,0,0:0:0:0:
64,192,50433,1,0,0:0:0:0:
192,192,50496,1,0,0:0:0:0:
320,192,50559,1,0,0:0:0:0:
448,192,50559,128,0,51319:0:0:0:0:
64,192,52078,128,0,52331:0:0:0:0:
192,192,52078,128,0,52331:0:0:0:0:
64,192,52458,128,0,52711:0:0:0:0:
192,192,52458,128,0,52711:0:0:0:0:
64,192,52838,128,0,53091:0:0:0:0:
192,192,52838,128,0,53091:0:0:0:0:
64,192,53217,128,0,53470:0:0:0:0:
192,192,53217,128,0,53470:0:0:0:0:
320,192,53597,128,0,53850:0:0:0:0:
448,192,53597,128,0,53850:0:0:0:0:
320,192,53977,128,0,54230:0:0:0:0:
448,192,53977,128,0,54230:0:0:0:0:
64,192,54357,1,0,0:0:0:0:
192,192,54420,1,0,0:0:0:0:
320,192,54483,1,0,0:0:0:0:
448,192,54546,1,0,0:0:0:0:
64,192,54610,1,0,0:0:0:0:
192,192,54736,1,0,0:0:0:0:
448,192,54863,1,0,0:0:0:0:
320,192,54926,1,0,0:0:0:0:
64,192,54989,1,0,0:0:0:0:
192,192,55053,1,0,0:0:0:0:
