osu file format v14

[General]
AudioFilename: zenith.mp3
AudioLeadIn: 0
PreviewTime: 153435
Countdown: 0
SampleSet: Soft
StackLeniency: 0.7
Mode: 3
LetterboxInBreaks: 0
SpecialStyle: 0
WidescreenStoryboard: 1

[Editor]
DistanceSpacing: 1.5
BeatDivisor: 4
GridSize: 4
TimelineZoom: 2.9

[Metadata]
Title:Blue Zenith
TitleUnicode:Blue Zenith
Artist:xi
ArtistUnicode:xi
Creator:Jinjin
Version:pporse's Extreme
Source:
Tags:
BeatmapID:1179733
BeatmapSetID:290031

[Difficulty]
HPDrainRate:8
CircleSize:7
OverallDifficulty:8
ApproachRate:5
SliderMultiplier:1.4
SliderTickRate:1

[Events]
//Background and Video events
0,0,"earth_15-wallpaper-1366x768.jpg",0,0
//Break Periods
//Storyboard Layer 0 (Background)
//Storyboard Layer 1 (Fail)
//Storyboard Layer 2 (Pass)
//Storyboard Layer 3 (Foreground)
//Storyboard Sound Samples

[TimingPoints]
2235,300,4,2,0,0,1,0
69435,-125,4,2,0,0,0,0
92835,-100,4,2,0,0,0,0

[HitObjects]
109,192,2235,5,0,0:0:0:0:
36,192,2235,1,0,0:0:0:0:
475,192,2235,1,0,0:0:0:0:
402,192,2235,1,0,0:0:0:0:
182,192,2235,1,0,0:0:0:0:
329,192,2235,1,0,0:0:0:0:
36,192,2535,1,0,0:0:0:0:
109,192,2535,1,0,0:0:0:0:
402,192,2535,1,0,0:0:0:0:
475,192,2535,1,0,0:0:0:0:
36,192,2835,1,0,0:0:0:0:
109,192,2835,1,0,0:0:0:0:
475,192,2835,1,0,0:0:0:0:
402,192,2835,1,0,0:0:0:0:
36,192,3135,1,0,0:0:0:0:
475,192,3135,1,0,0:0:0:0:
109,192,3135,1,0,0:0:0:0:
402,192,3135,1,0,0:0:0:0:
475,192,3435,1,0,0:0:0:0:
402,192,3435,1,0,0:0:0:0:
109,192,3435,1,0,0:0:0:0:
36,192,3435,1,0,0:0:0:0:
109,192,3735,1,0,0:0:0:0:
36,192,3735,1,0,0:0:0:0:
402,192,3735,1,0,0:0:0:0:
475,192,3735,1,0,0:0:0:0:
109,192,4035,1,0,0:0:0:0:
402,192,4035,1,0,0:0:0:0:
36,192,4035,1,0,0:0:0:0:
475,192,4035,1,0,0:0:0:0:
109,192,4335,1,0,0:0:0:0:
36,192,4335,1,0,0:0:0:0:
475,192,4335,1,0,0:0:0:0:
402,192,4335,1,0,0:0:0:0:
402,192,4635,1,0,0:0:0:0:
475,192,4635,1,0,0:0:0:0:
109,192,4635,1,0,0:0:0:0:
36,192,4635,1,0,0:0:0:0:
36,192,4935,1,0,0:0:0:0:
475,192,4935,1,0,0:0:0:0:
109,192,4935,1,0,0:0:0:0:
402,192,4935,1,0,0:0:0:0:
475,192,5235,1,0,0:0:0:0:
402,192,5235,1,0,0:0:0:0:
109,192,5235,1,0,0:0:0:0:
36,192,5235,1,0,0:0:0:0:
109,192,5535,1,0,0:0:0:0:
36,192,5535,1,0,0:0:0:0:
402,192,5535,1,0,0:0:0:0:
475,192,5535,1,0,0:0:0:0:
109,192,5835,1,0,0:0:0:0:
402,192,5835,1,0,0:0:0:0:
36,192,5835,1,0,0:0:0:0:
475,192,5835,1,0,0:0:0:0:
109,192,6135,1,0,0:0:0:0:
36,192,6135,1,0,0:0:0:0:
475,192,6135,1,0,0:0:0:0:
402,192,6135,1,0,0:0:0:0:
402,192,6435,1,0,0:0:0:0:
475,192,6435,1,0,0:0:0:0:
109,192,6435,1,0,0:0:0:0:
36,192,6435,1,0,0:0:0:0:
36,192,6735,1,0,0:0:0:0:
475,192,6735,1,0,0:0:0:0:
109,192,6735,1,0,0:0:0:0:
402,192,6735,1,0,0:0:0:0:
475,192,7035,1,0,0:0:0:0:
402,192,7035,1,0,0:0:0:0:
109,192,7035,1,0,0:0:0:0:
36,192,7035,1,0,0:0:0:0:
182,192,7035,1,0,0:0:0:0:
329,192,7110,1,0,0:0:0:0:
256,192,7185,1,0,0:0:0:0:
182,192,7260,1,0,0:0:0:0:
475,192,7335,1,0,0:0:0:0:
402,192,7335,1,0,0:0:0:0:
109,192,7335,1,0,0:0:0:0:
36,192,7335,1,0,0:0:0:0:
329,192,7410,1,0,0:0:0:0:
256,192,7485,1,0,0:0:0:0:
182,192,7560,1,0,0:0:0:0:
475,192,7635,1,0,0:0:0:0:
402,192,7635,1,0,0:0:0:0:
109,192,7635,1,0,0:0:0:0:
36,192,7635,1,0,0:0:0:0:
329,192,7710,1,0,0:0:0:0:
256,192,7785,1,0,0:0:0:0:
182,192,7860,1,0,0:0:0:0:
475,192,7935,1,0,0:0:0:0:
402,192,7935,1,0,0:0:0:0:
109,192,7935,1,0,0:0:0:0:
36,192,7935,1,0,0:0:0:0:
329,192,8010,1,0,0:0:0:0:
256,192,8085,1,0,0:0:0:0:
182,192,8160,1,0,0:0:0:0:
475,192,8235,1,0,0:0:0:0:
402,192,8235,1,0,0:0:0:0:
109,192,8235,1,0,0:0:0:0:
36,192,8235,1,0,0:0:0:0:
329,192,8310,1,0,0:0:0:0:
256,192,8385,1,0,0:0:0:0:
182,192,8460,1,0,0:0:0:0:
475,192,8535,1,0,0:0:0:0:
402,192,8535,1,0,0:0:0:0:
109,192,8535,1,0,0:0:0:0:
36,192,8535,1,0,0:0:0:0:
329,192,8610,1,0,0:0:0:0:
256,192,8685,1,0,0:0:0:0:
182,192,8760,1,0,0:0:0:0:
475,192,8835,1,0,0:0:0:0:
402,192,8835,1,0,0:0:0:0:
109,192,8835,1,0,0:0:0:0:
36,192,8835,1,0,0:0:0:0:
329,192,8910,1,0,0:0:0:0:
256,192,8985,1,0,0:0:0:0:
182,192,9060,1,0,0:0:0:0:
109,192,9135,1,0,0:0:0:0:
402,192,9135,1,0,0:0:0:0:
475,192,9135,1,0,0:0:0:0:
36,192,9135,1,0,0:0:0:0:
329,192,9210,1,0,0:0:0:0:
256,192,9285,1,0,0:0:0:0:
182,192,9360,1,0,0:0:0:0:
402,192,9435,1,0,0:0:0:0:
109,192,9435,1,0,0:0:0:0:
475,192,9435,1,0,0:0:0:0:
36,192,9435,1,0,0:0:0:0:
402,192,9735,1,0,0:0:0:0:
109,192,9735,1,0,0:0:0:0:
475,192,9735,1,0,0:0:0:0:
36,192,9735,1,0,0:0:0:0:
109,192,10035,1,0,0:0:0:0:
402,192,10035,1,0,0:0:0:0:
475,192,10035,1,0,0:0:0:0:
36,192,10035,1,0,0:0:0:0:
109,192,10335,1,0,0:0:0:0:
402,192,10335,1,0,0:0:0:0:
475,192,10335,1,0,0:0:0:0:
36,192,10335,1,0,0:0:0:0:
256,192,10410,1,0,0:0:0:0:
182,192,10485,1,0,0:0:0:0:
329,192,10560,1,0,0:0:0:0:
36,192,10635,1,0,0:0:0:0:
402,192,10635,1,0,0:0:0:0:
475,192,10635,1,0,0:0:0:0:
109,192,10635,1,0,0:0:0:0:
182,192,10710,1,0,0:0:0:0:
329,192,10785,1,0,0:0:0:0:
182,192,10860,1,0,0:0:0:0:
475,192,10935,1,0,0:0:0:0:
36,192,10935,1,0,0:0:0:0:
109,192,10935,1,0,0:0:0:0:
402,192,11010,1,0,0:0:0:0:
256,192,11085,1,0,0:0:0:0:
329,192,11160,1,0,0:0:0:0:
182,192,11235,1,0,0:0:0:0:
36,192,11235,1,0,0:0:0:0:
475,192,11235,1,0,0:0:0:0:
329,192,11310,1,0,0:0:0:0:
182,192,11385,1,0,0:0:0:0:
329,192,11460,1,0,0:0:0:0:
256,192,11535,1,0,0:0:0:0:
36,192,11535,1,0,0:0:0:0:
109,192,11535,1,0,0:0:0:0:
402,192,11610,1,0,0:0:0:0:
329,192,11685,1,0,0:0:0:0:
109,192,11685,1,0,0:0:0:0:
475,192,11760,1,0,0:0:0:0:
329,192,11835,1,0,0:0:0:0:
36,192,11835,1,0,0:0:0:0:
182,192,11835,1,0,0:0:0:0:
402,192,11835,1,0,0:0:0:0:
256,192,11910,1,0,0:0:0:0:
109,192,11985,1,0,0:0:0:0:
402,192,11985,1,0,0:0:0:0:
329,192,12060,1,0,0:0:0:0:
36,192,12135,1,0,0:0:0:0:
475,192,12135,1,0,0:0:0:0:
182,192,12135,1,0,0:0:0:0:
402,192,12210,1,0,0:0:0:0:
109,192,12285,1,0,0:0:0:0:
256,192,12285,1,0,0:0:0:0:
329,192,12360,1,0,0:0:0:0:
36,192,12435,1,0,0:0:0:0:
182,192,12435,1,0,0:0:0:0:
475,192,12435,1,0,0:0:0:0:
329,192,12510,1,0,0:0:0:0:
182,192,12585,1,0,0:0:0:0:
475,192,12585,1,0,0:0:0:0:
329,192,12660,1,0,0:0:0:0:
36,192,12735,1,0,0:0:0:0:
256,192,12735,1,0,0:0:0:0:
109,192,12735,1,0,0:0:0:0:
402,192,12810,1,0,0:0:0:0:
329,192,12885,1,0,0:0:0:0:
109,192,12885,1,0,0:0:0:0:
182,192,12960,1,0,0:0:0:0:
36,192,13035,1,0,0:0:0:0:
256,192,13035,1,0,0:0:0:0:
475,192,13035,1,0,0:0:0:0:
182,192,13110,1,0,0:0:0:0:
109,192,13185,1,0,0:0:0:0:
329,192,13185,1,0,0:0:0:0:
256,192,13260,1,0,0:0:0:0:
36,192,13335,1,0,0:0:0:0:
329,192,13335,1,0,0:0:0:0:
475,192,13335,1,0,0:0:0:0:
182,192,13410,1,0,0:0:0:0:
402,192,13485,1,0,0:0:0:0:
109,192,13485,1,0,0:0:0:0:
256,192,13560,1,0,0:0:0:0:
36,192,13635,1,0,0:0:0:0:
329,192,13635,1,0,0:0:0:0:
475,192,13635,1,0,0:0:0:0:
182,192,13710,1,0,0:0:0:0:
329,192,13785,1,0,0:0:0:0:
109,192,13785,1,0,0:0:0:0:
182,192,13860,1,0,0:0:0:0:
36,192,13935,1,0,0:0:0:0:
256,192,13935,1,0,0:0:0:0:
402,192,13935,1,0,0:0:0:0:
475,192,14010,1,0,0:0:0:0:
329,192,14085,1,0,0:0:0:0:
109,192,14085,1,0,0:0:0:0:
402,192,14160,1,0,0:0:0:0:
36,192,14235,1,0,0:0:0:0:
182,192,14235,1,0,0:0:0:0:
329,192,14235,1,0,0:0:0:0:
256,192,14310,1,0,0:0:0:0:
329,192,14385,1,0,0:0:0:0:
109,192,14385,1,0,0:0:0:0:
402,192,14460,1,0,0:0:0:0:
36,192,14535,1,0,0:0:0:0:
475,192,14535,1,0,0:0:0:0:
182,192,14535,1,0,0:0:0:0:
329,192,14610,1,0,0:0:0:0:
182,192,14685,1,0,0:0:0:0:
402,192,14685,1,0,0:0:0:0:
256,192,14760,1,0,0:0:0:0:
36,192,14835,1,0,0:0:0:0:
402,192,14835,1,0,0:0:0:0:
109,192,14835,1,0,0:0:0:0:
329,192,14910,1,0,0:0:0:0:
182,192,14985,1,0,0:0:0:0:
475,192,14985,1,0,0:0:0:0:
329,192,15060,1,0,0:0:0:0:
36,192,15135,1,0,0:0:0:0:
256,192,15135,1,0,0:0:0:0:
109,192,15135,1,0,0:0:0:0:
475,192,15210,1,0,0:0:0:0:
256,192,15285,1,0,0:0:0:0:
402,192,15285,1,0,0:0:0:0:
182,192,15360,1,0,0:0:0:0:
36,192,15435,1,0,0:0:0:0:
475,192,15435,1,0,0:0:0:0:
329,192,15435,1,0,0:0:0:0:
182,192,15510,1,0,0:0:0:0:
329,192,15585,1,0,0:0:0:0:
109,192,15585,1,0,0:0:0:0:
256,192,15660,1,0,0:0:0:0:
36,192,15735,1,0,0:0:0:0:
402,192,15735,1,0,0:0:0:0:
475,192,15735,1,0,0:0:0:0:
256,192,15810,1,0,0:0:0:0:
109,192,15885,1,0,0:0:0:0:
329,192,15885,1,0,0:0:0:0:
182,192,15960,1,0,0:0:0:0:
36,192,16035,1,0,0:0:0:0:
402,192,16035,1,0,0:0:0:0:
256,192,16035,1,0,0:0:0:0:
182,192,16110,1,0,0:0:0:0:
402,192,16185,1,0,0:0:0:0:
109,192,16185,1,0,0:0:0:0:
256,192,16260,1,0,0:0:0:0:
36,192,16335,1,0,0:0:0:0:
475,192,16335,1,0,0:0:0:0:
329,192,16335,1,0,0:0:0:0:
182,192,16410,1,0,0:0:0:0:
36,192,16485,1,0,0:0:0:0:
329,192,16485,1,0,0:0:0:0:
475,192,16485,1,0,0:0:0:0:
182,192,16560,1,0,0:0:0:0:
36,192,16635,1,0,0:0:0:0:
109,192,16635,1,0,0:0:0:0:
475,192,16635,1,0,0:0:0:0:
256,192,16635,1,0,0:0:0:0:
329,192,16635,1,0,0:0:0:0:
402,192,16710,1,0,0:0:0:0:
329,192,16785,1,0,0:0:0:0:
182,192,16785,1,0,0:0:0:0:
256,192,16860,1,0,0:0:0:0:
36,192,16935,1,0,0:0:0:0:
109,192,16935,1,0,0:0:0:0:
475,192,16935,1,0,0:0:0:0:
402,192,17010,1,0,0:0:0:0:
329,192,17085,1,0,0:0:0:0:
182,192,17085,1,0,0:0:0:0:
256,192,17160,1,0,0:0:0:0:
36,192,17235,1,0,0:0:0:0:
109,192,17235,1,0,0:0:0:0:
475,192,17235,1,0,0:0:0:0:
402,192,17310,1,0,0:0:0:0:
329,192,17385,1,0,0:0:0:0:
182,192,17385,1,0,0:0:0:0:
256,192,17460,1,0,0:0:0:0:
36,192,17535,1,0,0:0:0:0:
109,192,17535,1,0,0:0:0:0:
475,192,17535,1,0,0:0:0:0:
402,192,17535,1,0,0:0:0:0:
402,192,17685,1,0,0:0:0:0:
475,192,17685,1,0,0:0:0:0:
36,192,17685,1,0,0:0:0:0:
109,192,17685,1,0,0:0:0:0:
36,192,17835,1,0,0:0:0:0:
109,192,17835,1,0,0:0:0:0:
402,192,17835,1,0,0:0:0:0:
475,192,17835,1,0,0:0:0:0:
256,192,17835,1,0,0:0:0:0:
329,192,17910,1,0,0:0:0:0:
402,192,17985,1,0,0:0:0:0:
182,192,17985,1,0,0:0:0:0:
256,192,18060,1,0,0:0:0:0:
36,192,18135,1,0,0:0:0:0:
475,192,18135,1,0,0:0:0:0:
109,192,18135,1,0,0:0:0:0:
329,192,18210,1,0,0:0:0:0:
402,192,18285,1,0,0:0:0:0:
182,192,18285,1,0,0:0:0:0:
256,192,18360,1,0,0:0:0:0:
36,192,18435,1,0,0:0:0:0:
109,192,18435,1,0,0:0:0:0:
475,192,18435,1,0,0:0:0:0:
329,192,18510,1,0,0:0:0:0:
402,192,18585,1,0,0:0:0:0:
182,192,18585,1,0,0:0:0:0:
256,192,18660,1,0,0:0:0:0:
36,192,18735,1,0,0:0:0:0:
329,192,18735,1,0,0:0:0:0:
475,192,18735,1,0,0:0:0:0:
182,192,18735,1,0,0:0:0:0:
182,192,18885,1,0,0:0:0:0:
329,192,18885,1,0,0:0:0:0:
475,192,18885,1,0,0:0:0:0:
36,192,18885,1,0,0:0:0:0:
36,192,19035,1,0,0:0:0:0:
402,192,19035,1,0,0:0:0:0:
475,192,19035,1,0,0:0:0:0:
109,192,19035,1,0,0:0:0:0:
256,192,19035,1,0,0:0:0:0:
36,192,19185,1,0,0:0:0:0:
109,192,19185,1,0,0:0:0:0:
402,192,19185,1,0,0:0:0:0:
475,192,19185,1,0,0:0:0:0:
36,192,19335,1,0,0:0:0:0:
109,192,19335,1,0,0:0:0:0:
402,192,19335,1,0,0:0:0:0:
475,192,19335,1,0,0:0:0:0:
36,192,19485,1,0,0:0:0:0:
109,192,19485,1,0,0:0:0:0:
402,192,19485,1,0,0:0:0:0:
475,192,19485,1,0,0:0:0:0:
109,192,19635,1,0,0:0:0:0:
182,192,19635,1,0,0:0:0:0:
329,192,19635,1,0,0:0:0:0:
402,192,19635,1,0,0:0:0:0:
475,192,19635,1,0,0:0:0:0:
36,192,19635,1,0,0:0:0:0:
109,192,19785,1,0,0:0:0:0:
182,192,19785,1,0,0:0:0:0:
329,192,19785,1,0,0:0:0:0:
402,192,19785,1,0,0:0:0:0:
109,192,19935,1,0,0:0:0:0:
182,192,19935,1,0,0:0:0:0:
329,192,19935,1,0,0:0:0:0:
402,192,19935,1,0,0:0:0:0:
109,192,20085,1,0,0:0:0:0:
182,192,20085,1,0,0:0:0:0:
329,192,20085,1,0,0:0:0:0:
402,192,20085,1,0,0:0:0:0:
36,192,20235,1,0,0:0:0:0:
182,192,20235,1,0,0:0:0:0:
329,192,20235,1,0,0:0:0:0:
109,192,20235,1,0,0:0:0:0:
475,192,20235,1,0,0:0:0:0:
402,192,20235,1,0,0:0:0:0:
256,192,20310,1,0,0:0:0:0:
402,192,20385,1,0,0:0:0:0:
475,192,20385,1,0,0:0:0:0:
329,192,20422,1,0,0:0:0:0:
256,192,20460,1,0,0:0:0:0:
182,192,20497,1,0,0:0:0:0:
109,192,20535,1,0,0:0:0:0:
36,192,20535,1,0,0:0:0:0:
475,192,20610,1,0,0:0:0:0:
329,192,20610,1,0,0:0:0:0:
36,192,20685,1,0,0:0:0:0:
109,192,20685,1,0,0:0:0:0:
182,192,20722,1,0,0:0:0:0:
256,192,20760,1,0,0:0:0:0:
329,192,20797,1,0,0:0:0:0:
402,192,20835,1,0,0:0:0:0:
475,192,20835,1,0,0:0:0:0:
36,192,20835,1,0,0:0:0:0:
182,192,20910,1,0,0:0:0:0:
475,192,20985,1,0,0:0:0:0:
109,192,20985,1,0,0:0:0:0:
329,192,20985,1,0,0:0:0:0:
256,192,21060,1,0,0:0:0:0:
402,192,21060,1,0,0:0:0:0:
36,192,21135,1,0,0:0:0:0:
109,192,21135,1,0,0:0:0:0:
182,192,21210,1,0,0:0:0:0:
329,192,21210,1,0,0:0:0:0:
402,192,21285,1,0,0:0:0:0:
475,192,21285,1,0,0:0:0:0:
329,192,21322,1,0,0:0:0:0:
256,192,21360,1,0,0:0:0:0:
182,192,21397,1,0,0:0:0:0:
36,192,21435,1,0,0:0:0:0:
109,192,21435,1,0,0:0:0:0:
402,192,21435,1,0,0:0:0:0:
475,192,21435,1,0,0:0:0:0:
329,192,21510,1,0,0:0:0:0:
182,192,21585,1,0,0:0:0:0:
109,192,21585,1,0,0:0:0:0:
256,192,21660,1,0,0:0:0:0:
36,192,21735,1,0,0:0:0:0:
329,192,21735,1,0,0:0:0:0:
475,192,21735,1,0,0:0:0:0:
256,192,21810,1,0,0:0:0:0:
182,192,21885,1,0,0:0:0:0:
402,192,21885,1,0,0:0:0:0:
109,192,21960,1,0,0:0:0:0:
36,192,22035,1,0,0:0:0:0:
256,192,22035,1,0,0:0:0:0:
475,192,22035,1,0,0:0:0:0:
329,192,22110,1,0,0:0:0:0:
182,192,22185,1,0,0:0:0:0:
402,192,22185,1,0,0:0:0:0:
329,192,22260,1,0,0:0:0:0:
36,192,22335,1,0,0:0:0:0:
182,192,22335,1,0,0:0:0:0:
475,192,22335,1,0,0:0:0:0:
256,192,22410,1,0,0:0:0:0:
109,192,22485,1,0,0:0:0:0:
402,192,22485,1,0,0:0:0:0:
256,192,22560,1,0,0:0:0:0:
36,192,22635,1,0,0:0:0:0:
182,192,22635,1,0,0:0:0:0:
475,192,22635,1,0,0:0:0:0:
329,192,22710,1,0,0:0:0:0:
256,192,22785,1,0,0:0:0:0:
109,192,22785,1,0,0:0:0:0:
182,192,22860,1,0,0:0:0:0:
36,192,22935,1,0,0:0:0:0:
475,192,22935,1,0,0:0:0:0:
256,192,22935,1,0,0:0:0:0:
402,192,23010,1,0,0:0:0:0:
329,192,23085,1,0,0:0:0:0:
109,192,23085,1,0,0:0:0:0:
256,192,23160,1,0,0:0:0:0:
36,192,23235,1,0,0:0:0:0:
182,192,23235,1,0,0:0:0:0:
402,192,23235,1,0,0:0:0:0:
329,192,23310,1,0,0:0:0:0:
402,192,23385,1,0,0:0:0:0:
182,192,23385,1,0,0:0:0:0:
329,192,23460,1,0,0:0:0:0:
36,192,23535,1,0,0:0:0:0:
475,192,23535,1,0,0:0:0:0:
182,192,23535,1,0,0:0:0:0:
256,192,23610,1,0,0:0:0:0:
329,192,23685,1,0,0:0:0:0:
109,192,23685,1,0,0:0:0:0:
402,192,23760,1,0,0:0:0:0:
36,192,23835,1,0,0:0:0:0:
256,192,23835,1,0,0:0:0:0:
475,192,23835,1,0,0:0:0:0:
182,192,23910,1,0,0:0:0:0:
402,192,23910,1,0,0:0:0:0:
109,192,23985,1,0,0:0:0:0:
329,192,23985,1,0,0:0:0:0:
402,192,24060,1,0,0:0:0:0:
182,192,24060,1,0,0:0:0:0:
36,192,24135,1,0,0:0:0:0:
256,192,24135,1,0,0:0:0:0:
475,192,24135,1,0,0:0:0:0:
402,192,24210,1,0,0:0:0:0:
182,192,24210,1,0,0:0:0:0:
109,192,24285,1,0,0:0:0:0:
329,192,24285,1,0,0:0:0:0:
182,192,24360,1,0,0:0:0:0:
402,192,24360,1,0,0:0:0:0:
36,192,24435,1,0,0:0:0:0:
475,192,24435,1,0,0:0:0:0:
256,192,24435,1,0,0:0:0:0:
109,192,24510,1,0,0:0:0:0:
402,192,24510,1,0,0:0:0:0:
182,192,24585,1,0,0:0:0:0:
329,192,24585,1,0,0:0:0:0:
109,192,24660,1,0,0:0:0:0:
402,192,24660,1,0,0:0:0:0:
36,192,24735,1,0,0:0:0:0:
475,192,24735,1,0,0:0:0:0:
256,192,24735,1,0,0:0:0:0:
109,192,24810,1,0,0:0:0:0:
402,192,24810,1,0,0:0:0:0:
182,192,24885,1,0,0:0:0:0:
329,192,24885,1,0,0:0:0:0:
109,192,24960,1,0,0:0:0:0:
402,192,24960,1,0,0:0:0:0:
36,192,25035,1,0,0:0:0:0:
256,192,25035,1,0,0:0:0:0:
475,192,25035,1,0,0:0:0:0:
329,192,25110,1,0,0:0:0:0:
182,192,25110,1,0,0:0:0:0:
402,192,25185,1,0,0:0:0:0:
109,192,25185,1,0,0:0:0:0:
329,192,25260,1,0,0:0:0:0:
182,192,25260,1,0,0:0:0:0:
36,192,25335,1,0,0:0:0:0:
475,192,25335,1,0,0:0:0:0:
256,192,25335,1,0,0:0:0:0:
402,192,25410,1,0,0:0:0:0:
109,192,25410,1,0,0:0:0:0:
329,192,25485,1,0,0:0:0:0:
182,192,25485,1,0,0:0:0:0:
402,192,25560,1,0,0:0:0:0:
109,192,25560,1,0,0:0:0:0:
36,192,25635,1,0,0:0:0:0:
475,192,25635,128,0,26235:0:0:0:0:
256,192,25635,1,0,0:0:0:0:
182,192,25710,1,0,0:0:0:0:
329,192,25785,1,0,0:0:0:0:
182,192,25860,1,0,0:0:0:0:
36,192,25935,1,0,0:0:0:0:
402,192,25935,128,0,26235:0:0:0:0:
109,192,25935,1,0,0:0:0:0:
256,192,25935,1,0,0:0:0:0:
182,192,26010,1,0,0:0:0:0:
36,192,26085,1,0,0:0:0:0:
109,192,26085,1,0,0:0:0:0:
329,192,26085,1,0,0:0:0:0:
256,192,26160,1,0,0:0:0:0:
182,192,26235,1,0,0:0:0:0:
329,192,26235,1,0,0:0:0:0:
109,192,26235,1,0,0:0:0:0:
36,192,26235,128,0,28635:0:0:0:0:
475,192,26310,1,0,0:0:0:0:
402,192,26385,1,0,0:0:0:0:
256,192,26385,1,0,0:0:0:0:
109,192,26460,1,0,0:0:0:0:
402,192,26535,1,0,0:0:0:0:
182,192,26535,1,0,0:0:0:0:
329,192,26610,1,0,0:0:0:0:
256,192,26685,1,0,0:0:0:0:
109,192,26685,1,0,0:0:0:0:
182,192,26760,1,0,0:0:0:0:
329,192,26835,1,0,0:0:0:0:
475,192,26835,1,0,0:0:0:0:
182,192,26910,1,0,0:0:0:0:
329,192,26985,1,0,0:0:0:0:
475,192,26985,1,0,0:0:0:0:
109,192,27060,1,0,0:0:0:0:
256,192,27135,1,0,0:0:0:0:
402,192,27135,1,0,0:0:0:0:
329,192,27210,1,0,0:0:0:0:
182,192,27285,1,0,0:0:0:0:
475,192,27285,1,0,0:0:0:0:
402,192,27360,1,0,0:0:0:0:
256,192,27435,1,0,0:0:0:0:
475,192,27435,1,0,0:0:0:0:
109,192,27510,1,0,0:0:0:0:
182,192,27585,1,0,0:0:0:0:
402,192,27585,1,0,0:0:0:0:
256,192,27660,1,0,0:0:0:0:
329,192,27735,1,0,0:0:0:0:
475,192,27735,1,0,0:0:0:0:
256,192,27810,1,0,0:0:0:0:
182,192,27885,1,0,0:0:0:0:
402,192,27885,1,0,0:0:0:0:
109,192,27960,1,0,0:0:0:0:
256,192,28035,1,0,0:0:0:0:
475,192,28035,1,0,0:0:0:0:
329,192,28110,1,0,0:0:0:0:
182,192,28185,1,0,0:0:0:0:
402,192,28185,1,0,0:0:0:0:
329,192,28260,1,0,0:0:0:0:
182,192,28335,1,0,0:0:0:0:
475,192,28335,1,0,0:0:0:0:
256,192,28410,1,0,0:0:0:0:
329,192,28485,1,0,0:0:0:0:
109,192,28485,1,0,0:0:0:0:
256,192,28560,1,0,0:0:0:0:
475,192,28635,128,0,31035:0:0:0:0:
402,192,28635,1,0,0:0:0:0:
182,192,28635,1,0,0:0:0:0:
329,192,28710,1,0,0:0:0:0:
109,192,28785,1,0,0:0:0:0:
256,192,28785,1,0,0:0:0:0:
182,192,28860,1,0,0:0:0:0:
402,192,28935,1,0,0:0:0:0:
36,192,28935,1,0,0:0:0:0:
329,192,29010,1,0,0:0:0:0:
109,192,29085,1,0,0:0:0:0:
256,192,29085,1,0,0:0:0:0:
182,192,29160,1,0,0:0:0:0:
36,192,29235,1,0,0:0:0:0:
402,192,29235,1,0,0:0:0:0:
329,192,29310,1,0,0:0:0:0:
256,192,29385,1,0,0:0:0:0:
109,192,29385,1,0,0:0:0:0:
182,192,29460,1,0,0:0:0:0:
402,192,29535,1,0,0:0:0:0:
36,192,29535,1,0,0:0:0:0:
329,192,29610,1,0,0:0:0:0:
256,192,29685,1,0,0:0:0:0:
109,192,29685,1,0,0:0:0:0:
182,192,29760,1,0,0:0:0:0:
36,192,29835,1,0,0:0:0:0:
329,192,29835,1,0,0:0:0:0:
402,192,29835,1,0,0:0:0:0:
256,192,29910,1,0,0:0:0:0:
36,192,29985,1,0,0:0:0:0:
109,192,30022,1,0,0:0:0:0:
182,192,30060,1,0,0:0:0:0:
256,192,30097,1,0,0:0:0:0:
329,192,30135,1,0,0:0:0:0:
402,192,30135,1,0,0:0:0:0:
182,192,30210,1,0,0:0:0:0:
402,192,30285,1,0,0:0:0:0:
329,192,30322,1,0,0:0:0:0:
256,192,30360,1,0,0:0:0:0:
182,192,30397,1,0,0:0:0:0:
109,192,30435,1,0,0:0:0:0:
36,192,30435,1,0,0:0:0:0:
402,192,30510,1,0,0:0:0:0:
256,192,30510,1,0,0:0:0:0:
36,192,30585,1,0,0:0:0:0:
182,192,30585,1,0,0:0:0:0:
329,192,30585,1,0,0:0:0:0:
109,192,30735,1,0,0:0:0:0:
402,192,30735,1,0,0:0:0:0:
182,192,30810,1,0,0:0:0:0:
329,192,30810,1,0,0:0:0:0:
36,192,30885,1,0,0:0:0:0:
402,192,30885,1,0,0:0:0:0:
256,192,30922,1,0,0:0:0:0:
109,192,30960,1,0,0:0:0:0:
329,192,30997,1,0,0:0:0:0:
182,192,31035,1,0,0:0:0:0:
36,192,31035,1,0,0:0:0:0:
402,192,31035,128,0,32235:0:0:0:0:
109,192,31110,1,0,0:0:0:0:
256,192,31185,1,0,0:0:0:0:
182,192,31260,1,0,0:0:0:0:
36,192,31335,1,0,0:0:0:0:
329,192,31335,1,0,0:0:0:0:
182,192,31410,1,0,0:0:0:0:
256,192,31485,1,0,0:0:0:0:
109,192,31560,1,0,0:0:0:0:
36,192,31635,1,0,0:0:0:0:
329,192,31635,1,0,0:0:0:0:
182,192,31710,1,0,0:0:0:0:
329,192,31785,1,0,0:0:0:0:
256,192,31860,1,0,0:0:0:0:
36,192,31935,1,0,0:0:0:0:
182,192,31935,1,0,0:0:0:0:
329,192,32010,1,0,0:0:0:0:
256,192,32085,1,0,0:0:0:0:
109,192,32085,1,0,0:0:0:0:
182,192,32160,1,0,0:0:0:0:
329,192,32235,128,0,33435:0:0:0:0:
475,192,32235,1,0,0:0:0:0:
36,192,32235,1,0,0:0:0:0:
109,192,32310,1,0,0:0:0:0:
182,192,32385,1,0,0:0:0:0:
402,192,32460,1,0,0:0:0:0:
256,192,32535,1,0,0:0:0:0:
36,192,32535,1,0,0:0:0:0:
402,192,32610,1,0,0:0:0:0:
182,192,32685,1,0,0:0:0:0:
109,192,32760,1,0,0:0:0:0:
475,192,32835,1,0,0:0:0:0:
36,192,32835,1,0,0:0:0:0:
256,192,32835,1,0,0:0:0:0:
182,192,32910,1,0,0:0:0:0:
402,192,32985,1,0,0:0:0:0:
182,192,33060,1,0,0:0:0:0:
475,192,33135,1,0,0:0:0:0:
36,192,33135,1,0,0:0:0:0:
182,192,33210,1,0,0:0:0:0:
402,192,33285,1,0,0:0:0:0:
182,192,33360,1,0,0:0:0:0:
256,192,33435,128,0,34635:0:0:0:0:
475,192,33435,1,0,0:0:0:0:
36,192,33435,1,0,0:0:0:0:
402,192,33510,1,0,0:0:0:0:
329,192,33585,1,0,0:0:0:0:
182,192,33585,1,0,0:0:0:0:
109,192,33660,1,0,0:0:0:0:
475,192,33735,1,0,0:0:0:0:
36,192,33735,1,0,0:0:0:0:
402,192,33810,1,0,0:0:0:0:
329,192,33885,1,0,0:0:0:0:
182,192,33885,1,0,0:0:0:0:
109,192,33960,1,0,0:0:0:0:
475,192,34035,1,0,0:0:0:0:
36,192,34035,1,0,0:0:0:0:
402,192,34110,1,0,0:0:0:0:
329,192,34185,1,0,0:0:0:0:
182,192,34185,1,0,0:0:0:0:
109,192,34260,1,0,0:0:0:0:
475,192,34335,1,0,0:0:0:0:
36,192,34335,1,0,0:0:0:0:
402,192,34410,1,0,0:0:0:0:
329,192,34485,1,0,0:0:0:0:
182,192,34485,1,0,0:0:0:0:
109,192,34560,1,0,0:0:0:0:
36,192,34635,128,0,35835:0:0:0:0:
475,192,34635,1,0,0:0:0:0:
402,192,34635,1,0,0:0:0:0:
329,192,34710,1,0,0:0:0:0:
109,192,34785,1,0,0:0:0:0:
256,192,34785,1,0,0:0:0:0:
182,192,34860,1,0,0:0:0:0:
475,192,34935,1,0,0:0:0:0:
402,192,34935,1,0,0:0:0:0:
329,192,35010,1,0,0:0:0:0:
109,192,35085,1,0,0:0:0:0:
256,192,35085,1,0,0:0:0:0:
182,192,35160,1,0,0:0:0:0:
475,192,35235,1,0,0:0:0:0:
402,192,35235,1,0,0:0:0:0:
329,192,35310,1,0,0:0:0:0:
256,192,35385,1,0,0:0:0:0:
109,192,35385,1,0,0:0:0:0:
182,192,35460,1,0,0:0:0:0:
402,192,35535,1,0,0:0:0:0:
475,192,35535,1,0,0:0:0:0:
329,192,35610,1,0,0:0:0:0:
109,192,35685,1,0,0:0:0:0:
256,192,35685,1,0,0:0:0:0:
182,192,35760,1,0,0:0:0:0:
402,192,35835,128,0,37035:0:0:0:0:
109,192,35835,1,0,0:0:0:0:
475,192,35835,1,0,0:0:0:0:
256,192,35910,1,0,0:0:0:0:
182,192,35985,1,0,0:0:0:0:
329,192,36060,1,0,0:0:0:0:
109,192,36135,1,0,0:0:0:0:
475,192,36135,1,0,0:0:0:0:
329,192,36210,1,0,0:0:0:0:
182,192,36285,1,0,0:0:0:0:
256,192,36360,1,0,0:0:0:0:
109,192,36435,1,0,0:0:0:0:
329,192,36435,1,0,0:0:0:0:
182,192,36510,1,0,0:0:0:0:
329,192,36585,1,0,0:0:0:0:
182,192,36660,1,0,0:0:0:0:
109,192,36735,1,0,0:0:0:0:
329,192,36735,1,0,0:0:0:0:
256,192,36810,1,0,0:0:0:0:
182,192,36885,1,0,0:0:0:0:
256,192,36960,1,0,0:0:0:0:
329,192,37035,128,0,38235:0:0:0:0:
36,192,37035,1,0,0:0:0:0:
475,192,37035,1,0,0:0:0:0:
109,192,37110,1,0,0:0:0:0:
256,192,37185,1,0,0:0:0:0:
182,192,37260,1,0,0:0:0:0:
36,192,37335,1,0,0:0:0:0:
402,192,37335,1,0,0:0:0:0:
182,192,37410,1,0,0:0:0:0:
256,192,37485,1,0,0:0:0:0:
109,192,37560,1,0,0:0:0:0:
36,192,37635,1,0,0:0:0:0:
402,192,37635,1,0,0:0:0:0:
182,192,37710,1,0,0:0:0:0:
402,192,37785,1,0,0:0:0:0:
256,192,37860,1,0,0:0:0:0:
36,192,37935,1,0,0:0:0:0:
475,192,37935,1,0,0:0:0:0:
182,192,38010,1,0,0:0:0:0:
402,192,38085,1,0,0:0:0:0:
182,192,38160,1,0,0:0:0:0:
36,192,38235,1,0,0:0:0:0:
256,192,38235,1,0,0:0:0:0:
475,192,38235,128,0,39435:0:0:0:0:
109,192,38310,1,0,0:0:0:0:
182,192,38385,1,0,0:0:0:0:
329,192,38385,1,0,0:0:0:0:
402,192,38460,1,0,0:0:0:0:
256,192,38535,1,0,0:0:0:0:
36,192,38535,1,0,0:0:0:0:
109,192,38610,1,0,0:0:0:0:
182,192,38685,1,0,0:0:0:0:
329,192,38685,1,0,0:0:0:0:
402,192,38760,1,0,0:0:0:0:
256,192,38835,1,0,0:0:0:0:
36,192,38835,1,0,0:0:0:0:
109,192,38910,1,0,0:0:0:0:
182,192,38985,1,0,0:0:0:0:
329,192,38985,1,0,0:0:0:0:
402,192,39060,1,0,0:0:0:0:
256,192,39135,1,0,0:0:0:0:
36,192,39135,1,0,0:0:0:0:
109,192,39210,1,0,0:0:0:0:
182,192,39285,1,0,0:0:0:0:
329,192,39285,1,0,0:0:0:0:
402,192,39360,1,0,0:0:0:0:
36,192,39435,128,0,40635:0:0:0:0:
109,192,39435,1,0,0:0:0:0:
256,192,39435,1,0,0:0:0:0:
329,192,39510,1,0,0:0:0:0:
182,192,39585,1,0,0:0:0:0:
475,192,39585,1,0,0:0:0:0:
329,192,39660,1,0,0:0:0:0:
256,192,39735,1,0,0:0:0:0:
109,192,39735,1,0,0:0:0:0:
402,192,39810,1,0,0:0:0:0:
182,192,39885,1,0,0:0:0:0:
329,192,39885,1,0,0:0:0:0:
256,192,39960,1,0,0:0:0:0:
109,192,40035,1,0,0:0:0:0:
475,192,40035,128,0,40635:0:0:0:0:
329,192,40035,1,0,0:0:0:0:
182,192,40110,1,0,0:0:0:0:
329,192,40185,1,0,0:0:0:0:
256,192,40260,1,0,0:0:0:0:
109,192,40335,1,0,0:0:0:0:
329,192,40335,128,0,40635:0:0:0:0:
182,192,40335,1,0,0:0:0:0:
109,192,40485,1,0,0:0:0:0:
182,192,40485,1,0,0:0:0:0:
402,192,40635,128,0,41835:0:0:0:0:
256,192,40635,1,0,0:0:0:0:
109,192,40635,1,0,0:0:0:0:
182,192,40710,1,0,0:0:0:0:
36,192,40785,1,0,0:0:0:0:
109,192,40860,1,0,0:0:0:0:
256,192,40935,1,0,0:0:0:0:
475,192,40935,1,0,0:0:0:0:
109,192,41010,1,0,0:0:0:0:
36,192,41085,1,0,0:0:0:0:
182,192,41160,1,0,0:0:0:0:
329,192,41235,1,0,0:0:0:0:
109,192,41235,1,0,0:0:0:0:
256,192,41310,1,0,0:0:0:0:
329,192,41385,1,0,0:0:0:0:
182,192,41460,1,0,0:0:0:0:
256,192,41535,1,0,0:0:0:0:
36,192,41535,1,0,0:0:0:0:
182,192,41610,1,0,0:0:0:0:
329,192,41685,1,0,0:0:0:0:
182,192,41760,1,0,0:0:0:0:
329,192,41835,128,0,43035:0:0:0:0:
36,192,41835,1,0,0:0:0:0:
475,192,41835,1,0,0:0:0:0:
109,192,41910,1,0,0:0:0:0:
256,192,41985,1,0,0:0:0:0:
182,192,42060,1,0,0:0:0:0:
36,192,42135,1,0,0:0:0:0:
402,192,42135,1,0,0:0:0:0:
182,192,42210,1,0,0:0:0:0:
256,192,42285,1,0,0:0:0:0:
109,192,42360,1,0,0:0:0:0:
36,192,42435,1,0,0:0:0:0:
182,192,42435,1,0,0:0:0:0:
475,192,42510,1,0,0:0:0:0:
182,192,42585,1,0,0:0:0:0:
475,192,42660,1,0,0:0:0:0:
36,192,42735,1,0,0:0:0:0:
256,192,42735,1,0,0:0:0:0:
402,192,42810,1,0,0:0:0:0:
109,192,42885,1,0,0:0:0:0:
256,192,42960,1,0,0:0:0:0:
475,192,43035,128,0,44235:0:0:0:0:
402,192,43035,1,0,0:0:0:0:
36,192,43035,1,0,0:0:0:0:
109,192,43110,1,0,0:0:0:0:
256,192,43185,1,0,0:0:0:0:
182,192,43185,1,0,0:0:0:0:
329,192,43260,1,0,0:0:0:0:
402,192,43335,1,0,0:0:0:0:
36,192,43335,1,0,0:0:0:0:
109,192,43410,1,0,0:0:0:0:
256,192,43485,1,0,0:0:0:0:
182,192,43485,1,0,0:0:0:0:
329,192,43560,1,0,0:0:0:0:
402,192,43635,1,0,0:0:0:0:
36,192,43635,1,0,0:0:0:0:
109,192,43710,1,0,0:0:0:0:
256,192,43785,1,0,0:0:0:0:
182,192,43785,1,0,0:0:0:0:
329,192,43860,1,0,0:0:0:0:
402,192,43935,1,0,0:0:0:0:
36,192,43935,1,0,0:0:0:0:
109,192,44010,1,0,0:0:0:0:
256,192,44085,1,0,0:0:0:0:
182,192,44085,1,0,0:0:0:0:
329,192,44160,1,0,0:0:0:0:
402,192,44235,128,0,45435:0:0:0:0:
36,192,44235,1,0,0:0:0:0:
109,192,44235,1,0,0:0:0:0:
182,192,44310,1,0,0:0:0:0:
256,192,44385,1,0,0:0:0:0:
329,192,44385,1,0,0:0:0:0:
475,192,44460,1,0,0:0:0:0:
36,192,44535,1,0,0:0:0:0:
109,192,44535,1,0,0:0:0:0:
182,192,44610,1,0,0:0:0:0:
329,192,44685,1,0,0:0:0:0:
256,192,44685,1,0,0:0:0:0:
475,192,44760,1,0,0:0:0:0:
36,192,44835,1,0,0:0:0:0:
109,192,44835,1,0,0:0:0:0:
182,192,44910,1,0,0:0:0:0:
256,192,44985,1,0,0:0:0:0:
329,192,44985,1,0,0:0:0:0:
475,192,45060,1,0,0:0:0:0:
36,192,45135,1,0,0:0:0:0:
182,192,45135,1,0,0:0:0:0:
329,192,45135,1,0,0:0:0:0:
36,192,45285,1,0,0:0:0:0:
182,192,45285,1,0,0:0:0:0:
329,192,45285,1,0,0:0:0:0:
36,192,45435,128,0,47235:0:0:0:0:
109,192,45435,1,0,0:0:0:0:
256,192,45435,1,0,0:0:0:0:
329,192,45510,1,0,0:0:0:0:
475,192,45585,1,0,0:0:0:0:
402,192,45660,1,0,0:0:0:0:
182,192,45735,1,0,0:0:0:0:
329,192,45735,1,0,0:0:0:0:
402,192,45810,1,0,0:0:0:0:
475,192,45885,1,0,0:0:0:0:
329,192,45960,1,0,0:0:0:0:
256,192,46035,1,0,0:0:0:0:
109,192,46035,1,0,0:0:0:0:
402,192,46110,1,0,0:0:0:0:
256,192,46185,1,0,0:0:0:0:
402,192,46260,1,0,0:0:0:0:
329,192,46335,1,0,0:0:0:0:
182,192,46335,1,0,0:0:0:0:
402,192,46410,1,0,0:0:0:0:
475,192,46485,1,0,0:0:0:0:
256,192,46560,1,0,0:0:0:0:
109,192,46635,1,0,0:0:0:0:
402,192,46635,1,0,0:0:0:0:
182,192,46710,1,0,0:0:0:0:
329,192,46785,1,0,0:0:0:0:
256,192,46860,1,0,0:0:0:0:
402,192,46935,1,0,0:0:0:0:
109,192,46935,1,0,0:0:0:0:
256,192,47010,1,0,0:0:0:0:
329,192,47085,1,0,0:0:0:0:
182,192,47160,1,0,0:0:0:0:
475,192,47235,128,0,47835:0:0:0:0:
109,192,47235,1,0,0:0:0:0:
402,192,47235,1,0,0:0:0:0:
329,192,47310,1,0,0:0:0:0:
182,192,47385,1,0,0:0:0:0:
329,192,47460,1,0,0:0:0:0:
36,192,47535,1,0,0:0:0:0:
402,192,47535,1,0,0:0:0:0:
182,192,47610,1,0,0:0:0:0:
329,192,47685,1,0,0:0:0:0:
182,192,47760,1,0,0:0:0:0:
402,192,47835,1,0,0:0:0:0:
109,192,47835,1,0,0:0:0:0:
256,192,47835,128,0,49035:0:0:0:0:
329,192,47910,1,0,0:0:0:0:
182,192,47985,1,0,0:0:0:0:
475,192,47985,1,0,0:0:0:0:
402,192,48060,1,0,0:0:0:0:
182,192,48135,1,0,0:0:0:0:
36,192,48135,1,0,0:0:0:0:
402,192,48210,1,0,0:0:0:0:
109,192,48285,1,0,0:0:0:0:
475,192,48285,1,0,0:0:0:0:
329,192,48360,1,0,0:0:0:0:
36,192,48435,1,0,0:0:0:0:
402,192,48435,1,0,0:0:0:0:
329,192,48510,1,0,0:0:0:0:
109,192,48510,1,0,0:0:0:0:
402,192,48585,1,0,0:0:0:0:
182,192,48585,1,0,0:0:0:0:
475,192,48660,1,0,0:0:0:0:
36,192,48660,1,0,0:0:0:0:
109,192,48735,1,0,0:0:0:0:
329,192,48735,1,0,0:0:0:0:
182,192,48810,1,0,0:0:0:0:
402,192,48810,1,0,0:0:0:0:
36,192,48885,1,0,0:0:0:0:
475,192,48885,1,0,0:0:0:0:
109,192,48960,1,0,0:0:0:0:
329,192,48960,1,0,0:0:0:0:
475,192,49035,1,0,0:0:0:0:
36,192,49035,1,0,0:0:0:0:
182,192,49035,1,0,0:0:0:0:
329,192,49110,1,0,0:0:0:0:
402,192,49185,1,0,0:0:0:0:
36,192,49185,1,0,0:0:0:0:
109,192,49185,1,0,0:0:0:0:
182,192,49222,1,0,0:0:0:0:
256,192,49260,1,0,0:0:0:0:
329,192,49297,1,0,0:0:0:0:
402,192,49335,1,0,0:0:0:0:
475,192,49335,1,0,0:0:0:0:
36,192,49335,1,0,0:0:0:0:
182,192,49410,1,0,0:0:0:0:
402,192,49485,1,0,0:0:0:0:
475,192,49485,1,0,0:0:0:0:
109,192,49485,1,0,0:0:0:0:
329,192,49522,1,0,0:0:0:0:
256,192,49560,1,0,0:0:0:0:
182,192,49597,1,0,0:0:0:0:
109,192,49635,1,0,0:0:0:0:
36,192,49635,1,0,0:0:0:0:
329,192,49710,1,0,0:0:0:0:
182,192,49785,1,0,0:0:0:0:
329,192,49860,1,0,0:0:0:0:
182,192,49935,1,0,0:0:0:0:
329,192,50010,1,0,0:0:0:0:
36,192,50085,1,0,0:0:0:0:
475,192,50085,1,0,0:0:0:0:
109,192,50122,1,0,0:0:0:0:
402,192,50122,1,0,0:0:0:0:
182,192,50160,1,0,0:0:0:0:
329,192,50160,1,0,0:0:0:0:
256,192,50197,1,0,0:0:0:0:
109,192,50235,1,0,0:0:0:0:
475,192,50235,128,0,51435:0:0:0:0:
402,192,50235,1,0,0:0:0:0:
36,192,50235,128,0,51435:0:0:0:0:
182,192,50310,1,0,0:0:0:0:
329,192,50385,1,0,0:0:0:0:
182,192,50460,1,0,0:0:0:0:
402,192,50535,1,0,0:0:0:0:
109,192,50535,1,0,0:0:0:0:
329,192,50610,1,0,0:0:0:0:
182,192,50685,1,0,0:0:0:0:
329,192,50760,1,0,0:0:0:0:
402,192,50835,1,0,0:0:0:0:
109,192,50835,1,0,0:0:0:0:
256,192,50910,1,0,0:0:0:0:
182,192,50985,1,0,0:0:0:0:
329,192,51060,1,0,0:0:0:0:
402,192,51135,1,0,0:0:0:0:
256,192,51135,1,0,0:0:0:0:
109,192,51210,1,0,0:0:0:0:
256,192,51285,1,0,0:0:0:0:
182,192,51360,1,0,0:0:0:0:
109,192,51435,128,0,52635:0:0:0:0:
402,192,51435,128,0,52635:0:0:0:0:
329,192,51435,1,0,0:0:0:0:
256,192,51510,1,0,0:0:0:0:
182,192,51585,1,0,0:0:0:0:
36,192,51660,1,0,0:0:0:0:
182,192,51735,1,0,0:0:0:0:
475,192,51735,1,0,0:0:0:0:
256,192,51810,1,0,0:0:0:0:
329,192,51885,1,0,0:0:0:0:
475,192,51960,1,0,0:0:0:0:
36,192,52035,1,0,0:0:0:0:
256,192,52035,1,0,0:0:0:0:
329,192,52110,1,0,0:0:0:0:
182,192,52185,1,0,0:0:0:0:
256,192,52260,1,0,0:0:0:0:
182,192,52335,1,0,0:0:0:0:
475,192,52335,1,0,0:0:0:0:
329,192,52410,1,0,0:0:0:0:
182,192,52485,1,0,0:0:0:0:
256,192,52560,1,0,0:0:0:0:
182,192,52635,128,0,53835:0:0:0:0:
329,192,52635,128,0,53835:0:0:0:0:
475,192,52635,1,0,0:0:0:0:
36,192,52635,1,0,0:0:0:0:
402,192,52710,1,0,0:0:0:0:
256,192,52785,1,0,0:0:0:0:
109,192,52860,1,0,0:0:0:0:
36,192,52935,1,0,0:0:0:0:
475,192,52935,1,0,0:0:0:0:
402,192,53010,1,0,0:0:0:0:
256,192,53085,1,0,0:0:0:0:
109,192,53160,1,0,0:0:0:0:
36,192,53235,1,0,0:0:0:0:
475,192,53235,1,0,0:0:0:0:
402,192,53310,1,0,0:0:0:0:
256,192,53385,1,0,0:0:0:0:
109,192,53460,1,0,0:0:0:0:
36,192,53535,1,0,0:0:0:0:
475,192,53535,1,0,0:0:0:0:
402,192,53610,1,0,0:0:0:0:
256,192,53685,1,0,0:0:0:0:
109,192,53760,1,0,0:0:0:0:
36,192,53835,1,0,0:0:0:0:
475,192,53835,1,0,0:0:0:0:
256,192,53835,1,0,0:0:0:0:
402,192,53910,1,0,0:0:0:0:
109,192,53910,1,0,0:0:0:0:
329,192,53985,1,0,0:0:0:0:
182,192,53985,1,0,0:0:0:0:
109,192,54060,1,0,0:0:0:0:
402,192,54060,1,0,0:0:0:0:
475,192,54135,1,0,0:0:0:0:
36,192,54135,1,0,0:0:0:0:
256,192,54135,1,0,0:0:0:0:
182,192,54210,1,0,0:0:0:0:
329,192,54210,1,0,0:0:0:0:
109,192,54285,1,0,0:0:0:0:
402,192,54285,1,0,0:0:0:0:
182,192,54360,1,0,0:0:0:0:
329,192,54360,1,0,0:0:0:0:
36,192,54435,128,0,54660:0:0:0:0:
109,192,54435,128,0,54660:0:0:0:0:
402,192,54435,128,0,54660:0:0:0:0:
475,192,54435,128,0,54660:0:0:0:0:
256,192,54435,128,0,54660:0:0:0:0:
109,192,54735,128,0,54960:0:0:0:0:
182,192,54735,128,0,54960:0:0:0:0:
329,192,54735,128,0,54960:0:0:0:0:
402,192,54735,128,0,54960:0:0:0:0:
329,192,55035,128,0,56235:0:0:0:0:
182,192,55035,128,0,56235:0:0:0:0:
36,192,55035,1,0,0:0:0:0:
475,192,55035,1,0,0:0:0:0:
109,192,55110,1,0,0:0:0:0:
256,192,55185,1,0,0:0:0:0:
402,192,55260,1,0,0:0:0:0:
475,192,55335,1,0,0:0:0:0:
36,192,55335,1,0,0:0:0:0:
402,192,55410,1,0,0:0:0:0:
256,192,55485,1,0,0:0:0:0:
109,192,55560,1,0,0:0:0:0:
36,192,55635,1,0,0:0:0:0:
475,192,55635,1,0,0:0:0:0:
402,192,55710,1,0,0:0:0:0:
109,192,55785,1,0,0:0:0:0:
402,192,55860,1,0,0:0:0:0:
256,192,55935,1,0,0:0:0:0:
36,192,55935,1,0,0:0:0:0:
109,192,56010,1,0,0:0:0:0:
475,192,56085,1,0,0:0:0:0:
402,192,56160,1,0,0:0:0:0:
36,192,56235,128,0,57435:0:0:0:0:
109,192,56235,128,0,57435:0:0:0:0:
475,192,56235,1,0,0:0:0:0:
256,192,56235,1,0,0:0:0:0:
329,192,56310,1,0,0:0:0:0:
402,192,56385,1,0,0:0:0:0:
329,192,56460,1,0,0:0:0:0:
256,192,56535,1,0,0:0:0:0:
475,192,56535,1,0,0:0:0:0:
402,192,56610,1,0,0:0:0:0:
329,192,56685,1,0,0:0:0:0:
402,192,56760,1,0,0:0:0:0:
475,192,56835,1,0,0:0:0:0:
182,192,56835,1,0,0:0:0:0:
329,192,56910,1,0,0:0:0:0:
256,192,56985,1,0,0:0:0:0:
182,192,57060,1,0,0:0:0:0:
329,192,57135,1,0,0:0:0:0:
475,192,57135,1,0,0:0:0:0:
182,192,57210,1,0,0:0:0:0:
329,192,57285,1,0,0:0:0:0:
256,192,57360,1,0,0:0:0:0:
475,192,57435,128,0,58635:0:0:0:0:
402,192,57435,128,0,58635:0:0:0:0:
182,192,57435,1,0,0:0:0:0:
329,192,57435,1,0,0:0:0:0:
109,192,57510,1,0,0:0:0:0:
182,192,57585,1,0,0:0:0:0:
329,192,57660,1,0,0:0:0:0:
256,192,57735,1,0,0:0:0:0:
36,192,57735,1,0,0:0:0:0:
109,192,57810,1,0,0:0:0:0:
182,192,57885,1,0,0:0:0:0:
329,192,57960,1,0,0:0:0:0:
36,192,58035,1,0,0:0:0:0:
256,192,58035,1,0,0:0:0:0:
109,192,58110,1,0,0:0:0:0:
182,192,58185,1,0,0:0:0:0:
329,192,58260,1,0,0:0:0:0:
36,192,58335,1,0,0:0:0:0:
256,192,58335,1,0,0:0:0:0:
109,192,58410,1,0,0:0:0:0:
182,192,58485,1,0,0:0:0:0:
329,192,58560,1,0,0:0:0:0:
256,192,58635,1,0,0:0:0:0:
36,192,58635,1,0,0:0:0:0:
109,192,58635,1,0,0:0:0:0:
329,192,58710,1,0,0:0:0:0:
182,192,58710,1,0,0:0:0:0:
402,192,58785,1,0,0:0:0:0:
109,192,58785,1,0,0:0:0:0:
329,192,58860,1,0,0:0:0:0:
182,192,58860,1,0,0:0:0:0:
475,192,58935,1,0,0:0:0:0:
256,192,58935,1,0,0:0:0:0:
36,192,58935,1,0,0:0:0:0:
402,192,59010,1,0,0:0:0:0:
109,192,59010,1,0,0:0:0:0:
329,192,59085,1,0,0:0:0:0:
182,192,59085,1,0,0:0:0:0:
402,192,59160,1,0,0:0:0:0:
109,192,59160,1,0,0:0:0:0:
475,192,59235,128,0,59535:0:0:0:0:
36,192,59235,128,0,59535:0:0:0:0:
182,192,59235,1,0,0:0:0:0:
329,192,59235,1,0,0:0:0:0:
256,192,59235,128,0,59535:0:0:0:0:
402,192,59535,1,0,0:0:0:0:
109,192,59535,1,0,0:0:0:0:
182,192,59535,1,0,0:0:0:0:
329,192,59535,1,0,0:0:0:0:
402,192,59685,1,0,0:0:0:0:
109,192,59685,1,0,0:0:0:0:
182,192,59685,1,0,0:0:0:0:
329,192,59685,1,0,0:0:0:0:
475,192,59835,128,0,61035:0:0:0:0:
36,192,59835,128,0,61035:0:0:0:0:
256,192,59835,1,0,0:0:0:0:
329,192,59910,1,0,0:0:0:0:
109,192,59985,1,0,0:0:0:0:
256,192,60060,1,0,0:0:0:0:
402,192,60135,1,0,0:0:0:0:
182,192,60135,1,0,0:0:0:0:
256,192,60210,1,0,0:0:0:0:
329,192,60285,1,0,0:0:0:0:
109,192,60360,1,0,0:0:0:0:
256,192,60435,1,0,0:0:0:0:
402,192,60435,1,0,0:0:0:0:
329,192,60510,1,0,0:0:0:0:
182,192,60585,1,0,0:0:0:0:
329,192,60660,1,0,0:0:0:0:
402,192,60735,1,0,0:0:0:0:
182,192,60735,1,0,0:0:0:0:
256,192,60810,1,0,0:0:0:0:
329,192,60885,1,0,0:0:0:0:
256,192,60960,1,0,0:0:0:0:
109,192,61035,128,0,62235:0:0:0:0:
402,192,61035,128,0,62235:0:0:0:0:
182,192,61035,1,0,0:0:0:0:
329,192,61035,1,0,0:0:0:0:
36,192,61110,1,0,0:0:0:0:
182,192,61185,1,0,0:0:0:0:
256,192,61260,1,0,0:0:0:0:
329,192,61335,1,0,0:0:0:0:
475,192,61335,1,0,0:0:0:0:
182,192,61410,1,0,0:0:0:0:
256,192,61485,1,0,0:0:0:0:
182,192,61560,1,0,0:0:0:0:
36,192,61635,1,0,0:0:0:0:
329,192,61635,1,0,0:0:0:0:
182,192,61710,1,0,0:0:0:0:
329,192,61785,1,0,0:0:0:0:
256,192,61860,1,0,0:0:0:0:
475,192,61935,1,0,0:0:0:0:
329,192,61935,1,0,0:0:0:0:
182,192,62010,1,0,0:0:0:0:
256,192,62085,1,0,0:0:0:0:
182,192,62160,1,0,0:0:0:0:
475,192,62235,128,0,63435:0:0:0:0:
36,192,62235,1,0,0:0:0:0:
256,192,62235,1,0,0:0:0:0:
329,192,62235,128,0,63435:0:0:0:0:
182,192,62310,1,0,0:0:0:0:
402,192,62385,1,0,0:0:0:0:
256,192,62460,1,0,0:0:0:0:
109,192,62535,1,0,0:0:0:0:
36,192,62535,1,0,0:0:0:0:
182,192,62610,1,0,0:0:0:0:
402,192,62685,1,0,0:0:0:0:
256,192,62760,1,0,0:0:0:0:
109,192,62835,1,0,0:0:0:0:
36,192,62835,1,0,0:0:0:0:
182,192,62910,1,0,0:0:0:0:
402,192,62985,1,0,0:0:0:0:
256,192,63060,1,0,0:0:0:0:
36,192,63135,1,0,0:0:0:0:
109,192,63135,1,0,0:0:0:0:
182,192,63210,1,0,0:0:0:0:
402,192,63285,1,0,0:0:0:0:
256,192,63360,1,0,0:0:0:0:
36,192,63435,128,0,64035:0:0:0:0:
109,192,63435,128,0,64035:0:0:0:0:
182,192,63435,1,0,0:0:0:0:
402,192,63435,1,0,0:0:0:0:
329,192,63510,1,0,0:0:0:0:
256,192,63585,1,0,0:0:0:0:
329,192,63660,1,0,0:0:0:0:
475,192,63735,1,0,0:0:0:0:
182,192,63735,1,0,0:0:0:0:
402,192,63810,1,0,0:0:0:0:
329,192,63885,1,0,0:0:0:0:
256,192,63960,1,0,0:0:0:0:
475,192,64035,128,0,64635:0:0:0:0:
402,192,64035,128,0,64635:0:0:0:0:
182,192,64035,1,0,0:0:0:0:
329,192,64035,1,0,0:0:0:0:
256,192,64110,1,0,0:0:0:0:
109,192,64185,1,0,0:0:0:0:
256,192,64260,1,0,0:0:0:0:
182,192,64335,1,0,0:0:0:0:
36,192,64335,1,0,0:0:0:0:
329,192,64410,1,0,0:0:0:0:
182,192,64485,1,0,0:0:0:0:
109,192,64635,1,0,0:0:0:0:
329,192,64635,1,0,0:0:0:0:
256,192,64635,1,0,0:0:0:0:
36,192,64635,128,0,65835:0:0:0:0:
109,192,64785,1,0,0:0:0:0:
329,192,64785,1,0,0:0:0:0:
256,192,64785,1,0,0:0:0:0:
109,192,64935,1,0,0:0:0:0:
182,192,64935,1,0,0:0:0:0:
329,192,64935,1,0,0:0:0:0:
109,192,65085,1,0,0:0:0:0:
182,192,65085,1,0,0:0:0:0:
329,192,65085,1,0,0:0:0:0:
402,192,65235,1,0,0:0:0:0:
475,192,65235,1,0,0:0:0:0:
256,192,65235,1,0,0:0:0:0:
402,192,65385,1,0,0:0:0:0:
475,192,65385,1,0,0:0:0:0:
256,192,65385,1,0,0:0:0:0:
182,192,65535,1,0,0:0:0:0:
329,192,65535,1,0,0:0:0:0:
402,192,65535,1,0,0:0:0:0:
182,192,65685,1,0,0:0:0:0:
329,192,65685,1,0,0:0:0:0:
402,192,65685,1,0,0:0:0:0:
256,192,65760,1,0,0:0:0:0:
109,192,65835,1,0,0:0:0:0:
182,192,65835,1,0,0:0:0:0:
329,192,65835,1,0,0:0:0:0:
475,192,65835,128,0,67035:0:0:0:0:
329,192,65985,1,0,0:0:0:0:
182,192,65985,1,0,0:0:0:0:
109,192,65985,1,0,0:0:0:0:
329,192,66135,1,0,0:0:0:0:
256,192,66135,1,0,0:0:0:0:
109,192,66135,1,0,0:0:0:0:
329,192,66285,1,0,0:0:0:0:
256,192,66285,1,0,0:0:0:0:
109,192,66285,1,0,0:0:0:0:
402,192,66435,1,0,0:0:0:0:
36,192,66435,1,0,0:0:0:0:
182,192,66435,1,0,0:0:0:0:
402,192,66585,1,0,0:0:0:0:
36,192,66585,1,0,0:0:0:0:
182,192,66585,1,0,0:0:0:0:
329,192,66735,1,0,0:0:0:0:
256,192,66735,1,0,0:0:0:0:
109,192,66735,1,0,0:0:0:0:
256,192,66885,1,0,0:0:0:0:
109,192,66885,1,0,0:0:0:0:
329,192,66885,1,0,0:0:0:0:
182,192,66960,1,0,0:0:0:0:
402,192,67035,1,0,0:0:0:0:
256,192,67035,1,0,0:0:0:0:
36,192,67035,1,0,0:0:0:0:
109,192,67035,1,0,0:0:0:0:
329,192,67035,1,0,0:0:0:0:
36,192,67185,1,0,0:0:0:0:
109,192,67185,1,0,0:0:0:0:
256,192,67185,1,0,0:0:0:0:
402,192,67185,1,0,0:0:0:0:
109,192,67335,1,0,0:0:0:0:
36,192,67335,1,0,0:0:0:0:
402,192,67335,1,0,0:0:0:0:
256,192,67335,1,0,0:0:0:0:
36,192,67485,1,0,0:0:0:0:
109,192,67485,1,0,0:0:0:0:
402,192,67485,1,0,0:0:0:0:
256,192,67485,1,0,0:0:0:0:
182,192,67560,1,0,0:0:0:0:
329,192,67560,1,0,0:0:0:0:
256,192,67635,1,0,0:0:0:0:
475,192,67635,1,0,0:0:0:0:
109,192,67635,1,0,0:0:0:0:
402,192,67635,1,0,0:0:0:0:
256,192,67785,1,0,0:0:0:0:
109,192,67785,1,0,0:0:0:0:
475,192,67785,1,0,0:0:0:0:
402,192,67785,1,0,0:0:0:0:
475,192,67935,1,0,0:0:0:0:
402,192,67935,1,0,0:0:0:0:
109,192,67935,1,0,0:0:0:0:
256,192,67935,1,0,0:0:0:0:
109,192,68085,1,0,0:0:0:0:
402,192,68085,1,0,0:0:0:0:
256,192,68085,1,0,0:0:0:0:
475,192,68085,1,0,0:0:0:0:
182,192,68122,1,0,0:0:0:0:
329,192,68160,1,0,0:0:0:0:
256,192,68197,1,0,0:0:0:0:
402,192,68235,1,0,0:0:0:0:
36,192,68235,1,0,0:0:0:0:
109,192,68235,1,0,0:0:0:0:
329,192,68385,1,0,0:0:0:0:
256,192,68422,1,0,0:0:0:0:
182,192,68460,1,0,0:0:0:0:
109,192,68497,1,0,0:0:0:0:
402,192,68535,1,0,0:0:0:0:
36,192,68535,1,0,0:0:0:0:
475,192,68535,1,0,0:0:0:0:
182,192,68685,1,0,0:0:0:0:
256,192,68722,1,0,0:0:0:0:
329,192,68760,1,0,0:0:0:0:
402,192,68797,1,0,0:0:0:0:
109,192,68835,1,0,0:0:0:0:
475,192,68835,1,0,0:0:0:0:
36,192,68835,1,0,0:0:0:0:
329,192,68910,1,0,0:0:0:0:
182,192,68985,1,0,0:0:0:0:
402,192,69022,1,0,0:0:0:0:
329,192,69060,1,0,0:0:0:0:
109,192,69097,1,0,0:0:0:0:
182,192,69135,1,0,0:0:0:0:
475,192,69135,1,0,0:0:0:0:
329,192,69210,1,0,0:0:0:0:
182,192,69285,1,0,0:0:0:0:
36,192,69285,1,0,0:0:0:0:
256,192,69322,1,0,0:0:0:0:
329,192,69360,1,0,0:0:0:0:
402,192,69397,1,0,0:0:0:0:
109,192,69435,1,0,0:0:0:0:
36,192,69435,128,0,74235:0:0:0:0:
475,192,69435,128,0,74235:0:0:0:0:
109,192,71835,128,0,74235:0:0:0:0:
256,192,72135,128,0,74235:0:0:0:0:
402,192,72435,128,0,74235:0:0:0:0:
182,192,74235,128,0,74835:0:0:0:0:
329,192,74235,128,0,74835:0:0:0:0:
36,192,74835,128,0,76035:0:0:0:0:
256,192,74835,128,0,76035:0:0:0:0:
475,192,76035,1,0,0:0:0:0:
402,192,76035,1,0,0:0:0:0:
329,192,76235,1,0,0:0:0:0:
256,192,76235,1,0,0:0:0:0:
182,192,76435,1,0,0:0:0:0:
109,192,76435,1,0,0:0:0:0:
329,192,76635,128,0,77235:0:0:0:0:
475,192,76635,128,0,77235:0:0:0:0:
182,192,77235,128,0,78435:0:0:0:0:
36,192,77235,128,0,78435:0:0:0:0:
109,192,78435,128,0,78935:0:0:0:0:
402,192,78435,128,0,78935:0:0:0:0:
109,192,79035,128,0,79635:0:0:0:0:
402,192,79035,128,0,79635:0:0:0:0:
182,192,79635,128,0,80835:0:0:0:0:
329,192,79635,128,0,80835:0:0:0:0:
36,192,80835,1,0,0:0:0:0:
475,192,80835,1,0,0:0:0:0:
109,192,81035,1,0,0:0:0:0:
402,192,81035,1,0,0:0:0:0:
182,192,81235,1,0,0:0:0:0:
329,192,81235,1,0,0:0:0:0:
36,192,81435,128,0,82035:0:0:0:0:
256,192,81435,128,0,82035:0:0:0:0:
109,192,82035,128,0,82835:0:0:0:0:
329,192,82035,128,0,82835:0:0:0:0:
109,192,82935,1,0,0:0:0:0:
329,192,82935,1,0,0:0:0:0:
475,192,83235,1,0,0:0:0:0:
329,192,83235,1,0,0:0:0:0:
36,192,83535,1,0,0:0:0:0:
182,192,83535,1,0,0:0:0:0:
36,192,83835,1,0,0:0:0:0:
109,192,83835,1,0,0:0:0:0:
256,192,83835,128,0,85035:0:0:0:0:
402,192,83835,128,0,85035:0:0:0:0:
182,192,85035,128,0,85635:0:0:0:0:
475,192,85035,128,0,85635:0:0:0:0:
329,192,85635,128,0,86235:0:0:0:0:
36,192,85635,128,0,86235:0:0:0:0:
109,192,86235,128,0,87435:0:0:0:0:
402,192,86235,128,0,87435:0:0:0:0:
256,192,87435,1,0,0:0:0:0:
475,192,87435,1,0,0:0:0:0:
182,192,87735,1,0,0:0:0:0:
402,192,87735,1,0,0:0:0:0:
36,192,88035,1,0,0:0:0:0:
109,192,88035,1,0,0:0:0:0:
182,192,88235,1,0,0:0:0:0:
256,192,88235,1,0,0:0:0:0:
329,192,88435,1,0,0:0:0:0:
402,192,88435,1,0,0:0:0:0:
329,192,88635,128,0,89235:0:0:0:0:
475,192,88635,128,0,89235:0:0:0:0:
182,192,89235,128,0,90035:0:0:0:0:
36,192,89235,128,0,90035:0:0:0:0:
182,192,90135,1,0,0:0:0:0:
36,192,90135,1,0,0:0:0:0:
329,192,90435,1,0,0:0:0:0:
182,192,90435,1,0,0:0:0:0:
329,192,90735,1,0,0:0:0:0:
475,192,90735,1,0,0:0:0:0:
475,192,91035,1,0,0:0:0:0:
36,192,91035,1,0,0:0:0:0:
329,192,91635,1,0,0:0:0:0:
182,192,91635,1,0,0:0:0:0:
109,192,92235,1,0,0:0:0:0:
402,192,92235,1,0,0:0:0:0:
36,192,92835,1,0,0:0:0:0:
475,192,92835,1,0,0:0:0:0:
36,192,93435,1,0,0:0:0:0:
109,192,93435,1,0,0:0:0:0:
402,192,93435,1,0,0:0:0:0:
475,192,93435,128,0,95235:0:0:0:0:
329,192,93510,1,0,0:0:0:0:
182,192,93585,1,0,0:0:0:0:
329,192,93660,1,0,0:0:0:0:
109,192,93735,1,0,0:0:0:0:
402,192,93810,1,0,0:0:0:0:
109,192,93885,1,0,0:0:0:0:
329,192,93960,1,0,0:0:0:0:
182,192,94035,1,0,0:0:0:0:
36,192,94035,128,0,95235:0:0:0:0:
329,192,94110,1,0,0:0:0:0:
402,192,94185,1,0,0:0:0:0:
109,192,94260,1,0,0:0:0:0:
182,192,94335,1,0,0:0:0:0:
329,192,94410,1,0,0:0:0:0:
402,192,94485,1,0,0:0:0:0:
256,192,94560,1,0,0:0:0:0:
256,192,94710,1,0,0:0:0:0:
402,192,94785,1,0,0:0:0:0:
256,192,94860,1,0,0:0:0:0:
182,192,94935,1,0,0:0:0:0:
329,192,95010,1,0,0:0:0:0:
182,192,95085,1,0,0:0:0:0:
109,192,95160,1,0,0:0:0:0:
329,192,95235,128,0,95835:0:0:0:0:
182,192,95435,128,0,95835:0:0:0:0:
36,192,95635,128,0,95835:0:0:0:0:
402,192,95835,128,0,97635:0:0:0:0:
109,192,96435,128,0,97635:0:0:0:0:
36,192,96435,1,0,0:0:0:0:
182,192,96510,1,0,0:0:0:0:
329,192,96585,1,0,0:0:0:0:
475,192,96660,1,0,0:0:0:0:
329,192,96735,1,0,0:0:0:0:
182,192,96810,1,0,0:0:0:0:
329,192,96885,1,0,0:0:0:0:
36,192,96960,1,0,0:0:0:0:
182,192,97035,1,0,0:0:0:0:
329,192,97110,1,0,0:0:0:0:
475,192,97185,1,0,0:0:0:0:
182,192,97260,1,0,0:0:0:0:
329,192,97335,1,0,0:0:0:0:
36,192,97410,1,0,0:0:0:0:
182,192,97485,1,0,0:0:0:0:
475,192,97560,1,0,0:0:0:0:
36,192,97635,1,0,0:0:0:0:
329,192,97635,1,0,0:0:0:0:
256,192,97635,128,0,98235:0:0:0:0:
182,192,97710,1,0,0:0:0:0:
329,192,97785,1,0,0:0:0:0:
182,192,97860,1,0,0:0:0:0:
475,192,97935,1,0,0:0:0:0:
329,192,97935,1,0,0:0:0:0:
109,192,98010,1,0,0:0:0:0:
402,192,98085,1,0,0:0:0:0:
182,192,98085,1,0,0:0:0:0:
329,192,98160,1,0,0:0:0:0:
402,192,98235,1,0,0:0:0:0:
475,192,98235,1,0,0:0:0:0:
182,192,98235,128,0,98835:0:0:0:0:
36,192,98235,1,0,0:0:0:0:
329,192,98310,1,0,0:0:0:0:
109,192,98385,1,0,0:0:0:0:
402,192,98460,1,0,0:0:0:0:
256,192,98535,1,0,0:0:0:0:
402,192,98610,1,0,0:0:0:0:
109,192,98685,1,0,0:0:0:0:
475,192,98760,1,0,0:0:0:0:
256,192,98835,1,0,0:0:0:0:
329,192,98835,128,0,100035:0:0:0:0:
36,192,98910,1,0,0:0:0:0:
182,192,98985,1,0,0:0:0:0:
256,192,99060,1,0,0:0:0:0:
475,192,99135,1,0,0:0:0:0:
182,192,99210,1,0,0:0:0:0:
36,192,99285,1,0,0:0:0:0:
256,192,99360,1,0,0:0:0:0:
402,192,99510,1,0,0:0:0:0:
256,192,99585,1,0,0:0:0:0:
109,192,99660,1,0,0:0:0:0:
475,192,99735,1,0,0:0:0:0:
402,192,99810,1,0,0:0:0:0:
182,192,99885,1,0,0:0:0:0:
109,192,99960,1,0,0:0:0:0:
475,192,100035,1,0,0:0:0:0:
36,192,100035,1,0,0:0:0:0:
109,192,100235,1,0,0:0:0:0:
402,192,100235,1,0,0:0:0:0:
182,192,100435,1,0,0:0:0:0:
329,192,100435,1,0,0:0:0:0:
36,192,100635,128,0,101235:0:0:0:0:
256,192,100635,128,0,101235:0:0:0:0:
109,192,101235,128,0,102435:0:0:0:0:
475,192,101235,128,0,102435:0:0:0:0:
329,192,102135,128,0,102435:0:0:0:0:
182,192,102435,128,0,102735:0:0:0:0:
402,192,102435,128,0,102735:0:0:0:0:
36,192,102435,1,0,0:0:0:0:
256,192,102735,128,0,103035:0:0:0:0:
36,192,102735,128,0,103035:0:0:0:0:
329,192,102735,1,0,0:0:0:0:
402,192,102885,1,0,0:0:0:0:
475,192,102885,1,0,0:0:0:0:
329,192,102960,1,0,0:0:0:0:
109,192,103035,128,0,104235:0:0:0:0:
182,192,103035,128,0,104235:0:0:0:0:
475,192,103035,1,0,0:0:0:0:
402,192,103035,1,0,0:0:0:0:
36,192,104235,128,0,105435:0:0:0:0:
475,192,104235,128,0,104835:0:0:0:0:
329,192,104235,1,0,0:0:0:0:
402,192,104835,128,0,106635:0:0:0:0:
256,192,104835,1,0,0:0:0:0:
109,192,105285,1,0,0:0:0:0:
182,192,105285,1,0,0:0:0:0:
256,192,105360,1,0,0:0:0:0:
109,192,105435,128,0,106635:0:0:0:0:
329,192,105435,1,0,0:0:0:0:
475,192,105435,1,0,0:0:0:0:
256,192,106485,1,0,0:0:0:0:
182,192,106635,1,0,0:0:0:0:
329,192,106635,1,0,0:0:0:0:
36,192,106635,128,0,107235:0:0:0:0:
475,192,106635,128,0,107235:0:0:0:0:
256,192,106935,128,0,107235:0:0:0:0:
109,192,107235,1,0,0:0:0:0:
329,192,107235,1,0,0:0:0:0:
182,192,107235,1,0,0:0:0:0:
182,192,107435,1,0,0:0:0:0:
402,192,107435,1,0,0:0:0:0:
256,192,107435,1,0,0:0:0:0:
256,192,107635,1,0,0:0:0:0:
475,192,107635,1,0,0:0:0:0:
329,192,107635,1,0,0:0:0:0:
36,192,107685,1,0,0:0:0:0:
109,192,107760,1,0,0:0:0:0:
329,192,107835,1,0,0:0:0:0:
36,192,107835,1,0,0:0:0:0:
402,192,107835,128,0,108435:0:0:0:0:
182,192,107835,128,0,108435:0:0:0:0:
475,192,108435,128,0,109260:0:0:0:0:
329,192,108435,128,0,109260:0:0:0:0:
36,192,108435,1,0,0:0:0:0:
182,192,108885,1,0,0:0:0:0:
36,192,109035,1,0,0:0:0:0:
109,192,109035,1,0,0:0:0:0:
329,192,109335,1,0,0:0:0:0:
475,192,109335,1,0,0:0:0:0:
182,192,109335,1,0,0:0:0:0:
36,192,109635,1,0,0:0:0:0:
182,192,109635,1,0,0:0:0:0:
329,192,109635,1,0,0:0:0:0:
109,192,109935,1,0,0:0:0:0:
256,192,109935,1,0,0:0:0:0:
402,192,109935,1,0,0:0:0:0:
36,192,110085,1,0,0:0:0:0:
475,192,110085,1,0,0:0:0:0:
109,192,110160,1,0,0:0:0:0:
402,192,110160,1,0,0:0:0:0:
182,192,110235,1,0,0:0:0:0:
329,192,110235,1,0,0:0:0:0:
475,192,110235,1,0,0:0:0:0:
36,192,110235,1,0,0:0:0:0:
36,192,110385,1,0,0:0:0:0:
475,192,110385,1,0,0:0:0:0:
256,192,110685,1,0,0:0:0:0:
36,192,110685,1,0,0:0:0:0:
475,192,110685,1,0,0:0:0:0:
109,192,110760,1,0,0:0:0:0:
402,192,110760,1,0,0:0:0:0:
182,192,110835,1,0,0:0:0:0:
329,192,110835,1,0,0:0:0:0:
182,192,110985,1,0,0:0:0:0:
329,192,110985,1,0,0:0:0:0:
329,192,111285,1,0,0:0:0:0:
182,192,111285,1,0,0:0:0:0:
36,192,111360,1,0,0:0:0:0:
475,192,111360,1,0,0:0:0:0:
109,192,111435,1,0,0:0:0:0:
402,192,111435,1,0,0:0:0:0:
182,192,111435,1,0,0:0:0:0:
329,192,111435,1,0,0:0:0:0:
329,192,111660,5,0,0:0:0:0:
182,192,111735,1,0,0:0:0:0:
329,192,111810,1,0,0:0:0:0:
182,192,111885,1,0,0:0:0:0:
329,192,111960,1,0,0:0:0:0:
475,192,112035,1,0,0:0:0:0:
36,192,112035,1,0,0:0:0:0:
182,192,112035,1,0,0:0:0:0:
256,192,112110,1,0,0:0:0:0:
402,192,112110,1,0,0:0:0:0:
36,192,112185,1,0,0:0:0:0:
182,192,112185,1,0,0:0:0:0:
329,192,112260,1,0,0:0:0:0:
475,192,112260,1,0,0:0:0:0:
109,192,112335,1,0,0:0:0:0:
256,192,112335,1,0,0:0:0:0:
329,192,112410,1,0,0:0:0:0:
475,192,112410,1,0,0:0:0:0:
182,192,112485,1,0,0:0:0:0:
36,192,112485,1,0,0:0:0:0:
329,192,112560,1,0,0:0:0:0:
475,192,112560,1,0,0:0:0:0:
256,192,112635,5,0,0:0:0:0:
256,192,112785,1,0,0:0:0:0:
256,192,112935,1,0,0:0:0:0:
256,192,113085,1,0,0:0:0:0:
329,192,113235,1,0,0:0:0:0:
182,192,113235,1,0,0:0:0:0:
329,192,113385,1,0,0:0:0:0:
182,192,113385,1,0,0:0:0:0:
329,192,113535,1,0,0:0:0:0:
182,192,113535,1,0,0:0:0:0:
329,192,113685,1,0,0:0:0:0:
182,192,113685,1,0,0:0:0:0:
36,192,113835,1,0,0:0:0:0:
109,192,113835,1,0,0:0:0:0:
402,192,113835,1,0,0:0:0:0:
475,192,113835,1,0,0:0:0:0:
256,192,113835,1,0,0:0:0:0:
182,192,113985,1,0,0:0:0:0:
329,192,113985,1,0,0:0:0:0:
256,192,114060,1,0,0:0:0:0:
36,192,114135,1,0,0:0:0:0:
475,192,114135,1,0,0:0:0:0:
182,192,114285,1,0,0:0:0:0:
329,192,114285,1,0,0:0:0:0:
109,192,114435,1,0,0:0:0:0:
402,192,114435,1,0,0:0:0:0:
256,192,114585,1,0,0:0:0:0:
109,192,114735,1,0,0:0:0:0:
402,192,114735,1,0,0:0:0:0:
182,192,114735,1,0,0:0:0:0:
329,192,114735,1,0,0:0:0:0:
36,192,115035,1,0,0:0:0:0:
109,192,115035,1,0,0:0:0:0:
329,192,115035,1,0,0:0:0:0:
475,192,115035,1,0,0:0:0:0:
182,192,115035,1,0,0:0:0:0:
256,192,115110,1,0,0:0:0:0:
329,192,115185,1,0,0:0:0:0:
109,192,115185,1,0,0:0:0:0:
182,192,115260,1,0,0:0:0:0:
256,192,115335,1,0,0:0:0:0:
36,192,115335,1,0,0:0:0:0:
402,192,115335,1,0,0:0:0:0:
182,192,115410,1,0,0:0:0:0:
109,192,115485,1,0,0:0:0:0:
329,192,115485,1,0,0:0:0:0:
256,192,115560,1,0,0:0:0:0:
36,192,115635,1,0,0:0:0:0:
182,192,115635,1,0,0:0:0:0:
475,192,115635,1,0,0:0:0:0:
329,192,115710,1,0,0:0:0:0:
402,192,115785,1,0,0:0:0:0:
182,192,115785,1,0,0:0:0:0:
256,192,115860,1,0,0:0:0:0:
329,192,115935,1,0,0:0:0:0:
36,192,115935,1,0,0:0:0:0:
475,192,115935,1,0,0:0:0:0:
182,192,116010,1,0,0:0:0:0:
329,192,116085,1,0,0:0:0:0:
109,192,116085,1,0,0:0:0:0:
256,192,116160,1,0,0:0:0:0:
36,192,116235,1,0,0:0:0:0:
402,192,116235,1,0,0:0:0:0:
182,192,116235,1,0,0:0:0:0:
329,192,116235,1,0,0:0:0:0:
475,192,116235,1,0,0:0:0:0:
256,192,116310,1,0,0:0:0:0:
182,192,116385,1,0,0:0:0:0:
402,192,116385,1,0,0:0:0:0:
329,192,116460,1,0,0:0:0:0:
256,192,116535,1,0,0:0:0:0:
475,192,116535,1,0,0:0:0:0:
109,192,116535,1,0,0:0:0:0:
329,192,116610,1,0,0:0:0:0:
182,192,116685,1,0,0:0:0:0:
402,192,116685,1,0,0:0:0:0:
256,192,116760,1,0,0:0:0:0:
329,192,116835,1,0,0:0:0:0:
475,192,116835,1,0,0:0:0:0:
36,192,116835,1,0,0:0:0:0:
182,192,116910,1,0,0:0:0:0:
329,192,116985,1,0,0:0:0:0:
109,192,116985,1,0,0:0:0:0:
256,192,117060,1,0,0:0:0:0:
182,192,117135,1,0,0:0:0:0:
36,192,117135,1,0,0:0:0:0:
402,192,117135,1,0,0:0:0:0:
475,192,117210,1,0,0:0:0:0:
182,192,117285,1,0,0:0:0:0:
329,192,117285,1,0,0:0:0:0:
36,192,117360,1,0,0:0:0:0:
402,192,117435,1,0,0:0:0:0:
475,192,117435,1,0,0:0:0:0:
256,192,117435,1,0,0:0:0:0:
329,192,117435,1,0,0:0:0:0:
109,192,117435,1,0,0:0:0:0:
182,192,117510,1,0,0:0:0:0:
329,192,117585,1,0,0:0:0:0:
36,192,117585,1,0,0:0:0:0:
109,192,117660,1,0,0:0:0:0:
256,192,117735,1,0,0:0:0:0:
402,192,117735,1,0,0:0:0:0:
475,192,117735,1,0,0:0:0:0:
182,192,117810,1,0,0:0:0:0:
329,192,117885,1,0,0:0:0:0:
36,192,117885,1,0,0:0:0:0:
256,192,117960,1,0,0:0:0:0:
402,192,118035,1,0,0:0:0:0:
109,192,118035,1,0,0:0:0:0:
475,192,118035,1,0,0:0:0:0:
329,192,118110,1,0,0:0:0:0:
36,192,118185,1,0,0:0:0:0:
182,192,118185,1,0,0:0:0:0:
329,192,118260,1,0,0:0:0:0:
402,192,118335,1,0,0:0:0:0:
475,192,118335,1,0,0:0:0:0:
36,192,118335,1,0,0:0:0:0:
182,192,118410,1,0,0:0:0:0:
109,192,118485,1,0,0:0:0:0:
329,192,118485,1,0,0:0:0:0:
475,192,118560,1,0,0:0:0:0:
402,192,118635,1,0,0:0:0:0:
256,192,118635,1,0,0:0:0:0:
182,192,118635,1,0,0:0:0:0:
109,192,118635,1,0,0:0:0:0:
36,192,118635,1,0,0:0:0:0:
329,192,118710,1,0,0:0:0:0:
182,192,118785,1,0,0:0:0:0:
475,192,118785,1,0,0:0:0:0:
402,192,118860,1,0,0:0:0:0:
256,192,118935,1,0,0:0:0:0:
109,192,118935,1,0,0:0:0:0:
36,192,118935,1,0,0:0:0:0:
329,192,119010,1,0,0:0:0:0:
182,192,119085,1,0,0:0:0:0:
475,192,119085,1,0,0:0:0:0:
256,192,119160,1,0,0:0:0:0:
109,192,119235,1,0,0:0:0:0:
402,192,119235,1,0,0:0:0:0:
36,192,119235,1,0,0:0:0:0:
182,192,119310,1,0,0:0:0:0:
475,192,119385,1,0,0:0:0:0:
329,192,119385,1,0,0:0:0:0:
182,192,119460,1,0,0:0:0:0:
109,192,119535,1,0,0:0:0:0:
36,192,119535,1,0,0:0:0:0:
475,192,119535,1,0,0:0:0:0:
329,192,119610,1,0,0:0:0:0:
402,192,119685,1,0,0:0:0:0:
182,192,119685,1,0,0:0:0:0:
256,192,119760,1,0,0:0:0:0:
36,192,119835,1,0,0:0:0:0:
109,192,119835,1,0,0:0:0:0:
402,192,119835,1,0,0:0:0:0:
475,192,119835,1,0,0:0:0:0:
329,192,119835,1,0,0:0:0:0:
182,192,119910,1,0,0:0:0:0:
256,192,119985,1,0,0:0:0:0:
329,192,119985,1,0,0:0:0:0:
402,192,120060,1,0,0:0:0:0:
182,192,120135,1,0,0:0:0:0:
475,192,120135,1,0,0:0:0:0:
36,192,120135,1,0,0:0:0:0:
256,192,120210,1,0,0:0:0:0:
329,192,120285,1,0,0:0:0:0:
109,192,120285,1,0,0:0:0:0:
182,192,120360,1,0,0:0:0:0:
256,192,120435,1,0,0:0:0:0:
402,192,120435,1,0,0:0:0:0:
36,192,120435,1,0,0:0:0:0:
109,192,120510,1,0,0:0:0:0:
329,192,120585,1,0,0:0:0:0:
475,192,120585,1,0,0:0:0:0:
182,192,120660,1,0,0:0:0:0:
329,192,120735,1,0,0:0:0:0:
36,192,120735,1,0,0:0:0:0:
475,192,120735,1,0,0:0:0:0:
256,192,120810,1,0,0:0:0:0:
182,192,120885,1,0,0:0:0:0:
402,192,120885,1,0,0:0:0:0:
329,192,120960,1,0,0:0:0:0:
36,192,121035,1,0,0:0:0:0:
182,192,121035,1,0,0:0:0:0:
109,192,121035,1,0,0:0:0:0:
402,192,121035,1,0,0:0:0:0:
475,192,121035,1,0,0:0:0:0:
329,192,121110,1,0,0:0:0:0:
256,192,121185,1,0,0:0:0:0:
182,192,121185,1,0,0:0:0:0:
109,192,121260,1,0,0:0:0:0:
329,192,121335,1,0,0:0:0:0:
36,192,121335,1,0,0:0:0:0:
475,192,121335,1,0,0:0:0:0:
256,192,121410,1,0,0:0:0:0:
182,192,121485,1,0,0:0:0:0:
402,192,121485,1,0,0:0:0:0:
329,192,121560,1,0,0:0:0:0:
256,192,121635,1,0,0:0:0:0:
109,192,121635,1,0,0:0:0:0:
475,192,121635,1,0,0:0:0:0:
402,192,121710,1,0,0:0:0:0:
182,192,121785,1,0,0:0:0:0:
36,192,121785,1,0,0:0:0:0:
329,192,121860,1,0,0:0:0:0:
182,192,121935,1,0,0:0:0:0:
475,192,121935,1,0,0:0:0:0:
36,192,121935,1,0,0:0:0:0:
256,192,122010,1,0,0:0:0:0:
329,192,122085,1,0,0:0:0:0:
109,192,122085,1,0,0:0:0:0:
36,192,122160,1,0,0:0:0:0:
182,192,122235,1,0,0:0:0:0:
329,192,122235,1,0,0:0:0:0:
256,192,122235,1,0,0:0:0:0:
402,192,122235,1,0,0:0:0:0:
475,192,122235,1,0,0:0:0:0:
36,192,122310,1,0,0:0:0:0:
109,192,122385,1,0,0:0:0:0:
329,192,122385,1,0,0:0:0:0:
182,192,122460,1,0,0:0:0:0:
256,192,122535,1,0,0:0:0:0:
402,192,122535,1,0,0:0:0:0:
36,192,122535,1,0,0:0:0:0:
182,192,122610,1,0,0:0:0:0:
109,192,122685,1,0,0:0:0:0:
329,192,122685,1,0,0:0:0:0:
36,192,122760,1,0,0:0:0:0:
182,192,122835,1,0,0:0:0:0:
402,192,122835,1,0,0:0:0:0:
475,192,122835,1,0,0:0:0:0:
329,192,122910,1,0,0:0:0:0:
182,192,122985,1,0,0:0:0:0:
109,192,122985,1,0,0:0:0:0:
256,192,123060,1,0,0:0:0:0:
329,192,123135,1,0,0:0:0:0:
475,192,123135,1,0,0:0:0:0:
36,192,123135,1,0,0:0:0:0:
402,192,123210,1,0,0:0:0:0:
256,192,123285,1,0,0:0:0:0:
109,192,123285,1,0,0:0:0:0:
475,192,123360,1,0,0:0:0:0:
36,192,123435,1,0,0:0:0:0:
109,192,123435,1,0,0:0:0:0:
182,192,123435,1,0,0:0:0:0:
329,192,123435,1,0,0:0:0:0:
256,192,123435,1,0,0:0:0:0:
475,192,123510,1,0,0:0:0:0:
182,192,123585,1,0,0:0:0:0:
402,192,123585,1,0,0:0:0:0:
329,192,123660,1,0,0:0:0:0:
256,192,123735,1,0,0:0:0:0:
109,192,123735,1,0,0:0:0:0:
475,192,123735,1,0,0:0:0:0:
329,192,123810,1,0,0:0:0:0:
402,192,123885,1,0,0:0:0:0:
182,192,123885,1,0,0:0:0:0:
475,192,123960,1,0,0:0:0:0:
329,192,124035,1,0,0:0:0:0:
36,192,124035,1,0,0:0:0:0:
109,192,124035,1,0,0:0:0:0:
182,192,124110,1,0,0:0:0:0:
402,192,124185,1,0,0:0:0:0:
329,192,124185,1,0,0:0:0:0:
256,192,124260,1,0,0:0:0:0:
36,192,124335,1,0,0:0:0:0:
182,192,124335,1,0,0:0:0:0:
475,192,124335,1,0,0:0:0:0:
329,192,124335,1,0,0:0:0:0:
36,192,124485,1,0,0:0:0:0:
475,192,124485,1,0,0:0:0:0:
329,192,124485,1,0,0:0:0:0:
182,192,124485,1,0,0:0:0:0:
475,192,124635,1,0,0:0:0:0:
256,192,124635,1,0,0:0:0:0:
109,192,124635,1,0,0:0:0:0:
36,192,124635,1,0,0:0:0:0:
402,192,124635,1,0,0:0:0:0:
182,192,124710,1,0,0:0:0:0:
256,192,124785,1,0,0:0:0:0:
402,192,124785,1,0,0:0:0:0:
329,192,124860,1,0,0:0:0:0:
36,192,124935,1,0,0:0:0:0:
475,192,124935,1,0,0:0:0:0:
182,192,124935,1,0,0:0:0:0:
402,192,125010,1,0,0:0:0:0:
329,192,125085,1,0,0:0:0:0:
109,192,125085,1,0,0:0:0:0:
256,192,125160,1,0,0:0:0:0:
36,192,125235,1,0,0:0:0:0:
329,192,125235,1,0,0:0:0:0:
475,192,125235,1,0,0:0:0:0:
182,192,125310,1,0,0:0:0:0:
329,192,125385,1,0,0:0:0:0:
109,192,125385,1,0,0:0:0:0:
182,192,125460,1,0,0:0:0:0:
36,192,125535,1,0,0:0:0:0:
329,192,125535,1,0,0:0:0:0:
475,192,125535,1,0,0:0:0:0:
256,192,125610,1,0,0:0:0:0:
182,192,125685,1,0,0:0:0:0:
402,192,125685,1,0,0:0:0:0:
329,192,125760,1,0,0:0:0:0:
402,192,125835,1,0,0:0:0:0:
182,192,125835,1,0,0:0:0:0:
109,192,125835,1,0,0:0:0:0:
36,192,125835,1,0,0:0:0:0:
475,192,125835,1,0,0:0:0:0:
329,192,125910,1,0,0:0:0:0:
256,192,125985,1,0,0:0:0:0:
109,192,125985,1,0,0:0:0:0:
182,192,126060,1,0,0:0:0:0:
475,192,126135,1,0,0:0:0:0:
36,192,126135,1,0,0:0:0:0:
329,192,126135,1,0,0:0:0:0:
109,192,126210,1,0,0:0:0:0:
182,192,126285,1,0,0:0:0:0:
402,192,126285,1,0,0:0:0:0:
256,192,126360,1,0,0:0:0:0:
475,192,126435,1,0,0:0:0:0:
182,192,126435,1,0,0:0:0:0:
36,192,126435,1,0,0:0:0:0:
329,192,126510,1,0,0:0:0:0:
182,192,126585,1,0,0:0:0:0:
402,192,126585,1,0,0:0:0:0:
329,192,126660,1,0,0:0:0:0:
475,192,126735,1,0,0:0:0:0:
182,192,126735,1,0,0:0:0:0:
36,192,126735,1,0,0:0:0:0:
256,192,126810,1,0,0:0:0:0:
329,192,126885,1,0,0:0:0:0:
109,192,126885,1,0,0:0:0:0:
182,192,126960,1,0,0:0:0:0:
402,192,127035,1,0,0:0:0:0:
329,192,127035,1,0,0:0:0:0:
36,192,127035,1,0,0:0:0:0:
109,192,127035,1,0,0:0:0:0:
475,192,127035,1,0,0:0:0:0:
182,192,127110,1,0,0:0:0:0:
256,192,127185,1,0,0:0:0:0:
402,192,127185,1,0,0:0:0:0:
329,192,127260,1,0,0:0:0:0:
36,192,127335,1,0,0:0:0:0:
475,192,127335,1,0,0:0:0:0:
182,192,127335,1,0,0:0:0:0:
329,192,127410,1,0,0:0:0:0:
182,192,127485,1,0,0:0:0:0:
402,192,127485,1,0,0:0:0:0:
256,192,127560,1,0,0:0:0:0:
36,192,127635,1,0,0:0:0:0:
329,192,127635,1,0,0:0:0:0:
475,192,127635,1,0,0:0:0:0:
182,192,127710,1,0,0:0:0:0:
109,192,127785,1,0,0:0:0:0:
329,192,127785,1,0,0:0:0:0:
182,192,127860,1,0,0:0:0:0:
36,192,127935,1,0,0:0:0:0:
256,192,127935,1,0,0:0:0:0:
475,192,127935,1,0,0:0:0:0:
402,192,128010,1,0,0:0:0:0:
329,192,128085,1,0,0:0:0:0:
182,192,128085,1,0,0:0:0:0:
36,192,128160,1,0,0:0:0:0:
182,192,128235,1,0,0:0:0:0:
329,192,128235,1,0,0:0:0:0:
475,192,128235,1,0,0:0:0:0:
402,192,128235,1,0,0:0:0:0:
256,192,128235,1,0,0:0:0:0:
36,192,128310,1,0,0:0:0:0:
109,192,128385,1,0,0:0:0:0:
329,192,128385,1,0,0:0:0:0:
256,192,128460,1,0,0:0:0:0:
36,192,128535,1,0,0:0:0:0:
182,192,128535,1,0,0:0:0:0:
475,192,128535,1,0,0:0:0:0:
402,192,128610,1,0,0:0:0:0:
329,192,128685,1,0,0:0:0:0:
182,192,128685,1,0,0:0:0:0:
475,192,128760,1,0,0:0:0:0:
256,192,128835,1,0,0:0:0:0:
329,192,128835,1,0,0:0:0:0:
182,192,128835,1,0,0:0:0:0:
109,192,128835,1,0,0:0:0:0:
36,192,128835,1,0,0:0:0:0:
475,192,128910,1,0,0:0:0:0:
402,192,128985,1,0,0:0:0:0:
182,192,128985,1,0,0:0:0:0:
256,192,129060,1,0,0:0:0:0:
36,192,129135,1,0,0:0:0:0:
329,192,129135,1,0,0:0:0:0:
475,192,129135,1,0,0:0:0:0:
109,192,129210,1,0,0:0:0:0:
475,192,129285,1,0,0:0:0:0:
182,192,129285,1,0,0:0:0:0:
329,192,129285,1,0,0:0:0:0:
109,192,129360,1,0,0:0:0:0:
182,192,129435,1,0,0:0:0:0:
256,192,129435,1,0,0:0:0:0:
329,192,129435,1,0,0:0:0:0:
402,192,129435,1,0,0:0:0:0:
36,192,129435,1,0,0:0:0:0:
475,192,129510,1,0,0:0:0:0:
402,192,129585,1,0,0:0:0:0:
182,192,129585,1,0,0:0:0:0:
329,192,129660,1,0,0:0:0:0:
182,192,129735,1,0,0:0:0:0:
475,192,129735,1,0,0:0:0:0:
36,192,129735,1,0,0:0:0:0:
329,192,129810,1,0,0:0:0:0:
475,192,129885,1,0,0:0:0:0:
182,192,129885,1,0,0:0:0:0:
329,192,129960,1,0,0:0:0:0:
109,192,130035,1,0,0:0:0:0:
256,192,130035,1,0,0:0:0:0:
402,192,130035,1,0,0:0:0:0:
36,192,130110,1,0,0:0:0:0:
109,192,130185,1,0,0:0:0:0:
329,192,130185,1,0,0:0:0:0:
182,192,130260,1,0,0:0:0:0:
36,192,130335,1,0,0:0:0:0:
329,192,130335,1,0,0:0:0:0:
475,192,130335,1,0,0:0:0:0:
182,192,130410,1,0,0:0:0:0:
36,192,130485,1,0,0:0:0:0:
329,192,130485,1,0,0:0:0:0:
182,192,130560,1,0,0:0:0:0:
402,192,130635,1,0,0:0:0:0:
475,192,130635,1,0,0:0:0:0:
256,192,130635,1,0,0:0:0:0:
182,192,130710,1,0,0:0:0:0:
109,192,130785,1,0,0:0:0:0:
329,192,130785,1,0,0:0:0:0:
36,192,130860,1,0,0:0:0:0:
329,192,130935,1,0,0:0:0:0:
475,192,130935,1,0,0:0:0:0:
109,192,130935,1,0,0:0:0:0:
256,192,131010,1,0,0:0:0:0:
182,192,131085,1,0,0:0:0:0:
402,192,131085,1,0,0:0:0:0:
109,192,131160,1,0,0:0:0:0:
36,192,131235,1,0,0:0:0:0:
256,192,131235,1,0,0:0:0:0:
402,192,131235,1,0,0:0:0:0:
475,192,131235,1,0,0:0:0:0:
329,192,131235,1,0,0:0:0:0:
182,192,131310,1,0,0:0:0:0:
329,192,131385,1,0,0:0:0:0:
402,192,131385,1,0,0:0:0:0:
182,192,131460,1,0,0:0:0:0:
36,192,131535,1,0,0:0:0:0:
109,192,131535,1,0,0:0:0:0:
256,192,131535,1,0,0:0:0:0:
475,192,131535,1,0,0:0:0:0:
402,192,131610,1,0,0:0:0:0:
36,192,131685,1,0,0:0:0:0:
256,192,131685,1,0,0:0:0:0:
109,192,131685,1,0,0:0:0:0:
402,192,131760,1,0,0:0:0:0:
36,192,131835,1,0,0:0:0:0:
475,192,131835,1,0,0:0:0:0:
182,192,131835,1,0,0:0:0:0:
329,192,131835,1,0,0:0:0:0:
329,192,131985,1,0,0:0:0:0:
36,192,131985,1,0,0:0:0:0:
182,192,131985,1,0,0:0:0:0:
475,192,131985,1,0,0:0:0:0:
182,192,132135,1,0,0:0:0:0:
109,192,132135,1,0,0:0:0:0:
402,192,132135,1,0,0:0:0:0:
329,192,132135,1,0,0:0:0:0:
329,192,132285,1,0,0:0:0:0:
109,192,132285,1,0,0:0:0:0:
402,192,132285,1,0,0:0:0:0:
182,192,132285,1,0,0:0:0:0:
109,192,132435,1,0,0:0:0:0:
402,192,132435,1,0,0:0:0:0:
36,192,132435,1,0,0:0:0:0:
475,192,132435,1,0,0:0:0:0:
109,192,132585,1,0,0:0:0:0:
402,192,132585,1,0,0:0:0:0:
36,192,132585,1,0,0:0:0:0:
475,192,132585,1,0,0:0:0:0:
36,192,132735,1,0,0:0:0:0:
329,192,132735,1,0,0:0:0:0:
475,192,132735,1,0,0:0:0:0:
182,192,132735,1,0,0:0:0:0:
36,192,132885,1,0,0:0:0:0:
182,192,132885,1,0,0:0:0:0:
475,192,132885,1,0,0:0:0:0:
329,192,132885,1,0,0:0:0:0:
256,192,132960,1,0,0:0:0:0:
475,192,133035,1,0,0:0:0:0:
36,192,133035,1,0,0:0:0:0:
109,192,133035,1,0,0:0:0:0:
402,192,133035,1,0,0:0:0:0:
182,192,133110,1,0,0:0:0:0:
329,192,133110,1,0,0:0:0:0:
36,192,133185,1,0,0:0:0:0:
475,192,133185,1,0,0:0:0:0:
109,192,133185,1,0,0:0:0:0:
402,192,133185,1,0,0:0:0:0:
36,192,133335,1,0,0:0:0:0:
475,192,133335,1,0,0:0:0:0:
182,192,133335,1,0,0:0:0:0:
329,192,133335,1,0,0:0:0:0:
109,192,133410,1,0,0:0:0:0:
402,192,133410,1,0,0:0:0:0:
36,192,133485,1,0,0:0:0:0:
182,192,133485,1,0,0:0:0:0:
475,192,133485,1,0,0:0:0:0:
329,192,133485,1,0,0:0:0:0:
36,192,133635,1,0,0:0:0:0:
109,192,133635,1,0,0:0:0:0:
402,192,133635,1,0,0:0:0:0:
475,192,133635,1,0,0:0:0:0:
182,192,133710,1,0,0:0:0:0:
329,192,133710,1,0,0:0:0:0:
36,192,133785,1,0,0:0:0:0:
475,192,133785,1,0,0:0:0:0:
109,192,133822,1,0,0:0:0:0:
402,192,133822,1,0,0:0:0:0:
182,192,133860,1,0,0:0:0:0:
329,192,133860,1,0,0:0:0:0:
256,192,133897,1,0,0:0:0:0:
36,192,133935,1,0,0:0:0:0:
475,192,133935,1,0,0:0:0:0:
329,192,134010,1,0,0:0:0:0:
182,192,134010,1,0,0:0:0:0:
402,192,134085,1,0,0:0:0:0:
109,192,134085,1,0,0:0:0:0:
329,192,134160,1,0,0:0:0:0:
182,192,134160,1,0,0:0:0:0:
36,192,134235,1,0,0:0:0:0:
109,192,134235,1,0,0:0:0:0:
475,192,134235,1,0,0:0:0:0:
402,192,134235,1,0,0:0:0:0:
256,192,134235,128,0,139035:0:0:0:0:
182,192,134310,1,0,0:0:0:0:
329,192,134310,1,0,0:0:0:0:
109,192,134385,1,0,0:0:0:0:
36,192,134385,1,0,0:0:0:0:
329,192,134460,1,0,0:0:0:0:
109,192,134535,1,0,0:0:0:0:
36,192,134535,1,0,0:0:0:0:
182,192,134610,1,0,0:0:0:0:
329,192,134610,1,0,0:0:0:0:
402,192,134685,1,0,0:0:0:0:
475,192,134685,1,0,0:0:0:0:
182,192,134760,1,0,0:0:0:0:
475,192,134835,1,0,0:0:0:0:
402,192,134835,1,0,0:0:0:0:
329,192,134910,1,0,0:0:0:0:
182,192,134910,1,0,0:0:0:0:
109,192,134985,1,0,0:0:0:0:
36,192,134985,1,0,0:0:0:0:
329,192,135060,1,0,0:0:0:0:
109,192,135135,1,0,0:0:0:0:
36,192,135135,1,0,0:0:0:0:
182,192,135210,1,0,0:0:0:0:
329,192,135210,1,0,0:0:0:0:
402,192,135285,1,0,0:0:0:0:
475,192,135285,1,0,0:0:0:0:
182,192,135360,1,0,0:0:0:0:
402,192,135435,1,0,0:0:0:0:
329,192,135435,1,0,0:0:0:0:
182,192,135510,1,0,0:0:0:0:
109,192,135510,1,0,0:0:0:0:
475,192,135585,1,0,0:0:0:0:
402,192,135585,1,0,0:0:0:0:
329,192,135660,1,0,0:0:0:0:
182,192,135735,1,0,0:0:0:0:
109,192,135735,1,0,0:0:0:0:
402,192,135810,1,0,0:0:0:0:
329,192,135810,1,0,0:0:0:0:
109,192,135885,1,0,0:0:0:0:
36,192,135885,1,0,0:0:0:0:
182,192,135960,1,0,0:0:0:0:
402,192,136035,1,0,0:0:0:0:
329,192,136035,1,0,0:0:0:0:
182,192,136110,1,0,0:0:0:0:
109,192,136110,1,0,0:0:0:0:
475,192,136185,1,0,0:0:0:0:
402,192,136185,1,0,0:0:0:0:
329,192,136260,1,0,0:0:0:0:
182,192,136335,1,0,0:0:0:0:
109,192,136335,1,0,0:0:0:0:
402,192,136410,1,0,0:0:0:0:
329,192,136410,1,0,0:0:0:0:
36,192,136485,1,0,0:0:0:0:
109,192,136485,1,0,0:0:0:0:
182,192,136560,1,0,0:0:0:0:
109,192,136635,1,0,0:0:0:0:
402,192,136635,1,0,0:0:0:0:
182,192,136710,1,0,0:0:0:0:
329,192,136710,1,0,0:0:0:0:
109,192,136785,1,0,0:0:0:0:
402,192,136785,1,0,0:0:0:0:
475,192,136860,1,0,0:0:0:0:
182,192,136935,1,0,0:0:0:0:
329,192,136935,1,0,0:0:0:0:
109,192,137010,1,0,0:0:0:0:
402,192,137010,1,0,0:0:0:0:
329,192,137085,1,0,0:0:0:0:
182,192,137085,1,0,0:0:0:0:
36,192,137160,1,0,0:0:0:0:
109,192,137235,1,0,0:0:0:0:
475,192,137235,1,0,0:0:0:0:
402,192,137310,1,0,0:0:0:0:
182,192,137310,1,0,0:0:0:0:
109,192,137385,1,0,0:0:0:0:
329,192,137385,1,0,0:0:0:0:
475,192,137460,1,0,0:0:0:0:
36,192,137535,1,0,0:0:0:0:
402,192,137535,1,0,0:0:0:0:
329,192,137610,1,0,0:0:0:0:
109,192,137610,1,0,0:0:0:0:
402,192,137685,1,0,0:0:0:0:
182,192,137685,1,0,0:0:0:0:
109,192,137760,1,0,0:0:0:0:
475,192,137835,1,0,0:0:0:0:
36,192,137835,1,0,0:0:0:0:
182,192,137910,1,0,0:0:0:0:
329,192,137910,1,0,0:0:0:0:
402,192,137985,1,0,0:0:0:0:
109,192,137985,1,0,0:0:0:0:
329,192,138060,1,0,0:0:0:0:
36,192,138135,1,0,0:0:0:0:
475,192,138135,1,0,0:0:0:0:
182,192,138210,1,0,0:0:0:0:
329,192,138210,1,0,0:0:0:0:
36,192,138285,1,0,0:0:0:0:
475,192,138285,1,0,0:0:0:0:
182,192,138360,1,0,0:0:0:0:
109,192,138435,1,0,0:0:0:0:
402,192,138435,1,0,0:0:0:0:
182,192,138510,1,0,0:0:0:0:
329,192,138510,1,0,0:0:0:0:
475,192,138585,1,0,0:0:0:0:
36,192,138585,1,0,0:0:0:0:
329,192,138660,1,0,0:0:0:0:
109,192,138735,1,0,0:0:0:0:
402,192,138735,1,0,0:0:0:0:
182,192,138810,1,0,0:0:0:0:
329,192,138810,1,0,0:0:0:0:
109,192,138885,1,0,0:0:0:0:
402,192,138885,1,0,0:0:0:0:
329,192,138960,1,0,0:0:0:0:
36,192,139035,1,0,0:0:0:0:
475,192,139035,1,0,0:0:0:0:
109,192,139035,1,0,0:0:0:0:
182,192,139110,1,0,0:0:0:0:
329,192,139110,1,0,0:0:0:0:
402,192,139185,1,0,0:0:0:0:
256,192,139185,1,0,0:0:0:0:
402,192,139335,1,0,0:0:0:0:
475,192,139335,1,0,0:0:0:0:
36,192,139335,1,0,0:0:0:0:
329,192,139410,1,0,0:0:0:0:
182,192,139410,1,0,0:0:0:0:
256,192,139485,1,0,0:0:0:0:
109,192,139485,1,0,0:0:0:0:
36,192,139635,1,0,0:0:0:0:
182,192,139635,1,0,0:0:0:0:
402,192,139635,1,0,0:0:0:0:
256,192,139710,1,0,0:0:0:0:
329,192,139710,1,0,0:0:0:0:
402,192,139785,1,0,0:0:0:0:
475,192,139785,1,0,0:0:0:0:
475,192,139935,1,0,0:0:0:0:
329,192,139935,1,0,0:0:0:0:
109,192,139935,1,0,0:0:0:0:
256,192,140010,1,0,0:0:0:0:
182,192,140010,1,0,0:0:0:0:
109,192,140085,1,0,0:0:0:0:
36,192,140085,1,0,0:0:0:0:
402,192,140235,1,0,0:0:0:0:
329,192,140235,1,0,0:0:0:0:
475,192,140235,1,0,0:0:0:0:
36,192,140310,1,0,0:0:0:0:
182,192,140310,1,0,0:0:0:0:
329,192,140385,1,0,0:0:0:0:
475,192,140385,1,0,0:0:0:0:
182,192,140535,1,0,0:0:0:0:
109,192,140535,1,0,0:0:0:0:
36,192,140535,1,0,0:0:0:0:
475,192,140610,1,0,0:0:0:0:
329,192,140610,1,0,0:0:0:0:
182,192,140685,1,0,0:0:0:0:
36,192,140685,1,0,0:0:0:0:
36,192,140835,1,0,0:0:0:0:
109,192,140835,1,0,0:0:0:0:
475,192,140835,1,0,0:0:0:0:
402,192,140910,1,0,0:0:0:0:
182,192,140910,1,0,0:0:0:0:
256,192,140985,1,0,0:0:0:0:
329,192,140985,1,0,0:0:0:0:
402,192,141135,1,0,0:0:0:0:
475,192,141135,1,0,0:0:0:0:
36,192,141135,1,0,0:0:0:0:
109,192,141210,1,0,0:0:0:0:
329,192,141210,1,0,0:0:0:0:
182,192,141285,1,0,0:0:0:0:
256,192,141285,1,0,0:0:0:0:
36,192,141435,1,0,0:0:0:0:
182,192,141435,1,0,0:0:0:0:
329,192,141435,1,0,0:0:0:0:
329,192,141510,1,0,0:0:0:0:
475,192,141510,1,0,0:0:0:0:
36,192,141585,1,0,0:0:0:0:
182,192,141585,1,0,0:0:0:0:
182,192,141735,1,0,0:0:0:0:
329,192,141735,1,0,0:0:0:0:
475,192,141735,1,0,0:0:0:0:
182,192,141810,1,0,0:0:0:0:
36,192,141810,1,0,0:0:0:0:
329,192,141885,1,0,0:0:0:0:
475,192,141885,1,0,0:0:0:0:
36,192,142035,1,0,0:0:0:0:
256,192,142035,1,0,0:0:0:0:
475,192,142035,1,0,0:0:0:0:
109,192,142110,1,0,0:0:0:0:
329,192,142110,1,0,0:0:0:0:
182,192,142185,1,0,0:0:0:0:
402,192,142185,1,0,0:0:0:0:
36,192,142335,1,0,0:0:0:0:
256,192,142335,1,0,0:0:0:0:
475,192,142335,1,0,0:0:0:0:
182,192,142410,1,0,0:0:0:0:
402,192,142410,1,0,0:0:0:0:
109,192,142485,1,0,0:0:0:0:
329,192,142485,1,0,0:0:0:0:
36,192,142635,1,0,0:0:0:0:
182,192,142635,1,0,0:0:0:0:
475,192,142635,1,0,0:0:0:0:
256,192,142710,1,0,0:0:0:0:
402,192,142710,1,0,0:0:0:0:
182,192,142785,1,0,0:0:0:0:
475,192,142785,1,0,0:0:0:0:
329,192,142935,1,0,0:0:0:0:
475,192,142935,1,0,0:0:0:0:
36,192,142935,1,0,0:0:0:0:
109,192,143010,1,0,0:0:0:0:
256,192,143010,1,0,0:0:0:0:
36,192,143085,1,0,0:0:0:0:
329,192,143085,1,0,0:0:0:0:
475,192,143235,1,0,0:0:0:0:
256,192,143235,1,0,0:0:0:0:
36,192,143235,1,0,0:0:0:0:
402,192,143310,1,0,0:0:0:0:
109,192,143310,1,0,0:0:0:0:
329,192,143385,1,0,0:0:0:0:
182,192,143385,1,0,0:0:0:0:
36,192,143535,1,0,0:0:0:0:
256,192,143535,1,0,0:0:0:0:
475,192,143535,1,0,0:0:0:0:
182,192,143610,1,0,0:0:0:0:
329,192,143610,1,0,0:0:0:0:
109,192,143685,1,0,0:0:0:0:
402,192,143685,1,0,0:0:0:0:
475,192,143835,1,0,0:0:0:0:
36,192,143835,1,0,0:0:0:0:
182,192,143835,1,0,0:0:0:0:
256,192,143910,1,0,0:0:0:0:
402,192,143985,1,0,0:0:0:0:
329,192,143985,1,0,0:0:0:0:
36,192,144135,1,0,0:0:0:0:
182,192,144135,1,0,0:0:0:0:
475,192,144135,1,0,0:0:0:0:
256,192,144210,1,0,0:0:0:0:
402,192,144285,1,0,0:0:0:0:
329,192,144285,1,0,0:0:0:0:
475,192,144435,128,0,145035:0:0:0:0:
36,192,144435,1,0,0:0:0:0:
329,192,144435,1,0,0:0:0:0:
402,192,144435,1,0,0:0:0:0:
256,192,144510,1,0,0:0:0:0:
109,192,144585,1,0,0:0:0:0:
182,192,144585,1,0,0:0:0:0:
402,192,144735,1,0,0:0:0:0:
329,192,144735,1,0,0:0:0:0:
36,192,144735,1,0,0:0:0:0:
256,192,144810,1,0,0:0:0:0:
182,192,144885,1,0,0:0:0:0:
109,192,144885,1,0,0:0:0:0:
329,192,145035,128,0,145635:0:0:0:0:
109,192,145035,1,0,0:0:0:0:
36,192,145035,1,0,0:0:0:0:
256,192,145035,1,0,0:0:0:0:
182,192,145110,1,0,0:0:0:0:
402,192,145185,1,0,0:0:0:0:
475,192,145185,1,0,0:0:0:0:
36,192,145335,1,0,0:0:0:0:
109,192,145335,1,0,0:0:0:0:
256,192,145335,1,0,0:0:0:0:
182,192,145410,1,0,0:0:0:0:
475,192,145485,1,0,0:0:0:0:
402,192,145485,1,0,0:0:0:0:
182,192,145635,128,0,146235:0:0:0:0:
402,192,145635,1,0,0:0:0:0:
475,192,145635,1,0,0:0:0:0:
256,192,145635,1,0,0:0:0:0:
329,192,145710,1,0,0:0:0:0:
36,192,145785,1,0,0:0:0:0:
109,192,145785,1,0,0:0:0:0:
402,192,145935,1,0,0:0:0:0:
475,192,145935,1,0,0:0:0:0:
256,192,145935,1,0,0:0:0:0:
329,192,146010,1,0,0:0:0:0:
36,192,146085,1,0,0:0:0:0:
109,192,146085,1,0,0:0:0:0:
109,192,146235,1,0,0:0:0:0:
36,192,146235,1,0,0:0:0:0:
256,192,146235,128,0,147435:0:0:0:0:
329,192,146235,1,0,0:0:0:0:
182,192,146310,1,0,0:0:0:0:
402,192,146385,1,0,0:0:0:0:
329,192,146385,1,0,0:0:0:0:
475,192,146535,1,0,0:0:0:0:
402,192,146535,1,0,0:0:0:0:
182,192,146535,1,0,0:0:0:0:
329,192,146610,1,0,0:0:0:0:
109,192,146685,1,0,0:0:0:0:
182,192,146685,1,0,0:0:0:0:
36,192,146835,1,0,0:0:0:0:
109,192,146835,1,0,0:0:0:0:
329,192,146835,1,0,0:0:0:0:
182,192,146910,1,0,0:0:0:0:
402,192,146985,1,0,0:0:0:0:
329,192,146985,1,0,0:0:0:0:
475,192,147135,1,0,0:0:0:0:
402,192,147135,1,0,0:0:0:0:
182,192,147135,1,0,0:0:0:0:
329,192,147210,1,0,0:0:0:0:
109,192,147285,1,0,0:0:0:0:
182,192,147285,1,0,0:0:0:0:
109,192,147435,1,0,0:0:0:0:
182,192,147435,1,0,0:0:0:0:
475,192,147435,128,0,148635:0:0:0:0:
36,192,147435,128,0,148635:0:0:0:0:
329,192,147435,1,0,0:0:0:0:
256,192,147510,1,0,0:0:0:0:
329,192,147585,1,0,0:0:0:0:
402,192,147585,1,0,0:0:0:0:
402,192,147735,1,0,0:0:0:0:
329,192,147735,1,0,0:0:0:0:
182,192,147735,1,0,0:0:0:0:
256,192,147810,1,0,0:0:0:0:
109,192,147885,1,0,0:0:0:0:
182,192,147885,1,0,0:0:0:0:
109,192,148035,1,0,0:0:0:0:
182,192,148035,1,0,0:0:0:0:
329,192,148035,1,0,0:0:0:0:
256,192,148110,1,0,0:0:0:0:
329,192,148185,1,0,0:0:0:0:
402,192,148185,1,0,0:0:0:0:
329,192,148335,1,0,0:0:0:0:
402,192,148335,1,0,0:0:0:0:
182,192,148335,1,0,0:0:0:0:
256,192,148410,1,0,0:0:0:0:
109,192,148485,1,0,0:0:0:0:
182,192,148485,1,0,0:0:0:0:
329,192,148635,1,0,0:0:0:0:
402,192,148635,1,0,0:0:0:0:
109,192,148635,1,0,0:0:0:0:
182,192,148710,1,0,0:0:0:0:
109,192,148785,1,0,0:0:0:0:
329,192,148785,1,0,0:0:0:0:
402,192,148785,1,0,0:0:0:0:
182,192,148860,1,0,0:0:0:0:
36,192,148935,1,0,0:0:0:0:
475,192,148935,1,0,0:0:0:0:
329,192,148935,1,0,0:0:0:0:
182,192,149010,1,0,0:0:0:0:
36,192,149085,1,0,0:0:0:0:
329,192,149085,1,0,0:0:0:0:
475,192,149085,1,0,0:0:0:0:
256,192,149160,1,0,0:0:0:0:
475,192,149235,1,0,0:0:0:0:
402,192,149235,1,0,0:0:0:0:
182,192,149235,1,0,0:0:0:0:
329,192,149310,1,0,0:0:0:0:
402,192,149385,1,0,0:0:0:0:
475,192,149385,1,0,0:0:0:0:
182,192,149385,1,0,0:0:0:0:
256,192,149460,1,0,0:0:0:0:
109,192,149535,1,0,0:0:0:0:
329,192,149535,1,0,0:0:0:0:
402,192,149535,1,0,0:0:0:0:
256,192,149610,1,0,0:0:0:0:
109,192,149685,1,0,0:0:0:0:
329,192,149685,1,0,0:0:0:0:
402,192,149685,1,0,0:0:0:0:
182,192,149760,1,0,0:0:0:0:
256,192,149835,1,0,0:0:0:0:
402,192,149835,1,0,0:0:0:0:
475,192,149835,1,0,0:0:0:0:
36,192,149835,1,0,0:0:0:0:
329,192,149910,1,0,0:0:0:0:
36,192,149985,1,0,0:0:0:0:
182,192,149985,1,0,0:0:0:0:
475,192,149985,1,0,0:0:0:0:
329,192,150060,1,0,0:0:0:0:
109,192,150135,1,0,0:0:0:0:
182,192,150135,1,0,0:0:0:0:
402,192,150135,1,0,0:0:0:0:
329,192,150210,1,0,0:0:0:0:
109,192,150285,1,0,0:0:0:0:
182,192,150285,1,0,0:0:0:0:
402,192,150285,1,0,0:0:0:0:
256,192,150360,1,0,0:0:0:0:
109,192,150435,1,0,0:0:0:0:
36,192,150435,1,0,0:0:0:0:
329,192,150435,1,0,0:0:0:0:
182,192,150510,1,0,0:0:0:0:
36,192,150585,1,0,0:0:0:0:
109,192,150585,1,0,0:0:0:0:
329,192,150585,1,0,0:0:0:0:
182,192,150660,1,0,0:0:0:0:
475,192,150735,1,0,0:0:0:0:
36,192,150735,1,0,0:0:0:0:
256,192,150735,1,0,0:0:0:0:
329,192,150810,1,0,0:0:0:0:
109,192,150885,1,0,0:0:0:0:
36,192,150885,1,0,0:0:0:0:
402,192,150885,1,0,0:0:0:0:
182,192,150922,1,0,0:0:0:0:
256,192,150960,1,0,0:0:0:0:
329,192,150997,1,0,0:0:0:0:
402,192,151035,1,0,0:0:0:0:
475,192,151035,1,0,0:0:0:0:
36,192,151035,1,0,0:0:0:0:
109,192,151035,1,0,0:0:0:0:
36,192,151185,1,0,0:0:0:0:
109,192,151185,1,0,0:0:0:0:
402,192,151185,1,0,0:0:0:0:
475,192,151185,1,0,0:0:0:0:
402,192,151335,1,0,0:0:0:0:
475,192,151335,1,0,0:0:0:0:
109,192,151335,1,0,0:0:0:0:
36,192,151335,1,0,0:0:0:0:
36,192,151485,1,0,0:0:0:0:
109,192,151485,1,0,0:0:0:0:
402,192,151485,1,0,0:0:0:0:
475,192,151485,1,0,0:0:0:0:
256,192,151560,1,0,0:0:0:0:
36,192,151635,1,0,0:0:0:0:
109,192,151635,1,0,0:0:0:0:
182,192,151635,1,0,0:0:0:0:
329,192,151635,1,0,0:0:0:0:
402,192,151635,1,0,0:0:0:0:
475,192,151635,1,0,0:0:0:0:
182,192,151785,1,0,0:0:0:0:
109,192,151785,1,0,0:0:0:0:
402,192,151785,1,0,0:0:0:0:
329,192,151785,1,0,0:0:0:0:
109,192,151935,1,0,0:0:0:0:
182,192,151935,1,0,0:0:0:0:
329,192,151935,1,0,0:0:0:0:
402,192,151935,1,0,0:0:0:0:
109,192,152085,1,0,0:0:0:0:
475,192,152085,1,0,0:0:0:0:
182,192,152085,1,0,0:0:0:0:
402,192,152122,1,0,0:0:0:0:
329,192,152160,1,0,0:0:0:0:
256,192,152197,1,0,0:0:0:0:
36,192,152235,1,0,0:0:0:0:
182,192,152235,1,0,0:0:0:0:
475,192,152235,1,0,0:0:0:0:
109,192,152235,1,0,0:0:0:0:
402,192,152310,1,0,0:0:0:0:
329,192,152385,1,0,0:0:0:0:
36,192,152385,1,0,0:0:0:0:
182,192,152385,1,0,0:0:0:0:
256,192,152460,1,0,0:0:0:0:
36,192,152535,1,0,0:0:0:0:
109,192,152535,1,0,0:0:0:0:
402,192,152535,1,0,0:0:0:0:
475,192,152535,1,0,0:0:0:0:
329,192,152610,1,0,0:0:0:0:
182,192,152685,1,0,0:0:0:0:
256,192,152722,1,0,0:0:0:0:
329,192,152760,1,0,0:0:0:0:
402,192,152797,1,0,0:0:0:0:
182,192,152835,1,0,0:0:0:0:
109,192,152835,1,0,0:0:0:0:
36,192,152835,1,0,0:0:0:0:
475,192,152835,1,0,0:0:0:0:
329,192,152910,1,0,0:0:0:0:
256,192,152985,1,0,0:0:0:0:
182,192,153060,1,0,0:0:0:0:
36,192,153135,1,0,0:0:0:0:
329,192,153135,1,0,0:0:0:0:
475,192,153172,1,0,0:0:0:0:
109,192,153210,1,0,0:0:0:0:
256,192,153210,1,0,0:0:0:0:
402,192,153247,1,0,0:0:0:0:
182,192,153285,1,0,0:0:0:0:
329,192,153322,1,0,0:0:0:0:
109,192,153360,1,0,0:0:0:0:
256,192,153397,1,0,0:0:0:0:
182,192,153435,128,0,153510:0:0:0:0:
402,192,153435,1,0,0:0:0:0:
475,192,153435,1,0,0:0:0:0:
36,192,153435,128,0,154035:0:0:0:0:
329,192,153510,128,0,153585:0:0:0:0:
256,192,153585,128,0,153660:0:0:0:0:
182,192,153660,128,0,153735:0:0:0:0:
402,192,153735,128,0,153810:0:0:0:0:
475,192,153735,1,0,0:0:0:0:
182,192,153810,128,0,153885:0:0:0:0:
256,192,153885,128,0,153960:0:0:0:0:
329,192,153960,128,0,154035:0:0:0:0:
182,192,154035,128,0,154110:0:0:0:0:
475,192,154035,1,0,0:0:0:0:
109,192,154035,128,0,155235:0:0:0:0:
329,192,154110,128,0,154185:0:0:0:0:
256,192,154185,128,0,154260:0:0:0:0:
182,192,154260,128,0,154335:0:0:0:0:
402,192,154335,128,0,154410:0:0:0:0:
475,192,154335,1,0,0:0:0:0:
182,192,154410,128,0,154485:0:0:0:0:
256,192,154485,128,0,154560:0:0:0:0:
329,192,154560,128,0,154635:0:0:0:0:
36,192,154635,128,0,154710:0:0:0:0:
475,192,154635,1,0,0:0:0:0:
329,192,154710,128,0,154785:0:0:0:0:
256,192,154785,128,0,154860:0:0:0:0:
182,192,154860,128,0,154935:0:0:0:0:
402,192,154935,128,0,155010:0:0:0:0:
475,192,154935,1,0,0:0:0:0:
182,192,155010,128,0,155085:0:0:0:0:
256,192,155085,128,0,155160:0:0:0:0:
329,192,155160,128,0,155235:0:0:0:0:
182,192,155235,128,0,155310:0:0:0:0:
36,192,155235,1,0,0:0:0:0:
475,192,155235,128,0,155835:0:0:0:0:
329,192,155310,128,0,155385:0:0:0:0:
256,192,155385,128,0,155460:0:0:0:0:
402,192,155435,128,0,155835:0:0:0:0:
109,192,155460,128,0,155535:0:0:0:0:
329,192,155535,128,0,155610:0:0:0:0:
182,192,155610,128,0,155685:0:0:0:0:
36,192,155635,128,0,155835:0:0:0:0:
256,192,155685,128,0,155760:0:0:0:0:
182,192,155760,128,0,155835:0:0:0:0:
109,192,155835,128,0,155910:0:0:0:0:
329,192,155835,128,0,156435:0:0:0:0:
256,192,155910,128,0,155985:0:0:0:0:
182,192,155985,128,0,156060:0:0:0:0:
109,192,156060,128,0,156135:0:0:0:0:
256,192,156135,128,0,156210:0:0:0:0:
475,192,156135,1,0,0:0:0:0:
109,192,156210,128,0,156285:0:0:0:0:
182,192,156285,128,0,156360:0:0:0:0:
256,192,156360,128,0,156435:0:0:0:0:
109,192,156435,128,0,156510:0:0:0:0:
475,192,156435,1,0,0:0:0:0:
36,192,156435,128,0,157635:0:0:0:0:
329,192,156510,128,0,156585:0:0:0:0:
256,192,156585,128,0,156660:0:0:0:0:
182,192,156660,128,0,156735:0:0:0:0:
329,192,156735,128,0,156810:0:0:0:0:
475,192,156735,1,0,0:0:0:0:
182,192,156810,128,0,156885:0:0:0:0:
256,192,156885,128,0,156960:0:0:0:0:
329,192,156960,128,0,157035:0:0:0:0:
475,192,157035,128,0,157110:0:0:0:0:
109,192,157035,1,0,0:0:0:0:
402,192,157110,128,0,157185:0:0:0:0:
329,192,157185,128,0,157260:0:0:0:0:
256,192,157260,128,0,157335:0:0:0:0:
182,192,157335,128,0,157410:0:0:0:0:
475,192,157335,1,0,0:0:0:0:
329,192,157410,128,0,157485:0:0:0:0:
402,192,157485,128,0,157560:0:0:0:0:
256,192,157560,128,0,157635:0:0:0:0:
329,192,157635,128,0,157710:0:0:0:0:
109,192,157635,1,0,0:0:0:0:
182,192,157635,128,0,158235:0:0:0:0:
475,192,157710,128,0,157785:0:0:0:0:
402,192,157785,128,0,157860:0:0:0:0:
329,192,157860,128,0,157935:0:0:0:0:
402,192,157935,128,0,158010:0:0:0:0:
36,192,157935,1,0,0:0:0:0:
256,192,158010,128,0,158085:0:0:0:0:
329,192,158085,128,0,158160:0:0:0:0:
36,192,158085,1,0,0:0:0:0:
402,192,158160,128,0,158235:0:0:0:0:
475,192,158235,128,0,158310:0:0:0:0:
256,192,158235,1,0,0:0:0:0:
109,192,158235,128,0,158835:0:0:0:0:
402,192,158310,128,0,158385:0:0:0:0:
329,192,158385,128,0,158460:0:0:0:0:
182,192,158460,128,0,158535:0:0:0:0:
475,192,158535,128,0,158610:0:0:0:0:
36,192,158535,1,0,0:0:0:0:
182,192,158610,128,0,158685:0:0:0:0:
329,192,158685,128,0,158760:0:0:0:0:
402,192,158760,128,0,158835:0:0:0:0:
475,192,158835,128,0,158910:0:0:0:0:
36,192,158835,1,0,0:0:0:0:
329,192,158835,128,0,160035:0:0:0:0:
109,192,158910,128,0,158985:0:0:0:0:
256,192,158985,128,0,159060:0:0:0:0:
182,192,159060,128,0,159135:0:0:0:0:
475,192,159135,128,0,159210:0:0:0:0:
36,192,159135,1,0,0:0:0:0:
182,192,159210,128,0,159285:0:0:0:0:
256,192,159285,128,0,159360:0:0:0:0:
109,192,159360,128,0,159435:0:0:0:0:
475,192,159435,128,0,159510:0:0:0:0:
36,192,159435,1,0,0:0:0:0:
402,192,159510,128,0,159585:0:0:0:0:
256,192,159585,128,0,159660:0:0:0:0:
109,192,159660,128,0,159735:0:0:0:0:
36,192,159735,128,0,159810:0:0:0:0:
475,192,159735,1,0,0:0:0:0:
182,192,159810,128,0,159885:0:0:0:0:
256,192,159885,128,0,159960:0:0:0:0:
109,192,159960,128,0,160035:0:0:0:0:
475,192,160035,128,0,160135:0:0:0:0:
402,192,160035,128,0,160135:0:0:0:0:
182,192,160035,128,0,160110:0:0:0:0:
36,192,160110,128,0,160185:0:0:0:0:
182,192,160185,128,0,160260:0:0:0:0:
329,192,160235,128,0,160335:0:0:0:0:
402,192,160235,128,0,160335:0:0:0:0:
109,192,160260,128,0,160335:0:0:0:0:
475,192,160335,128,0,160410:0:0:0:0:
36,192,160410,128,0,160485:0:0:0:0:
256,192,160435,128,0,160535:0:0:0:0:
329,192,160435,128,0,160535:0:0:0:0:
109,192,160485,128,0,160560:0:0:0:0:
182,192,160560,128,0,160635:0:0:0:0:
329,192,160635,128,0,160710:0:0:0:0:
36,192,160635,1,0,0:0:0:0:
475,192,160635,128,0,161235:0:0:0:0:
109,192,160710,128,0,160785:0:0:0:0:
256,192,160785,128,0,160860:0:0:0:0:
182,192,160860,128,0,160935:0:0:0:0:
402,192,160935,128,0,161010:0:0:0:0:
36,192,160935,1,0,0:0:0:0:
182,192,161010,128,0,161085:0:0:0:0:
256,192,161085,128,0,161160:0:0:0:0:
109,192,161160,128,0,161235:0:0:0:0:
402,192,161235,128,0,161310:0:0:0:0:
36,192,161235,1,0,0:0:0:0:
256,192,161235,128,0,162735:0:0:0:0:
329,192,161310,128,0,161385:0:0:0:0:
182,192,161385,128,0,161460:0:0:0:0:
109,192,161460,128,0,161535:0:0:0:0:
402,192,161535,128,0,161610:0:0:0:0:
475,192,161535,1,0,0:0:0:0:
109,192,161610,128,0,161685:0:0:0:0:
182,192,161685,128,0,161760:0:0:0:0:
329,192,161760,128,0,161835:0:0:0:0:
475,192,161835,128,0,161910:0:0:0:0:
36,192,161835,1,0,0:0:0:0:
402,192,161910,128,0,161985:0:0:0:0:
329,192,161985,128,0,162060:0:0:0:0:
182,192,162060,128,0,162135:0:0:0:0:
402,192,162135,128,0,162210:0:0:0:0:
109,192,162135,1,0,0:0:0:0:
329,192,162210,128,0,162285:0:0:0:0:
182,192,162285,128,0,162360:0:0:0:0:
109,192,162360,128,0,162435:0:0:0:0:
475,192,162435,128,0,162510:0:0:0:0:
36,192,162435,1,0,0:0:0:0:
329,192,162510,128,0,162585:0:0:0:0:
182,192,162585,128,0,162660:0:0:0:0:
329,192,162660,128,0,162735:0:0:0:0:
402,192,162735,1,0,0:0:0:0:
36,192,162735,1,0,0:0:0:0:
182,192,162735,128,0,163035:0:0:0:0:
329,192,162885,1,0,0:0:0:0:
329,192,162960,1,0,0:0:0:0:
36,192,163035,128,0,163635:0:0:0:0:
402,192,163035,128,0,163110:0:0:0:0:
475,192,163035,1,0,0:0:0:0:
256,192,163035,1,0,0:0:0:0:
329,192,163110,128,0,163185:0:0:0:0:
256,192,163185,128,0,163260:0:0:0:0:
182,192,163260,128,0,163335:0:0:0:0:
402,192,163335,128,0,163410:0:0:0:0:
475,192,163335,1,0,0:0:0:0:
182,192,163410,128,0,163485:0:0:0:0:
256,192,163485,128,0,163560:0:0:0:0:
329,192,163560,128,0,163635:0:0:0:0:
182,192,163635,128,0,163710:0:0:0:0:
109,192,163635,128,0,164835:0:0:0:0:
475,192,163635,1,0,0:0:0:0:
329,192,163710,128,0,163785:0:0:0:0:
256,192,163785,128,0,163860:0:0:0:0:
182,192,163860,128,0,163935:0:0:0:0:
402,192,163935,128,0,164010:0:0:0:0:
475,192,163935,1,0,0:0:0:0:
182,192,164010,128,0,164085:0:0:0:0:
256,192,164085,128,0,164160:0:0:0:0:
329,192,164160,128,0,164235:0:0:0:0:
36,192,164235,128,0,164310:0:0:0:0:
475,192,164235,1,0,0:0:0:0:
329,192,164310,128,0,164385:0:0:0:0:
256,192,164385,128,0,164460:0:0:0:0:
182,192,164460,128,0,164535:0:0:0:0:
402,192,164535,128,0,164610:0:0:0:0:
475,192,164535,1,0,0:0:0:0:
182,192,164610,128,0,164685:0:0:0:0:
256,192,164685,128,0,164760:0:0:0:0:
329,192,164760,128,0,164835:0:0:0:0:
182,192,164835,128,0,164910:0:0:0:0:
475,192,164835,128,0,165435:0:0:0:0:
36,192,164835,1,0,0:0:0:0:
329,192,164910,128,0,164985:0:0:0:0:
256,192,164985,128,0,165060:0:0:0:0:
402,192,165035,128,0,165435:0:0:0:0:
109,192,165060,128,0,165135:0:0:0:0:
329,192,165135,128,0,165210:0:0:0:0:
182,192,165210,128,0,165285:0:0:0:0:
36,192,165235,128,0,165435:0:0:0:0:
256,192,165285,128,0,165360:0:0:0:0:
182,192,165360,128,0,165435:0:0:0:0:
109,192,165435,128,0,165510:0:0:0:0:
329,192,165435,128,0,166035:0:0:0:0:
256,192,165510,128,0,165585:0:0:0:0:
182,192,165585,128,0,165660:0:0:0:0:
109,192,165660,128,0,165735:0:0:0:0:
256,192,165735,128,0,165810:0:0:0:0:
475,192,165735,1,0,0:0:0:0:
109,192,165810,128,0,165885:0:0:0:0:
182,192,165885,128,0,165960:0:0:0:0:
256,192,165960,128,0,166035:0:0:0:0:
109,192,166035,128,0,166110:0:0:0:0:
36,192,166035,128,0,167235:0:0:0:0:
475,192,166035,1,0,0:0:0:0:
329,192,166110,128,0,166185:0:0:0:0:
256,192,166185,128,0,166260:0:0:0:0:
182,192,166260,128,0,166335:0:0:0:0:
329,192,166335,128,0,166410:0:0:0:0:
475,192,166335,1,0,0:0:0:0:
182,192,166410,128,0,166485:0:0:0:0:
256,192,166485,128,0,166560:0:0:0:0:
329,192,166560,128,0,166635:0:0:0:0:
475,192,166635,128,0,166710:0:0:0:0:
109,192,166635,1,0,0:0:0:0:
402,192,166710,128,0,166785:0:0:0:0:
329,192,166785,128,0,166860:0:0:0:0:
256,192,166860,128,0,166935:0:0:0:0:
182,192,166935,128,0,167010:0:0:0:0:
475,192,166935,1,0,0:0:0:0:
329,192,167010,128,0,167085:0:0:0:0:
402,192,167085,128,0,167160:0:0:0:0:
256,192,167160,128,0,167235:0:0:0:0:
329,192,167235,128,0,167310:0:0:0:0:
182,192,167235,128,0,167835:0:0:0:0:
109,192,167235,1,0,0:0:0:0:
475,192,167310,128,0,167385:0:0:0:0:
402,192,167385,128,0,167460:0:0:0:0:
329,192,167460,128,0,167535:0:0:0:0:
402,192,167535,128,0,167610:0:0:0:0:
36,192,167535,1,0,0:0:0:0:
256,192,167610,128,0,167685:0:0:0:0:
329,192,167685,128,0,167760:0:0:0:0:
36,192,167685,1,0,0:0:0:0:
402,192,167760,128,0,167835:0:0:0:0:
256,192,167835,1,0,0:0:0:0:
475,192,167835,1,0,0:0:0:0:
36,192,167835,1,0,0:0:0:0:
109,192,167835,1,0,0:0:0:0:
402,192,167910,1,0,0:0:0:0:
36,192,167985,1,0,0:0:0:0:
109,192,167985,1,0,0:0:0:0:
256,192,167985,1,0,0:0:0:0:
402,192,168060,1,0,0:0:0:0:
36,192,168135,1,0,0:0:0:0:
182,192,168135,1,0,0:0:0:0:
329,192,168210,1,0,0:0:0:0:
36,192,168285,1,0,0:0:0:0:
182,192,168285,1,0,0:0:0:0:
329,192,168360,1,0,0:0:0:0:
402,192,168435,1,0,0:0:0:0:
475,192,168435,1,0,0:0:0:0:
256,192,168435,1,0,0:0:0:0:
36,192,168435,1,0,0:0:0:0:
109,192,168510,1,0,0:0:0:0:
402,192,168585,1,0,0:0:0:0:
475,192,168585,1,0,0:0:0:0:
256,192,168585,1,0,0:0:0:0:
109,192,168660,1,0,0:0:0:0:
329,192,168735,1,0,0:0:0:0:
475,192,168735,1,0,0:0:0:0:
182,192,168810,1,0,0:0:0:0:
329,192,168885,1,0,0:0:0:0:
475,192,168885,1,0,0:0:0:0:
256,192,168960,1,0,0:0:0:0:
182,192,169035,1,0,0:0:0:0:
36,192,169035,1,0,0:0:0:0:
402,192,169035,1,0,0:0:0:0:
475,192,169035,1,0,0:0:0:0:
329,192,169110,1,0,0:0:0:0:
182,192,169185,1,0,0:0:0:0:
402,192,169185,1,0,0:0:0:0:
36,192,169185,1,0,0:0:0:0:
256,192,169260,1,0,0:0:0:0:
109,192,169335,1,0,0:0:0:0:
329,192,169335,1,0,0:0:0:0:
475,192,169335,1,0,0:0:0:0:
182,192,169410,1,0,0:0:0:0:
109,192,169485,1,0,0:0:0:0:
329,192,169485,1,0,0:0:0:0:
475,192,169485,1,0,0:0:0:0:
256,192,169560,1,0,0:0:0:0:
475,192,169635,1,0,0:0:0:0:
36,192,169635,1,0,0:0:0:0:
182,192,169635,1,0,0:0:0:0:
402,192,169635,1,0,0:0:0:0:
256,192,169710,1,0,0:0:0:0:
36,192,169785,1,0,0:0:0:0:
182,192,169785,1,0,0:0:0:0:
402,192,169835,1,0,0:0:0:0:
329,192,169835,1,0,0:0:0:0:
36,192,169935,1,0,0:0:0:0:
475,192,169935,1,0,0:0:0:0:
109,192,169935,1,0,0:0:0:0:
329,192,170035,1,0,0:0:0:0:
256,192,170035,1,0,0:0:0:0:
36,192,170085,1,0,0:0:0:0:
109,192,170085,1,0,0:0:0:0:
402,192,170085,1,0,0:0:0:0:
182,192,170160,1,0,0:0:0:0:
329,192,170160,1,0,0:0:0:0:
36,192,170235,1,0,0:0:0:0:
109,192,170235,1,0,0:0:0:0:
256,192,170235,1,0,0:0:0:0:
475,192,170235,1,0,0:0:0:0:
402,192,170235,1,0,0:0:0:0:
329,192,170310,1,0,0:0:0:0:
36,192,170385,1,0,0:0:0:0:
182,192,170385,1,0,0:0:0:0:
475,192,170385,1,0,0:0:0:0:
329,192,170460,1,0,0:0:0:0:
402,192,170535,1,0,0:0:0:0:
36,192,170535,1,0,0:0:0:0:
109,192,170535,1,0,0:0:0:0:
256,192,170610,1,0,0:0:0:0:
36,192,170685,1,0,0:0:0:0:
182,192,170685,1,0,0:0:0:0:
402,192,170685,1,0,0:0:0:0:
256,192,170760,1,0,0:0:0:0:
329,192,170760,1,0,0:0:0:0:
475,192,170835,1,0,0:0:0:0:
402,192,170835,1,0,0:0:0:0:
36,192,170835,1,0,0:0:0:0:
182,192,170835,1,0,0:0:0:0:
329,192,170910,1,0,0:0:0:0:
109,192,170985,1,0,0:0:0:0:
475,192,170985,1,0,0:0:0:0:
256,192,170985,1,0,0:0:0:0:
182,192,171060,1,0,0:0:0:0:
329,192,171135,1,0,0:0:0:0:
402,192,171135,1,0,0:0:0:0:
36,192,171135,1,0,0:0:0:0:
182,192,171210,1,0,0:0:0:0:
329,192,171285,1,0,0:0:0:0:
475,192,171285,1,0,0:0:0:0:
36,192,171285,1,0,0:0:0:0:
256,192,171322,1,0,0:0:0:0:
182,192,171360,1,0,0:0:0:0:
109,192,171397,1,0,0:0:0:0:
36,192,171435,1,0,0:0:0:0:
475,192,171435,1,0,0:0:0:0:
402,192,171435,1,0,0:0:0:0:
329,192,171510,1,0,0:0:0:0:
182,192,171585,1,0,0:0:0:0:
256,192,171622,1,0,0:0:0:0:
329,192,171660,1,0,0:0:0:0:
402,192,171697,1,0,0:0:0:0:
36,192,171735,1,0,0:0:0:0:
475,192,171735,1,0,0:0:0:0:
109,192,171735,1,0,0:0:0:0:
182,192,171810,1,0,0:0:0:0:
329,192,171885,1,0,0:0:0:0:
256,192,171922,1,0,0:0:0:0:
182,192,171960,1,0,0:0:0:0:
109,192,171997,1,0,0:0:0:0:
36,192,172035,1,0,0:0:0:0:
402,192,172035,1,0,0:0:0:0:
475,192,172035,1,0,0:0:0:0:
329,192,172110,1,0,0:0:0:0:
182,192,172185,1,0,0:0:0:0:
329,192,172260,1,0,0:0:0:0:
182,192,172335,1,0,0:0:0:0:
475,192,172335,1,0,0:0:0:0:
36,192,172372,1,0,0:0:0:0:
402,192,172410,1,0,0:0:0:0:
256,192,172410,1,0,0:0:0:0:
109,192,172447,1,0,0:0:0:0:
329,192,172485,1,0,0:0:0:0:
182,192,172522,1,0,0:0:0:0:
402,192,172560,1,0,0:0:0:0:
256,192,172597,1,0,0:0:0:0:
475,192,172635,1,0,0:0:0:0:
329,192,172635,1,0,0:0:0:0:
36,192,172635,128,0,173835:0:0:0:0:
109,192,172635,128,0,173835:0:0:0:0:
475,192,173835,128,0,175035:0:0:0:0:
329,192,173835,1,0,0:0:0:0:
36,192,174435,128,0,175035:0:0:0:0:
182,192,174435,1,0,0:0:0:0:
182,192,175035,128,0,176235:0:0:0:0:
329,192,175035,128,0,176235:0:0:0:0:
475,192,176235,128,0,176835:0:0:0:0:
256,192,176235,128,0,176535:0:0:0:0:
402,192,176535,128,0,176835:0:0:0:0:
182,192,176535,128,0,176835:0:0:0:0:
109,192,176835,128,0,177435:0:0:0:0:
256,192,176835,128,0,177035:0:0:0:0:
329,192,177035,128,0,177235:0:0:0:0:
182,192,177035,128,0,177435:0:0:0:0:
402,192,177235,128,0,177435:0:0:0:0:
256,192,177235,128,0,177435:0:0:0:0:
475,192,177435,128,0,178860:0:0:0:0:
329,192,177435,128,0,178035:0:0:0:0:
36,192,177435,128,0,178860:0:0:0:0:
182,192,178035,128,0,178860:0:0:0:0:
36,192,178935,1,0,0:0:0:0:
182,192,178935,1,0,0:0:0:0:
329,192,178935,1,0,0:0:0:0:
109,192,179235,1,0,0:0:0:0:
256,192,179235,1,0,0:0:0:0:
402,192,179235,1,0,0:0:0:0:
475,192,179535,1,0,0:0:0:0:
182,192,179535,1,0,0:0:0:0:
329,192,179535,1,0,0:0:0:0:
329,192,179835,1,0,0:0:0:0:
475,192,179835,1,0,0:0:0:0:
36,192,179835,1,0,0:0:0:0:
182,192,179910,1,0,0:0:0:0:
329,192,179985,1,0,0:0:0:0:
182,192,180060,1,0,0:0:0:0:
329,192,180135,1,0,0:0:0:0:
182,192,180210,1,0,0:0:0:0:
329,192,180285,1,0,0:0:0:0:
182,192,180360,1,0,0:0:0:0:
402,192,180435,1,0,0:0:0:0:
256,192,180435,1,0,0:0:0:0:
109,192,180510,1,0,0:0:0:0:
402,192,180585,1,0,0:0:0:0:
109,192,180660,1,0,0:0:0:0:
402,192,180735,1,0,0:0:0:0:
109,192,180810,1,0,0:0:0:0:
402,192,180885,1,0,0:0:0:0:
109,192,180960,1,0,0:0:0:0:
256,192,181035,1,0,0:0:0:0:
329,192,181035,1,0,0:0:0:0:
402,192,181035,1,0,0:0:0:0:
182,192,181110,1,0,0:0:0:0:
109,192,181110,1,0,0:0:0:0:
329,192,181185,1,0,0:0:0:0:
402,192,181185,1,0,0:0:0:0:
182,192,181260,1,0,0:0:0:0:
109,192,181260,1,0,0:0:0:0:
329,192,181335,1,0,0:0:0:0:
402,192,181335,1,0,0:0:0:0:
182,192,181410,1,0,0:0:0:0:
109,192,181410,1,0,0:0:0:0:
329,192,181485,1,0,0:0:0:0:
402,192,181485,1,0,0:0:0:0:
182,192,181560,1,0,0:0:0:0:
109,192,181560,1,0,0:0:0:0:
256,192,181635,1,0,0:0:0:0:
475,192,181635,1,0,0:0:0:0:
329,192,181635,1,0,0:0:0:0:
36,192,181710,1,0,0:0:0:0:
182,192,181710,1,0,0:0:0:0:
475,192,181785,1,0,0:0:0:0:
329,192,181785,1,0,0:0:0:0:
36,192,181860,1,0,0:0:0:0:
182,192,181860,1,0,0:0:0:0:
475,192,181935,1,0,0:0:0:0:
329,192,181935,1,0,0:0:0:0:
36,192,182010,1,0,0:0:0:0:
182,192,182010,1,0,0:0:0:0:
475,192,182085,1,0,0:0:0:0:
329,192,182085,1,0,0:0:0:0:
36,192,182160,1,0,0:0:0:0:
182,192,182160,1,0,0:0:0:0:
256,192,182235,1,0,0:0:0:0:
256,192,182385,1,0,0:0:0:0:
256,192,182535,1,0,0:0:0:0:
256,192,182685,1,0,0:0:0:0:
182,192,182835,1,0,0:0:0:0:
329,192,182835,1,0,0:0:0:0:
182,192,182985,1,0,0:0:0:0:
329,192,182985,1,0,0:0:0:0:
182,192,183135,1,0,0:0:0:0:
329,192,183135,1,0,0:0:0:0:
182,192,183285,1,0,0:0:0:0:
329,192,183285,1,0,0:0:0:0:
36,192,183435,1,0,0:0:0:0:
109,192,183435,1,0,0:0:0:0:
402,192,183435,1,0,0:0:0:0:
475,192,183435,1,0,0:0:0:0:
256,192,183435,1,0,0:0:0:0:
182,192,183585,1,0,0:0:0:0:
329,192,183585,1,0,0:0:0:0:
256,192,183660,1,0,0:0:0:0:
36,192,183735,1,0,0:0:0:0:
475,192,183735,1,0,0:0:0:0:
329,192,183885,1,0,0:0:0:0:
182,192,183885,1,0,0:0:0:0:
402,192,184035,1,0,0:0:0:0:
109,192,184035,1,0,0:0:0:0:
256,192,184185,1,0,0:0:0:0:
109,192,184335,1,0,0:0:0:0:
182,192,184335,1,0,0:0:0:0:
329,192,184335,1,0,0:0:0:0:
402,192,184335,1,0,0:0:0:0:
475,192,184635,128,0,185835:0:0:0:0:
36,192,184635,1,0,0:0:0:0:
182,192,184635,1,0,0:0:0:0:
402,192,184635,1,0,0:0:0:0:
256,192,184710,1,0,0:0:0:0:
109,192,184785,1,0,0:0:0:0:
329,192,184785,1,0,0:0:0:0:
182,192,184860,1,0,0:0:0:0:
402,192,184935,1,0,0:0:0:0:
36,192,184935,1,0,0:0:0:0:
256,192,184935,1,0,0:0:0:0:
182,192,185010,1,0,0:0:0:0:
109,192,185085,1,0,0:0:0:0:
329,192,185085,1,0,0:0:0:0:
256,192,185160,1,0,0:0:0:0:
36,192,185235,1,0,0:0:0:0:
182,192,185235,1,0,0:0:0:0:
402,192,185235,1,0,0:0:0:0:
256,192,185310,1,0,0:0:0:0:
402,192,185385,1,0,0:0:0:0:
109,192,185385,1,0,0:0:0:0:
329,192,185460,1,0,0:0:0:0:
36,192,185535,1,0,0:0:0:0:
182,192,185535,1,0,0:0:0:0:
402,192,185535,1,0,0:0:0:0:
256,192,185610,1,0,0:0:0:0:
329,192,185685,1,0,0:0:0:0:
109,192,185685,1,0,0:0:0:0:
256,192,185760,1,0,0:0:0:0:
182,192,185835,128,0,187035:0:0:0:0:
36,192,185835,1,0,0:0:0:0:
329,192,185835,1,0,0:0:0:0:
109,192,185835,1,0,0:0:0:0:
475,192,185910,1,0,0:0:0:0:
256,192,185985,1,0,0:0:0:0:
402,192,185985,1,0,0:0:0:0:
329,192,186060,1,0,0:0:0:0:
36,192,186135,1,0,0:0:0:0:
475,192,186135,1,0,0:0:0:0:
109,192,186135,1,0,0:0:0:0:
329,192,186210,1,0,0:0:0:0:
256,192,186285,1,0,0:0:0:0:
402,192,186285,1,0,0:0:0:0:
475,192,186360,1,0,0:0:0:0:
36,192,186435,1,0,0:0:0:0:
109,192,186435,1,0,0:0:0:0:
329,192,186435,1,0,0:0:0:0:
402,192,186510,1,0,0:0:0:0:
256,192,186585,1,0,0:0:0:0:
329,192,186585,1,0,0:0:0:0:
475,192,186660,1,0,0:0:0:0:
36,192,186735,1,0,0:0:0:0:
109,192,186735,1,0,0:0:0:0:
402,192,186735,1,0,0:0:0:0:
329,192,186810,1,0,0:0:0:0:
402,192,186885,1,0,0:0:0:0:
475,192,186885,1,0,0:0:0:0:
256,192,186960,1,0,0:0:0:0:
329,192,187035,128,0,188235:0:0:0:0:
36,192,187035,1,0,0:0:0:0:
475,192,187035,1,0,0:0:0:0:
402,192,187035,1,0,0:0:0:0:
109,192,187110,1,0,0:0:0:0:
256,192,187185,1,0,0:0:0:0:
36,192,187185,1,0,0:0:0:0:
182,192,187260,1,0,0:0:0:0:
402,192,187335,1,0,0:0:0:0:
475,192,187335,1,0,0:0:0:0:
109,192,187335,1,0,0:0:0:0:
182,192,187410,1,0,0:0:0:0:
256,192,187485,1,0,0:0:0:0:
36,192,187485,1,0,0:0:0:0:
109,192,187560,1,0,0:0:0:0:
36,192,187635,1,0,0:0:0:0:
402,192,187635,1,0,0:0:0:0:
475,192,187635,1,0,0:0:0:0:
256,192,187710,1,0,0:0:0:0:
182,192,187785,1,0,0:0:0:0:
36,192,187785,1,0,0:0:0:0:
109,192,187860,1,0,0:0:0:0:
402,192,187935,1,0,0:0:0:0:
475,192,187935,1,0,0:0:0:0:
182,192,187935,1,0,0:0:0:0:
36,192,188010,1,0,0:0:0:0:
109,192,188085,1,0,0:0:0:0:
256,192,188085,1,0,0:0:0:0:
182,192,188160,1,0,0:0:0:0:
36,192,188235,128,0,189435:0:0:0:0:
109,192,188235,1,0,0:0:0:0:
475,192,188235,1,0,0:0:0:0:
402,192,188235,1,0,0:0:0:0:
256,192,188310,1,0,0:0:0:0:
182,192,188385,1,0,0:0:0:0:
402,192,188385,1,0,0:0:0:0:
329,192,188460,1,0,0:0:0:0:
256,192,188535,1,0,0:0:0:0:
475,192,188535,1,0,0:0:0:0:
109,192,188535,1,0,0:0:0:0:
329,192,188610,1,0,0:0:0:0:
256,192,188685,1,0,0:0:0:0:
402,192,188685,1,0,0:0:0:0:
182,192,188760,1,0,0:0:0:0:
109,192,188835,1,0,0:0:0:0:
475,192,188835,1,0,0:0:0:0:
329,192,188835,1,0,0:0:0:0:
256,192,188910,1,0,0:0:0:0:
402,192,188985,1,0,0:0:0:0:
182,192,188985,1,0,0:0:0:0:
329,192,189060,1,0,0:0:0:0:
109,192,189135,1,0,0:0:0:0:
182,192,189135,1,0,0:0:0:0:
475,192,189135,1,0,0:0:0:0:
329,192,189210,1,0,0:0:0:0:
402,192,189285,1,0,0:0:0:0:
182,192,189285,1,0,0:0:0:0:
256,192,189360,1,0,0:0:0:0:
329,192,189435,128,0,190635:0:0:0:0:
109,192,189435,1,0,0:0:0:0:
475,192,189435,1,0,0:0:0:0:
182,192,189435,1,0,0:0:0:0:
402,192,189510,1,0,0:0:0:0:
182,192,189585,1,0,0:0:0:0:
475,192,189585,1,0,0:0:0:0:
256,192,189660,1,0,0:0:0:0:
109,192,189735,1,0,0:0:0:0:
36,192,189735,1,0,0:0:0:0:
402,192,189735,1,0,0:0:0:0:
256,192,189810,1,0,0:0:0:0:
182,192,189885,1,0,0:0:0:0:
475,192,189885,1,0,0:0:0:0:
402,192,189960,1,0,0:0:0:0:
475,192,190035,1,0,0:0:0:0:
182,192,190035,1,0,0:0:0:0:
36,192,190035,1,0,0:0:0:0:
256,192,190110,1,0,0:0:0:0:
109,192,190185,1,0,0:0:0:0:
402,192,190185,1,0,0:0:0:0:
256,192,190260,1,0,0:0:0:0:
36,192,190335,1,0,0:0:0:0:
182,192,190335,1,0,0:0:0:0:
475,192,190335,1,0,0:0:0:0:
402,192,190410,1,0,0:0:0:0:
475,192,190485,1,0,0:0:0:0:
109,192,190485,1,0,0:0:0:0:
256,192,190560,1,0,0:0:0:0:
182,192,190635,128,0,191835:0:0:0:0:
36,192,190635,1,0,0:0:0:0:
402,192,190635,1,0,0:0:0:0:
475,192,190635,1,0,0:0:0:0:
109,192,190710,1,0,0:0:0:0:
36,192,190785,1,0,0:0:0:0:
329,192,190785,1,0,0:0:0:0:
256,192,190860,1,0,0:0:0:0:
109,192,190935,1,0,0:0:0:0:
402,192,190935,1,0,0:0:0:0:
475,192,190935,1,0,0:0:0:0:
256,192,191010,1,0,0:0:0:0:
36,192,191085,1,0,0:0:0:0:
329,192,191085,1,0,0:0:0:0:
109,192,191160,1,0,0:0:0:0:
36,192,191235,1,0,0:0:0:0:
475,192,191235,1,0,0:0:0:0:
329,192,191235,1,0,0:0:0:0:
256,192,191310,1,0,0:0:0:0:
109,192,191385,1,0,0:0:0:0:
402,192,191385,1,0,0:0:0:0:
256,192,191460,1,0,0:0:0:0:
36,192,191535,1,0,0:0:0:0:
329,192,191535,1,0,0:0:0:0:
475,192,191535,1,0,0:0:0:0:
109,192,191610,1,0,0:0:0:0:
36,192,191685,1,0,0:0:0:0:
402,192,191685,1,0,0:0:0:0:
475,192,191835,128,0,193035:0:0:0:0:
109,192,191835,1,0,0:0:0:0:
36,192,191835,1,0,0:0:0:0:
329,192,191835,1,0,0:0:0:0:
256,192,191910,1,0,0:0:0:0:
182,192,191985,1,0,0:0:0:0:
402,192,191985,1,0,0:0:0:0:
329,192,192060,1,0,0:0:0:0:
182,192,192135,1,0,0:0:0:0:
36,192,192135,1,0,0:0:0:0:
402,192,192135,1,0,0:0:0:0:
256,192,192210,1,0,0:0:0:0:
329,192,192285,1,0,0:0:0:0:
109,192,192285,1,0,0:0:0:0:
182,192,192360,1,0,0:0:0:0:
329,192,192435,1,0,0:0:0:0:
36,192,192435,1,0,0:0:0:0:
402,192,192435,1,0,0:0:0:0:
256,192,192510,1,0,0:0:0:0:
182,192,192585,1,0,0:0:0:0:
402,192,192585,1,0,0:0:0:0:
329,192,192660,1,0,0:0:0:0:
182,192,192735,1,0,0:0:0:0:
36,192,192735,1,0,0:0:0:0:
402,192,192735,1,0,0:0:0:0:
256,192,192810,1,0,0:0:0:0:
329,192,192885,1,0,0:0:0:0:
109,192,192885,1,0,0:0:0:0:
182,192,192960,1,0,0:0:0:0:
329,192,193035,1,0,0:0:0:0:
109,192,193035,1,0,0:0:0:0:
402,192,193035,1,0,0:0:0:0:
36,192,193035,128,0,194235:0:0:0:0:
256,192,193110,1,0,0:0:0:0:
182,192,193185,1,0,0:0:0:0:
402,192,193185,1,0,0:0:0:0:
329,192,193260,1,0,0:0:0:0:
182,192,193335,1,0,0:0:0:0:
475,192,193335,1,0,0:0:0:0:
109,192,193335,1,0,0:0:0:0:
256,192,193410,1,0,0:0:0:0:
329,192,193485,1,0,0:0:0:0:
402,192,193485,1,0,0:0:0:0:
182,192,193560,1,0,0:0:0:0:
329,192,193635,1,0,0:0:0:0:
475,192,193635,1,0,0:0:0:0:
109,192,193635,1,0,0:0:0:0:
256,192,193710,1,0,0:0:0:0:
182,192,193785,1,0,0:0:0:0:
402,192,193785,1,0,0:0:0:0:
329,192,193860,1,0,0:0:0:0:
475,192,193935,1,0,0:0:0:0:
109,192,193935,1,0,0:0:0:0:
402,192,193935,1,0,0:0:0:0:
256,192,193935,1,0,0:0:0:0:
109,192,194085,1,0,0:0:0:0:
402,192,194085,1,0,0:0:0:0:
475,192,194085,1,0,0:0:0:0:
256,192,194085,1,0,0:0:0:0:
402,192,194235,128,0,195435:0:0:0:0:
475,192,194235,1,0,0:0:0:0:
182,192,194235,1,0,0:0:0:0:
109,192,194235,1,0,0:0:0:0:
256,192,194310,1,0,0:0:0:0:
329,192,194385,1,0,0:0:0:0:
36,192,194385,1,0,0:0:0:0:
182,192,194460,1,0,0:0:0:0:
256,192,194535,1,0,0:0:0:0:
475,192,194535,1,0,0:0:0:0:
36,192,194535,1,0,0:0:0:0:
182,192,194610,1,0,0:0:0:0:
329,192,194685,1,0,0:0:0:0:
109,192,194685,1,0,0:0:0:0:
256,192,194760,1,0,0:0:0:0:
182,192,194835,1,0,0:0:0:0:
475,192,194835,1,0,0:0:0:0:
36,192,194835,1,0,0:0:0:0:
329,192,194910,1,0,0:0:0:0:
182,192,194985,1,0,0:0:0:0:
109,192,194985,1,0,0:0:0:0:
256,192,195060,1,0,0:0:0:0:
329,192,195135,1,0,0:0:0:0:
36,192,195135,1,0,0:0:0:0:
475,192,195135,1,0,0:0:0:0:
182,192,195210,1,0,0:0:0:0:
329,192,195285,1,0,0:0:0:0:
109,192,195285,1,0,0:0:0:0:
256,192,195360,1,0,0:0:0:0:
109,192,195435,128,0,196635:0:0:0:0:
182,192,195435,1,0,0:0:0:0:
36,192,195435,1,0,0:0:0:0:
475,192,195435,1,0,0:0:0:0:
329,192,195510,1,0,0:0:0:0:
256,192,195585,1,0,0:0:0:0:
402,192,195585,1,0,0:0:0:0:
182,192,195660,1,0,0:0:0:0:
36,192,195735,1,0,0:0:0:0:
329,192,195735,1,0,0:0:0:0:
475,192,195735,1,0,0:0:0:0:
182,192,195810,1,0,0:0:0:0:
256,192,195885,1,0,0:0:0:0:
402,192,195885,1,0,0:0:0:0:
329,192,195960,1,0,0:0:0:0:
36,192,196035,1,0,0:0:0:0:
475,192,196035,1,0,0:0:0:0:
182,192,196035,1,0,0:0:0:0:
329,192,196110,1,0,0:0:0:0:
182,192,196185,1,0,0:0:0:0:
402,192,196185,1,0,0:0:0:0:
256,192,196260,1,0,0:0:0:0:
329,192,196335,1,0,0:0:0:0:
475,192,196335,1,0,0:0:0:0:
36,192,196335,1,0,0:0:0:0:
182,192,196410,1,0,0:0:0:0:
329,192,196485,1,0,0:0:0:0:
402,192,196485,1,0,0:0:0:0:
256,192,196560,1,0,0:0:0:0:
475,192,196635,128,0,199035:0:0:0:0:
182,192,196635,1,0,0:0:0:0:
36,192,196635,1,0,0:0:0:0:
402,192,196635,1,0,0:0:0:0:
329,192,196710,1,0,0:0:0:0:
256,192,196785,1,0,0:0:0:0:
109,192,196785,1,0,0:0:0:0:
182,192,196860,1,0,0:0:0:0:
36,192,196935,1,0,0:0:0:0:
329,192,196935,1,0,0:0:0:0:
402,192,196935,1,0,0:0:0:0:
182,192,197010,1,0,0:0:0:0:
256,192,197085,1,0,0:0:0:0:
109,192,197085,1,0,0:0:0:0:
329,192,197160,1,0,0:0:0:0:
402,192,197235,1,0,0:0:0:0:
36,192,197235,1,0,0:0:0:0:
182,192,197235,1,0,0:0:0:0:
329,192,197310,1,0,0:0:0:0:
182,192,197385,1,0,0:0:0:0:
109,192,197385,1,0,0:0:0:0:
256,192,197460,1,0,0:0:0:0:
329,192,197535,1,0,0:0:0:0:
36,192,197535,1,0,0:0:0:0:
402,192,197535,1,0,0:0:0:0:
182,192,197610,1,0,0:0:0:0:
329,192,197685,1,0,0:0:0:0:
109,192,197685,1,0,0:0:0:0:
256,192,197760,1,0,0:0:0:0:
402,192,197835,128,0,199035:0:0:0:0:
182,192,197835,1,0,0:0:0:0:
36,192,197835,1,0,0:0:0:0:
329,192,197910,1,0,0:0:0:0:
182,192,197985,1,0,0:0:0:0:
109,192,197985,1,0,0:0:0:0:
256,192,198060,1,0,0:0:0:0:
329,192,198135,1,0,0:0:0:0:
36,192,198135,1,0,0:0:0:0:
182,192,198210,1,0,0:0:0:0:
329,192,198285,1,0,0:0:0:0:
109,192,198285,1,0,0:0:0:0:
256,192,198360,1,0,0:0:0:0:
36,192,198435,128,0,199035:0:0:0:0:
182,192,198435,1,0,0:0:0:0:
329,192,198510,1,0,0:0:0:0:
182,192,198585,1,0,0:0:0:0:
256,192,198660,1,0,0:0:0:0:
182,192,198735,1,0,0:0:0:0:
329,192,198735,1,0,0:0:0:0:
109,192,198735,1,0,0:0:0:0:
329,192,198885,1,0,0:0:0:0:
182,192,198885,1,0,0:0:0:0:
109,192,198885,1,0,0:0:0:0:
256,192,199035,128,0,200835:0:0:0:0:
109,192,199035,1,0,0:0:0:0:
329,192,199035,1,0,0:0:0:0:
182,192,199110,1,0,0:0:0:0:
402,192,199185,1,0,0:0:0:0:
109,192,199185,1,0,0:0:0:0:
329,192,199260,1,0,0:0:0:0:
475,192,199335,1,0,0:0:0:0:
36,192,199335,1,0,0:0:0:0:
182,192,199335,1,0,0:0:0:0:
329,192,199410,1,0,0:0:0:0:
402,192,199485,1,0,0:0:0:0:
109,192,199485,1,0,0:0:0:0:
182,192,199560,1,0,0:0:0:0:
109,192,199635,1,0,0:0:0:0:
329,192,199635,1,0,0:0:0:0:
475,192,199635,1,0,0:0:0:0:
182,192,199710,1,0,0:0:0:0:
329,192,199785,1,0,0:0:0:0:
36,192,199785,1,0,0:0:0:0:
182,192,199860,1,0,0:0:0:0:
402,192,199935,1,0,0:0:0:0:
475,192,199935,1,0,0:0:0:0:
109,192,199935,1,0,0:0:0:0:
329,192,200010,1,0,0:0:0:0:
182,192,200085,1,0,0:0:0:0:
36,192,200085,1,0,0:0:0:0:
329,192,200160,1,0,0:0:0:0:
475,192,200235,1,0,0:0:0:0:
36,192,200235,1,0,0:0:0:0:
182,192,200235,1,0,0:0:0:0:
329,192,200310,1,0,0:0:0:0:
109,192,200385,1,0,0:0:0:0:
402,192,200385,1,0,0:0:0:0:
182,192,200460,1,0,0:0:0:0:
36,192,200535,1,0,0:0:0:0:
329,192,200535,1,0,0:0:0:0:
475,192,200535,1,0,0:0:0:0:
182,192,200610,1,0,0:0:0:0:
109,192,200685,1,0,0:0:0:0:
402,192,200685,1,0,0:0:0:0:
329,192,200760,1,0,0:0:0:0:
475,192,200835,128,0,201435:0:0:0:0:
36,192,200835,1,0,0:0:0:0:
182,192,200835,1,0,0:0:0:0:
329,192,200910,1,0,0:0:0:0:
182,192,200985,1,0,0:0:0:0:
402,192,200985,1,0,0:0:0:0:
256,192,201060,1,0,0:0:0:0:
329,192,201135,1,0,0:0:0:0:
36,192,201135,1,0,0:0:0:0:
109,192,201135,1,0,0:0:0:0:
182,192,201210,1,0,0:0:0:0:
329,192,201285,1,0,0:0:0:0:
36,192,201285,1,0,0:0:0:0:
109,192,201285,1,0,0:0:0:0:
256,192,201360,1,0,0:0:0:0:
182,192,201435,1,0,0:0:0:0:
36,192,201435,1,0,0:0:0:0:
402,192,201435,1,0,0:0:0:0:
329,192,201435,1,0,0:0:0:0:
36,192,201585,1,0,0:0:0:0:
182,192,201585,1,0,0:0:0:0:
402,192,201585,1,0,0:0:0:0:
329,192,201585,1,0,0:0:0:0:
109,192,201735,1,0,0:0:0:0:
256,192,201735,1,0,0:0:0:0:
475,192,201735,1,0,0:0:0:0:
402,192,201735,1,0,0:0:0:0:
109,192,201885,1,0,0:0:0:0:
256,192,201885,1,0,0:0:0:0:
475,192,201885,1,0,0:0:0:0:
402,192,201885,1,0,0:0:0:0:
475,192,202035,1,0,0:0:0:0:
182,192,202035,1,0,0:0:0:0:
329,192,202035,1,0,0:0:0:0:
36,192,202035,1,0,0:0:0:0:
475,192,202185,1,0,0:0:0:0:
182,192,202185,1,0,0:0:0:0:
329,192,202185,1,0,0:0:0:0:
36,192,202185,1,0,0:0:0:0:
109,192,202335,1,0,0:0:0:0:
402,192,202335,1,0,0:0:0:0:
329,192,202335,1,0,0:0:0:0:
182,192,202335,1,0,0:0:0:0:
109,192,202485,1,0,0:0:0:0:
329,192,202485,1,0,0:0:0:0:
402,192,202485,1,0,0:0:0:0:
182,192,202485,1,0,0:0:0:0:
256,192,202560,1,0,0:0:0:0:
182,192,202635,1,0,0:0:0:0:
36,192,202635,1,0,0:0:0:0:
475,192,202635,1,0,0:0:0:0:
402,192,202635,1,0,0:0:0:0:
329,192,202710,1,0,0:0:0:0:
36,192,202785,1,0,0:0:0:0:
182,192,202785,1,0,0:0:0:0:
475,192,202785,1,0,0:0:0:0:
402,192,202785,1,0,0:0:0:0:
109,192,202935,1,0,0:0:0:0:
256,192,202935,1,0,0:0:0:0:
402,192,202935,1,0,0:0:0:0:
329,192,202935,1,0,0:0:0:0:
182,192,203010,1,0,0:0:0:0:
109,192,203085,1,0,0:0:0:0:
256,192,203085,1,0,0:0:0:0:
402,192,203085,1,0,0:0:0:0:
329,192,203085,1,0,0:0:0:0:
36,192,203235,1,0,0:0:0:0:
475,192,203235,1,0,0:0:0:0:
109,192,203235,1,0,0:0:0:0:
402,192,203235,1,0,0:0:0:0:
182,192,203310,1,0,0:0:0:0:
329,192,203310,1,0,0:0:0:0:
36,192,203385,1,0,0:0:0:0:
475,192,203385,1,0,0:0:0:0:
109,192,203422,1,0,0:0:0:0:
402,192,203422,1,0,0:0:0:0:
182,192,203460,1,0,0:0:0:0:
329,192,203460,1,0,0:0:0:0:
256,192,203497,1,0,0:0:0:0:
475,192,203535,1,0,0:0:0:0:
402,192,203535,1,0,0:0:0:0:
36,192,203535,1,0,0:0:0:0:
109,192,203535,1,0,0:0:0:0:
182,192,203610,1,0,0:0:0:0:
329,192,203610,1,0,0:0:0:0:
402,192,203685,1,0,0:0:0:0:
109,192,203685,1,0,0:0:0:0:
36,192,203685,1,0,0:0:0:0:
475,192,203685,1,0,0:0:0:0:
182,192,203760,1,0,0:0:0:0:
329,192,203760,1,0,0:0:0:0:
402,192,203835,1,0,0:0:0:0:
475,192,203835,1,0,0:0:0:0:
256,192,203835,128,0,208635:0:0:0:0:
109,192,203835,1,0,0:0:0:0:
36,192,203835,1,0,0:0:0:0:
475,192,203910,1,0,0:0:0:0:
402,192,203910,1,0,0:0:0:0:
109,192,203985,1,0,0:0:0:0:
36,192,203985,1,0,0:0:0:0:
109,192,204135,1,0,0:0:0:0:
36,192,204135,1,0,0:0:0:0:
329,192,204135,1,0,0:0:0:0:
109,192,204210,1,0,0:0:0:0:
36,192,204210,1,0,0:0:0:0:
402,192,204285,1,0,0:0:0:0:
475,192,204285,1,0,0:0:0:0:
475,192,204435,1,0,0:0:0:0:
402,192,204435,1,0,0:0:0:0:
182,192,204435,1,0,0:0:0:0:
475,192,204510,1,0,0:0:0:0:
402,192,204510,1,0,0:0:0:0:
109,192,204585,1,0,0:0:0:0:
36,192,204585,1,0,0:0:0:0:
109,192,204735,1,0,0:0:0:0:
36,192,204735,1,0,0:0:0:0:
329,192,204735,1,0,0:0:0:0:
109,192,204810,1,0,0:0:0:0:
36,192,204810,1,0,0:0:0:0:
402,192,204885,1,0,0:0:0:0:
475,192,204885,1,0,0:0:0:0:
475,192,205035,1,0,0:0:0:0:
329,192,205035,1,0,0:0:0:0:
109,192,205035,1,0,0:0:0:0:
475,192,205110,1,0,0:0:0:0:
329,192,205110,1,0,0:0:0:0:
182,192,205185,1,0,0:0:0:0:
36,192,205185,1,0,0:0:0:0:
182,192,205335,1,0,0:0:0:0:
36,192,205335,1,0,0:0:0:0:
402,192,205335,1,0,0:0:0:0:
36,192,205410,1,0,0:0:0:0:
182,192,205410,1,0,0:0:0:0:
475,192,205485,1,0,0:0:0:0:
329,192,205485,1,0,0:0:0:0:
475,192,205635,1,0,0:0:0:0:
329,192,205635,1,0,0:0:0:0:
109,192,205635,1,0,0:0:0:0:
329,192,205710,1,0,0:0:0:0:
475,192,205710,1,0,0:0:0:0:
182,192,205785,1,0,0:0:0:0:
36,192,205785,1,0,0:0:0:0:
182,192,205935,1,0,0:0:0:0:
36,192,205935,1,0,0:0:0:0:
402,192,205935,1,0,0:0:0:0:
36,192,206010,1,0,0:0:0:0:
182,192,206010,1,0,0:0:0:0:
329,192,206085,1,0,0:0:0:0:
475,192,206085,1,0,0:0:0:0:
329,192,206235,1,0,0:0:0:0:
402,192,206235,1,0,0:0:0:0:
36,192,206235,1,0,0:0:0:0:
329,192,206310,1,0,0:0:0:0:
402,192,206310,1,0,0:0:0:0:
109,192,206385,1,0,0:0:0:0:
182,192,206385,1,0,0:0:0:0:
109,192,206535,1,0,0:0:0:0:
182,192,206535,1,0,0:0:0:0:
475,192,206535,1,0,0:0:0:0:
109,192,206610,1,0,0:0:0:0:
182,192,206610,1,0,0:0:0:0:
329,192,206685,1,0,0:0:0:0:
402,192,206685,1,0,0:0:0:0:
329,192,206835,1,0,0:0:0:0:
402,192,206835,1,0,0:0:0:0:
36,192,206835,1,0,0:0:0:0:
329,192,206910,1,0,0:0:0:0:
402,192,206910,1,0,0:0:0:0:
109,192,206985,1,0,0:0:0:0:
182,192,206985,1,0,0:0:0:0:
109,192,207135,1,0,0:0:0:0:
182,192,207135,1,0,0:0:0:0:
475,192,207135,1,0,0:0:0:0:
109,192,207210,1,0,0:0:0:0:
182,192,207210,1,0,0:0:0:0:
329,192,207285,1,0,0:0:0:0:
402,192,207285,1,0,0:0:0:0:
329,192,207435,1,0,0:0:0:0:
475,192,207435,1,0,0:0:0:0:
109,192,207435,1,0,0:0:0:0:
329,192,207510,1,0,0:0:0:0:
475,192,207510,1,0,0:0:0:0:
36,192,207585,1,0,0:0:0:0:
182,192,207585,1,0,0:0:0:0:
36,192,207735,1,0,0:0:0:0:
182,192,207735,1,0,0:0:0:0:
402,192,207735,1,0,0:0:0:0:
36,192,207810,1,0,0:0:0:0:
182,192,207810,1,0,0:0:0:0:
329,192,207885,1,0,0:0:0:0:
475,192,207885,1,0,0:0:0:0:
329,192,208035,1,0,0:0:0:0:
475,192,208035,1,0,0:0:0:0:
109,192,208035,1,0,0:0:0:0:
329,192,208110,1,0,0:0:0:0:
475,192,208110,1,0,0:0:0:0:
182,192,208185,1,0,0:0:0:0:
36,192,208185,1,0,0:0:0:0:
36,192,208335,1,0,0:0:0:0:
182,192,208335,1,0,0:0:0:0:
329,192,208335,1,0,0:0:0:0:
475,192,208335,1,0,0:0:0:0:
182,192,208410,1,0,0:0:0:0:
36,192,208410,1,0,0:0:0:0:
329,192,208485,1,0,0:0:0:0:
475,192,208485,1,0,0:0:0:0:
475,192,208635,1,0,0:0:0:0:
402,192,208635,1,0,0:0:0:0:
36,192,208635,1,0,0:0:0:0:
402,192,208710,1,0,0:0:0:0:
475,192,208710,1,0,0:0:0:0:
182,192,208710,1,0,0:0:0:0:
109,192,208785,1,0,0:0:0:0:
329,192,208785,1,0,0:0:0:0:
256,192,208860,1,0,0:0:0:0:
36,192,208935,1,0,0:0:0:0:
109,192,208935,1,0,0:0:0:0:
475,192,208935,1,0,0:0:0:0:
36,192,209010,1,0,0:0:0:0:
109,192,209010,1,0,0:0:0:0:
329,192,209010,1,0,0:0:0:0:
402,192,209085,1,0,0:0:0:0:
182,192,209085,1,0,0:0:0:0:
256,192,209160,1,0,0:0:0:0:
329,192,209235,1,0,0:0:0:0:
475,192,209235,1,0,0:0:0:0:
36,192,209235,1,0,0:0:0:0:
329,192,209310,1,0,0:0:0:0:
475,192,209310,1,0,0:0:0:0:
182,192,209310,1,0,0:0:0:0:
256,192,209385,1,0,0:0:0:0:
109,192,209385,1,0,0:0:0:0:
402,192,209460,1,0,0:0:0:0:
36,192,209535,1,0,0:0:0:0:
182,192,209535,1,0,0:0:0:0:
475,192,209535,1,0,0:0:0:0:
36,192,209610,1,0,0:0:0:0:
182,192,209610,1,0,0:0:0:0:
329,192,209610,1,0,0:0:0:0:
256,192,209685,1,0,0:0:0:0:
402,192,209685,1,0,0:0:0:0:
109,192,209760,1,0,0:0:0:0:
36,192,209835,1,0,0:0:0:0:
402,192,209835,1,0,0:0:0:0:
475,192,209835,1,0,0:0:0:0:
402,192,209910,1,0,0:0:0:0:
475,192,209910,1,0,0:0:0:0:
182,192,209910,1,0,0:0:0:0:
329,192,209985,1,0,0:0:0:0:
109,192,209985,1,0,0:0:0:0:
256,192,210060,1,0,0:0:0:0:
36,192,210135,1,0,0:0:0:0:
109,192,210135,1,0,0:0:0:0:
475,192,210135,1,0,0:0:0:0:
36,192,210210,1,0,0:0:0:0:
109,192,210210,1,0,0:0:0:0:
329,192,210210,1,0,0:0:0:0:
182,192,210285,1,0,0:0:0:0:
402,192,210285,1,0,0:0:0:0:
256,192,210360,1,0,0:0:0:0:
329,192,210435,1,0,0:0:0:0:
402,192,210435,1,0,0:0:0:0:
36,192,210435,1,0,0:0:0:0:
329,192,210510,1,0,0:0:0:0:
402,192,210510,1,0,0:0:0:0:
182,192,210510,1,0,0:0:0:0:
256,192,210585,1,0,0:0:0:0:
109,192,210585,1,0,0:0:0:0:
329,192,210660,1,0,0:0:0:0:
109,192,210735,1,0,0:0:0:0:
182,192,210735,1,0,0:0:0:0:
475,192,210735,1,0,0:0:0:0:
109,192,210810,1,0,0:0:0:0:
182,192,210810,1,0,0:0:0:0:
329,192,210810,1,0,0:0:0:0:
256,192,210885,1,0,0:0:0:0:
402,192,210885,1,0,0:0:0:0:
182,192,210960,1,0,0:0:0:0:
402,192,211035,1,0,0:0:0:0:
475,192,211035,1,0,0:0:0:0:
36,192,211035,1,0,0:0:0:0:
402,192,211110,1,0,0:0:0:0:
475,192,211110,1,0,0:0:0:0:
109,192,211110,1,0,0:0:0:0:
182,192,211185,1,0,0:0:0:0:
329,192,211185,1,0,0:0:0:0:
256,192,211260,1,0,0:0:0:0:
109,192,211335,1,0,0:0:0:0:
182,192,211335,1,0,0:0:0:0:
475,192,211335,1,0,0:0:0:0:
109,192,211410,1,0,0:0:0:0:
182,192,211410,1,0,0:0:0:0:
329,192,211410,1,0,0:0:0:0:
402,192,211485,1,0,0:0:0:0:
36,192,211485,1,0,0:0:0:0:
256,192,211560,1,0,0:0:0:0:
329,192,211635,1,0,0:0:0:0:
402,192,211635,1,0,0:0:0:0:
109,192,211635,1,0,0:0:0:0:
329,192,211710,1,0,0:0:0:0:
402,192,211710,1,0,0:0:0:0:
182,192,211710,1,0,0:0:0:0:
475,192,211785,1,0,0:0:0:0:
36,192,211785,1,0,0:0:0:0:
256,192,211860,1,0,0:0:0:0:
36,192,211935,1,0,0:0:0:0:
109,192,211935,1,0,0:0:0:0:
329,192,211935,1,0,0:0:0:0:
36,192,212010,1,0,0:0:0:0:
109,192,212010,1,0,0:0:0:0:
475,192,212010,1,0,0:0:0:0:
182,192,212085,1,0,0:0:0:0:
329,192,212085,1,0,0:0:0:0:
402,192,212160,1,0,0:0:0:0:
329,192,212235,1,0,0:0:0:0:
182,192,212235,1,0,0:0:0:0:
36,192,212235,1,0,0:0:0:0:
475,192,212235,1,0,0:0:0:0:
329,192,212310,1,0,0:0:0:0:
182,192,212310,1,0,0:0:0:0:
402,192,212385,1,0,0:0:0:0:
109,192,212385,1,0,0:0:0:0:
256,192,212460,1,0,0:0:0:0:
36,192,212535,1,0,0:0:0:0:
475,192,212535,1,0,0:0:0:0:
182,192,212535,1,0,0:0:0:0:
329,192,212535,1,0,0:0:0:0:
36,192,212610,1,0,0:0:0:0:
475,192,212610,1,0,0:0:0:0:
182,192,212685,1,0,0:0:0:0:
329,192,212685,1,0,0:0:0:0:
109,192,212760,1,0,0:0:0:0:
402,192,212760,1,0,0:0:0:0:
182,192,212835,1,0,0:0:0:0:
329,192,212835,1,0,0:0:0:0:
182,192,212910,1,0,0:0:0:0:
329,192,212910,1,0,0:0:0:0:
36,192,212985,1,0,0:0:0:0:
475,192,212985,1,0,0:0:0:0:
256,192,213060,1,0,0:0:0:0:
109,192,213135,1,0,0:0:0:0:
402,192,213135,1,0,0:0:0:0:
109,192,213210,1,0,0:0:0:0:
402,192,213210,1,0,0:0:0:0:
182,192,213285,1,0,0:0:0:0:
329,192,213285,1,0,0:0:0:0:
36,192,213360,1,0,0:0:0:0:
475,192,213360,1,0,0:0:0:0:
182,192,213435,1,0,0:0:0:0:
109,192,213435,1,0,0:0:0:0:
402,192,213435,1,0,0:0:0:0:
109,192,213510,1,0,0:0:0:0:
182,192,213510,1,0,0:0:0:0:
329,192,213585,1,0,0:0:0:0:
475,192,213585,1,0,0:0:0:0:
402,192,213735,1,0,0:0:0:0:
182,192,213735,1,0,0:0:0:0:
109,192,213735,1,0,0:0:0:0:
109,192,213810,1,0,0:0:0:0:
182,192,213810,1,0,0:0:0:0:
329,192,213885,1,0,0:0:0:0:
475,192,213885,1,0,0:0:0:0:
329,192,214035,1,0,0:0:0:0:
402,192,214035,1,0,0:0:0:0:
475,192,214035,128,0,214635:0:0:0:0:
36,192,214035,1,0,0:0:0:0:
329,192,214110,1,0,0:0:0:0:
402,192,214110,1,0,0:0:0:0:
182,192,214185,1,0,0:0:0:0:
109,192,214185,1,0,0:0:0:0:
36,192,214335,1,0,0:0:0:0:
329,192,214335,1,0,0:0:0:0:
402,192,214335,1,0,0:0:0:0:
402,192,214410,1,0,0:0:0:0:
329,192,214410,1,0,0:0:0:0:
109,192,214485,1,0,0:0:0:0:
182,192,214485,1,0,0:0:0:0:
36,192,214635,1,0,0:0:0:0:
256,192,214635,1,0,0:0:0:0:
329,192,214635,128,0,215235:0:0:0:0:
109,192,214635,1,0,0:0:0:0:
109,192,214710,1,0,0:0:0:0:
36,192,214710,1,0,0:0:0:0:
475,192,214785,1,0,0:0:0:0:
402,192,214785,1,0,0:0:0:0:
256,192,214935,1,0,0:0:0:0:
109,192,214935,1,0,0:0:0:0:
36,192,214935,1,0,0:0:0:0:
36,192,215010,1,0,0:0:0:0:
109,192,215010,1,0,0:0:0:0:
402,192,215085,1,0,0:0:0:0:
475,192,215085,1,0,0:0:0:0:
475,192,215235,1,0,0:0:0:0:
256,192,215235,1,0,0:0:0:0:
182,192,215235,128,0,215835:0:0:0:0:
402,192,215235,1,0,0:0:0:0:
475,192,215310,1,0,0:0:0:0:
402,192,215310,1,0,0:0:0:0:
109,192,215385,1,0,0:0:0:0:
36,192,215385,1,0,0:0:0:0:
256,192,215535,1,0,0:0:0:0:
475,192,215535,1,0,0:0:0:0:
402,192,215535,1,0,0:0:0:0:
475,192,215610,1,0,0:0:0:0:
402,192,215610,1,0,0:0:0:0:
109,192,215685,1,0,0:0:0:0:
36,192,215685,1,0,0:0:0:0:
256,192,215835,128,0,217035:0:0:0:0:
329,192,215835,1,0,0:0:0:0:
109,192,215835,1,0,0:0:0:0:
36,192,215835,1,0,0:0:0:0:
109,192,215910,1,0,0:0:0:0:
36,192,215910,1,0,0:0:0:0:
329,192,215985,1,0,0:0:0:0:
475,192,215985,1,0,0:0:0:0:
402,192,216135,1,0,0:0:0:0:
475,192,216135,1,0,0:0:0:0:
182,192,216135,1,0,0:0:0:0:
402,192,216210,1,0,0:0:0:0:
475,192,216210,1,0,0:0:0:0:
182,192,216285,1,0,0:0:0:0:
36,192,216285,1,0,0:0:0:0:
109,192,216435,1,0,0:0:0:0:
36,192,216435,1,0,0:0:0:0:
329,192,216435,1,0,0:0:0:0:
36,192,216510,1,0,0:0:0:0:
109,192,216510,1,0,0:0:0:0:
329,192,216585,1,0,0:0:0:0:
475,192,216585,1,0,0:0:0:0:
402,192,216735,1,0,0:0:0:0:
475,192,216735,1,0,0:0:0:0:
182,192,216735,1,0,0:0:0:0:
475,192,216810,1,0,0:0:0:0:
402,192,216810,1,0,0:0:0:0:
182,192,216885,1,0,0:0:0:0:
36,192,216885,1,0,0:0:0:0:
329,192,217035,1,0,0:0:0:0:
36,192,217035,128,0,218235:0:0:0:0:
475,192,217035,128,0,218235:0:0:0:0:
109,192,217035,1,0,0:0:0:0:
182,192,217035,1,0,0:0:0:0:
182,192,217110,5,0,0:0:0:0:
109,192,217110,1,0,0:0:0:0:
402,192,217185,1,0,0:0:0:0:
329,192,217185,1,0,0:0:0:0:
182,192,217335,1,0,0:0:0:0:
329,192,217335,1,0,0:0:0:0:
402,192,217335,1,0,0:0:0:0:
402,192,217410,1,0,0:0:0:0:
329,192,217410,1,0,0:0:0:0:
182,192,217485,1,0,0:0:0:0:
109,192,217485,1,0,0:0:0:0:
329,192,217635,1,0,0:0:0:0:
182,192,217635,1,0,0:0:0:0:
109,192,217635,1,0,0:0:0:0:
182,192,217710,1,0,0:0:0:0:
109,192,217710,1,0,0:0:0:0:
402,192,217785,1,0,0:0:0:0:
329,192,217785,1,0,0:0:0:0:
182,192,217935,1,0,0:0:0:0:
402,192,217935,1,0,0:0:0:0:
329,192,217935,1,0,0:0:0:0:
329,192,218010,1,0,0:0:0:0:
402,192,218010,1,0,0:0:0:0:
182,192,218085,1,0,0:0:0:0:
109,192,218085,1,0,0:0:0:0:
256,192,218160,1,0,0:0:0:0:
329,192,218235,5,0,0:0:0:0:
402,192,218235,1,0,0:0:0:0:
109,192,218235,1,0,0:0:0:0:
182,192,218310,1,0,0:0:0:0:
329,192,218385,1,0,0:0:0:0:
402,192,218385,1,0,0:0:0:0:
475,192,218385,1,0,0:0:0:0:
182,192,218460,1,0,0:0:0:0:
475,192,218535,1,0,0:0:0:0:
402,192,218535,1,0,0:0:0:0:
256,192,218535,1,0,0:0:0:0:
109,192,218610,1,0,0:0:0:0:
402,192,218685,1,0,0:0:0:0:
475,192,218685,1,0,0:0:0:0:
256,192,218685,1,0,0:0:0:0:
109,192,218760,1,0,0:0:0:0:
402,192,218835,1,0,0:0:0:0:
475,192,218835,1,0,0:0:0:0:
329,192,218835,1,0,0:0:0:0:
182,192,218910,1,0,0:0:0:0:
402,192,218985,1,0,0:0:0:0:
475,192,218985,1,0,0:0:0:0:
329,192,218985,1,0,0:0:0:0:
182,192,219060,1,0,0:0:0:0:
475,192,219135,1,0,0:0:0:0:
402,192,219135,1,0,0:0:0:0:
256,192,219135,1,0,0:0:0:0:
109,192,219210,1,0,0:0:0:0:
402,192,219285,1,0,0:0:0:0:
475,192,219285,1,0,0:0:0:0:
256,192,219285,1,0,0:0:0:0:
182,192,219360,1,0,0:0:0:0:
109,192,219360,1,0,0:0:0:0:
36,192,219360,1,0,0:0:0:0:
329,192,219435,1,0,0:0:0:0:
402,192,219435,1,0,0:0:0:0:
475,192,219435,1,0,0:0:0:0:
256,192,219435,1,0,0:0:0:0:
109,192,219510,1,0,0:0:0:0:
182,192,219510,1,0,0:0:0:0:
402,192,219585,1,0,0:0:0:0:
475,192,219585,1,0,0:0:0:0:
329,192,219585,1,0,0:0:0:0:
182,192,219660,1,0,0:0:0:0:
109,192,219660,1,0,0:0:0:0:
402,192,219735,1,0,0:0:0:0:
475,192,219735,1,0,0:0:0:0:
256,192,219735,1,0,0:0:0:0:
36,192,219810,1,0,0:0:0:0:
109,192,219810,1,0,0:0:0:0:
402,192,219885,1,0,0:0:0:0:
475,192,219885,1,0,0:0:0:0:
256,192,219885,1,0,0:0:0:0:
36,192,219960,1,0,0:0:0:0:
109,192,219960,1,0,0:0:0:0:
475,192,220035,1,0,0:0:0:0:
402,192,220035,1,0,0:0:0:0:
329,192,220035,1,0,0:0:0:0:
109,192,220110,1,0,0:0:0:0:
182,192,220110,1,0,0:0:0:0:
402,192,220185,1,0,0:0:0:0:
475,192,220185,1,0,0:0:0:0:
329,192,220185,1,0,0:0:0:0:
109,192,220260,1,0,0:0:0:0:
182,192,220260,1,0,0:0:0:0:
402,192,220335,1,0,0:0:0:0:
475,192,220335,1,0,0:0:0:0:
256,192,220335,1,0,0:0:0:0:
36,192,220410,1,0,0:0:0:0:
109,192,220410,1,0,0:0:0:0:
402,192,220485,1,0,0:0:0:0:
475,192,220485,1,0,0:0:0:0:
256,192,220485,1,0,0:0:0:0:
182,192,220522,1,0,0:0:0:0:
109,192,220560,1,0,0:0:0:0:
36,192,220597,1,0,0:0:0:0:
402,192,220635,1,0,0:0:0:0:
475,192,220635,1,0,0:0:0:0:
329,192,220635,1,0,0:0:0:0:
256,192,220635,1,0,0:0:0:0:
182,192,220710,1,0,0:0:0:0:
109,192,220710,1,0,0:0:0:0:
402,192,220785,1,0,0:0:0:0:
475,192,220785,1,0,0:0:0:0:
256,192,220785,1,0,0:0:0:0:
36,192,220860,1,0,0:0:0:0:
109,192,220860,1,0,0:0:0:0:
402,192,220935,1,0,0:0:0:0:
329,192,220935,1,0,0:0:0:0:
182,192,220935,1,0,0:0:0:0:
36,192,221010,1,0,0:0:0:0:
109,192,221010,1,0,0:0:0:0:
182,192,221085,1,0,0:0:0:0:
329,192,221085,1,0,0:0:0:0:
402,192,221085,1,0,0:0:0:0:
109,192,221235,1,0,0:0:0:0:
36,192,221235,1,0,0:0:0:0:
475,192,221235,1,0,0:0:0:0:
256,192,221235,1,0,0:0:0:0:
402,192,221310,1,0,0:0:0:0:
329,192,221310,1,0,0:0:0:0:
36,192,221385,1,0,0:0:0:0:
256,192,221385,1,0,0:0:0:0:
109,192,221385,1,0,0:0:0:0:
402,192,221460,1,0,0:0:0:0:
475,192,221460,1,0,0:0:0:0:
109,192,221535,1,0,0:0:0:0:
329,192,221535,1,0,0:0:0:0:
182,192,221535,1,0,0:0:0:0:
475,192,221610,1,0,0:0:0:0:
182,192,221685,1,0,0:0:0:0:
109,192,221685,1,0,0:0:0:0:
402,192,221685,1,0,0:0:0:0:
256,192,221722,1,0,0:0:0:0:
329,192,221760,1,0,0:0:0:0:
402,192,221797,1,0,0:0:0:0:
36,192,221835,1,0,0:0:0:0:
182,192,221835,1,0,0:0:0:0:
475,192,221835,1,0,0:0:0:0:
256,192,221910,1,0,0:0:0:0:
329,192,221985,1,0,0:0:0:0:
402,192,221985,1,0,0:0:0:0:
109,192,222060,1,0,0:0:0:0:
182,192,222060,1,0,0:0:0:0:
329,192,222135,1,0,0:0:0:0:
475,192,222135,1,0,0:0:0:0:
36,192,222135,1,0,0:0:0:0:
182,192,222210,1,0,0:0:0:0:
329,192,222285,1,0,0:0:0:0:
36,192,222285,1,0,0:0:0:0:
109,192,222322,1,0,0:0:0:0:
182,192,222360,1,0,0:0:0:0:
256,192,222397,1,0,0:0:0:0:
329,192,222435,1,0,0:0:0:0:
36,192,222435,1,0,0:0:0:0:
475,192,222435,1,0,0:0:0:0:
109,192,222510,1,0,0:0:0:0:
182,192,222510,1,0,0:0:0:0:
329,192,222585,1,0,0:0:0:0:
402,192,222585,1,0,0:0:0:0:
182,192,222660,1,0,0:0:0:0:
109,192,222660,1,0,0:0:0:0:
329,192,222735,1,0,0:0:0:0:
36,192,222735,1,0,0:0:0:0:
475,192,222772,1,0,0:0:0:0:
256,192,222810,1,0,0:0:0:0:
109,192,222810,1,0,0:0:0:0:
402,192,222847,1,0,0:0:0:0:
182,192,222885,1,0,0:0:0:0:
329,192,222922,1,0,0:0:0:0:
109,192,222960,1,0,0:0:0:0:
256,192,222997,1,0,0:0:0:0:
475,192,223035,1,0,0:0:0:0:
36,192,223035,128,0,223635:0:0:0:0:
182,192,223035,128,0,223185:0:0:0:0:
402,192,223035,1,0,0:0:0:0:
329,192,223110,128,0,223260:0:0:0:0:
256,192,223185,128,0,223335:0:0:0:0:
182,192,223260,128,0,223335:0:0:0:0:
475,192,223335,1,0,0:0:0:0:
402,192,223335,128,0,223485:0:0:0:0:
182,192,223410,128,0,223560:0:0:0:0:
256,192,223485,128,0,223635:0:0:0:0:
329,192,223560,128,0,223635:0:0:0:0:
109,192,223635,128,0,224835:0:0:0:0:
475,192,223635,1,0,0:0:0:0:
182,192,223635,128,0,223785:0:0:0:0:
329,192,223710,128,0,223860:0:0:0:0:
256,192,223785,128,0,223935:0:0:0:0:
182,192,223860,128,0,223935:0:0:0:0:
475,192,223935,1,0,0:0:0:0:
402,192,223935,128,0,224085:0:0:0:0:
182,192,224010,128,0,224160:0:0:0:0:
256,192,224085,128,0,224235:0:0:0:0:
329,192,224160,128,0,224235:0:0:0:0:
475,192,224235,1,0,0:0:0:0:
36,192,224235,128,0,224385:0:0:0:0:
329,192,224310,128,0,224460:0:0:0:0:
256,192,224385,128,0,224535:0:0:0:0:
182,192,224460,128,0,224535:0:0:0:0:
475,192,224535,1,0,0:0:0:0:
402,192,224535,128,0,224685:0:0:0:0:
182,192,224610,128,0,224760:0:0:0:0:
256,192,224685,128,0,224835:0:0:0:0:
329,192,224760,128,0,224835:0:0:0:0:
475,192,224835,128,0,225435:0:0:0:0:
36,192,224835,1,0,0:0:0:0:
182,192,224835,128,0,224985:0:0:0:0:
329,192,224910,128,0,225060:0:0:0:0:
256,192,224985,128,0,225135:0:0:0:0:
402,192,225035,128,0,225435:0:0:0:0:
109,192,225060,128,0,225135:0:0:0:0:
329,192,225135,128,0,225285:0:0:0:0:
182,192,225210,128,0,225285:0:0:0:0:
36,192,225235,128,0,225435:0:0:0:0:
256,192,225285,128,0,225435:0:0:0:0:
182,192,225360,128,0,225435:0:0:0:0:
329,192,225435,128,0,226035:0:0:0:0:
109,192,225435,128,0,225585:0:0:0:0:
256,192,225510,128,0,225660:0:0:0:0:
182,192,225585,128,0,225735:0:0:0:0:
109,192,225660,128,0,225735:0:0:0:0:
475,192,225735,1,0,0:0:0:0:
256,192,225735,128,0,225885:0:0:0:0:
109,192,225810,128,0,225960:0:0:0:0:
182,192,225885,128,0,226035:0:0:0:0:
256,192,225960,128,0,226035:0:0:0:0:
36,192,226035,128,0,227235:0:0:0:0:
475,192,226035,1,0,0:0:0:0:
109,192,226035,128,0,226185:0:0:0:0:
329,192,226110,128,0,226260:0:0:0:0:
256,192,226185,128,0,226335:0:0:0:0:
182,192,226260,128,0,226335:0:0:0:0:
475,192,226335,1,0,0:0:0:0:
329,192,226335,128,0,226485:0:0:0:0:
182,192,226410,128,0,226560:0:0:0:0:
256,192,226485,128,0,226635:0:0:0:0:
329,192,226560,128,0,226635:0:0:0:0:
109,192,226635,1,0,0:0:0:0:
475,192,226635,128,0,226785:0:0:0:0:
402,192,226710,128,0,226860:0:0:0:0:
329,192,226785,128,0,226935:0:0:0:0:
256,192,226860,128,0,226935:0:0:0:0:
475,192,226935,1,0,0:0:0:0:
182,192,226935,128,0,227085:0:0:0:0:
329,192,227010,128,0,227160:0:0:0:0:
402,192,227085,128,0,227235:0:0:0:0:
256,192,227160,128,0,227235:0:0:0:0:
182,192,227235,128,0,227835:0:0:0:0:
109,192,227235,1,0,0:0:0:0:
329,192,227235,128,0,227385:0:0:0:0:
475,192,227310,128,0,227460:0:0:0:0:
402,192,227385,128,0,227460:0:0:0:0:
329,192,227460,128,0,227535:0:0:0:0:
36,192,227535,1,0,0:0:0:0:
402,192,227535,128,0,227685:0:0:0:0:
256,192,227610,128,0,227760:0:0:0:0:
36,192,227685,1,0,0:0:0:0:
329,192,227685,128,0,227835:0:0:0:0:
402,192,227760,128,0,227835:0:0:0:0:
109,192,227835,128,0,228435:0:0:0:0:
256,192,227835,1,0,0:0:0:0:
475,192,227835,128,0,227985:0:0:0:0:
402,192,227910,128,0,228060:0:0:0:0:
329,192,227985,128,0,228135:0:0:0:0:
182,192,228060,128,0,228135:0:0:0:0:
36,192,228135,1,0,0:0:0:0:
475,192,228135,128,0,228285:0:0:0:0:
182,192,228210,128,0,228360:0:0:0:0:
256,192,228285,128,0,228435:0:0:0:0:
402,192,228360,128,0,228435:0:0:0:0:
329,192,228435,128,0,229635:0:0:0:0:
36,192,228435,1,0,0:0:0:0:
475,192,228435,128,0,228585:0:0:0:0:
109,192,228510,128,0,228660:0:0:0:0:
256,192,228585,128,0,228735:0:0:0:0:
182,192,228660,128,0,228735:0:0:0:0:
36,192,228735,1,0,0:0:0:0:
475,192,228735,128,0,228885:0:0:0:0:
182,192,228810,128,0,228960:0:0:0:0:
256,192,228885,128,0,229035:0:0:0:0:
109,192,228960,128,0,229035:0:0:0:0:
36,192,229035,1,0,0:0:0:0:
475,192,229035,128,0,229185:0:0:0:0:
402,192,229110,128,0,229260:0:0:0:0:
256,192,229185,128,0,229335:0:0:0:0:
109,192,229260,128,0,229335:0:0:0:0:
475,192,229335,1,0,0:0:0:0:
36,192,229335,128,0,229485:0:0:0:0:
182,192,229410,128,0,229560:0:0:0:0:
256,192,229485,128,0,229635:0:0:0:0:
109,192,229560,128,0,229635:0:0:0:0:
182,192,229635,128,0,229710:0:0:0:0:
402,192,229635,128,0,229735:0:0:0:0:
475,192,229635,128,0,229735:0:0:0:0:
36,192,229710,128,0,229860:0:0:0:0:
182,192,229785,128,0,229935:0:0:0:0:
402,192,229835,128,0,229935:0:0:0:0:
329,192,229835,128,0,229935:0:0:0:0:
109,192,229860,128,0,229935:0:0:0:0:
475,192,229935,128,0,230085:0:0:0:0:
36,192,230010,128,0,230160:0:0:0:0:
329,192,230035,128,0,230135:0:0:0:0:
256,192,230035,128,0,230135:0:0:0:0:
109,192,230085,128,0,230235:0:0:0:0:
182,192,230160,128,0,230235:0:0:0:0:
475,192,230235,128,0,230835:0:0:0:0:
36,192,230235,1,0,0:0:0:0:
329,192,230235,128,0,230385:0:0:0:0:
109,192,230310,128,0,230460:0:0:0:0:
256,192,230385,128,0,230535:0:0:0:0:
182,192,230460,128,0,230535:0:0:0:0:
36,192,230535,1,0,0:0:0:0:
402,192,230535,128,0,230685:0:0:0:0:
182,192,230610,128,0,230760:0:0:0:0:
256,192,230685,128,0,230760:0:0:0:0:
109,192,230760,128,0,230835:0:0:0:0:
256,192,230835,128,0,232335:0:0:0:0:
36,192,230835,1,0,0:0:0:0:
402,192,230835,128,0,230985:0:0:0:0:
329,192,230910,128,0,231060:0:0:0:0:
182,192,230985,128,0,231135:0:0:0:0:
109,192,231060,128,0,231135:0:0:0:0:
475,192,231135,1,0,0:0:0:0:
402,192,231135,128,0,231285:0:0:0:0:
109,192,231210,128,0,231360:0:0:0:0:
182,192,231285,128,0,231435:0:0:0:0:
329,192,231360,128,0,231435:0:0:0:0:
36,192,231435,1,0,0:0:0:0:
475,192,231435,128,0,231585:0:0:0:0:
402,192,231510,128,0,231660:0:0:0:0:
329,192,231585,128,0,231735:0:0:0:0:
182,192,231660,128,0,231735:0:0:0:0:
109,192,231735,1,0,0:0:0:0:
402,192,231735,128,0,231885:0:0:0:0:
329,192,231810,128,0,231960:0:0:0:0:
182,192,231885,128,0,232035:0:0:0:0:
109,192,231960,128,0,232035:0:0:0:0:
36,192,232035,1,0,0:0:0:0:
475,192,232035,128,0,232185:0:0:0:0:
329,192,232110,128,0,232185:0:0:0:0:
182,192,232185,128,0,232260:0:0:0:0:
329,192,232260,128,0,232335:0:0:0:0:
182,192,232335,128,0,232635:0:0:0:0:
36,192,232335,1,0,0:0:0:0:
402,192,232335,1,0,0:0:0:0:
329,192,232485,1,0,0:0:0:0:
329,192,232560,1,0,0:0:0:0:
475,192,232635,1,0,0:0:0:0:
256,192,232635,1,0,0:0:0:0:
36,192,232635,128,0,233235:0:0:0:0:
402,192,232635,128,0,232785:0:0:0:0:
329,192,232710,128,0,232860:0:0:0:0:
256,192,232785,128,0,232935:0:0:0:0:
182,192,232860,128,0,232935:0:0:0:0:
475,192,232935,1,0,0:0:0:0:
402,192,232935,128,0,233085:0:0:0:0:
182,192,233010,128,0,233160:0:0:0:0:
256,192,233085,128,0,233235:0:0:0:0:
329,192,233160,128,0,233235:0:0:0:0:
475,192,233235,1,0,0:0:0:0:
109,192,233235,128,0,234435:0:0:0:0:
182,192,233235,128,0,233385:0:0:0:0:
329,192,233310,128,0,233460:0:0:0:0:
256,192,233385,128,0,233535:0:0:0:0:
182,192,233460,128,0,233535:0:0:0:0:
475,192,233535,1,0,0:0:0:0:
402,192,233535,128,0,233685:0:0:0:0:
182,192,233610,128,0,233760:0:0:0:0:
256,192,233685,128,0,233835:0:0:0:0:
329,192,233760,128,0,233835:0:0:0:0:
475,192,233835,1,0,0:0:0:0:
36,192,233835,128,0,233985:0:0:0:0:
329,192,233910,128,0,234060:0:0:0:0:
256,192,233985,128,0,234135:0:0:0:0:
182,192,234060,128,0,234135:0:0:0:0:
475,192,234135,1,0,0:0:0:0:
402,192,234135,128,0,234285:0:0:0:0:
182,192,234210,128,0,234360:0:0:0:0:
256,192,234285,128,0,234435:0:0:0:0:
329,192,234360,128,0,234435:0:0:0:0:
36,192,234435,1,0,0:0:0:0:
475,192,234435,128,0,235035:0:0:0:0:
182,192,234435,128,0,234585:0:0:0:0:
329,192,234510,128,0,234660:0:0:0:0:
256,192,234585,128,0,234735:0:0:0:0:
402,192,234635,128,0,235035:0:0:0:0:
109,192,234660,128,0,234735:0:0:0:0:
329,192,234735,128,0,234885:0:0:0:0:
182,192,234810,128,0,234885:0:0:0:0:
36,192,234835,128,0,235035:0:0:0:0:
256,192,234885,128,0,235035:0:0:0:0:
182,192,234960,128,0,235035:0:0:0:0:
329,192,235035,128,0,235635:0:0:0:0:
109,192,235035,128,0,235185:0:0:0:0:
256,192,235110,128,0,235260:0:0:0:0:
182,192,235185,128,0,235335:0:0:0:0:
109,192,235260,128,0,235335:0:0:0:0:
475,192,235335,1,0,0:0:0:0:
256,192,235335,128,0,235485:0:0:0:0:
109,192,235410,128,0,235560:0:0:0:0:
182,192,235485,128,0,235635:0:0:0:0:
256,192,235560,128,0,235635:0:0:0:0:
475,192,235635,1,0,0:0:0:0:
36,192,235635,128,0,236835:0:0:0:0:
109,192,235635,128,0,235785:0:0:0:0:
329,192,235710,128,0,235860:0:0:0:0:
256,192,235785,128,0,235935:0:0:0:0:
182,192,235860,128,0,235935:0:0:0:0:
475,192,235935,1,0,0:0:0:0:
329,192,235935,128,0,236085:0:0:0:0:
182,192,236010,128,0,236160:0:0:0:0:
256,192,236085,128,0,236235:0:0:0:0:
329,192,236160,128,0,236235:0:0:0:0:
109,192,236235,1,0,0:0:0:0:
475,192,236235,128,0,236385:0:0:0:0:
402,192,236310,128,0,236460:0:0:0:0:
329,192,236385,128,0,236535:0:0:0:0:
256,192,236460,128,0,236535:0:0:0:0:
475,192,236535,1,0,0:0:0:0:
182,192,236535,128,0,236685:0:0:0:0:
329,192,236610,128,0,236760:0:0:0:0:
402,192,236685,128,0,236835:0:0:0:0:
256,192,236760,128,0,236835:0:0:0:0:
109,192,236835,1,0,0:0:0:0:
182,192,236835,128,0,237435:0:0:0:0:
329,192,236835,128,0,236985:0:0:0:0:
475,192,236910,128,0,237060:0:0:0:0:
402,192,236985,128,0,237060:0:0:0:0:
329,192,237060,128,0,237135:0:0:0:0:
36,192,237135,1,0,0:0:0:0:
402,192,237135,128,0,237285:0:0:0:0:
256,192,237210,128,0,237360:0:0:0:0:
36,192,237285,1,0,0:0:0:0:
329,192,237285,128,0,237435:0:0:0:0:
402,192,237360,128,0,237435:0:0:0:0:
256,192,237435,5,0,0:0:0:0:
36,192,237435,1,0,0:0:0:0:
109,192,237435,1,0,0:0:0:0:
475,192,237435,1,0,0:0:0:0:
402,192,237510,1,0,0:0:0:0:
329,192,237510,1,0,0:0:0:0:
36,192,237585,1,0,0:0:0:0:
109,192,237585,1,0,0:0:0:0:
256,192,237585,1,0,0:0:0:0:
402,192,237660,1,0,0:0:0:0:
329,192,237660,1,0,0:0:0:0:
36,192,237735,1,0,0:0:0:0:
182,192,237735,1,0,0:0:0:0:
329,192,237810,1,0,0:0:0:0:
475,192,237810,1,0,0:0:0:0:
36,192,237885,1,0,0:0:0:0:
182,192,237885,1,0,0:0:0:0:
329,192,237960,1,0,0:0:0:0:
402,192,238035,1,0,0:0:0:0:
475,192,238035,1,0,0:0:0:0:
256,192,238035,1,0,0:0:0:0:
109,192,238110,1,0,0:0:0:0:
182,192,238110,1,0,0:0:0:0:
402,192,238185,1,0,0:0:0:0:
475,192,238185,1,0,0:0:0:0:
256,192,238185,1,0,0:0:0:0:
109,192,238260,1,0,0:0:0:0:
182,192,238260,1,0,0:0:0:0:
329,192,238335,1,0,0:0:0:0:
475,192,238335,1,0,0:0:0:0:
182,192,238410,1,0,0:0:0:0:
36,192,238410,1,0,0:0:0:0:
329,192,238485,1,0,0:0:0:0:
475,192,238485,1,0,0:0:0:0:
256,192,238560,1,0,0:0:0:0:
109,192,238560,1,0,0:0:0:0:
182,192,238635,1,0,0:0:0:0:
36,192,238635,1,0,0:0:0:0:
402,192,238635,1,0,0:0:0:0:
475,192,238635,1,0,0:0:0:0:
329,192,238710,1,0,0:0:0:0:
256,192,238710,1,0,0:0:0:0:
182,192,238785,1,0,0:0:0:0:
402,192,238785,1,0,0:0:0:0:
36,192,238785,1,0,0:0:0:0:
256,192,238860,1,0,0:0:0:0:
109,192,238935,1,0,0:0:0:0:
329,192,238935,1,0,0:0:0:0:
475,192,238935,1,0,0:0:0:0:
182,192,239010,1,0,0:0:0:0:
109,192,239085,1,0,0:0:0:0:
329,192,239085,1,0,0:0:0:0:
475,192,239085,1,0,0:0:0:0:
256,192,239160,1,0,0:0:0:0:
475,192,239235,1,0,0:0:0:0:
36,192,239235,1,0,0:0:0:0:
182,192,239235,1,0,0:0:0:0:
402,192,239235,1,0,0:0:0:0:
256,192,239310,1,0,0:0:0:0:
329,192,239310,1,0,0:0:0:0:
109,192,239385,1,0,0:0:0:0:
182,192,239385,1,0,0:0:0:0:
402,192,239435,1,0,0:0:0:0:
329,192,239435,1,0,0:0:0:0:
256,192,239460,1,0,0:0:0:0:
36,192,239535,1,0,0:0:0:0:
475,192,239535,1,0,0:0:0:0:
109,192,239535,1,0,0:0:0:0:
182,192,239610,1,0,0:0:0:0:
329,192,239635,1,0,0:0:0:0:
256,192,239635,1,0,0:0:0:0:
36,192,239685,1,0,0:0:0:0:
109,192,239685,1,0,0:0:0:0:
402,192,239685,1,0,0:0:0:0:
182,192,239760,1,0,0:0:0:0:
329,192,239760,1,0,0:0:0:0:
36,192,239835,1,0,0:0:0:0:
109,192,239835,1,0,0:0:0:0:
256,192,239835,1,0,0:0:0:0:
475,192,239835,1,0,0:0:0:0:
402,192,239835,1,0,0:0:0:0:
329,192,239910,1,0,0:0:0:0:
109,192,239985,1,0,0:0:0:0:
182,192,239985,1,0,0:0:0:0:
475,192,239985,1,0,0:0:0:0:
329,192,240060,1,0,0:0:0:0:
402,192,240135,1,0,0:0:0:0:
182,192,240135,1,0,0:0:0:0:
109,192,240135,1,0,0:0:0:0:
256,192,240210,1,0,0:0:0:0:
36,192,240285,1,0,0:0:0:0:
182,192,240285,1,0,0:0:0:0:
402,192,240285,1,0,0:0:0:0:
256,192,240360,1,0,0:0:0:0:
329,192,240360,1,0,0:0:0:0:
475,192,240435,1,0,0:0:0:0:
402,192,240435,1,0,0:0:0:0:
36,192,240435,1,0,0:0:0:0:
182,192,240435,1,0,0:0:0:0:
329,192,240510,1,0,0:0:0:0:
109,192,240585,1,0,0:0:0:0:
475,192,240585,1,0,0:0:0:0:
256,192,240585,1,0,0:0:0:0:
182,192,240660,1,0,0:0:0:0:
329,192,240735,1,0,0:0:0:0:
402,192,240735,1,0,0:0:0:0:
36,192,240735,1,0,0:0:0:0:
182,192,240810,1,0,0:0:0:0:
329,192,240885,1,0,0:0:0:0:
475,192,240885,1,0,0:0:0:0:
36,192,240885,1,0,0:0:0:0:
256,192,240922,1,0,0:0:0:0:
182,192,240960,1,0,0:0:0:0:
109,192,240997,1,0,0:0:0:0:
36,192,241035,1,0,0:0:0:0:
475,192,241035,1,0,0:0:0:0:
402,192,241035,1,0,0:0:0:0:
329,192,241110,1,0,0:0:0:0:
182,192,241185,1,0,0:0:0:0:
109,192,241185,1,0,0:0:0:0:
256,192,241222,1,0,0:0:0:0:
329,192,241260,1,0,0:0:0:0:
402,192,241297,1,0,0:0:0:0:
36,192,241335,1,0,0:0:0:0:
475,192,241335,1,0,0:0:0:0:
109,192,241335,1,0,0:0:0:0:
182,192,241410,1,0,0:0:0:0:
329,192,241485,1,0,0:0:0:0:
402,192,241485,1,0,0:0:0:0:
256,192,241522,1,0,0:0:0:0:
182,192,241560,1,0,0:0:0:0:
109,192,241597,1,0,0:0:0:0:
36,192,241635,1,0,0:0:0:0:
402,192,241635,1,0,0:0:0:0:
475,192,241635,1,0,0:0:0:0:
329,192,241710,1,0,0:0:0:0:
256,192,241710,1,0,0:0:0:0:
182,192,241785,1,0,0:0:0:0:
109,192,241785,1,0,0:0:0:0:
329,192,241860,1,0,0:0:0:0:
402,192,241860,1,0,0:0:0:0:
182,192,241935,1,0,0:0:0:0:
475,192,241935,1,0,0:0:0:0:
36,192,241972,1,0,0:0:0:0:
402,192,242010,1,0,0:0:0:0:
256,192,242010,1,0,0:0:0:0:
109,192,242047,1,0,0:0:0:0:
329,192,242085,1,0,0:0:0:0:
182,192,242122,1,0,0:0:0:0:
402,192,242160,1,0,0:0:0:0:
256,192,242197,1,0,0:0:0:0:
475,192,242235,1,0,0:0:0:0:
36,192,242235,128,0,243435:0:0:0:0:
109,192,242235,128,0,243435:0:0:0:0:
329,192,242235,128,0,243435:0:0:0:0:
475,192,243435,128,0,244635:0:0:0:0:
402,192,243435,128,0,244035:0:0:0:0:
256,192,243435,128,0,244035:0:0:0:0:
36,192,244035,128,0,244635:0:0:0:0:
182,192,244035,128,0,244635:0:0:0:0:
109,192,244635,128,0,245835:0:0:0:0:
256,192,244635,128,0,245835:0:0:0:0:
402,192,244635,128,0,245835:0:0:0:0:
475,192,245835,128,0,246135:0:0:0:0:
329,192,245835,128,0,246135:0:0:0:0:
182,192,245835,128,0,246135:0:0:0:0:
36,192,246135,128,0,246360:0:0:0:0:
109,192,246135,128,0,246360:0:0:0:0:
256,192,246135,128,0,246360:0:0:0:0:
182,192,246435,128,0,246535:0:0:0:0:
256,192,246435,128,0,246535:0:0:0:0:
36,192,246435,128,0,246535:0:0:0:0:
109,192,246635,128,0,246735:0:0:0:0:
256,192,246635,128,0,246735:0:0:0:0:
329,192,246635,128,0,246735:0:0:0:0:
182,192,246835,128,0,246935:0:0:0:0:
329,192,246835,128,0,246935:0:0:0:0:
402,192,246835,128,0,246935:0:0:0:0:
475,192,247035,128,0,253035:0:0:0:0:
402,192,247035,128,0,247635:0:0:0:0:
256,192,247035,128,0,247635:0:0:0:0:
329,192,247635,128,0,253035:0:0:0:0:
182,192,247635,128,0,253035:0:0:0:0:
36,192,248235,128,0,253035:0:0:0:0:
109,192,248235,128,0,253035:0:0:0:0:
402,192,248235,128,0,253035:0:0:0:0:
