osu file format v14

[General]
AudioFilename: zenith.mp3
AudioLeadIn: 0
PreviewTime: 153435
Countdown: 0
SampleSet: Soft
StackLeniency: 0.7
Mode: 3
LetterboxInBreaks: 0
SpecialStyle: 0
WidescreenStoryboard: 1

[Editor]
DistanceSpacing: 1.5
BeatDivisor: 4
GridSize: 4
TimelineZoom: 2.4

[Metadata]
Title:Blue Zenith
TitleUnicode:Blue Zenith
Artist:xi
ArtistUnicode:xi
Creator:Jinjin
Version:JINDIMENSIONS
Source:
Tags:
BeatmapID:1174605
BeatmapSetID:290031

[Difficulty]
HPDrainRate:6.9
CircleSize:7
OverallDifficulty:5
ApproachRate:5
SliderMultiplier:1.4
SliderTickRate:1

[Events]
//Background and Video events
0,0,"earth_15-wallpaper-1366x768.jpg",0,0
//Break Periods
//Storyboard Layer 0 (Background)
//Storyboard Layer 1 (Fail)
//Storyboard Layer 2 (Pass)
//Storyboard Layer 3 (Foreground)
//Storyboard Sound Samples

[TimingPoints]
2235,300,4,2,0,0,1,0
69435,-125,4,2,0,0,0,0
92835,-100,4,2,0,0,0,0

[HitObjects]
256,192,1335,128,0,2235:0:0:0:0:
182,192,2235,5,0,0:0:0:0:
36,192,2235,1,0,0:0:0:0:
182,192,2535,1,0,0:0:0:0:
182,192,2835,1,0,0:0:0:0:
182,192,3135,1,0,0:0:0:0:
182,192,3435,1,0,0:0:0:0:
182,192,3735,1,0,0:0:0:0:
182,192,4035,1,0,0:0:0:0:
182,192,4335,1,0,0:0:0:0:
182,192,4635,1,0,0:0:0:0:
182,192,4935,1,0,0:0:0:0:
182,192,5235,1,0,0:0:0:0:
182,192,5535,1,0,0:0:0:0:
182,192,5835,1,0,0:0:0:0:
182,192,6135,1,0,0:0:0:0:
182,192,6435,1,0,0:0:0:0:
182,192,6735,1,0,0:0:0:0:
475,192,7035,1,0,0:0:0:0:
36,192,7035,1,0,0:0:0:0:
256,192,7035,1,0,0:0:0:0:
402,192,7110,1,0,0:0:0:0:
329,192,7185,1,0,0:0:0:0:
182,192,7260,1,0,0:0:0:0:
36,192,7335,1,0,0:0:0:0:
475,192,7335,1,0,0:0:0:0:
402,192,7410,1,0,0:0:0:0:
329,192,7485,1,0,0:0:0:0:
182,192,7560,1,0,0:0:0:0:
36,192,7635,1,0,0:0:0:0:
475,192,7635,1,0,0:0:0:0:
402,192,7710,1,0,0:0:0:0:
329,192,7785,1,0,0:0:0:0:
182,192,7860,1,0,0:0:0:0:
36,192,7935,1,0,0:0:0:0:
475,192,7935,1,0,0:0:0:0:
402,192,8010,1,0,0:0:0:0:
329,192,8085,1,0,0:0:0:0:
182,192,8160,1,0,0:0:0:0:
36,192,8235,1,0,0:0:0:0:
475,192,8235,1,0,0:0:0:0:
402,192,8310,1,0,0:0:0:0:
329,192,8385,1,0,0:0:0:0:
182,192,8460,1,0,0:0:0:0:
36,192,8535,1,0,0:0:0:0:
475,192,8535,1,0,0:0:0:0:
402,192,8610,1,0,0:0:0:0:
329,192,8685,1,0,0:0:0:0:
182,192,8760,1,0,0:0:0:0:
36,192,8835,1,0,0:0:0:0:
475,192,8835,1,0,0:0:0:0:
402,192,8910,1,0,0:0:0:0:
329,192,8985,1,0,0:0:0:0:
182,192,9060,1,0,0:0:0:0:
36,192,9135,1,0,0:0:0:0:
475,192,9135,1,0,0:0:0:0:
402,192,9210,1,0,0:0:0:0:
329,192,9285,1,0,0:0:0:0:
182,192,9360,1,0,0:0:0:0:
36,192,9435,1,0,0:0:0:0:
36,192,9735,1,0,0:0:0:0:
36,192,10035,1,0,0:0:0:0:
182,192,10335,1,0,0:0:0:0:
36,192,10335,1,0,0:0:0:0:
329,192,10410,1,0,0:0:0:0:
109,192,10485,1,0,0:0:0:0:
402,192,10560,1,0,0:0:0:0:
36,192,10635,1,0,0:0:0:0:
256,192,10635,1,0,0:0:0:0:
475,192,10710,1,0,0:0:0:0:
329,192,10710,1,0,0:0:0:0:
182,192,10785,1,0,0:0:0:0:
109,192,10785,1,0,0:0:0:0:
256,192,10860,1,0,0:0:0:0:
402,192,10860,1,0,0:0:0:0:
36,192,10935,1,0,0:0:0:0:
109,192,10935,1,0,0:0:0:0:
329,192,11010,1,0,0:0:0:0:
475,192,11010,1,0,0:0:0:0:
36,192,11085,1,0,0:0:0:0:
182,192,11085,1,0,0:0:0:0:
329,192,11160,1,0,0:0:0:0:
402,192,11160,1,0,0:0:0:0:
109,192,11235,1,0,0:0:0:0:
256,192,11235,128,0,11835:0:0:0:0:
402,192,11310,1,0,0:0:0:0:
475,192,11310,1,0,0:0:0:0:
36,192,11385,1,0,0:0:0:0:
182,192,11385,1,0,0:0:0:0:
329,192,11460,1,0,0:0:0:0:
402,192,11460,1,0,0:0:0:0:
109,192,11535,1,0,0:0:0:0:
182,192,11535,1,0,0:0:0:0:
36,192,11535,1,0,0:0:0:0:
329,192,11610,1,0,0:0:0:0:
475,192,11610,1,0,0:0:0:0:
36,192,11685,1,0,0:0:0:0:
182,192,11685,1,0,0:0:0:0:
109,192,11685,1,0,0:0:0:0:
475,192,11835,1,0,0:0:0:0:
109,192,11835,1,0,0:0:0:0:
36,192,11835,128,0,12060:0:0:0:0:
402,192,11835,128,0,11910:0:0:0:0:
329,192,11835,128,0,11910:0:0:0:0:
182,192,11910,128,0,11985:0:0:0:0:
329,192,11985,128,0,12060:0:0:0:0:
256,192,11985,1,0,0:0:0:0:
182,192,12060,128,0,12135:0:0:0:0:
36,192,12135,128,0,12360:0:0:0:0:
475,192,12135,128,0,12210:0:0:0:0:
109,192,12135,1,0,0:0:0:0:
402,192,12210,128,0,12285:0:0:0:0:
256,192,12285,128,0,12360:0:0:0:0:
182,192,12285,1,0,0:0:0:0:
402,192,12360,128,0,12435:0:0:0:0:
36,192,12435,128,0,12660:0:0:0:0:
109,192,12435,128,0,12510:0:0:0:0:
256,192,12435,1,0,0:0:0:0:
182,192,12510,128,0,12585:0:0:0:0:
329,192,12585,128,0,12660:0:0:0:0:
402,192,12585,1,0,0:0:0:0:
182,192,12660,128,0,12735:0:0:0:0:
36,192,12735,128,0,12960:0:0:0:0:
475,192,12735,128,0,12810:0:0:0:0:
109,192,12735,1,0,0:0:0:0:
402,192,12810,128,0,12885:0:0:0:0:
256,192,12885,128,0,12960:0:0:0:0:
182,192,12885,1,0,0:0:0:0:
402,192,12960,128,0,13035:0:0:0:0:
36,192,13035,128,0,13260:0:0:0:0:
329,192,13035,128,0,13110:0:0:0:0:
109,192,13035,1,0,0:0:0:0:
475,192,13035,128,0,13110:0:0:0:0:
182,192,13110,128,0,13185:0:0:0:0:
329,192,13185,128,0,13260:0:0:0:0:
402,192,13185,1,0,0:0:0:0:
182,192,13260,128,0,13335:0:0:0:0:
36,192,13335,128,0,13560:0:0:0:0:
475,192,13335,128,0,13410:0:0:0:0:
109,192,13335,1,0,0:0:0:0:
402,192,13410,128,0,13485:0:0:0:0:
256,192,13485,128,0,13560:0:0:0:0:
182,192,13485,1,0,0:0:0:0:
402,192,13560,128,0,13635:0:0:0:0:
36,192,13635,128,0,13860:0:0:0:0:
109,192,13635,128,0,13710:0:0:0:0:
475,192,13635,1,0,0:0:0:0:
182,192,13710,128,0,13785:0:0:0:0:
329,192,13785,128,0,13860:0:0:0:0:
402,192,13785,1,0,0:0:0:0:
182,192,13860,128,0,13935:0:0:0:0:
36,192,13935,128,0,14160:0:0:0:0:
475,192,13935,128,0,14010:0:0:0:0:
109,192,13935,1,0,0:0:0:0:
402,192,14010,128,0,14085:0:0:0:0:
256,192,14085,128,0,14160:0:0:0:0:
182,192,14085,1,0,0:0:0:0:
402,192,14160,128,0,14235:0:0:0:0:
36,192,14235,128,0,14460:0:0:0:0:
329,192,14235,128,0,14310:0:0:0:0:
109,192,14235,1,0,0:0:0:0:
475,192,14235,128,0,14310:0:0:0:0:
182,192,14310,128,0,14385:0:0:0:0:
329,192,14385,128,0,14460:0:0:0:0:
475,192,14385,1,0,0:0:0:0:
182,192,14460,128,0,14535:0:0:0:0:
36,192,14535,128,0,14760:0:0:0:0:
256,192,14535,128,0,14610:0:0:0:0:
402,192,14535,1,0,0:0:0:0:
109,192,14610,128,0,14685:0:0:0:0:
182,192,14685,128,0,14760:0:0:0:0:
329,192,14685,1,0,0:0:0:0:
109,192,14760,128,0,14835:0:0:0:0:
36,192,14835,128,0,15060:0:0:0:0:
475,192,14835,128,0,14910:0:0:0:0:
256,192,14835,1,0,0:0:0:0:
329,192,14910,128,0,14985:0:0:0:0:
402,192,14985,128,0,15060:0:0:0:0:
182,192,14985,1,0,0:0:0:0:
329,192,15060,128,0,15135:0:0:0:0:
36,192,15135,128,0,15360:0:0:0:0:
256,192,15135,128,0,15210:0:0:0:0:
475,192,15135,1,0,0:0:0:0:
109,192,15210,128,0,15285:0:0:0:0:
182,192,15285,128,0,15360:0:0:0:0:
402,192,15285,1,0,0:0:0:0:
109,192,15360,128,0,15435:0:0:0:0:
36,192,15435,128,0,15660:0:0:0:0:
329,192,15435,128,0,15510:0:0:0:0:
256,192,15435,1,0,0:0:0:0:
402,192,15435,128,0,15510:0:0:0:0:
475,192,15510,128,0,15585:0:0:0:0:
329,192,15585,128,0,15660:0:0:0:0:
109,192,15585,1,0,0:0:0:0:
475,192,15660,128,0,15735:0:0:0:0:
36,192,15735,128,0,15960:0:0:0:0:
182,192,15735,128,0,15810:0:0:0:0:
329,192,15735,1,0,0:0:0:0:
256,192,15810,128,0,15885:0:0:0:0:
402,192,15885,128,0,15960:0:0:0:0:
109,192,15885,1,0,0:0:0:0:
256,192,15960,128,0,16035:0:0:0:0:
36,192,16035,128,0,16260:0:0:0:0:
329,192,16035,128,0,16110:0:0:0:0:
475,192,16035,1,0,0:0:0:0:
182,192,16110,128,0,16185:0:0:0:0:
109,192,16185,128,0,16260:0:0:0:0:
402,192,16185,1,0,0:0:0:0:
256,192,16260,128,0,16335:0:0:0:0:
36,192,16335,128,0,16410:0:0:0:0:
182,192,16335,128,0,16410:0:0:0:0:
329,192,16335,1,0,0:0:0:0:
256,192,16410,128,0,16485:0:0:0:0:
36,192,16485,128,0,16560:0:0:0:0:
402,192,16485,128,0,16560:0:0:0:0:
109,192,16485,1,0,0:0:0:0:
329,192,16560,128,0,16635:0:0:0:0:
36,192,16635,1,0,0:0:0:0:
256,192,16635,1,0,0:0:0:0:
475,192,16635,128,0,16860:0:0:0:0:
182,192,16635,128,0,16935:0:0:0:0:
402,192,16710,128,0,16785:0:0:0:0:
329,192,16785,128,0,17010:0:0:0:0:
36,192,16785,128,0,16935:0:0:0:0:
402,192,16860,128,0,16935:0:0:0:0:
475,192,16935,128,0,17160:0:0:0:0:
109,192,16935,128,0,17235:0:0:0:0:
256,192,16935,1,0,0:0:0:0:
402,192,17010,128,0,17085:0:0:0:0:
329,192,17085,128,0,17310:0:0:0:0:
182,192,17085,128,0,17235:0:0:0:0:
402,192,17160,128,0,17235:0:0:0:0:
475,192,17235,128,0,17460:0:0:0:0:
36,192,17235,128,0,17460:0:0:0:0:
256,192,17235,1,0,0:0:0:0:
402,192,17310,128,0,17385:0:0:0:0:
329,192,17385,128,0,17610:0:0:0:0:
109,192,17385,128,0,17460:0:0:0:0:
402,192,17460,128,0,17535:0:0:0:0:
475,192,17535,128,0,17610:0:0:0:0:
182,192,17535,128,0,17835:0:0:0:0:
36,192,17535,128,0,17610:0:0:0:0:
109,192,17535,128,0,17610:0:0:0:0:
256,192,17535,1,0,0:0:0:0:
402,192,17610,128,0,17760:0:0:0:0:
329,192,17685,128,0,17835:0:0:0:0:
36,192,17685,128,0,17760:0:0:0:0:
109,192,17685,128,0,17760:0:0:0:0:
475,192,17685,128,0,17760:0:0:0:0:
36,192,17835,128,0,18060:0:0:0:0:
256,192,17835,1,0,0:0:0:0:
475,192,17835,128,0,17910:0:0:0:0:
402,192,17835,128,0,17910:0:0:0:0:
109,192,17910,128,0,17985:0:0:0:0:
329,192,17910,128,0,18022:0:0:0:0:
182,192,17985,128,0,18210:0:0:0:0:
475,192,17985,128,0,18060:0:0:0:0:
402,192,17985,128,0,18097:0:0:0:0:
109,192,18060,128,0,18135:0:0:0:0:
256,192,18060,128,0,18172:0:0:0:0:
36,192,18135,128,0,18360:0:0:0:0:
475,192,18135,128,0,18210:0:0:0:0:
329,192,18135,128,0,18210:0:0:0:0:
109,192,18210,128,0,18285:0:0:0:0:
402,192,18210,128,0,18322:0:0:0:0:
182,192,18285,128,0,18510:0:0:0:0:
329,192,18285,128,0,18360:0:0:0:0:
475,192,18285,128,0,18397:0:0:0:0:
109,192,18360,128,0,18435:0:0:0:0:
256,192,18360,128,0,18435:0:0:0:0:
36,192,18435,128,0,18660:0:0:0:0:
329,192,18435,128,0,18510:0:0:0:0:
402,192,18435,128,0,18510:0:0:0:0:
109,192,18510,128,0,18585:0:0:0:0:
475,192,18510,128,0,18622:0:0:0:0:
182,192,18585,128,0,18810:0:0:0:0:
329,192,18585,128,0,18660:0:0:0:0:
402,192,18585,128,0,18697:0:0:0:0:
109,192,18660,128,0,18735:0:0:0:0:
256,192,18660,128,0,18772:0:0:0:0:
36,192,18735,128,0,18960:0:0:0:0:
329,192,18735,128,0,18810:0:0:0:0:
475,192,18735,128,0,18810:0:0:0:0:
109,192,18810,128,0,18885:0:0:0:0:
402,192,18810,128,0,18922:0:0:0:0:
182,192,18885,128,0,19035:0:0:0:0:
329,192,18885,128,0,18960:0:0:0:0:
475,192,18885,128,0,18960:0:0:0:0:
109,192,18960,128,0,19035:0:0:0:0:
256,192,18960,128,0,19035:0:0:0:0:
329,192,19035,1,0,0:0:0:0:
36,192,19035,128,0,19260:0:0:0:0:
402,192,19035,128,0,19085:0:0:0:0:
475,192,19035,128,0,19085:0:0:0:0:
109,192,19110,128,0,19185:0:0:0:0:
182,192,19185,128,0,19335:0:0:0:0:
402,192,19185,128,0,19235:0:0:0:0:
475,192,19185,128,0,19235:0:0:0:0:
329,192,19185,128,0,19410:0:0:0:0:
109,192,19260,128,0,19410:0:0:0:0:
36,192,19335,128,0,19560:0:0:0:0:
256,192,19335,128,0,19560:0:0:0:0:
402,192,19335,128,0,19385:0:0:0:0:
475,192,19335,128,0,19385:0:0:0:0:
182,192,19410,128,0,19485:0:0:0:0:
109,192,19485,128,0,19635:0:0:0:0:
402,192,19485,128,0,19535:0:0:0:0:
475,192,19485,128,0,19535:0:0:0:0:
329,192,19485,128,0,19710:0:0:0:0:
182,192,19560,128,0,19710:0:0:0:0:
256,192,19635,128,0,19860:0:0:0:0:
36,192,19635,128,0,19860:0:0:0:0:
402,192,19635,128,0,19710:0:0:0:0:
475,192,19635,128,0,19710:0:0:0:0:
109,192,19710,128,0,19785:0:0:0:0:
182,192,19785,128,0,19935:0:0:0:0:
402,192,19785,128,0,19860:0:0:0:0:
475,192,19785,128,0,19860:0:0:0:0:
329,192,19785,128,0,20010:0:0:0:0:
109,192,19860,128,0,20010:0:0:0:0:
36,192,19935,128,0,20160:0:0:0:0:
256,192,19935,128,0,20160:0:0:0:0:
402,192,19935,128,0,20035:0:0:0:0:
475,192,19935,128,0,20035:0:0:0:0:
182,192,20010,128,0,20085:0:0:0:0:
109,192,20085,128,0,20235:0:0:0:0:
402,192,20085,128,0,20185:0:0:0:0:
475,192,20085,128,0,20185:0:0:0:0:
329,192,20085,128,0,20235:0:0:0:0:
182,192,20160,128,0,20235:0:0:0:0:
475,192,20235,1,0,0:0:0:0:
256,192,20235,1,0,0:0:0:0:
402,192,20235,128,0,20285:0:0:0:0:
36,192,20235,128,0,20385:0:0:0:0:
182,192,20310,1,0,0:0:0:0:
329,192,20310,128,0,20360:0:0:0:0:
256,192,20385,128,0,20435:0:0:0:0:
109,192,20385,128,0,20460:0:0:0:0:
475,192,20422,128,0,20497:0:0:0:0:
182,192,20460,128,0,20510:0:0:0:0:
402,192,20460,128,0,20535:0:0:0:0:
329,192,20497,128,0,20572:0:0:0:0:
109,192,20535,128,0,20585:0:0:0:0:
256,192,20535,128,0,20610:0:0:0:0:
36,192,20535,128,0,20685:0:0:0:0:
329,192,20610,128,0,20660:0:0:0:0:
475,192,20610,128,0,20760:0:0:0:0:
402,192,20685,128,0,20735:0:0:0:0:
182,192,20685,128,0,20760:0:0:0:0:
256,192,20722,128,0,20797:0:0:0:0:
329,192,20760,128,0,20810:0:0:0:0:
36,192,20760,128,0,20835:0:0:0:0:
109,192,20797,128,0,20872:0:0:0:0:
475,192,20835,1,0,0:0:0:0:
402,192,20835,128,0,20885:0:0:0:0:
182,192,20835,128,0,20910:0:0:0:0:
36,192,20910,1,0,0:0:0:0:
256,192,20910,128,0,20960:0:0:0:0:
329,192,20985,128,0,21035:0:0:0:0:
402,192,20985,128,0,21060:0:0:0:0:
475,192,20985,128,0,21060:0:0:0:0:
109,192,21060,1,0,0:0:0:0:
182,192,21060,128,0,21110:0:0:0:0:
36,192,21060,128,0,21210:0:0:0:0:
256,192,21135,128,0,21185:0:0:0:0:
402,192,21135,128,0,21210:0:0:0:0:
475,192,21135,128,0,21210:0:0:0:0:
329,192,21210,128,0,21260:0:0:0:0:
109,192,21210,128,0,21285:0:0:0:0:
182,192,21210,128,0,21285:0:0:0:0:
475,192,21285,1,0,0:0:0:0:
402,192,21285,128,0,21335:0:0:0:0:
256,192,21285,128,0,21360:0:0:0:0:
36,192,21322,128,0,21397:0:0:0:0:
109,192,21360,128,0,21435:0:0:0:0:
182,192,21397,128,0,21472:0:0:0:0:
475,192,21435,1,0,0:0:0:0:
256,192,21435,128,0,21510:0:0:0:0:
329,192,21435,128,0,21585:0:0:0:0:
36,192,21510,1,0,0:0:0:0:
402,192,21510,128,0,21585:0:0:0:0:
475,192,21535,128,0,21610:0:0:0:0:
109,192,21585,128,0,21735:0:0:0:0:
182,192,21585,128,0,21660:0:0:0:0:
256,192,21635,128,0,21710:0:0:0:0:
329,192,21660,128,0,21735:0:0:0:0:
402,192,21735,128,0,21885:0:0:0:0:
182,192,21735,128,0,21810:0:0:0:0:
36,192,21735,128,0,21810:0:0:0:0:
475,192,21810,128,0,21885:0:0:0:0:
256,192,21835,128,0,21910:0:0:0:0:
182,192,21885,128,0,22035:0:0:0:0:
36,192,21885,128,0,21960:0:0:0:0:
109,192,21935,128,0,22010:0:0:0:0:
329,192,21960,128,0,22035:0:0:0:0:
36,192,22035,1,0,0:0:0:0:
256,192,22035,128,0,22185:0:0:0:0:
475,192,22035,128,0,22110:0:0:0:0:
402,192,22035,128,0,22110:0:0:0:0:
109,192,22110,128,0,22185:0:0:0:0:
182,192,22135,128,0,22210:0:0:0:0:
402,192,22185,128,0,22335:0:0:0:0:
329,192,22185,128,0,22260:0:0:0:0:
36,192,22235,128,0,22310:0:0:0:0:
182,192,22260,128,0,22335:0:0:0:0:
475,192,22335,1,0,0:0:0:0:
329,192,22335,128,0,22485:0:0:0:0:
109,192,22335,128,0,22410:0:0:0:0:
256,192,22335,128,0,22410:0:0:0:0:
36,192,22410,128,0,22485:0:0:0:0:
182,192,22435,128,0,22510:0:0:0:0:
475,192,22485,128,0,22635:0:0:0:0:
402,192,22485,128,0,22560:0:0:0:0:
256,192,22535,128,0,22610:0:0:0:0:
109,192,22560,128,0,22635:0:0:0:0:
182,192,22635,128,0,22785:0:0:0:0:
329,192,22635,128,0,22710:0:0:0:0:
36,192,22635,128,0,22710:0:0:0:0:
402,192,22710,128,0,22785:0:0:0:0:
475,192,22735,128,0,22810:0:0:0:0:
256,192,22785,128,0,22935:0:0:0:0:
109,192,22785,128,0,22860:0:0:0:0:
36,192,22835,128,0,22910:0:0:0:0:
329,192,22860,128,0,22935:0:0:0:0:
475,192,22935,1,0,0:0:0:0:
402,192,22935,128,0,23085:0:0:0:0:
182,192,22935,128,0,23010:0:0:0:0:
109,192,22935,128,0,23010:0:0:0:0:
256,192,23010,128,0,23085:0:0:0:0:
36,192,23035,128,0,23110:0:0:0:0:
329,192,23085,128,0,23235:0:0:0:0:
475,192,23085,128,0,23160:0:0:0:0:
182,192,23135,128,0,23210:0:0:0:0:
109,192,23160,128,0,23235:0:0:0:0:
402,192,23235,1,0,0:0:0:0:
36,192,23235,128,0,23385:0:0:0:0:
475,192,23235,128,0,23310:0:0:0:0:
256,192,23235,128,0,23310:0:0:0:0:
182,192,23310,128,0,23385:0:0:0:0:
329,192,23335,128,0,23410:0:0:0:0:
256,192,23385,128,0,23535:0:0:0:0:
109,192,23385,128,0,23460:0:0:0:0:
475,192,23435,128,0,23510:0:0:0:0:
402,192,23460,128,0,23535:0:0:0:0:
109,192,23535,1,0,0:0:0:0:
182,192,23535,128,0,23685:0:0:0:0:
329,192,23535,128,0,23610:0:0:0:0:
36,192,23535,128,0,23610:0:0:0:0:
475,192,23610,128,0,23685:0:0:0:0:
256,192,23635,128,0,23710:0:0:0:0:
36,192,23685,128,0,23835:0:0:0:0:
402,192,23685,128,0,23760:0:0:0:0:
182,192,23735,128,0,23810:0:0:0:0:
329,192,23760,128,0,23835:0:0:0:0:
475,192,23835,128,0,24060:0:0:0:0:
256,192,23835,1,0,0:0:0:0:
109,192,23835,128,0,23910:0:0:0:0:
182,192,23885,128,0,23960:0:0:0:0:
402,192,23910,128,0,23985:0:0:0:0:
36,192,23935,128,0,24010:0:0:0:0:
329,192,23985,128,0,24210:0:0:0:0:
109,192,23985,128,0,24060:0:0:0:0:
256,192,24035,128,0,24110:0:0:0:0:
402,192,24060,128,0,24135:0:0:0:0:
182,192,24085,128,0,24160:0:0:0:0:
475,192,24135,128,0,24360:0:0:0:0:
109,192,24135,128,0,24210:0:0:0:0:
36,192,24185,128,0,24260:0:0:0:0:
402,192,24210,128,0,24285:0:0:0:0:
182,192,24235,128,0,24310:0:0:0:0:
329,192,24285,128,0,24510:0:0:0:0:
109,192,24285,128,0,24360:0:0:0:0:
256,192,24335,128,0,24410:0:0:0:0:
402,192,24360,128,0,24435:0:0:0:0:
36,192,24385,128,0,24460:0:0:0:0:
475,192,24435,128,0,24660:0:0:0:0:
109,192,24435,128,0,24510:0:0:0:0:
182,192,24485,128,0,24560:0:0:0:0:
402,192,24510,128,0,24585:0:0:0:0:
36,192,24535,128,0,24610:0:0:0:0:
329,192,24585,128,0,24810:0:0:0:0:
256,192,24585,128,0,24660:0:0:0:0:
109,192,24635,128,0,24710:0:0:0:0:
402,192,24660,128,0,24735:0:0:0:0:
182,192,24685,128,0,24760:0:0:0:0:
475,192,24735,128,0,24960:0:0:0:0:
36,192,24735,128,0,24810:0:0:0:0:
109,192,24785,128,0,24860:0:0:0:0:
402,192,24810,128,0,24885:0:0:0:0:
182,192,24835,128,0,24910:0:0:0:0:
329,192,24885,128,0,25110:0:0:0:0:
256,192,24885,128,0,24960:0:0:0:0:
109,192,24935,128,0,25010:0:0:0:0:
402,192,24960,128,0,25035:0:0:0:0:
36,192,24985,128,0,25060:0:0:0:0:
475,192,25035,128,0,25260:0:0:0:0:
182,192,25035,128,0,25110:0:0:0:0:
109,192,25085,128,0,25160:0:0:0:0:
402,192,25110,128,0,25185:0:0:0:0:
256,192,25135,128,0,25210:0:0:0:0:
329,192,25185,128,0,25410:0:0:0:0:
182,192,25185,128,0,25260:0:0:0:0:
109,192,25235,128,0,25310:0:0:0:0:
402,192,25260,128,0,25335:0:0:0:0:
36,192,25285,128,0,25360:0:0:0:0:
475,192,25335,128,0,25560:0:0:0:0:
182,192,25335,128,0,25410:0:0:0:0:
256,192,25385,128,0,25460:0:0:0:0:
402,192,25410,128,0,25485:0:0:0:0:
109,192,25435,128,0,25510:0:0:0:0:
329,192,25485,128,0,25635:0:0:0:0:
36,192,25485,128,0,25560:0:0:0:0:
182,192,25535,128,0,25610:0:0:0:0:
402,192,25560,128,0,25635:0:0:0:0:
109,192,25585,128,0,25660:0:0:0:0:
36,192,25635,128,0,25710:0:0:0:0:
475,192,25635,128,0,26235:0:0:0:0:
256,192,25635,128,0,25710:0:0:0:0:
182,192,25710,128,0,25785:0:0:0:0:
329,192,25710,128,0,25747:0:0:0:0:
256,192,25785,128,0,25860:0:0:0:0:
402,192,25785,128,0,25822:0:0:0:0:
109,192,25860,128,0,25935:0:0:0:0:
182,192,25860,128,0,25897:0:0:0:0:
36,192,25935,128,0,26160:0:0:0:0:
402,192,25935,128,0,26010:0:0:0:0:
329,192,25935,128,0,25972:0:0:0:0:
256,192,26010,128,0,26085:0:0:0:0:
109,192,26010,128,0,26047:0:0:0:0:
329,192,26085,128,0,26160:0:0:0:0:
182,192,26085,128,0,26122:0:0:0:0:
402,192,26160,128,0,26235:0:0:0:0:
256,192,26160,128,0,26197:0:0:0:0:
36,192,26235,128,0,28560:0:0:0:0:
109,192,26235,128,0,26385:0:0:0:0:
182,192,26235,128,0,26310:0:0:0:0:
329,192,26235,128,0,26285:0:0:0:0:
256,192,26310,128,0,26385:0:0:0:0:
402,192,26310,128,0,26360:0:0:0:0:
329,192,26385,128,0,26460:0:0:0:0:
475,192,26385,128,0,26435:0:0:0:0:
182,192,26460,128,0,26535:0:0:0:0:
109,192,26460,128,0,26510:0:0:0:0:
475,192,26535,128,0,26685:0:0:0:0:
256,192,26535,128,0,26610:0:0:0:0:
402,192,26535,128,0,26585:0:0:0:0:
329,192,26610,128,0,26685:0:0:0:0:
182,192,26610,128,0,26660:0:0:0:0:
402,192,26685,128,0,26760:0:0:0:0:
109,192,26685,128,0,26735:0:0:0:0:
475,192,26760,128,0,26835:0:0:0:0:
256,192,26760,128,0,26810:0:0:0:0:
329,192,26835,128,0,26985:0:0:0:0:
182,192,26835,128,0,26910:0:0:0:0:
109,192,26835,128,0,26885:0:0:0:0:
402,192,26910,128,0,26985:0:0:0:0:
475,192,26910,128,0,26960:0:0:0:0:
109,192,26985,128,0,27060:0:0:0:0:
256,192,26985,128,0,27035:0:0:0:0:
329,192,27060,128,0,27135:0:0:0:0:
182,192,27060,128,0,27110:0:0:0:0:
402,192,27135,128,0,27285:0:0:0:0:
256,192,27135,128,0,27210:0:0:0:0:
475,192,27135,128,0,27185:0:0:0:0:
182,192,27210,128,0,27285:0:0:0:0:
109,192,27210,128,0,27260:0:0:0:0:
329,192,27285,128,0,27360:0:0:0:0:
475,192,27285,128,0,27335:0:0:0:0:
256,192,27360,128,0,27435:0:0:0:0:
109,192,27360,128,0,27410:0:0:0:0:
475,192,27435,128,0,27585:0:0:0:0:
329,192,27435,128,0,27510:0:0:0:0:
182,192,27435,128,0,27485:0:0:0:0:
402,192,27510,128,0,27585:0:0:0:0:
256,192,27510,128,0,27560:0:0:0:0:
182,192,27585,128,0,27660:0:0:0:0:
109,192,27585,128,0,27635:0:0:0:0:
329,192,27660,128,0,27735:0:0:0:0:
475,192,27660,128,0,27710:0:0:0:0:
256,192,27735,128,0,27885:0:0:0:0:
109,192,27735,128,0,27810:0:0:0:0:
182,192,27735,128,0,27785:0:0:0:0:
402,192,27810,128,0,27885:0:0:0:0:
475,192,27810,128,0,27860:0:0:0:0:
182,192,27885,128,0,27960:0:0:0:0:
329,192,27885,128,0,27935:0:0:0:0:
256,192,27960,128,0,28035:0:0:0:0:
109,192,27960,128,0,28010:0:0:0:0:
329,192,28035,128,0,28185:0:0:0:0:
475,192,28035,128,0,28110:0:0:0:0:
402,192,28035,128,0,28085:0:0:0:0:
182,192,28110,128,0,28185:0:0:0:0:
109,192,28110,128,0,28160:0:0:0:0:
402,192,28185,128,0,28260:0:0:0:0:
256,192,28185,128,0,28235:0:0:0:0:
109,192,28260,128,0,28335:0:0:0:0:
182,192,28260,128,0,28310:0:0:0:0:
475,192,28335,128,0,28485:0:0:0:0:
329,192,28335,128,0,28410:0:0:0:0:
256,192,28335,128,0,28385:0:0:0:0:
182,192,28410,128,0,28485:0:0:0:0:
402,192,28410,128,0,28460:0:0:0:0:
109,192,28485,128,0,28560:0:0:0:0:
329,192,28485,128,0,28535:0:0:0:0:
402,192,28560,128,0,28635:0:0:0:0:
256,192,28560,128,0,28610:0:0:0:0:
475,192,28635,128,0,30960:0:0:0:0:
109,192,28635,1,0,0:0:0:0:
182,192,28635,128,0,28785:0:0:0:0:
36,192,28635,128,0,28710:0:0:0:0:
329,192,28635,128,0,28685:0:0:0:0:
256,192,28710,128,0,28785:0:0:0:0:
402,192,28710,128,0,28760:0:0:0:0:
109,192,28785,128,0,28860:0:0:0:0:
36,192,28785,128,0,28835:0:0:0:0:
329,192,28860,128,0,28935:0:0:0:0:
182,192,28860,128,0,28910:0:0:0:0:
256,192,28935,128,0,29085:0:0:0:0:
402,192,28935,128,0,29010:0:0:0:0:
36,192,28935,128,0,28985:0:0:0:0:
109,192,29010,128,0,29085:0:0:0:0:
182,192,29010,128,0,29060:0:0:0:0:
329,192,29085,128,0,29160:0:0:0:0:
402,192,29085,128,0,29135:0:0:0:0:
36,192,29160,128,0,29235:0:0:0:0:
182,192,29160,128,0,29210:0:0:0:0:
402,192,29235,128,0,29385:0:0:0:0:
109,192,29235,128,0,29310:0:0:0:0:
256,192,29235,128,0,29285:0:0:0:0:
182,192,29310,128,0,29385:0:0:0:0:
329,192,29310,128,0,29360:0:0:0:0:
36,192,29385,128,0,29460:0:0:0:0:
109,192,29385,128,0,29435:0:0:0:0:
256,192,29460,128,0,29535:0:0:0:0:
402,192,29460,128,0,29510:0:0:0:0:
109,192,29535,128,0,29685:0:0:0:0:
182,192,29535,128,0,29610:0:0:0:0:
36,192,29535,128,0,29585:0:0:0:0:
329,192,29610,128,0,29685:0:0:0:0:
402,192,29610,128,0,29660:0:0:0:0:
36,192,29685,128,0,29760:0:0:0:0:
182,192,29685,128,0,29735:0:0:0:0:
109,192,29760,128,0,29835:0:0:0:0:
256,192,29760,128,0,29810:0:0:0:0:
329,192,29835,128,0,29947:0:0:0:0:
182,192,29835,128,0,29910:0:0:0:0:
402,192,29835,128,0,29885:0:0:0:0:
36,192,29910,128,0,29985:0:0:0:0:
109,192,29910,128,0,29960:0:0:0:0:
182,192,29985,1,0,0:0:0:0:
402,192,29985,128,0,30060:0:0:0:0:
329,192,30022,1,0,0:0:0:0:
109,192,30060,1,0,0:0:0:0:
256,192,30060,128,0,30135:0:0:0:0:
36,192,30097,1,0,0:0:0:0:
402,192,30135,128,0,30285:0:0:0:0:
182,192,30135,128,0,30210:0:0:0:0:
329,192,30135,128,0,30185:0:0:0:0:
109,192,30210,128,0,30285:0:0:0:0:
36,192,30210,128,0,30260:0:0:0:0:
256,192,30285,128,0,30360:0:0:0:0:
182,192,30285,128,0,30335:0:0:0:0:
329,192,30322,1,0,0:0:0:0:
109,192,30360,1,0,0:0:0:0:
402,192,30360,128,0,30435:0:0:0:0:
182,192,30397,1,0,0:0:0:0:
256,192,30435,1,0,0:0:0:0:
36,192,30435,128,0,30510:0:0:0:0:
329,192,30435,128,0,30485:0:0:0:0:
109,192,30510,1,0,0:0:0:0:
182,192,30510,128,0,30585:0:0:0:0:
402,192,30510,128,0,30560:0:0:0:0:
256,192,30585,128,0,30735:0:0:0:0:
36,192,30585,128,0,30660:0:0:0:0:
329,192,30585,128,0,30635:0:0:0:0:
182,192,30660,128,0,30735:0:0:0:0:
36,192,30735,1,0,0:0:0:0:
329,192,30735,1,0,0:0:0:0:
402,192,30735,128,0,30810:0:0:0:0:
109,192,30735,128,0,30785:0:0:0:0:
256,192,30810,128,0,30885:0:0:0:0:
182,192,30810,128,0,30860:0:0:0:0:
36,192,30885,1,0,0:0:0:0:
109,192,30885,1,0,0:0:0:0:
402,192,30885,128,0,30960:0:0:0:0:
329,192,30885,128,0,30935:0:0:0:0:
182,192,30922,1,0,0:0:0:0:
256,192,30960,128,0,31035:0:0:0:0:
109,192,30997,1,0,0:0:0:0:
182,192,31035,1,0,0:0:0:0:
402,192,31035,1,0,0:0:0:0:
475,192,31035,128,0,32235:0:0:0:0:
329,192,31035,128,0,31185:0:0:0:0:
36,192,31035,128,0,31110:0:0:0:0:
256,192,31110,128,0,31260:0:0:0:0:
109,192,31110,128,0,31185:0:0:0:0:
182,192,31185,128,0,31335:0:0:0:0:
402,192,31185,128,0,31260:0:0:0:0:
36,192,31260,128,0,31410:0:0:0:0:
329,192,31260,128,0,31335:0:0:0:0:
109,192,31335,128,0,31485:0:0:0:0:
256,192,31335,128,0,31410:0:0:0:0:
402,192,31335,128,0,31560:0:0:0:0:
182,192,31410,128,0,31560:0:0:0:0:
329,192,31410,128,0,31485:0:0:0:0:
256,192,31485,128,0,31635:0:0:0:0:
36,192,31485,128,0,31560:0:0:0:0:
329,192,31560,128,0,31710:0:0:0:0:
109,192,31560,128,0,31635:0:0:0:0:
402,192,31635,128,0,31785:0:0:0:0:
182,192,31635,128,0,31710:0:0:0:0:
36,192,31635,128,0,31710:0:0:0:0:
109,192,31710,128,0,31860:0:0:0:0:
256,192,31785,128,0,31935:0:0:0:0:
36,192,31785,128,0,31860:0:0:0:0:
182,192,31860,128,0,31935:0:0:0:0:
329,192,31860,128,0,32010:0:0:0:0:
402,192,31935,128,0,32010:0:0:0:0:
36,192,31935,128,0,32085:0:0:0:0:
109,192,31935,128,0,32010:0:0:0:0:
182,192,32010,128,0,32160:0:0:0:0:
256,192,32085,128,0,32235:0:0:0:0:
402,192,32085,128,0,32160:0:0:0:0:
329,192,32160,128,0,32385:0:0:0:0:
109,192,32160,128,0,32235:0:0:0:0:
402,192,32235,128,0,33360:0:0:0:0:
36,192,32235,128,0,32385:0:0:0:0:
182,192,32235,128,0,32310:0:0:0:0:
109,192,32310,128,0,32460:0:0:0:0:
475,192,32310,128,0,32385:0:0:0:0:
256,192,32385,128,0,32535:0:0:0:0:
182,192,32385,128,0,32460:0:0:0:0:
329,192,32460,128,0,32610:0:0:0:0:
36,192,32460,128,0,32535:0:0:0:0:
182,192,32535,128,0,32685:0:0:0:0:
475,192,32535,128,0,32610:0:0:0:0:
109,192,32610,128,0,32760:0:0:0:0:
256,192,32610,128,0,32685:0:0:0:0:
475,192,32685,128,0,32985:0:0:0:0:
36,192,32685,128,0,32760:0:0:0:0:
329,192,32760,128,0,32910:0:0:0:0:
182,192,32760,128,0,32835:0:0:0:0:
36,192,32835,128,0,32985:0:0:0:0:
256,192,32835,128,0,32910:0:0:0:0:
182,192,32910,128,0,33060:0:0:0:0:
109,192,32910,128,0,32985:0:0:0:0:
256,192,32985,128,0,33135:0:0:0:0:
329,192,32985,128,0,33060:0:0:0:0:
475,192,33060,128,0,33210:0:0:0:0:
36,192,33060,128,0,33135:0:0:0:0:
109,192,33135,128,0,33285:0:0:0:0:
182,192,33135,128,0,33210:0:0:0:0:
329,192,33135,128,0,33210:0:0:0:0:
36,192,33210,128,0,33360:0:0:0:0:
256,192,33210,128,0,33285:0:0:0:0:
329,192,33285,128,0,33397:0:0:0:0:
475,192,33285,128,0,33360:0:0:0:0:
182,192,33360,128,0,33435:0:0:0:0:
109,192,33360,128,0,33435:0:0:0:0:
256,192,33435,128,0,34635:0:0:0:0:
36,192,33435,1,0,0:0:0:0:
402,192,33435,128,0,33547:0:0:0:0:
475,192,33435,128,0,33472:0:0:0:0:
329,192,33472,128,0,33547:0:0:0:0:
182,192,33510,128,0,33585:0:0:0:0:
109,192,33547,128,0,33622:0:0:0:0:
36,192,33585,128,0,33697:0:0:0:0:
475,192,33585,128,0,33622:0:0:0:0:
329,192,33622,128,0,33697:0:0:0:0:
402,192,33660,128,0,33735:0:0:0:0:
182,192,33660,128,0,33697:0:0:0:0:
475,192,33697,128,0,33772:0:0:0:0:
109,192,33735,128,0,33847:0:0:0:0:
36,192,33735,128,0,33772:0:0:0:0:
182,192,33772,128,0,33847:0:0:0:0:
329,192,33810,128,0,33885:0:0:0:0:
402,192,33847,128,0,33922:0:0:0:0:
36,192,33885,128,0,33997:0:0:0:0:
475,192,33885,128,0,33922:0:0:0:0:
109,192,33922,128,0,33997:0:0:0:0:
182,192,33960,128,0,34035:0:0:0:0:
329,192,33960,128,0,33997:0:0:0:0:
475,192,33997,128,0,34072:0:0:0:0:
402,192,34035,128,0,34147:0:0:0:0:
36,192,34035,128,0,34072:0:0:0:0:
329,192,34072,128,0,34147:0:0:0:0:
182,192,34110,128,0,34185:0:0:0:0:
109,192,34147,128,0,34222:0:0:0:0:
36,192,34185,128,0,34297:0:0:0:0:
475,192,34185,128,0,34222:0:0:0:0:
402,192,34222,128,0,34297:0:0:0:0:
329,192,34260,128,0,34335:0:0:0:0:
182,192,34297,128,0,34372:0:0:0:0:
109,192,34335,128,0,34447:0:0:0:0:
36,192,34335,128,0,34372:0:0:0:0:
475,192,34372,128,0,34447:0:0:0:0:
402,192,34410,128,0,34485:0:0:0:0:
182,192,34410,128,0,34447:0:0:0:0:
329,192,34447,128,0,34522:0:0:0:0:
36,192,34485,128,0,34597:0:0:0:0:
109,192,34485,128,0,34522:0:0:0:0:
182,192,34522,128,0,34597:0:0:0:0:
402,192,34560,128,0,34635:0:0:0:0:
475,192,34597,128,0,34672:0:0:0:0:
109,192,34635,128,0,35835:0:0:0:0:
329,192,34635,128,0,34785:0:0:0:0:
36,192,34635,128,0,34710:0:0:0:0:
182,192,34710,128,0,34785:0:0:0:0:
256,192,34710,128,0,34760:0:0:0:0:
402,192,34785,128,0,34935:0:0:0:0:
475,192,34785,128,0,34860:0:0:0:0:
329,192,34860,128,0,34935:0:0:0:0:
182,192,34860,128,0,34910:0:0:0:0:
475,192,34935,128,0,35085:0:0:0:0:
36,192,34935,128,0,35010:0:0:0:0:
256,192,34935,128,0,34985:0:0:0:0:
182,192,35010,128,0,35085:0:0:0:0:
402,192,35010,128,0,35060:0:0:0:0:
256,192,35085,128,0,35235:0:0:0:0:
329,192,35085,128,0,35160:0:0:0:0:
475,192,35160,128,0,35235:0:0:0:0:
402,192,35160,128,0,35210:0:0:0:0:
36,192,35235,128,0,35385:0:0:0:0:
182,192,35235,128,0,35310:0:0:0:0:
329,192,35235,128,0,35285:0:0:0:0:
402,192,35310,128,0,35385:0:0:0:0:
475,192,35310,128,0,35360:0:0:0:0:
182,192,35385,128,0,35535:0:0:0:0:
256,192,35385,128,0,35460:0:0:0:0:
475,192,35460,128,0,35535:0:0:0:0:
329,192,35460,128,0,35510:0:0:0:0:
36,192,35535,128,0,35685:0:0:0:0:
402,192,35535,128,0,35610:0:0:0:0:
256,192,35535,128,0,35585:0:0:0:0:
329,192,35610,128,0,35685:0:0:0:0:
182,192,35610,128,0,35660:0:0:0:0:
475,192,35685,128,0,35760:0:0:0:0:
402,192,35685,128,0,35760:0:0:0:0:
256,192,35760,128,0,35835:0:0:0:0:
182,192,35760,128,0,35810:0:0:0:0:
402,192,35835,128,0,37035:0:0:0:0:
36,192,35835,128,0,35985:0:0:0:0:
329,192,35835,128,0,35910:0:0:0:0:
475,192,35835,128,0,35985:0:0:0:0:
182,192,35910,128,0,36060:0:0:0:0:
256,192,35910,128,0,35985:0:0:0:0:
329,192,35985,128,0,36210:0:0:0:0:
109,192,35985,128,0,36060:0:0:0:0:
475,192,36060,128,0,36210:0:0:0:0:
36,192,36060,128,0,36135:0:0:0:0:
109,192,36135,128,0,36285:0:0:0:0:
182,192,36135,128,0,36210:0:0:0:0:
256,192,36210,128,0,36360:0:0:0:0:
36,192,36210,128,0,36285:0:0:0:0:
329,192,36285,128,0,36435:0:0:0:0:
182,192,36285,128,0,36360:0:0:0:0:
475,192,36360,128,0,36585:0:0:0:0:
109,192,36360,128,0,36435:0:0:0:0:
36,192,36435,128,0,36660:0:0:0:0:
256,192,36435,128,0,36510:0:0:0:0:
182,192,36510,128,0,36660:0:0:0:0:
329,192,36510,128,0,36585:0:0:0:0:
256,192,36585,128,0,36735:0:0:0:0:
109,192,36585,128,0,36660:0:0:0:0:
475,192,36660,128,0,36810:0:0:0:0:
329,192,36660,128,0,36735:0:0:0:0:
36,192,36735,128,0,37035:0:0:0:0:
182,192,36735,128,0,36810:0:0:0:0:
109,192,36810,128,0,36960:0:0:0:0:
256,192,36810,128,0,36885:0:0:0:0:
182,192,36885,128,0,37035:0:0:0:0:
329,192,36885,128,0,36960:0:0:0:0:
256,192,36960,128,0,37110:0:0:0:0:
475,192,36960,128,0,37035:0:0:0:0:
329,192,37035,128,0,38235:0:0:0:0:
109,192,37035,128,0,37185:0:0:0:0:
475,192,37110,128,0,37335:0:0:0:0:
182,192,37110,128,0,37185:0:0:0:0:
36,192,37185,128,0,37335:0:0:0:0:
256,192,37185,128,0,37260:0:0:0:0:
402,192,37260,128,0,37485:0:0:0:0:
109,192,37260,128,0,37335:0:0:0:0:
256,192,37335,128,0,37485:0:0:0:0:
182,192,37335,128,0,37410:0:0:0:0:
475,192,37410,128,0,37560:0:0:0:0:
36,192,37410,128,0,37485:0:0:0:0:
182,192,37485,128,0,37635:0:0:0:0:
109,192,37485,128,0,37560:0:0:0:0:
402,192,37560,128,0,37710:0:0:0:0:
256,192,37560,128,0,37635:0:0:0:0:
109,192,37635,128,0,37860:0:0:0:0:
475,192,37635,128,0,37710:0:0:0:0:
36,192,37635,128,0,37710:0:0:0:0:
256,192,37710,128,0,37860:0:0:0:0:
182,192,37710,128,0,37785:0:0:0:0:
36,192,37785,128,0,38010:0:0:0:0:
402,192,37785,128,0,37860:0:0:0:0:
182,192,37860,128,0,38010:0:0:0:0:
475,192,37860,128,0,37935:0:0:0:0:
109,192,37935,128,0,38085:0:0:0:0:
256,192,37935,128,0,38010:0:0:0:0:
475,192,38010,128,0,38160:0:0:0:0:
402,192,38010,128,0,38085:0:0:0:0:
36,192,38085,128,0,38160:0:0:0:0:
182,192,38085,128,0,38160:0:0:0:0:
402,192,38160,128,0,38235:0:0:0:0:
256,192,38160,128,0,38197:0:0:0:0:
475,192,38235,128,0,39435:0:0:0:0:
109,192,38235,128,0,38347:0:0:0:0:
36,192,38235,128,0,38272:0:0:0:0:
182,192,38272,128,0,38347:0:0:0:0:
256,192,38310,128,0,38385:0:0:0:0:
402,192,38347,128,0,38403:0:0:0:0:
329,192,38385,128,0,38497:0:0:0:0:
36,192,38385,128,0,38422:0:0:0:0:
109,192,38422,128,0,38478:0:0:0:0:
182,192,38460,128,0,38535:0:0:0:0:
402,192,38460,128,0,38497:0:0:0:0:
256,192,38497,128,0,38572:0:0:0:0:
36,192,38535,128,0,38628:0:0:0:0:
109,192,38535,128,0,38572:0:0:0:0:
329,192,38572,128,0,38647:0:0:0:0:
402,192,38610,128,0,38666:0:0:0:0:
182,192,38610,128,0,38647:0:0:0:0:
256,192,38647,128,0,38722:0:0:0:0:
109,192,38685,128,0,38778:0:0:0:0:
36,192,38685,128,0,38722:0:0:0:0:
402,192,38722,128,0,38797:0:0:0:0:
329,192,38760,128,0,38835:0:0:0:0:
182,192,38760,128,0,38797:0:0:0:0:
256,192,38797,128,0,38872:0:0:0:0:
36,192,38835,128,0,38928:0:0:0:0:
109,192,38835,128,0,38872:0:0:0:0:
182,192,38872,128,0,38947:0:0:0:0:
329,192,38910,128,0,38985:0:0:0:0:
402,192,38910,128,0,38947:0:0:0:0:
256,192,38947,128,0,39003:0:0:0:0:
109,192,38985,128,0,39097:0:0:0:0:
36,192,38985,128,0,39022:0:0:0:0:
182,192,39022,128,0,39078:0:0:0:0:
256,192,39060,128,0,39135:0:0:0:0:
402,192,39060,128,0,39097:0:0:0:0:
329,192,39097,128,0,39153:0:0:0:0:
36,192,39135,128,0,39247:0:0:0:0:
182,192,39135,128,0,39172:0:0:0:0:
109,192,39172,128,0,39228:0:0:0:0:
402,192,39210,128,0,39303:0:0:0:0:
329,192,39210,128,0,39285:0:0:0:0:
256,192,39247,128,0,39322:0:0:0:0:
182,192,39285,128,0,39360:0:0:0:0:
109,192,39285,128,0,39322:0:0:0:0:
36,192,39322,128,0,39378:0:0:0:0:
329,192,39360,128,0,39435:0:0:0:0:
402,192,39360,128,0,39397:0:0:0:0:
256,192,39397,128,0,39435:0:0:0:0:
36,192,39435,128,0,40635:0:0:0:0:
182,192,39435,128,0,39585:0:0:0:0:
109,192,39435,128,0,39510:0:0:0:0:
329,192,39510,128,0,39585:0:0:0:0:
475,192,39510,128,0,39560:0:0:0:0:
109,192,39585,128,0,39735:0:0:0:0:
256,192,39585,128,0,39660:0:0:0:0:
182,192,39660,128,0,39735:0:0:0:0:
329,192,39660,128,0,39710:0:0:0:0:
256,192,39735,128,0,39885:0:0:0:0:
402,192,39735,128,0,39810:0:0:0:0:
475,192,39735,128,0,39785:0:0:0:0:
109,192,39810,128,0,39885:0:0:0:0:
182,192,39810,128,0,39860:0:0:0:0:
329,192,39885,128,0,40035:0:0:0:0:
475,192,39885,128,0,39960:0:0:0:0:
256,192,39960,128,0,40035:0:0:0:0:
109,192,39960,128,0,40010:0:0:0:0:
182,192,40035,128,0,40110:0:0:0:0:
402,192,40035,128,0,40072:0:0:0:0:
475,192,40035,128,0,40185:0:0:0:0:
329,192,40110,128,0,40185:0:0:0:0:
256,192,40110,128,0,40160:0:0:0:0:
402,192,40110,128,0,40147:0:0:0:0:
182,192,40185,128,0,40260:0:0:0:0:
109,192,40185,128,0,40260:0:0:0:0:
402,192,40260,128,0,40335:0:0:0:0:
475,192,40260,128,0,40310:0:0:0:0:
109,192,40335,128,0,40485:0:0:0:0:
329,192,40335,128,0,40410:0:0:0:0:
182,192,40335,128,0,40372:0:0:0:0:
256,192,40410,128,0,40485:0:0:0:0:
402,192,40410,128,0,40460:0:0:0:0:
182,192,40410,128,0,40447:0:0:0:0:
329,192,40485,128,0,40560:0:0:0:0:
475,192,40485,128,0,40560:0:0:0:0:
109,192,40560,128,0,40635:0:0:0:0:
182,192,40560,128,0,40610:0:0:0:0:
256,192,40635,128,0,41760:0:0:0:0:
402,192,40635,1,0,0:0:0:0:
329,192,40635,128,0,40785:0:0:0:0:
475,192,40635,128,0,40710:0:0:0:0:
182,192,40710,128,0,40860:0:0:0:0:
36,192,40710,128,0,40785:0:0:0:0:
402,192,40785,128,0,40935:0:0:0:0:
475,192,40785,128,0,40860:0:0:0:0:
109,192,40860,128,0,41010:0:0:0:0:
329,192,40860,128,0,40935:0:0:0:0:
36,192,40860,1,0,0:0:0:0:
475,192,40935,128,0,41085:0:0:0:0:
182,192,40935,128,0,41010:0:0:0:0:
36,192,41010,128,0,41160:0:0:0:0:
329,192,41010,128,0,41085:0:0:0:0:
402,192,41085,128,0,41235:0:0:0:0:
182,192,41085,128,0,41160:0:0:0:0:
475,192,41160,128,0,41235:0:0:0:0:
109,192,41160,128,0,41310:0:0:0:0:
329,192,41235,128,0,41385:0:0:0:0:
36,192,41235,128,0,41310:0:0:0:0:
182,192,41310,128,0,41460:0:0:0:0:
475,192,41310,128,0,41385:0:0:0:0:
402,192,41385,128,0,41535:0:0:0:0:
36,192,41385,128,0,41460:0:0:0:0:
109,192,41460,128,0,41610:0:0:0:0:
329,192,41460,128,0,41535:0:0:0:0:
475,192,41535,128,0,41685:0:0:0:0:
182,192,41535,128,0,41610:0:0:0:0:
36,192,41610,128,0,41760:0:0:0:0:
329,192,41610,128,0,41685:0:0:0:0:
402,192,41685,128,0,41760:0:0:0:0:
182,192,41685,128,0,41760:0:0:0:0:
109,192,41760,128,0,41835:0:0:0:0:
475,192,41760,128,0,41835:0:0:0:0:
329,192,41835,128,0,41985:0:0:0:0:
256,192,41835,128,0,41910:0:0:0:0:
402,192,41835,128,0,41910:0:0:0:0:
182,192,41835,128,0,42960:0:0:0:0:
36,192,41910,128,0,42060:0:0:0:0:
109,192,41910,128,0,41985:0:0:0:0:
402,192,41985,128,0,42135:0:0:0:0:
475,192,41985,128,0,42060:0:0:0:0:
256,192,41985,1,0,0:0:0:0:
109,192,42060,128,0,42210:0:0:0:0:
329,192,42060,128,0,42135:0:0:0:0:
475,192,42135,128,0,42285:0:0:0:0:
36,192,42135,128,0,42210:0:0:0:0:
256,192,42210,128,0,42360:0:0:0:0:
402,192,42210,128,0,42285:0:0:0:0:
329,192,42210,1,0,0:0:0:0:
36,192,42285,128,0,42435:0:0:0:0:
109,192,42285,128,0,42360:0:0:0:0:
329,192,42360,128,0,42510:0:0:0:0:
475,192,42360,128,0,42435:0:0:0:0:
402,192,42360,1,0,0:0:0:0:
109,192,42435,128,0,42585:0:0:0:0:
256,192,42435,128,0,42510:0:0:0:0:
402,192,42510,128,0,42660:0:0:0:0:
36,192,42510,128,0,42585:0:0:0:0:
475,192,42510,1,0,0:0:0:0:
256,192,42585,128,0,42735:0:0:0:0:
329,192,42585,128,0,42660:0:0:0:0:
475,192,42660,128,0,42810:0:0:0:0:
109,192,42660,128,0,42735:0:0:0:0:
36,192,42660,1,0,0:0:0:0:
329,192,42735,128,0,42885:0:0:0:0:
402,192,42735,128,0,42810:0:0:0:0:
36,192,42810,128,0,42960:0:0:0:0:
256,192,42810,128,0,42885:0:0:0:0:
109,192,42810,1,0,0:0:0:0:
402,192,42885,128,0,42960:0:0:0:0:
475,192,42885,128,0,42960:0:0:0:0:
109,192,42960,128,0,43035:0:0:0:0:
329,192,42960,128,0,43035:0:0:0:0:
256,192,42960,1,0,0:0:0:0:
475,192,43035,128,0,44235:0:0:0:0:
36,192,43035,1,0,0:0:0:0:
402,192,43035,128,0,43110:0:0:0:0:
182,192,43035,128,0,43110:0:0:0:0:
256,192,43072,128,0,43147:0:0:0:0:
109,192,43110,128,0,43185:0:0:0:0:
329,192,43110,128,0,43185:0:0:0:0:
36,192,43147,128,0,43222:0:0:0:0:
402,192,43185,128,0,43260:0:0:0:0:
182,192,43185,128,0,43260:0:0:0:0:
256,192,43222,128,0,43278:0:0:0:0:
329,192,43260,128,0,43335:0:0:0:0:
109,192,43260,128,0,43335:0:0:0:0:
36,192,43297,128,0,43353:0:0:0:0:
256,192,43335,128,0,43410:0:0:0:0:
402,192,43335,128,0,43410:0:0:0:0:
182,192,43372,128,0,43428:0:0:0:0:
36,192,43410,128,0,43485:0:0:0:0:
109,192,43410,128,0,43466:0:0:0:0:
329,192,43447,128,0,43522:0:0:0:0:
256,192,43485,128,0,43560:0:0:0:0:
182,192,43485,128,0,43541:0:0:0:0:
109,192,43522,128,0,43597:0:0:0:0:
402,192,43560,128,0,43635:0:0:0:0:
36,192,43560,128,0,43635:0:0:0:0:
182,192,43597,128,0,43672:0:0:0:0:
329,192,43635,128,0,43710:0:0:0:0:
256,192,43635,128,0,43710:0:0:0:0:
109,192,43672,128,0,43747:0:0:0:0:
402,192,43710,128,0,43785:0:0:0:0:
36,192,43710,128,0,43766:0:0:0:0:
182,192,43747,128,0,43822:0:0:0:0:
256,192,43785,128,0,43860:0:0:0:0:
329,192,43785,128,0,43860:0:0:0:0:
36,192,43822,128,0,43878:0:0:0:0:
402,192,43860,128,0,43935:0:0:0:0:
109,192,43860,128,0,43935:0:0:0:0:
182,192,43897,128,0,43972:0:0:0:0:
36,192,43935,128,0,44010:0:0:0:0:
329,192,43935,128,0,44010:0:0:0:0:
256,192,43972,128,0,44047:0:0:0:0:
109,192,44010,128,0,44085:0:0:0:0:
402,192,44010,128,0,44085:0:0:0:0:
182,192,44047,128,0,44103:0:0:0:0:
329,192,44085,128,0,44160:0:0:0:0:
36,192,44085,128,0,44141:0:0:0:0:
256,192,44122,128,0,44178:0:0:0:0:
182,192,44160,128,0,44235:0:0:0:0:
109,192,44160,128,0,44197:0:0:0:0:
36,192,44197,1,0,0:0:0:0:
329,192,44235,128,0,45435:0:0:0:0:
402,192,44235,128,0,44385:0:0:0:0:
256,192,44235,128,0,44310:0:0:0:0:
109,192,44310,128,0,44385:0:0:0:0:
36,192,44310,128,0,44360:0:0:0:0:
475,192,44385,128,0,44535:0:0:0:0:
256,192,44385,128,0,44460:0:0:0:0:
402,192,44460,128,0,44535:0:0:0:0:
182,192,44460,128,0,44510:0:0:0:0:
109,192,44535,128,0,44685:0:0:0:0:
36,192,44535,128,0,44610:0:0:0:0:
256,192,44535,128,0,44585:0:0:0:0:
475,192,44610,128,0,44685:0:0:0:0:
402,192,44610,128,0,44660:0:0:0:0:
36,192,44685,128,0,44835:0:0:0:0:
182,192,44685,128,0,44760:0:0:0:0:
109,192,44760,128,0,44835:0:0:0:0:
256,192,44760,128,0,44810:0:0:0:0:
402,192,44835,128,0,44985:0:0:0:0:
475,192,44835,128,0,44910:0:0:0:0:
182,192,44835,128,0,44885:0:0:0:0:
36,192,44910,128,0,44985:0:0:0:0:
109,192,44910,128,0,44960:0:0:0:0:
182,192,44985,128,0,45135:0:0:0:0:
256,192,44985,128,0,45060:0:0:0:0:
109,192,45060,128,0,45135:0:0:0:0:
36,192,45060,128,0,45110:0:0:0:0:
475,192,45135,128,0,45285:0:0:0:0:
402,192,45135,128,0,45210:0:0:0:0:
256,192,45135,128,0,45185:0:0:0:0:
36,192,45210,128,0,45285:0:0:0:0:
182,192,45210,128,0,45260:0:0:0:0:
256,192,45285,128,0,45360:0:0:0:0:
109,192,45285,128,0,45360:0:0:0:0:
182,192,45360,128,0,45435:0:0:0:0:
402,192,45360,128,0,45410:0:0:0:0:
36,192,45435,128,0,47235:0:0:0:0:
475,192,45435,1,0,0:0:0:0:
256,192,45435,128,0,45510:0:0:0:0:
109,192,45435,128,0,45472:0:0:0:0:
329,192,45510,128,0,45585:0:0:0:0:
182,192,45510,128,0,45547:0:0:0:0:
475,192,45585,1,0,0:0:0:0:
402,192,45585,128,0,45660:0:0:0:0:
256,192,45585,128,0,45622:0:0:0:0:
182,192,45660,128,0,45735:0:0:0:0:
109,192,45660,128,0,45697:0:0:0:0:
256,192,45697,128,0,45735:0:0:0:0:
475,192,45735,1,0,0:0:0:0:
329,192,45735,128,0,45810:0:0:0:0:
402,192,45735,128,0,45772:0:0:0:0:
256,192,45810,128,0,45885:0:0:0:0:
109,192,45810,128,0,45847:0:0:0:0:
402,192,45885,1,0,0:0:0:0:
182,192,45885,128,0,45960:0:0:0:0:
475,192,45885,128,0,45922:0:0:0:0:
329,192,45960,128,0,46035:0:0:0:0:
256,192,45960,128,0,45997:0:0:0:0:
402,192,45997,128,0,46035:0:0:0:0:
475,192,46035,1,0,0:0:0:0:
182,192,46035,128,0,46110:0:0:0:0:
109,192,46035,128,0,46072:0:0:0:0:
256,192,46110,128,0,46185:0:0:0:0:
402,192,46110,128,0,46147:0:0:0:0:
109,192,46185,1,0,0:0:0:0:
329,192,46185,128,0,46260:0:0:0:0:
182,192,46185,128,0,46222:0:0:0:0:
402,192,46260,128,0,46335:0:0:0:0:
475,192,46260,128,0,46297:0:0:0:0:
182,192,46297,1,0,0:0:0:0:
329,192,46335,1,0,0:0:0:0:
256,192,46335,128,0,46410:0:0:0:0:
109,192,46335,128,0,46372:0:0:0:0:
475,192,46410,128,0,46485:0:0:0:0:
402,192,46410,128,0,46447:0:0:0:0:
256,192,46485,1,0,0:0:0:0:
182,192,46485,128,0,46560:0:0:0:0:
329,192,46485,128,0,46522:0:0:0:0:
402,192,46560,128,0,46635:0:0:0:0:
109,192,46560,128,0,46597:0:0:0:0:
329,192,46597,1,0,0:0:0:0:
182,192,46635,1,0,0:0:0:0:
256,192,46635,128,0,46710:0:0:0:0:
475,192,46635,128,0,46672:0:0:0:0:
329,192,46710,128,0,46785:0:0:0:0:
402,192,46710,128,0,46747:0:0:0:0:
182,192,46785,1,0,0:0:0:0:
109,192,46785,128,0,46860:0:0:0:0:
475,192,46785,128,0,46822:0:0:0:0:
256,192,46860,128,0,46935:0:0:0:0:
402,192,46860,128,0,46897:0:0:0:0:
182,192,46897,1,0,0:0:0:0:
109,192,46935,1,0,0:0:0:0:
475,192,46935,128,0,47010:0:0:0:0:
329,192,46935,128,0,46972:0:0:0:0:
182,192,47010,128,0,47085:0:0:0:0:
256,192,47010,128,0,47047:0:0:0:0:
475,192,47085,1,0,0:0:0:0:
402,192,47085,128,0,47160:0:0:0:0:
329,192,47085,128,0,47122:0:0:0:0:
109,192,47160,128,0,47235:0:0:0:0:
182,192,47160,128,0,47197:0:0:0:0:
256,192,47197,1,0,0:0:0:0:
475,192,47235,128,0,47535:0:0:0:0:
329,192,47235,128,0,47310:0:0:0:0:
402,192,47235,128,0,47285:0:0:0:0:
182,192,47310,128,0,47385:0:0:0:0:
36,192,47310,128,0,47360:0:0:0:0:
402,192,47385,1,0,0:0:0:0:
109,192,47385,128,0,47460:0:0:0:0:
256,192,47385,128,0,47435:0:0:0:0:
36,192,47460,128,0,47535:0:0:0:0:
182,192,47460,128,0,47510:0:0:0:0:
256,192,47497,1,0,0:0:0:0:
329,192,47535,128,0,47835:0:0:0:0:
109,192,47535,128,0,47610:0:0:0:0:
402,192,47535,128,0,47585:0:0:0:0:
182,192,47610,128,0,47685:0:0:0:0:
256,192,47610,128,0,47660:0:0:0:0:
36,192,47685,1,0,0:0:0:0:
475,192,47685,128,0,47760:0:0:0:0:
109,192,47685,128,0,47735:0:0:0:0:
402,192,47760,128,0,47835:0:0:0:0:
182,192,47760,128,0,47810:0:0:0:0:
109,192,47797,1,0,0:0:0:0:
256,192,47835,128,0,48960:0:0:0:0:
475,192,47835,128,0,47935:0:0:0:0:
36,192,47835,1,0,0:0:0:0:
329,192,47910,128,0,48010:0:0:0:0:
109,192,47910,1,0,0:0:0:0:
182,192,47985,1,0,0:0:0:0:
475,192,47985,1,0,0:0:0:0:
36,192,47985,1,0,0:0:0:0:
402,192,47985,128,0,48085:0:0:0:0:
182,192,48060,1,0,0:0:0:0:
329,192,48060,128,0,48160:0:0:0:0:
109,192,48135,1,0,0:0:0:0:
475,192,48135,1,0,0:0:0:0:
402,192,48135,1,0,0:0:0:0:
36,192,48135,128,0,48235:0:0:0:0:
329,192,48210,1,0,0:0:0:0:
182,192,48210,128,0,48310:0:0:0:0:
36,192,48285,1,0,0:0:0:0:
402,192,48285,1,0,0:0:0:0:
475,192,48285,1,0,0:0:0:0:
109,192,48285,128,0,48385:0:0:0:0:
402,192,48360,1,0,0:0:0:0:
182,192,48360,128,0,48460:0:0:0:0:
475,192,48435,1,0,0:0:0:0:
109,192,48435,128,0,48535:0:0:0:0:
329,192,48435,128,0,48535:0:0:0:0:
36,192,48510,1,0,0:0:0:0:
402,192,48510,128,0,48610:0:0:0:0:
329,192,48585,1,0,0:0:0:0:
109,192,48585,1,0,0:0:0:0:
182,192,48585,1,0,0:0:0:0:
475,192,48585,128,0,48685:0:0:0:0:
109,192,48660,1,0,0:0:0:0:
402,192,48660,128,0,48760:0:0:0:0:
36,192,48735,1,0,0:0:0:0:
475,192,48735,1,0,0:0:0:0:
182,192,48735,128,0,48835:0:0:0:0:
402,192,48810,1,0,0:0:0:0:
109,192,48810,128,0,48910:0:0:0:0:
36,192,48885,1,0,0:0:0:0:
329,192,48885,1,0,0:0:0:0:
475,192,48885,1,0,0:0:0:0:
182,192,48885,128,0,48985:0:0:0:0:
329,192,48960,1,0,0:0:0:0:
109,192,48960,128,0,49035:0:0:0:0:
36,192,49035,128,0,49560:0:0:0:0:
475,192,49035,1,0,0:0:0:0:
402,192,49035,128,0,49135:0:0:0:0:
256,192,49035,128,0,49110:0:0:0:0:
329,192,49110,128,0,49210:0:0:0:0:
182,192,49110,128,0,49185:0:0:0:0:
475,192,49185,1,0,0:0:0:0:
256,192,49185,128,0,49285:0:0:0:0:
109,192,49185,128,0,49260:0:0:0:0:
402,192,49222,1,0,0:0:0:0:
329,192,49260,1,0,0:0:0:0:
182,192,49260,128,0,49360:0:0:0:0:
109,192,49297,1,0,0:0:0:0:
475,192,49335,1,0,0:0:0:0:
402,192,49335,128,0,49435:0:0:0:0:
256,192,49335,1,0,0:0:0:0:
329,192,49410,128,0,49510:0:0:0:0:
182,192,49410,1,0,0:0:0:0:
256,192,49485,128,0,49585:0:0:0:0:
402,192,49485,1,0,0:0:0:0:
475,192,49485,128,0,49560:0:0:0:0:
109,192,49522,1,0,0:0:0:0:
182,192,49560,128,0,49660:0:0:0:0:
329,192,49560,128,0,49635:0:0:0:0:
402,192,49597,1,0,0:0:0:0:
475,192,49635,128,0,49860:0:0:0:0:
36,192,49635,1,0,0:0:0:0:
109,192,49635,128,0,49735:0:0:0:0:
256,192,49635,128,0,49710:0:0:0:0:
402,192,49710,1,0,0:0:0:0:
329,192,49710,128,0,49810:0:0:0:0:
182,192,49710,128,0,49785:0:0:0:0:
109,192,49785,1,0,0:0:0:0:
256,192,49785,128,0,49885:0:0:0:0:
36,192,49785,128,0,49860:0:0:0:0:
329,192,49860,1,0,0:0:0:0:
182,192,49860,128,0,49960:0:0:0:0:
402,192,49935,128,0,50160:0:0:0:0:
36,192,49935,1,0,0:0:0:0:
109,192,49935,128,0,50035:0:0:0:0:
475,192,49935,128,0,50010:0:0:0:0:
256,192,50010,1,0,0:0:0:0:
182,192,50010,1,0,0:0:0:0:
329,192,50010,128,0,50085:0:0:0:0:
109,192,50085,1,0,0:0:0:0:
475,192,50085,1,0,0:0:0:0:
36,192,50085,128,0,50160:0:0:0:0:
182,192,50122,1,0,0:0:0:0:
329,192,50160,1,0,0:0:0:0:
256,192,50160,128,0,50235:0:0:0:0:
475,192,50197,1,0,0:0:0:0:
182,192,50235,128,0,50385:0:0:0:0:
109,192,50235,128,0,50310:0:0:0:0:
36,192,50235,128,0,50310:0:0:0:0:
402,192,50235,128,0,50310:0:0:0:0:
329,192,50310,128,0,50385:0:0:0:0:
256,192,50310,128,0,50385:0:0:0:0:
36,192,50385,128,0,50460:0:0:0:0:
109,192,50385,128,0,50460:0:0:0:0:
475,192,50385,128,0,50460:0:0:0:0:
402,192,50460,128,0,50535:0:0:0:0:
256,192,50460,128,0,50535:0:0:0:0:
182,192,50497,128,0,50535:0:0:0:0:
109,192,50535,128,0,50610:0:0:0:0:
36,192,50535,128,0,50610:0:0:0:0:
329,192,50535,128,0,50610:0:0:0:0:
475,192,50535,128,0,50685:0:0:0:0:
402,192,50610,128,0,50685:0:0:0:0:
256,192,50610,128,0,50685:0:0:0:0:
36,192,50685,128,0,50760:0:0:0:0:
182,192,50685,128,0,50760:0:0:0:0:
329,192,50685,128,0,50760:0:0:0:0:
402,192,50760,128,0,50835:0:0:0:0:
475,192,50760,128,0,50835:0:0:0:0:
256,192,50797,128,0,50835:0:0:0:0:
109,192,50835,128,0,50910:0:0:0:0:
36,192,50835,128,0,50910:0:0:0:0:
182,192,50835,128,0,50985:0:0:0:0:
329,192,50835,128,0,50910:0:0:0:0:
402,192,50910,128,0,50985:0:0:0:0:
475,192,50910,128,0,50985:0:0:0:0:
36,192,50985,128,0,51060:0:0:0:0:
109,192,50985,128,0,51060:0:0:0:0:
256,192,50985,128,0,51060:0:0:0:0:
182,192,51060,128,0,51135:0:0:0:0:
329,192,51060,128,0,51135:0:0:0:0:
402,192,51097,128,0,51135:0:0:0:0:
256,192,51135,128,0,51210:0:0:0:0:
475,192,51135,128,0,51285:0:0:0:0:
109,192,51135,128,0,51210:0:0:0:0:
36,192,51135,128,0,51210:0:0:0:0:
182,192,51210,128,0,51285:0:0:0:0:
329,192,51210,128,0,51285:0:0:0:0:
256,192,51285,128,0,51360:0:0:0:0:
402,192,51285,128,0,51360:0:0:0:0:
36,192,51285,128,0,51360:0:0:0:0:
182,192,51360,128,0,51435:0:0:0:0:
475,192,51360,128,0,51435:0:0:0:0:
109,192,51397,128,0,51435:0:0:0:0:
402,192,51435,128,0,51510:0:0:0:0:
329,192,51435,128,0,51510:0:0:0:0:
256,192,51435,128,0,51585:0:0:0:0:
36,192,51435,128,0,51510:0:0:0:0:
182,192,51510,128,0,51585:0:0:0:0:
109,192,51510,128,0,51585:0:0:0:0:
329,192,51585,128,0,51660:0:0:0:0:
402,192,51585,128,0,51660:0:0:0:0:
475,192,51585,128,0,51660:0:0:0:0:
182,192,51660,128,0,51735:0:0:0:0:
36,192,51660,128,0,51735:0:0:0:0:
256,192,51697,128,0,51735:0:0:0:0:
109,192,51735,128,0,51885:0:0:0:0:
329,192,51735,128,0,51810:0:0:0:0:
402,192,51735,128,0,51810:0:0:0:0:
475,192,51735,128,0,51810:0:0:0:0:
256,192,51810,128,0,51885:0:0:0:0:
182,192,51810,128,0,51885:0:0:0:0:
36,192,51885,128,0,51960:0:0:0:0:
402,192,51885,128,0,51960:0:0:0:0:
475,192,51885,128,0,51960:0:0:0:0:
329,192,51960,128,0,52035:0:0:0:0:
182,192,51960,128,0,52035:0:0:0:0:
109,192,51997,128,0,52035:0:0:0:0:
36,192,52035,128,0,52110:0:0:0:0:
256,192,52035,128,0,52110:0:0:0:0:
402,192,52035,128,0,52110:0:0:0:0:
475,192,52035,128,0,52185:0:0:0:0:
329,192,52110,128,0,52185:0:0:0:0:
182,192,52110,128,0,52185:0:0:0:0:
109,192,52185,128,0,52260:0:0:0:0:
36,192,52185,128,0,52260:0:0:0:0:
256,192,52185,128,0,52260:0:0:0:0:
402,192,52260,128,0,52335:0:0:0:0:
475,192,52260,128,0,52335:0:0:0:0:
329,192,52297,128,0,52335:0:0:0:0:
182,192,52335,128,0,52410:0:0:0:0:
109,192,52335,128,0,52410:0:0:0:0:
36,192,52335,128,0,52485:0:0:0:0:
256,192,52335,128,0,52410:0:0:0:0:
329,192,52410,128,0,52485:0:0:0:0:
475,192,52410,128,0,52485:0:0:0:0:
182,192,52485,128,0,52560:0:0:0:0:
256,192,52485,128,0,52560:0:0:0:0:
109,192,52485,128,0,52560:0:0:0:0:
402,192,52560,128,0,52597:0:0:0:0:
329,192,52560,128,0,52635:0:0:0:0:
36,192,52597,128,0,52635:0:0:0:0:
182,192,52635,1,0,0:0:0:0:
256,192,52635,1,0,0:0:0:0:
475,192,52635,1,0,0:0:0:0:
109,192,52635,1,0,0:0:0:0:
402,192,52672,1,0,0:0:0:0:
329,192,52710,1,0,0:0:0:0:
36,192,52710,1,0,0:0:0:0:
109,192,52747,1,0,0:0:0:0:
182,192,52785,1,0,0:0:0:0:
256,192,52785,1,0,0:0:0:0:
475,192,52785,1,0,0:0:0:0:
402,192,52822,1,0,0:0:0:0:
329,192,52860,1,0,0:0:0:0:
109,192,52860,1,0,0:0:0:0:
36,192,52897,1,0,0:0:0:0:
182,192,52935,1,0,0:0:0:0:
256,192,52935,1,0,0:0:0:0:
475,192,52935,1,0,0:0:0:0:
402,192,52972,1,0,0:0:0:0:
329,192,53010,1,0,0:0:0:0:
109,192,53010,1,0,0:0:0:0:
36,192,53047,1,0,0:0:0:0:
256,192,53085,1,0,0:0:0:0:
475,192,53085,1,0,0:0:0:0:
402,192,53085,1,0,0:0:0:0:
182,192,53122,1,0,0:0:0:0:
109,192,53160,1,0,0:0:0:0:
329,192,53160,1,0,0:0:0:0:
402,192,53197,1,0,0:0:0:0:
475,192,53235,1,0,0:0:0:0:
36,192,53235,1,0,0:0:0:0:
182,192,53235,1,0,0:0:0:0:
256,192,53272,1,0,0:0:0:0:
329,192,53310,1,0,0:0:0:0:
109,192,53310,1,0,0:0:0:0:
402,192,53347,1,0,0:0:0:0:
475,192,53385,1,0,0:0:0:0:
182,192,53385,1,0,0:0:0:0:
36,192,53385,1,0,0:0:0:0:
256,192,53422,1,0,0:0:0:0:
329,192,53460,1,0,0:0:0:0:
402,192,53460,1,0,0:0:0:0:
475,192,53497,1,0,0:0:0:0:
36,192,53535,1,0,0:0:0:0:
109,192,53535,1,0,0:0:0:0:
182,192,53535,1,0,0:0:0:0:
256,192,53572,1,0,0:0:0:0:
402,192,53610,1,0,0:0:0:0:
475,192,53610,1,0,0:0:0:0:
329,192,53647,1,0,0:0:0:0:
109,192,53685,1,0,0:0:0:0:
36,192,53685,1,0,0:0:0:0:
182,192,53685,1,0,0:0:0:0:
256,192,53722,1,0,0:0:0:0:
402,192,53760,1,0,0:0:0:0:
475,192,53760,1,0,0:0:0:0:
329,192,53797,1,0,0:0:0:0:
36,192,53835,128,0,53985:0:0:0:0:
109,192,53835,128,0,53910:0:0:0:0:
182,192,53835,128,0,53910:0:0:0:0:
256,192,53835,128,0,53910:0:0:0:0:
402,192,53910,128,0,53985:0:0:0:0:
475,192,53910,128,0,53985:0:0:0:0:
329,192,53985,128,0,54060:0:0:0:0:
182,192,53985,128,0,54060:0:0:0:0:
109,192,53985,128,0,54060:0:0:0:0:
256,192,54060,128,0,54135:0:0:0:0:
402,192,54060,128,0,54135:0:0:0:0:
475,192,54097,128,0,54135:0:0:0:0:
182,192,54135,128,0,54285:0:0:0:0:
109,192,54135,128,0,54210:0:0:0:0:
36,192,54135,128,0,54210:0:0:0:0:
329,192,54135,128,0,54210:0:0:0:0:
256,192,54210,128,0,54285:0:0:0:0:
402,192,54210,128,0,54285:0:0:0:0:
329,192,54285,128,0,54360:0:0:0:0:
109,192,54285,128,0,54360:0:0:0:0:
36,192,54285,128,0,54360:0:0:0:0:
475,192,54360,128,0,54435:0:0:0:0:
256,192,54360,128,0,54435:0:0:0:0:
182,192,54397,128,0,54435:0:0:0:0:
36,192,54435,128,0,54472:0:0:0:0:
329,192,54435,128,0,54510:0:0:0:0:
402,192,54435,128,0,54510:0:0:0:0:
109,192,54435,128,0,54472:0:0:0:0:
182,192,54510,128,0,54585:0:0:0:0:
256,192,54510,128,0,54585:0:0:0:0:
109,192,54510,128,0,54585:0:0:0:0:
36,192,54510,128,0,54585:0:0:0:0:
329,192,54585,128,0,54660:0:0:0:0:
402,192,54585,128,0,54660:0:0:0:0:
475,192,54585,128,0,54660:0:0:0:0:
36,192,54660,128,0,54735:0:0:0:0:
182,192,54660,128,0,54735:0:0:0:0:
256,192,54697,128,0,54735:0:0:0:0:
109,192,54735,128,0,54810:0:0:0:0:
402,192,54735,128,0,54772:0:0:0:0:
329,192,54735,128,0,54810:0:0:0:0:
475,192,54735,128,0,54772:0:0:0:0:
402,192,54810,128,0,54960:0:0:0:0:
182,192,54810,128,0,54885:0:0:0:0:
256,192,54810,128,0,54885:0:0:0:0:
475,192,54810,128,0,54960:0:0:0:0:
109,192,54885,128,0,54960:0:0:0:0:
36,192,54885,128,0,54960:0:0:0:0:
329,192,54885,128,0,54922:0:0:0:0:
182,192,54960,128,0,55035:0:0:0:0:
256,192,54960,128,0,55035:0:0:0:0:
329,192,54997,128,0,55035:0:0:0:0:
36,192,55035,128,0,55110:0:0:0:0:
109,192,55035,128,0,55185:0:0:0:0:
402,192,55035,128,0,55110:0:0:0:0:
475,192,55035,128,0,55110:0:0:0:0:
329,192,55110,128,0,55185:0:0:0:0:
182,192,55110,128,0,55185:0:0:0:0:
256,192,55185,128,0,55260:0:0:0:0:
402,192,55185,128,0,55260:0:0:0:0:
475,192,55185,128,0,55260:0:0:0:0:
182,192,55260,128,0,55335:0:0:0:0:
36,192,55260,128,0,55335:0:0:0:0:
329,192,55297,128,0,55335:0:0:0:0:
256,192,55335,128,0,55485:0:0:0:0:
109,192,55335,128,0,55410:0:0:0:0:
402,192,55335,128,0,55410:0:0:0:0:
475,192,55335,128,0,55410:0:0:0:0:
182,192,55410,128,0,55485:0:0:0:0:
36,192,55410,128,0,55485:0:0:0:0:
402,192,55485,128,0,55560:0:0:0:0:
475,192,55485,128,0,55560:0:0:0:0:
329,192,55485,128,0,55522:0:0:0:0:
256,192,55560,128,0,55635:0:0:0:0:
109,192,55560,128,0,55635:0:0:0:0:
329,192,55597,128,0,55635:0:0:0:0:
402,192,55635,128,0,55785:0:0:0:0:
36,192,55635,128,0,55710:0:0:0:0:
182,192,55635,128,0,55710:0:0:0:0:
475,192,55635,128,0,55710:0:0:0:0:
109,192,55710,128,0,55785:0:0:0:0:
256,192,55710,128,0,55785:0:0:0:0:
329,192,55785,128,0,55860:0:0:0:0:
475,192,55785,128,0,55860:0:0:0:0:
182,192,55785,128,0,55822:0:0:0:0:
109,192,55860,128,0,55935:0:0:0:0:
36,192,55860,128,0,55935:0:0:0:0:
182,192,55897,128,0,55935:0:0:0:0:
256,192,55935,128,0,56085:0:0:0:0:
329,192,55935,128,0,56010:0:0:0:0:
402,192,55935,128,0,56010:0:0:0:0:
475,192,55935,128,0,56010:0:0:0:0:
109,192,56010,128,0,56085:0:0:0:0:
36,192,56010,128,0,56085:0:0:0:0:
182,192,56085,128,0,56160:0:0:0:0:
329,192,56085,128,0,56160:0:0:0:0:
475,192,56085,128,0,56160:0:0:0:0:
109,192,56160,128,0,56235:0:0:0:0:
36,192,56160,128,0,56235:0:0:0:0:
256,192,56197,128,0,56235:0:0:0:0:
329,192,56235,128,0,56385:0:0:0:0:
402,192,56235,128,0,56310:0:0:0:0:
475,192,56235,128,0,56310:0:0:0:0:
182,192,56235,128,0,56310:0:0:0:0:
109,192,56310,128,0,56385:0:0:0:0:
256,192,56310,128,0,56385:0:0:0:0:
182,192,56385,128,0,56460:0:0:0:0:
36,192,56385,128,0,56460:0:0:0:0:
475,192,56385,128,0,56460:0:0:0:0:
329,192,56460,128,0,56535:0:0:0:0:
402,192,56460,128,0,56535:0:0:0:0:
256,192,56497,128,0,56535:0:0:0:0:
182,192,56535,128,0,56685:0:0:0:0:
475,192,56535,128,0,56610:0:0:0:0:
109,192,56535,128,0,56610:0:0:0:0:
36,192,56535,128,0,56610:0:0:0:0:
256,192,56610,128,0,56685:0:0:0:0:
329,192,56610,128,0,56685:0:0:0:0:
402,192,56685,128,0,56760:0:0:0:0:
475,192,56685,128,0,56760:0:0:0:0:
36,192,56685,128,0,56760:0:0:0:0:
109,192,56760,128,0,56835:0:0:0:0:
256,192,56760,128,0,56835:0:0:0:0:
329,192,56797,128,0,56835:0:0:0:0:
402,192,56835,128,0,56985:0:0:0:0:
182,192,56835,128,0,56910:0:0:0:0:
36,192,56835,128,0,56910:0:0:0:0:
475,192,56835,128,0,56910:0:0:0:0:
256,192,56910,128,0,56985:0:0:0:0:
329,192,56910,128,0,56985:0:0:0:0:
182,192,56985,128,0,57060:0:0:0:0:
36,192,56985,128,0,57060:0:0:0:0:
475,192,56985,128,0,57060:0:0:0:0:
109,192,57060,128,0,57135:0:0:0:0:
402,192,57060,128,0,57135:0:0:0:0:
329,192,57097,128,0,57135:0:0:0:0:
182,192,57135,128,0,57285:0:0:0:0:
36,192,57135,128,0,57210:0:0:0:0:
256,192,57135,128,0,57210:0:0:0:0:
475,192,57135,128,0,57210:0:0:0:0:
402,192,57210,128,0,57285:0:0:0:0:
329,192,57210,128,0,57285:0:0:0:0:
256,192,57285,128,0,57360:0:0:0:0:
109,192,57285,128,0,57360:0:0:0:0:
36,192,57285,128,0,57360:0:0:0:0:
182,192,57360,128,0,57397:0:0:0:0:
329,192,57360,128,0,57435:0:0:0:0:
402,192,57397,128,0,57435:0:0:0:0:
475,192,57435,1,0,0:0:0:0:
256,192,57435,1,0,0:0:0:0:
109,192,57435,1,0,0:0:0:0:
36,192,57435,1,0,0:0:0:0:
182,192,57472,1,0,0:0:0:0:
329,192,57510,1,0,0:0:0:0:
402,192,57510,1,0,0:0:0:0:
109,192,57547,1,0,0:0:0:0:
36,192,57585,1,0,0:0:0:0:
256,192,57585,1,0,0:0:0:0:
475,192,57585,1,0,0:0:0:0:
182,192,57622,1,0,0:0:0:0:
329,192,57660,1,0,0:0:0:0:
402,192,57660,1,0,0:0:0:0:
256,192,57697,1,0,0:0:0:0:
109,192,57735,1,0,0:0:0:0:
36,192,57735,1,0,0:0:0:0:
475,192,57735,1,0,0:0:0:0:
182,192,57772,1,0,0:0:0:0:
329,192,57810,1,0,0:0:0:0:
402,192,57810,1,0,0:0:0:0:
256,192,57847,1,0,0:0:0:0:
36,192,57885,1,0,0:0:0:0:
109,192,57885,1,0,0:0:0:0:
182,192,57885,1,0,0:0:0:0:
475,192,57922,1,0,0:0:0:0:
402,192,57960,1,0,0:0:0:0:
329,192,57960,1,0,0:0:0:0:
256,192,57997,1,0,0:0:0:0:
36,192,58035,1,0,0:0:0:0:
109,192,58035,1,0,0:0:0:0:
182,192,58035,1,0,0:0:0:0:
329,192,58072,1,0,0:0:0:0:
402,192,58110,1,0,0:0:0:0:
475,192,58110,1,0,0:0:0:0:
36,192,58147,1,0,0:0:0:0:
109,192,58185,1,0,0:0:0:0:
182,192,58185,1,0,0:0:0:0:
256,192,58185,1,0,0:0:0:0:
329,192,58222,1,0,0:0:0:0:
402,192,58260,1,0,0:0:0:0:
475,192,58260,1,0,0:0:0:0:
36,192,58297,1,0,0:0:0:0:
109,192,58335,1,0,0:0:0:0:
182,192,58335,1,0,0:0:0:0:
329,192,58335,1,0,0:0:0:0:
402,192,58372,1,0,0:0:0:0:
475,192,58410,1,0,0:0:0:0:
256,192,58410,1,0,0:0:0:0:
36,192,58447,1,0,0:0:0:0:
109,192,58485,1,0,0:0:0:0:
182,192,58485,1,0,0:0:0:0:
329,192,58485,1,0,0:0:0:0:
402,192,58522,1,0,0:0:0:0:
475,192,58560,1,0,0:0:0:0:
36,192,58560,1,0,0:0:0:0:
109,192,58597,1,0,0:0:0:0:
182,192,58635,128,0,58785:0:0:0:0:
256,192,58635,128,0,58710:0:0:0:0:
329,192,58635,128,0,58710:0:0:0:0:
402,192,58635,128,0,58710:0:0:0:0:
109,192,58710,128,0,58785:0:0:0:0:
36,192,58710,128,0,58785:0:0:0:0:
256,192,58785,128,0,58860:0:0:0:0:
402,192,58785,128,0,58860:0:0:0:0:
475,192,58785,128,0,58860:0:0:0:0:
329,192,58860,128,0,58935:0:0:0:0:
182,192,58860,128,0,58935:0:0:0:0:
109,192,58897,128,0,58972:0:0:0:0:
36,192,58935,128,0,59010:0:0:0:0:
256,192,58935,128,0,59010:0:0:0:0:
402,192,58935,128,0,58972:0:0:0:0:
475,192,58935,128,0,58972:0:0:0:0:
402,192,59010,128,0,59122:0:0:0:0:
475,192,59010,128,0,59085:0:0:0:0:
329,192,59010,128,0,59085:0:0:0:0:
182,192,59010,128,0,59085:0:0:0:0:
109,192,59085,128,0,59160:0:0:0:0:
36,192,59085,128,0,59160:0:0:0:0:
256,192,59085,128,0,59160:0:0:0:0:
329,192,59160,128,0,59235:0:0:0:0:
475,192,59160,128,0,59235:0:0:0:0:
182,192,59197,128,0,59272:0:0:0:0:
36,192,59235,128,0,59272:0:0:0:0:
109,192,59235,128,0,59272:0:0:0:0:
402,192,59235,128,0,59310:0:0:0:0:
256,192,59235,128,0,59310:0:0:0:0:
182,192,59310,128,0,59385:0:0:0:0:
329,192,59310,128,0,59385:0:0:0:0:
109,192,59310,128,0,59385:0:0:0:0:
36,192,59310,128,0,59385:0:0:0:0:
256,192,59385,128,0,59460:0:0:0:0:
475,192,59385,128,0,59460:0:0:0:0:
402,192,59385,128,0,59460:0:0:0:0:
329,192,59460,128,0,59535:0:0:0:0:
182,192,59460,128,0,59535:0:0:0:0:
109,192,59497,128,0,59572:0:0:0:0:
402,192,59535,128,0,59572:0:0:0:0:
256,192,59535,128,0,59572:0:0:0:0:
36,192,59535,128,0,59610:0:0:0:0:
475,192,59535,128,0,59610:0:0:0:0:
402,192,59610,128,0,59685:0:0:0:0:
256,192,59610,128,0,59685:0:0:0:0:
182,192,59685,128,0,59722:0:0:0:0:
109,192,59685,128,0,59760:0:0:0:0:
36,192,59685,128,0,59760:0:0:0:0:
329,192,59685,128,0,59760:0:0:0:0:
402,192,59760,128,0,59835:0:0:0:0:
256,192,59760,128,0,59835:0:0:0:0:
182,192,59797,128,0,59835:0:0:0:0:
109,192,59835,128,0,59985:0:0:0:0:
36,192,59835,128,0,59910:0:0:0:0:
329,192,59835,128,0,59872:0:0:0:0:
475,192,59835,128,0,59910:0:0:0:0:
182,192,59910,128,0,59947:0:0:0:0:
256,192,59910,128,0,59985:0:0:0:0:
329,192,59985,128,0,60060:0:0:0:0:
402,192,59985,128,0,60022:0:0:0:0:
475,192,59985,128,0,60060:0:0:0:0:
182,192,60060,128,0,60135:0:0:0:0:
36,192,60060,128,0,60097:0:0:0:0:
256,192,60097,128,0,60135:0:0:0:0:
329,192,60135,128,0,60285:0:0:0:0:
109,192,60135,128,0,60210:0:0:0:0:
402,192,60135,128,0,60172:0:0:0:0:
475,192,60135,128,0,60210:0:0:0:0:
182,192,60210,128,0,60247:0:0:0:0:
256,192,60210,128,0,60285:0:0:0:0:
109,192,60285,128,0,60360:0:0:0:0:
36,192,60285,128,0,60322:0:0:0:0:
475,192,60285,128,0,60360:0:0:0:0:
256,192,60360,128,0,60435:0:0:0:0:
402,192,60360,128,0,60397:0:0:0:0:
182,192,60397,128,0,60435:0:0:0:0:
475,192,60435,128,0,60585:0:0:0:0:
329,192,60435,128,0,60472:0:0:0:0:
109,192,60435,128,0,60510:0:0:0:0:
36,192,60435,128,0,60510:0:0:0:0:
182,192,60510,128,0,60585:0:0:0:0:
256,192,60510,128,0,60547:0:0:0:0:
402,192,60585,128,0,60660:0:0:0:0:
329,192,60585,128,0,60660:0:0:0:0:
36,192,60585,128,0,60622:0:0:0:0:
109,192,60660,128,0,60735:0:0:0:0:
475,192,60660,128,0,60697:0:0:0:0:
182,192,60697,128,0,60735:0:0:0:0:
329,192,60735,128,0,60885:0:0:0:0:
36,192,60735,128,0,60810:0:0:0:0:
256,192,60735,128,0,60772:0:0:0:0:
402,192,60735,128,0,60810:0:0:0:0:
109,192,60810,128,0,60885:0:0:0:0:
182,192,60810,128,0,60847:0:0:0:0:
256,192,60885,128,0,60960:0:0:0:0:
402,192,60885,128,0,60922:0:0:0:0:
475,192,60885,128,0,60960:0:0:0:0:
329,192,60960,128,0,60997:0:0:0:0:
36,192,60960,128,0,61035:0:0:0:0:
109,192,60997,128,0,61035:0:0:0:0:
256,192,61035,128,0,61185:0:0:0:0:
402,192,61035,128,0,61110:0:0:0:0:
475,192,61035,128,0,61110:0:0:0:0:
182,192,61035,128,0,61072:0:0:0:0:
36,192,61110,128,0,61185:0:0:0:0:
109,192,61110,128,0,61147:0:0:0:0:
182,192,61185,128,0,61222:0:0:0:0:
329,192,61185,128,0,61260:0:0:0:0:
475,192,61185,128,0,61260:0:0:0:0:
109,192,61260,128,0,61335:0:0:0:0:
256,192,61260,128,0,61297:0:0:0:0:
402,192,61297,128,0,61335:0:0:0:0:
36,192,61335,128,0,61485:0:0:0:0:
182,192,61335,128,0,61410:0:0:0:0:
329,192,61335,128,0,61372:0:0:0:0:
475,192,61335,128,0,61410:0:0:0:0:
256,192,61410,128,0,61447:0:0:0:0:
109,192,61410,128,0,61485:0:0:0:0:
402,192,61485,128,0,61522:0:0:0:0:
475,192,61485,128,0,61560:0:0:0:0:
329,192,61485,128,0,61522:0:0:0:0:
182,192,61560,128,0,61597:0:0:0:0:
36,192,61560,128,0,61635:0:0:0:0:
329,192,61597,128,0,61635:0:0:0:0:
475,192,61635,128,0,61785:0:0:0:0:
109,192,61635,128,0,61672:0:0:0:0:
256,192,61635,128,0,61710:0:0:0:0:
402,192,61635,128,0,61710:0:0:0:0:
182,192,61710,128,0,61747:0:0:0:0:
329,192,61710,128,0,61785:0:0:0:0:
256,192,61785,128,0,61822:0:0:0:0:
109,192,61785,128,0,61860:0:0:0:0:
36,192,61785,128,0,61860:0:0:0:0:
329,192,61860,128,0,61897:0:0:0:0:
402,192,61860,128,0,61935:0:0:0:0:
182,192,61897,128,0,61935:0:0:0:0:
109,192,61935,128,0,62085:0:0:0:0:
36,192,61935,128,0,62010:0:0:0:0:
475,192,61935,128,0,61972:0:0:0:0:
256,192,61935,128,0,62010:0:0:0:0:
182,192,62010,128,0,62047:0:0:0:0:
329,192,62010,128,0,62085:0:0:0:0:
402,192,62085,128,0,62122:0:0:0:0:
475,192,62085,128,0,62160:0:0:0:0:
256,192,62085,128,0,62122:0:0:0:0:
182,192,62160,128,0,62197:0:0:0:0:
36,192,62160,128,0,62235:0:0:0:0:
256,192,62197,128,0,62235:0:0:0:0:
329,192,62235,1,0,0:0:0:0:
402,192,62235,1,0,0:0:0:0:
475,192,62235,1,0,0:0:0:0:
109,192,62235,1,0,0:0:0:0:
182,192,62272,1,0,0:0:0:0:
256,192,62310,1,0,0:0:0:0:
36,192,62310,1,0,0:0:0:0:
329,192,62347,1,0,0:0:0:0:
402,192,62385,1,0,0:0:0:0:
475,192,62385,1,0,0:0:0:0:
109,192,62385,1,0,0:0:0:0:
182,192,62422,1,0,0:0:0:0:
256,192,62460,1,0,0:0:0:0:
329,192,62460,1,0,0:0:0:0:
402,192,62497,1,0,0:0:0:0:
475,192,62535,1,0,0:0:0:0:
36,192,62535,1,0,0:0:0:0:
109,192,62535,1,0,0:0:0:0:
182,192,62572,1,0,0:0:0:0:
256,192,62610,1,0,0:0:0:0:
329,192,62610,1,0,0:0:0:0:
402,192,62647,1,0,0:0:0:0:
475,192,62685,1,0,0:0:0:0:
36,192,62685,1,0,0:0:0:0:
182,192,62685,1,0,0:0:0:0:
109,192,62722,1,0,0:0:0:0:
329,192,62760,1,0,0:0:0:0:
402,192,62760,1,0,0:0:0:0:
256,192,62797,1,0,0:0:0:0:
182,192,62835,1,0,0:0:0:0:
36,192,62835,1,0,0:0:0:0:
475,192,62835,1,0,0:0:0:0:
402,192,62872,1,0,0:0:0:0:
329,192,62910,1,0,0:0:0:0:
256,192,62910,1,0,0:0:0:0:
182,192,62947,1,0,0:0:0:0:
109,192,62985,1,0,0:0:0:0:
36,192,62985,1,0,0:0:0:0:
475,192,62985,1,0,0:0:0:0:
402,192,63022,1,0,0:0:0:0:
329,192,63060,1,0,0:0:0:0:
256,192,63060,1,0,0:0:0:0:
182,192,63097,1,0,0:0:0:0:
109,192,63135,1,0,0:0:0:0:
36,192,63135,1,0,0:0:0:0:
475,192,63135,1,0,0:0:0:0:
402,192,63172,1,0,0:0:0:0:
329,192,63210,1,0,0:0:0:0:
182,192,63210,1,0,0:0:0:0:
109,192,63247,1,0,0:0:0:0:
36,192,63285,1,0,0:0:0:0:
256,192,63285,1,0,0:0:0:0:
475,192,63285,1,0,0:0:0:0:
402,192,63322,1,0,0:0:0:0:
329,192,63360,1,0,0:0:0:0:
182,192,63360,1,0,0:0:0:0:
109,192,63397,1,0,0:0:0:0:
402,192,63435,128,0,63510:0:0:0:0:
475,192,63435,128,0,63510:0:0:0:0:
36,192,63435,128,0,63510:0:0:0:0:
256,192,63435,128,0,63585:0:0:0:0:
109,192,63510,128,0,63585:0:0:0:0:
182,192,63510,128,0,63585:0:0:0:0:
329,192,63585,128,0,63660:0:0:0:0:
402,192,63585,128,0,63660:0:0:0:0:
475,192,63585,128,0,63660:0:0:0:0:
109,192,63660,128,0,63735:0:0:0:0:
36,192,63660,128,0,63735:0:0:0:0:
182,192,63697,128,0,63735:0:0:0:0:
256,192,63735,128,0,63885:0:0:0:0:
329,192,63735,128,0,63810:0:0:0:0:
402,192,63735,128,0,63810:0:0:0:0:
475,192,63735,128,0,63810:0:0:0:0:
109,192,63810,128,0,63885:0:0:0:0:
36,192,63810,128,0,63885:0:0:0:0:
182,192,63885,128,0,63960:0:0:0:0:
475,192,63885,128,0,63960:0:0:0:0:
329,192,63885,128,0,63922:0:0:0:0:
109,192,63960,128,0,64035:0:0:0:0:
256,192,63960,128,0,64035:0:0:0:0:
329,192,63997,128,0,64035:0:0:0:0:
182,192,64035,128,0,64110:0:0:0:0:
36,192,64035,128,0,64110:0:0:0:0:
402,192,64035,128,0,64072:0:0:0:0:
475,192,64035,128,0,64072:0:0:0:0:
402,192,64110,128,0,64185:0:0:0:0:
475,192,64110,128,0,64185:0:0:0:0:
329,192,64110,128,0,64185:0:0:0:0:
256,192,64110,128,0,64185:0:0:0:0:
109,192,64185,128,0,64260:0:0:0:0:
36,192,64185,128,0,64260:0:0:0:0:
182,192,64185,128,0,64222:0:0:0:0:
256,192,64260,128,0,64335:0:0:0:0:
402,192,64260,128,0,64335:0:0:0:0:
182,192,64297,128,0,64372:0:0:0:0:
109,192,64335,128,0,64372:0:0:0:0:
36,192,64335,128,0,64372:0:0:0:0:
329,192,64335,128,0,64410:0:0:0:0:
475,192,64335,128,0,64410:0:0:0:0:
256,192,64410,128,0,64485:0:0:0:0:
182,192,64410,128,0,64485:0:0:0:0:
109,192,64410,128,0,64485:0:0:0:0:
36,192,64410,128,0,64485:0:0:0:0:
329,192,64485,128,0,64522:0:0:0:0:
402,192,64485,128,0,64560:0:0:0:0:
475,192,64485,128,0,64560:0:0:0:0:
256,192,64560,128,0,64635:0:0:0:0:
109,192,64560,128,0,64635:0:0:0:0:
329,192,64597,128,0,64635:0:0:0:0:
36,192,64635,128,0,64710:0:0:0:0:
182,192,64635,128,0,64785:0:0:0:0:
402,192,64635,128,0,64710:0:0:0:0:
475,192,64635,128,0,64710:0:0:0:0:
256,192,64710,128,0,64785:0:0:0:0:
329,192,64710,128,0,64860:0:0:0:0:
402,192,64785,128,0,64860:0:0:0:0:
475,192,64785,128,0,64860:0:0:0:0:
109,192,64785,128,0,64860:0:0:0:0:
36,192,64785,128,0,64860:0:0:0:0:
182,192,64860,128,0,65010:0:0:0:0:
256,192,64860,128,0,64935:0:0:0:0:
36,192,64935,128,0,65010:0:0:0:0:
109,192,64935,128,0,65010:0:0:0:0:
329,192,64935,128,0,65085:0:0:0:0:
402,192,64935,128,0,65010:0:0:0:0:
475,192,64935,128,0,65010:0:0:0:0:
256,192,65010,128,0,65085:0:0:0:0:
402,192,65085,128,0,65160:0:0:0:0:
475,192,65085,128,0,65160:0:0:0:0:
36,192,65085,128,0,65160:0:0:0:0:
109,192,65085,128,0,65160:0:0:0:0:
182,192,65085,128,0,65235:0:0:0:0:
256,192,65160,128,0,65235:0:0:0:0:
329,192,65160,128,0,65310:0:0:0:0:
402,192,65235,128,0,65310:0:0:0:0:
475,192,65235,128,0,65310:0:0:0:0:
109,192,65235,128,0,65310:0:0:0:0:
36,192,65235,128,0,65310:0:0:0:0:
182,192,65310,128,0,65385:0:0:0:0:
256,192,65310,128,0,65385:0:0:0:0:
109,192,65385,128,0,65460:0:0:0:0:
36,192,65385,128,0,65460:0:0:0:0:
329,192,65385,128,0,65535:0:0:0:0:
402,192,65385,128,0,65460:0:0:0:0:
475,192,65385,128,0,65460:0:0:0:0:
182,192,65460,128,0,65610:0:0:0:0:
256,192,65460,128,0,65535:0:0:0:0:
475,192,65535,128,0,65610:0:0:0:0:
402,192,65535,128,0,65610:0:0:0:0:
109,192,65535,128,0,65610:0:0:0:0:
36,192,65535,128,0,65610:0:0:0:0:
256,192,65610,128,0,65685:0:0:0:0:
329,192,65610,128,0,65685:0:0:0:0:
182,192,65685,1,0,0:0:0:0:
36,192,65685,1,0,0:0:0:0:
109,192,65685,1,0,0:0:0:0:
402,192,65685,1,0,0:0:0:0:
475,192,65685,1,0,0:0:0:0:
182,192,65760,1,0,0:0:0:0:
109,192,65760,1,0,0:0:0:0:
36,192,65760,1,0,0:0:0:0:
402,192,65760,1,0,0:0:0:0:
475,192,65760,1,0,0:0:0:0:
109,192,65835,128,0,65910:0:0:0:0:
36,192,65835,128,0,65910:0:0:0:0:
475,192,65835,128,0,65910:0:0:0:0:
182,192,65835,128,0,66060:0:0:0:0:
402,192,65835,128,0,65985:0:0:0:0:
256,192,65910,128,0,65985:0:0:0:0:
329,192,65910,128,0,65985:0:0:0:0:
109,192,65985,128,0,66060:0:0:0:0:
36,192,65985,128,0,66060:0:0:0:0:
475,192,65985,128,0,66060:0:0:0:0:
256,192,66060,128,0,66135:0:0:0:0:
402,192,66060,128,0,66135:0:0:0:0:
329,192,66060,128,0,66135:0:0:0:0:
36,192,66135,128,0,66210:0:0:0:0:
109,192,66135,128,0,66210:0:0:0:0:
182,192,66135,128,0,66285:0:0:0:0:
475,192,66135,128,0,66210:0:0:0:0:
256,192,66210,128,0,66285:0:0:0:0:
329,192,66210,128,0,66285:0:0:0:0:
402,192,66210,128,0,66360:0:0:0:0:
475,192,66285,128,0,66360:0:0:0:0:
109,192,66285,128,0,66435:0:0:0:0:
36,192,66285,128,0,66360:0:0:0:0:
182,192,66360,128,0,66435:0:0:0:0:
256,192,66360,128,0,66435:0:0:0:0:
329,192,66360,128,0,66510:0:0:0:0:
402,192,66435,128,0,66510:0:0:0:0:
475,192,66435,128,0,66510:0:0:0:0:
36,192,66435,128,0,66510:0:0:0:0:
109,192,66510,128,0,66585:0:0:0:0:
182,192,66510,128,0,66585:0:0:0:0:
256,192,66510,128,0,66585:0:0:0:0:
329,192,66585,128,0,66735:0:0:0:0:
36,192,66585,128,0,66660:0:0:0:0:
475,192,66585,128,0,66660:0:0:0:0:
402,192,66585,128,0,66660:0:0:0:0:
109,192,66660,128,0,66810:0:0:0:0:
256,192,66660,128,0,66810:0:0:0:0:
182,192,66660,128,0,66735:0:0:0:0:
36,192,66735,128,0,66810:0:0:0:0:
402,192,66735,128,0,66810:0:0:0:0:
475,192,66735,128,0,66810:0:0:0:0:
182,192,66810,128,0,66885:0:0:0:0:
329,192,66810,128,0,66885:0:0:0:0:
36,192,66885,1,0,0:0:0:0:
109,192,66885,1,0,0:0:0:0:
402,192,66885,1,0,0:0:0:0:
475,192,66885,1,0,0:0:0:0:
256,192,66885,1,0,0:0:0:0:
109,192,66960,1,0,0:0:0:0:
36,192,66960,1,0,0:0:0:0:
402,192,66960,1,0,0:0:0:0:
475,192,66960,1,0,0:0:0:0:
256,192,66960,1,0,0:0:0:0:
36,192,67035,128,0,67110:0:0:0:0:
109,192,67035,128,0,67110:0:0:0:0:
256,192,67035,128,0,67110:0:0:0:0:
475,192,67035,128,0,67110:0:0:0:0:
402,192,67035,128,0,67110:0:0:0:0:
329,192,67110,128,0,67185:0:0:0:0:
182,192,67110,128,0,67185:0:0:0:0:
256,192,67185,1,0,0:0:0:0:
36,192,67185,128,0,67260:0:0:0:0:
109,192,67185,128,0,67260:0:0:0:0:
402,192,67185,128,0,67260:0:0:0:0:
475,192,67185,128,0,67260:0:0:0:0:
329,192,67260,128,0,67335:0:0:0:0:
256,192,67260,128,0,67335:0:0:0:0:
182,192,67335,128,0,67410:0:0:0:0:
109,192,67335,128,0,67410:0:0:0:0:
36,192,67335,128,0,67410:0:0:0:0:
402,192,67335,128,0,67410:0:0:0:0:
475,192,67335,128,0,67410:0:0:0:0:
256,192,67410,128,0,67485:0:0:0:0:
329,192,67410,128,0,67485:0:0:0:0:
109,192,67485,1,0,0:0:0:0:
402,192,67485,1,0,0:0:0:0:
475,192,67485,1,0,0:0:0:0:
182,192,67485,128,0,67560:0:0:0:0:
36,192,67485,128,0,67560:0:0:0:0:
402,192,67560,1,0,0:0:0:0:
475,192,67560,1,0,0:0:0:0:
109,192,67560,128,0,67635:0:0:0:0:
256,192,67560,128,0,67635:0:0:0:0:
182,192,67635,128,0,67710:0:0:0:0:
329,192,67635,128,0,67710:0:0:0:0:
402,192,67635,128,0,67710:0:0:0:0:
475,192,67635,128,0,67710:0:0:0:0:
36,192,67635,128,0,67710:0:0:0:0:
109,192,67710,128,0,67785:0:0:0:0:
256,192,67710,128,0,67785:0:0:0:0:
402,192,67785,1,0,0:0:0:0:
182,192,67785,128,0,67860:0:0:0:0:
36,192,67785,128,0,67860:0:0:0:0:
329,192,67785,128,0,67860:0:0:0:0:
475,192,67785,128,0,67860:0:0:0:0:
256,192,67860,128,0,67935:0:0:0:0:
402,192,67860,128,0,67935:0:0:0:0:
36,192,67935,128,0,68010:0:0:0:0:
109,192,67935,128,0,68010:0:0:0:0:
182,192,67935,128,0,68010:0:0:0:0:
329,192,67935,128,0,68010:0:0:0:0:
475,192,67935,128,0,68010:0:0:0:0:
402,192,68010,128,0,68085:0:0:0:0:
256,192,68010,128,0,68085:0:0:0:0:
36,192,68085,1,0,0:0:0:0:
329,192,68085,128,0,68160:0:0:0:0:
475,192,68085,128,0,68160:0:0:0:0:
109,192,68122,1,0,0:0:0:0:
182,192,68160,1,0,0:0:0:0:
402,192,68160,128,0,68235:0:0:0:0:
256,192,68197,1,0,0:0:0:0:
36,192,68235,1,0,0:0:0:0:
109,192,68235,1,0,0:0:0:0:
329,192,68235,1,0,0:0:0:0:
475,192,68235,1,0,0:0:0:0:
182,192,68310,1,0,0:0:0:0:
256,192,68310,1,0,0:0:0:0:
402,192,68310,1,0,0:0:0:0:
329,192,68385,1,0,0:0:0:0:
475,192,68385,1,0,0:0:0:0:
109,192,68385,1,0,0:0:0:0:
36,192,68385,1,0,0:0:0:0:
256,192,68422,1,0,0:0:0:0:
182,192,68460,1,0,0:0:0:0:
109,192,68497,1,0,0:0:0:0:
36,192,68535,1,0,0:0:0:0:
329,192,68535,1,0,0:0:0:0:
402,192,68535,1,0,0:0:0:0:
475,192,68535,1,0,0:0:0:0:
182,192,68610,1,0,0:0:0:0:
256,192,68610,1,0,0:0:0:0:
109,192,68610,1,0,0:0:0:0:
402,192,68685,1,0,0:0:0:0:
475,192,68685,1,0,0:0:0:0:
36,192,68685,1,0,0:0:0:0:
329,192,68722,1,0,0:0:0:0:
182,192,68760,1,0,0:0:0:0:
109,192,68760,1,0,0:0:0:0:
256,192,68797,1,0,0:0:0:0:
329,192,68835,1,0,0:0:0:0:
402,192,68835,1,0,0:0:0:0:
475,192,68835,1,0,0:0:0:0:
36,192,68835,1,0,0:0:0:0:
109,192,68910,1,0,0:0:0:0:
182,192,68910,1,0,0:0:0:0:
256,192,68910,1,0,0:0:0:0:
329,192,68947,1,0,0:0:0:0:
402,192,68985,1,0,0:0:0:0:
475,192,68985,1,0,0:0:0:0:
36,192,68985,1,0,0:0:0:0:
109,192,69022,1,0,0:0:0:0:
182,192,69060,1,0,0:0:0:0:
256,192,69060,1,0,0:0:0:0:
329,192,69060,1,0,0:0:0:0:
402,192,69097,1,0,0:0:0:0:
475,192,69135,1,0,0:0:0:0:
36,192,69135,1,0,0:0:0:0:
109,192,69135,1,0,0:0:0:0:
182,192,69210,1,0,0:0:0:0:
329,192,69210,1,0,0:0:0:0:
402,192,69247,1,0,0:0:0:0:
36,192,69285,1,0,0:0:0:0:
109,192,69285,1,0,0:0:0:0:
256,192,69285,1,0,0:0:0:0:
475,192,69285,1,0,0:0:0:0:
329,192,69322,1,0,0:0:0:0:
182,192,69360,1,0,0:0:0:0:
256,192,69397,1,0,0:0:0:0:
36,192,69435,128,0,74160:0:0:0:0:
109,192,69435,128,0,74160:0:0:0:0:
329,192,69435,128,0,71760:0:0:0:0:
402,192,69435,128,0,72060:0:0:0:0:
475,192,69435,128,0,72360:0:0:0:0:
329,192,71835,128,0,74160:0:0:0:0:
402,192,72135,128,0,74160:0:0:0:0:
475,192,72435,128,0,74160:0:0:0:0:
182,192,73035,128,0,74160:0:0:0:0:
36,192,74235,1,0,0:0:0:0:
109,192,74235,1,0,0:0:0:0:
329,192,74235,1,0,0:0:0:0:
182,192,74235,1,0,0:0:0:0:
402,192,74235,1,0,0:0:0:0:
475,192,74235,1,0,0:0:0:0:
329,192,74835,1,0,0:0:0:0:
402,192,76035,1,0,0:0:0:0:
329,192,76235,1,0,0:0:0:0:
256,192,76435,1,0,0:0:0:0:
475,192,76635,1,0,0:0:0:0:
182,192,77235,1,0,0:0:0:0:
109,192,78435,1,0,0:0:0:0:
109,192,79035,1,0,0:0:0:0:
182,192,79635,1,0,0:0:0:0:
475,192,80835,1,0,0:0:0:0:
329,192,80835,1,0,0:0:0:0:
256,192,81035,1,0,0:0:0:0:
402,192,81035,1,0,0:0:0:0:
182,192,81235,1,0,0:0:0:0:
36,192,81235,1,0,0:0:0:0:
256,192,81435,1,0,0:0:0:0:
109,192,81435,1,0,0:0:0:0:
329,192,82035,1,0,0:0:0:0:
475,192,82035,1,0,0:0:0:0:
329,192,82935,1,0,0:0:0:0:
402,192,82935,1,0,0:0:0:0:
182,192,82935,1,0,0:0:0:0:
109,192,82935,128,0,83160:0:0:0:0:
329,192,83235,1,0,0:0:0:0:
475,192,83235,1,0,0:0:0:0:
182,192,83235,1,0,0:0:0:0:
109,192,83235,128,0,83460:0:0:0:0:
329,192,83535,1,0,0:0:0:0:
402,192,83535,1,0,0:0:0:0:
182,192,83535,1,0,0:0:0:0:
109,192,83535,128,0,83760:0:0:0:0:
36,192,83835,1,0,0:0:0:0:
109,192,83835,1,0,0:0:0:0:
256,192,83835,1,0,0:0:0:0:
475,192,83835,1,0,0:0:0:0:
402,192,83835,1,0,0:0:0:0:
182,192,85035,1,0,0:0:0:0:
402,192,85035,1,0,0:0:0:0:
475,192,85035,1,0,0:0:0:0:
36,192,85635,1,0,0:0:0:0:
109,192,85635,1,0,0:0:0:0:
256,192,85635,1,0,0:0:0:0:
109,192,86235,1,0,0:0:0:0:
182,192,86235,1,0,0:0:0:0:
329,192,86235,1,0,0:0:0:0:
36,192,87435,1,0,0:0:0:0:
182,192,87435,1,0,0:0:0:0:
402,192,87435,1,0,0:0:0:0:
36,192,87735,1,0,0:0:0:0:
182,192,87735,1,0,0:0:0:0:
329,192,87735,1,0,0:0:0:0:
36,192,88035,1,0,0:0:0:0:
182,192,88035,1,0,0:0:0:0:
329,192,88035,1,0,0:0:0:0:
109,192,88235,1,0,0:0:0:0:
256,192,88235,1,0,0:0:0:0:
402,192,88235,1,0,0:0:0:0:
182,192,88435,1,0,0:0:0:0:
329,192,88435,1,0,0:0:0:0:
475,192,88435,1,0,0:0:0:0:
182,192,88635,1,0,0:0:0:0:
329,192,88635,1,0,0:0:0:0:
475,192,88635,1,0,0:0:0:0:
109,192,89235,1,0,0:0:0:0:
256,192,89235,1,0,0:0:0:0:
402,192,89235,1,0,0:0:0:0:
36,192,90135,1,0,0:0:0:0:
182,192,90135,1,0,0:0:0:0:
329,192,90135,1,0,0:0:0:0:
109,192,90435,1,0,0:0:0:0:
256,192,90435,1,0,0:0:0:0:
402,192,90435,1,0,0:0:0:0:
182,192,90735,1,0,0:0:0:0:
329,192,90735,1,0,0:0:0:0:
475,192,90735,1,0,0:0:0:0:
182,192,91035,1,0,0:0:0:0:
329,192,91035,1,0,0:0:0:0:
475,192,91035,1,0,0:0:0:0:
109,192,91635,1,0,0:0:0:0:
256,192,91635,1,0,0:0:0:0:
402,192,91635,1,0,0:0:0:0:
182,192,92235,1,0,0:0:0:0:
329,192,92235,1,0,0:0:0:0:
475,192,92235,1,0,0:0:0:0:
256,192,92835,1,0,0:0:0:0:
402,192,92835,1,0,0:0:0:0:
475,192,92835,1,0,0:0:0:0:
36,192,93435,1,0,0:0:0:0:
109,192,93435,1,0,0:0:0:0:
256,192,93435,1,0,0:0:0:0:
402,192,93435,1,0,0:0:0:0:
475,192,93435,1,0,0:0:0:0:
329,192,93660,1,0,0:0:0:0:
182,192,93735,1,0,0:0:0:0:
402,192,93810,1,0,0:0:0:0:
109,192,93885,1,0,0:0:0:0:
329,192,93960,1,0,0:0:0:0:
182,192,94035,1,0,0:0:0:0:
475,192,94035,1,0,0:0:0:0:
36,192,94035,1,0,0:0:0:0:
402,192,94110,1,0,0:0:0:0:
109,192,94185,1,0,0:0:0:0:
329,192,94260,1,0,0:0:0:0:
182,192,94335,1,0,0:0:0:0:
402,192,94410,1,0,0:0:0:0:
109,192,94485,1,0,0:0:0:0:
329,192,94560,1,0,0:0:0:0:
329,192,94710,1,0,0:0:0:0:
182,192,94785,1,0,0:0:0:0:
329,192,94860,1,0,0:0:0:0:
109,192,94935,1,0,0:0:0:0:
256,192,95010,1,0,0:0:0:0:
36,192,95085,1,0,0:0:0:0:
182,192,95160,1,0,0:0:0:0:
402,192,95235,1,0,0:0:0:0:
475,192,95235,1,0,0:0:0:0:
36,192,95235,1,0,0:0:0:0:
182,192,95310,1,0,0:0:0:0:
36,192,95385,1,0,0:0:0:0:
329,192,95435,1,0,0:0:0:0:
475,192,95435,1,0,0:0:0:0:
256,192,95460,1,0,0:0:0:0:
109,192,95535,1,0,0:0:0:0:
182,192,95610,1,0,0:0:0:0:
329,192,95635,1,0,0:0:0:0:
402,192,95635,1,0,0:0:0:0:
36,192,95685,1,0,0:0:0:0:
182,192,95760,1,0,0:0:0:0:
329,192,95835,1,0,0:0:0:0:
475,192,95835,1,0,0:0:0:0:
109,192,95835,1,0,0:0:0:0:
36,192,96435,1,0,0:0:0:0:
182,192,96435,1,0,0:0:0:0:
402,192,96435,1,0,0:0:0:0:
475,192,96510,1,0,0:0:0:0:
256,192,96585,1,0,0:0:0:0:
402,192,96660,1,0,0:0:0:0:
182,192,96735,1,0,0:0:0:0:
329,192,96810,1,0,0:0:0:0:
182,192,96885,1,0,0:0:0:0:
402,192,96960,1,0,0:0:0:0:
402,192,97110,1,0,0:0:0:0:
256,192,97185,1,0,0:0:0:0:
402,192,97260,1,0,0:0:0:0:
182,192,97335,1,0,0:0:0:0:
329,192,97410,1,0,0:0:0:0:
182,192,97485,1,0,0:0:0:0:
402,192,97560,1,0,0:0:0:0:
109,192,97635,1,0,0:0:0:0:
36,192,97635,1,0,0:0:0:0:
256,192,97635,1,0,0:0:0:0:
402,192,97710,1,0,0:0:0:0:
182,192,97785,1,0,0:0:0:0:
329,192,97860,1,0,0:0:0:0:
36,192,97935,1,0,0:0:0:0:
109,192,97935,1,0,0:0:0:0:
256,192,97935,1,0,0:0:0:0:
475,192,97935,1,0,0:0:0:0:
329,192,98010,1,0,0:0:0:0:
182,192,98085,1,0,0:0:0:0:
109,192,98085,1,0,0:0:0:0:
36,192,98085,1,0,0:0:0:0:
402,192,98085,1,0,0:0:0:0:
475,192,98085,1,0,0:0:0:0:
256,192,98160,1,0,0:0:0:0:
329,192,98235,1,0,0:0:0:0:
475,192,98235,1,0,0:0:0:0:
36,192,98235,1,0,0:0:0:0:
109,192,98235,1,0,0:0:0:0:
182,192,98310,1,0,0:0:0:0:
402,192,98385,1,0,0:0:0:0:
109,192,98460,1,0,0:0:0:0:
329,192,98535,1,0,0:0:0:0:
182,192,98610,1,0,0:0:0:0:
402,192,98685,1,0,0:0:0:0:
109,192,98760,1,0,0:0:0:0:
329,192,98835,1,0,0:0:0:0:
475,192,98835,1,0,0:0:0:0:
36,192,98835,1,0,0:0:0:0:
182,192,98910,1,0,0:0:0:0:
402,192,98985,1,0,0:0:0:0:
109,192,99060,1,0,0:0:0:0:
329,192,99135,1,0,0:0:0:0:
182,192,99210,1,0,0:0:0:0:
329,192,99285,1,0,0:0:0:0:
182,192,99360,1,0,0:0:0:0:
182,192,99510,1,0,0:0:0:0:
329,192,99585,1,0,0:0:0:0:
182,192,99660,1,0,0:0:0:0:
402,192,99735,1,0,0:0:0:0:
256,192,99810,1,0,0:0:0:0:
475,192,99885,1,0,0:0:0:0:
329,192,99960,1,0,0:0:0:0:
475,192,100035,1,0,0:0:0:0:
109,192,100035,1,0,0:0:0:0:
182,192,100035,1,0,0:0:0:0:
329,192,100110,1,0,0:0:0:0:
475,192,100185,1,0,0:0:0:0:
36,192,100235,1,0,0:0:0:0:
182,192,100235,1,0,0:0:0:0:
256,192,100260,1,0,0:0:0:0:
402,192,100335,1,0,0:0:0:0:
329,192,100410,1,0,0:0:0:0:
109,192,100435,1,0,0:0:0:0:
36,192,100435,1,0,0:0:0:0:
475,192,100485,1,0,0:0:0:0:
256,192,100560,1,0,0:0:0:0:
36,192,100635,1,0,0:0:0:0:
182,192,100635,1,0,0:0:0:0:
402,192,100635,1,0,0:0:0:0:
256,192,101235,1,0,0:0:0:0:
402,192,101235,1,0,0:0:0:0:
475,192,101235,1,0,0:0:0:0:
109,192,101310,1,0,0:0:0:0:
329,192,101385,1,0,0:0:0:0:
182,192,101460,1,0,0:0:0:0:
402,192,101535,1,0,0:0:0:0:
256,192,101610,1,0,0:0:0:0:
475,192,101685,1,0,0:0:0:0:
329,192,101760,1,0,0:0:0:0:
329,192,101910,1,0,0:0:0:0:
182,192,101985,1,0,0:0:0:0:
329,192,102060,1,0,0:0:0:0:
182,192,102135,1,0,0:0:0:0:
36,192,102135,128,0,102435:0:0:0:0:
329,192,102210,1,0,0:0:0:0:
182,192,102285,1,0,0:0:0:0:
329,192,102360,1,0,0:0:0:0:
475,192,102435,128,0,102735:0:0:0:0:
182,192,102435,1,0,0:0:0:0:
329,192,102510,1,0,0:0:0:0:
182,192,102585,1,0,0:0:0:0:
329,192,102660,1,0,0:0:0:0:
256,192,102735,128,0,103035:0:0:0:0:
182,192,102735,1,0,0:0:0:0:
329,192,102810,1,0,0:0:0:0:
36,192,102885,1,0,0:0:0:0:
109,192,102885,1,0,0:0:0:0:
402,192,102885,1,0,0:0:0:0:
475,192,102885,1,0,0:0:0:0:
182,192,102960,1,0,0:0:0:0:
329,192,103035,128,0,104235:0:0:0:0:
36,192,103035,128,0,105285:0:0:0:0:
109,192,103035,128,0,104235:0:0:0:0:
256,192,104235,128,0,104835:0:0:0:0:
475,192,104235,128,0,105210:0:0:0:0:
402,192,104235,128,0,105210:0:0:0:0:
182,192,104835,128,0,105285:0:0:0:0:
109,192,104835,128,0,105285:0:0:0:0:
329,192,105285,128,0,105360:0:0:0:0:
402,192,105285,128,0,105360:0:0:0:0:
475,192,105285,128,0,105360:0:0:0:0:
182,192,105360,128,0,105435:0:0:0:0:
109,192,105360,128,0,105435:0:0:0:0:
36,192,105360,128,0,105435:0:0:0:0:
329,192,105435,128,0,106560:0:0:0:0:
402,192,105435,128,0,106560:0:0:0:0:
475,192,105435,128,0,106635:0:0:0:0:
36,192,106485,128,0,106560:0:0:0:0:
109,192,106485,128,0,106560:0:0:0:0:
182,192,106485,128,0,106560:0:0:0:0:
36,192,106635,128,0,106860:0:0:0:0:
109,192,106635,128,0,106860:0:0:0:0:
182,192,106635,128,0,106860:0:0:0:0:
329,192,106635,128,0,106860:0:0:0:0:
402,192,106635,128,0,106860:0:0:0:0:
36,192,106935,128,0,107160:0:0:0:0:
109,192,106935,128,0,107160:0:0:0:0:
182,192,106935,128,0,107160:0:0:0:0:
256,192,106935,128,0,107160:0:0:0:0:
329,192,106935,128,0,107160:0:0:0:0:
36,192,107235,128,0,107385:0:0:0:0:
109,192,107235,128,0,107385:0:0:0:0:
182,192,107235,128,0,107385:0:0:0:0:
256,192,107235,128,0,107385:0:0:0:0:
329,192,107235,128,0,107385:0:0:0:0:
109,192,107435,128,0,107585:0:0:0:0:
182,192,107435,128,0,107585:0:0:0:0:
256,192,107435,128,0,107585:0:0:0:0:
329,192,107435,128,0,107585:0:0:0:0:
402,192,107435,128,0,107585:0:0:0:0:
182,192,107635,128,0,107760:0:0:0:0:
256,192,107635,128,0,107785:0:0:0:0:
329,192,107635,128,0,107685:0:0:0:0:
475,192,107635,128,0,107685:0:0:0:0:
402,192,107635,128,0,107685:0:0:0:0:
36,192,107685,1,0,0:0:0:0:
109,192,107685,1,0,0:0:0:0:
329,192,107760,128,0,107835:0:0:0:0:
402,192,107760,128,0,107835:0:0:0:0:
475,192,107760,128,0,107835:0:0:0:0:
36,192,107835,128,0,108435:0:0:0:0:
109,192,107835,128,0,108435:0:0:0:0:
182,192,107835,128,0,108435:0:0:0:0:
329,192,108435,128,0,109035:0:0:0:0:
402,192,108435,128,0,109035:0:0:0:0:
475,192,108435,128,0,109035:0:0:0:0:
256,192,108810,1,0,0:0:0:0:
36,192,108885,128,0,108960:0:0:0:0:
109,192,108885,128,0,108960:0:0:0:0:
182,192,108885,128,0,108960:0:0:0:0:
36,192,109035,128,0,109260:0:0:0:0:
109,192,109035,128,0,109260:0:0:0:0:
182,192,109035,128,0,109260:0:0:0:0:
256,192,109035,128,0,109260:0:0:0:0:
109,192,109335,128,0,109560:0:0:0:0:
182,192,109335,128,0,109560:0:0:0:0:
256,192,109335,128,0,109560:0:0:0:0:
329,192,109335,128,0,109560:0:0:0:0:
182,192,109635,128,0,109860:0:0:0:0:
256,192,109635,128,0,109860:0:0:0:0:
329,192,109635,128,0,109860:0:0:0:0:
402,192,109635,128,0,109860:0:0:0:0:
182,192,109935,128,0,110160:0:0:0:0:
256,192,109935,128,0,110160:0:0:0:0:
329,192,109935,128,0,110160:0:0:0:0:
402,192,109935,128,0,110160:0:0:0:0:
36,192,110085,1,0,0:0:0:0:
109,192,110085,1,0,0:0:0:0:
475,192,110160,1,0,0:0:0:0:
36,192,110235,1,0,0:0:0:0:
109,192,110235,1,0,0:0:0:0:
182,192,110235,128,0,110760:0:0:0:0:
256,192,110235,128,0,110760:0:0:0:0:
329,192,110235,128,0,110760:0:0:0:0:
402,192,110235,128,0,110760:0:0:0:0:
36,192,110385,1,0,0:0:0:0:
109,192,110385,1,0,0:0:0:0:
109,192,110685,1,0,0:0:0:0:
36,192,110685,1,0,0:0:0:0:
475,192,110760,1,0,0:0:0:0:
109,192,110835,128,0,111360:0:0:0:0:
256,192,110835,128,0,111360:0:0:0:0:
182,192,110835,128,0,111360:0:0:0:0:
329,192,110835,128,0,111360:0:0:0:0:
36,192,110835,1,0,0:0:0:0:
402,192,110835,1,0,0:0:0:0:
402,192,110985,1,0,0:0:0:0:
475,192,110985,1,0,0:0:0:0:
402,192,111285,1,0,0:0:0:0:
475,192,111285,1,0,0:0:0:0:
36,192,111360,1,0,0:0:0:0:
182,192,111435,128,0,111960:0:0:0:0:
256,192,111435,128,0,111960:0:0:0:0:
329,192,111435,128,0,111960:0:0:0:0:
402,192,111435,128,0,111960:0:0:0:0:
109,192,111435,1,0,0:0:0:0:
475,192,111435,1,0,0:0:0:0:
36,192,111660,1,0,0:0:0:0:
109,192,111735,1,0,0:0:0:0:
36,192,111810,1,0,0:0:0:0:
109,192,111885,1,0,0:0:0:0:
36,192,111960,1,0,0:0:0:0:
256,192,112035,128,0,112635:0:0:0:0:
329,192,112035,128,0,112635:0:0:0:0:
402,192,112035,128,0,112635:0:0:0:0:
475,192,112035,128,0,112635:0:0:0:0:
109,192,112035,1,0,0:0:0:0:
182,192,112035,1,0,0:0:0:0:
36,192,112110,1,0,0:0:0:0:
109,192,112185,1,0,0:0:0:0:
182,192,112185,1,0,0:0:0:0:
36,192,112260,1,0,0:0:0:0:
109,192,112335,1,0,0:0:0:0:
182,192,112335,1,0,0:0:0:0:
36,192,112410,1,0,0:0:0:0:
109,192,112485,1,0,0:0:0:0:
182,192,112485,1,0,0:0:0:0:
36,192,112560,1,0,0:0:0:0:
109,192,112635,1,0,0:0:0:0:
182,192,112635,128,0,112710:0:0:0:0:
329,192,112710,1,0,0:0:0:0:
402,192,112710,1,0,0:0:0:0:
109,192,112785,1,0,0:0:0:0:
182,192,112785,128,0,112860:0:0:0:0:
329,192,112860,1,0,0:0:0:0:
402,192,112860,1,0,0:0:0:0:
109,192,112935,1,0,0:0:0:0:
182,192,112935,128,0,113010:0:0:0:0:
329,192,113010,1,0,0:0:0:0:
402,192,113010,1,0,0:0:0:0:
109,192,113085,1,0,0:0:0:0:
182,192,113085,128,0,113160:0:0:0:0:
329,192,113160,1,0,0:0:0:0:
402,192,113160,1,0,0:0:0:0:
36,192,113235,1,0,0:0:0:0:
182,192,113235,128,0,113310:0:0:0:0:
109,192,113235,128,0,113310:0:0:0:0:
329,192,113310,1,0,0:0:0:0:
402,192,113310,1,0,0:0:0:0:
36,192,113385,1,0,0:0:0:0:
109,192,113385,128,0,113460:0:0:0:0:
182,192,113385,128,0,113460:0:0:0:0:
329,192,113460,1,0,0:0:0:0:
402,192,113460,1,0,0:0:0:0:
36,192,113535,1,0,0:0:0:0:
109,192,113535,128,0,113610:0:0:0:0:
182,192,113535,128,0,113610:0:0:0:0:
329,192,113610,1,0,0:0:0:0:
402,192,113610,1,0,0:0:0:0:
36,192,113685,1,0,0:0:0:0:
109,192,113685,128,0,113760:0:0:0:0:
182,192,113685,128,0,113760:0:0:0:0:
329,192,113760,1,0,0:0:0:0:
402,192,113760,1,0,0:0:0:0:
36,192,113835,1,0,0:0:0:0:
256,192,113835,1,0,0:0:0:0:
475,192,113835,1,0,0:0:0:0:
109,192,113835,128,0,113910:0:0:0:0:
182,192,113835,128,0,113910:0:0:0:0:
402,192,113910,1,0,0:0:0:0:
182,192,113985,128,0,114060:0:0:0:0:
36,192,113985,1,0,0:0:0:0:
329,192,114060,128,0,114135:0:0:0:0:
475,192,114060,1,0,0:0:0:0:
256,192,114060,128,0,114135:0:0:0:0:
109,192,114135,1,0,0:0:0:0:
402,192,114210,1,0,0:0:0:0:
182,192,114285,128,0,114360:0:0:0:0:
36,192,114285,1,0,0:0:0:0:
256,192,114285,128,0,114360:0:0:0:0:
475,192,114360,1,0,0:0:0:0:
329,192,114435,128,0,114510:0:0:0:0:
109,192,114435,1,0,0:0:0:0:
36,192,114435,1,0,0:0:0:0:
402,192,114435,128,0,114510:0:0:0:0:
182,192,114510,1,0,0:0:0:0:
329,192,114585,128,0,114660:0:0:0:0:
36,192,114585,1,0,0:0:0:0:
109,192,114585,1,0,0:0:0:0:
402,192,114585,128,0,114660:0:0:0:0:
256,192,114660,1,0,0:0:0:0:
182,192,114735,128,0,115035:0:0:0:0:
402,192,114735,1,0,0:0:0:0:
475,192,114735,1,0,0:0:0:0:
329,192,114810,1,0,0:0:0:0:
402,192,114885,1,0,0:0:0:0:
329,192,114960,1,0,0:0:0:0:
36,192,115035,1,0,0:0:0:0:
109,192,115035,1,0,0:0:0:0:
256,192,115035,1,0,0:0:0:0:
402,192,115035,1,0,0:0:0:0:
475,192,115035,128,0,115110:0:0:0:0:
329,192,115085,1,0,0:0:0:0:
182,192,115135,1,0,0:0:0:0:
109,192,115135,1,0,0:0:0:0:
256,192,115185,1,0,0:0:0:0:
402,192,115185,1,0,0:0:0:0:
36,192,115235,1,0,0:0:0:0:
329,192,115285,1,0,0:0:0:0:
109,192,115285,1,0,0:0:0:0:
182,192,115335,1,0,0:0:0:0:
402,192,115335,1,0,0:0:0:0:
475,192,115335,1,0,0:0:0:0:
256,192,115385,1,0,0:0:0:0:
329,192,115435,1,0,0:0:0:0:
36,192,115435,1,0,0:0:0:0:
109,192,115485,1,0,0:0:0:0:
402,192,115485,1,0,0:0:0:0:
256,192,115535,1,0,0:0:0:0:
329,192,115585,1,0,0:0:0:0:
475,192,115585,1,0,0:0:0:0:
182,192,115635,1,0,0:0:0:0:
36,192,115635,1,0,0:0:0:0:
402,192,115635,1,0,0:0:0:0:
256,192,115685,1,0,0:0:0:0:
329,192,115735,1,0,0:0:0:0:
475,192,115735,1,0,0:0:0:0:
36,192,115785,1,0,0:0:0:0:
109,192,115785,1,0,0:0:0:0:
256,192,115835,1,0,0:0:0:0:
329,192,115885,1,0,0:0:0:0:
402,192,115885,1,0,0:0:0:0:
182,192,115935,1,0,0:0:0:0:
109,192,115935,1,0,0:0:0:0:
475,192,115935,1,0,0:0:0:0:
402,192,115985,1,0,0:0:0:0:
329,192,116035,1,0,0:0:0:0:
256,192,116035,1,0,0:0:0:0:
36,192,116085,1,0,0:0:0:0:
475,192,116085,1,0,0:0:0:0:
402,192,116135,1,0,0:0:0:0:
182,192,116185,1,0,0:0:0:0:
329,192,116185,1,0,0:0:0:0:
109,192,116235,1,0,0:0:0:0:
36,192,116235,1,0,0:0:0:0:
475,192,116235,1,0,0:0:0:0:
256,192,116235,128,0,116310:0:0:0:0:
402,192,116285,1,0,0:0:0:0:
329,192,116335,1,0,0:0:0:0:
182,192,116335,1,0,0:0:0:0:
256,192,116385,1,0,0:0:0:0:
475,192,116385,1,0,0:0:0:0:
109,192,116435,1,0,0:0:0:0:
182,192,116485,1,0,0:0:0:0:
329,192,116485,1,0,0:0:0:0:
402,192,116535,1,0,0:0:0:0:
475,192,116535,1,0,0:0:0:0:
36,192,116535,1,0,0:0:0:0:
256,192,116585,1,0,0:0:0:0:
182,192,116635,1,0,0:0:0:0:
329,192,116635,1,0,0:0:0:0:
402,192,116685,1,0,0:0:0:0:
36,192,116685,1,0,0:0:0:0:
109,192,116735,1,0,0:0:0:0:
256,192,116785,1,0,0:0:0:0:
182,192,116835,1,0,0:0:0:0:
36,192,116835,1,0,0:0:0:0:
402,192,116835,1,0,0:0:0:0:
475,192,116885,1,0,0:0:0:0:
109,192,116935,1,0,0:0:0:0:
329,192,116935,1,0,0:0:0:0:
256,192,116985,1,0,0:0:0:0:
402,192,116985,1,0,0:0:0:0:
182,192,117035,1,0,0:0:0:0:
329,192,117085,1,0,0:0:0:0:
475,192,117085,1,0,0:0:0:0:
36,192,117135,1,0,0:0:0:0:
256,192,117135,1,0,0:0:0:0:
109,192,117135,1,0,0:0:0:0:
402,192,117185,1,0,0:0:0:0:
329,192,117235,1,0,0:0:0:0:
182,192,117235,1,0,0:0:0:0:
256,192,117285,1,0,0:0:0:0:
109,192,117285,1,0,0:0:0:0:
36,192,117335,1,0,0:0:0:0:
329,192,117385,1,0,0:0:0:0:
402,192,117385,1,0,0:0:0:0:
256,192,117435,1,0,0:0:0:0:
109,192,117435,1,0,0:0:0:0:
475,192,117435,1,0,0:0:0:0:
182,192,117435,128,0,117510:0:0:0:0:
36,192,117485,1,0,0:0:0:0:
402,192,117535,1,0,0:0:0:0:
329,192,117535,1,0,0:0:0:0:
109,192,117585,1,0,0:0:0:0:
256,192,117585,1,0,0:0:0:0:
182,192,117635,1,0,0:0:0:0:
402,192,117685,1,0,0:0:0:0:
329,192,117685,1,0,0:0:0:0:
109,192,117735,1,0,0:0:0:0:
475,192,117735,1,0,0:0:0:0:
36,192,117735,1,0,0:0:0:0:
256,192,117785,1,0,0:0:0:0:
329,192,117835,1,0,0:0:0:0:
182,192,117835,1,0,0:0:0:0:
36,192,117885,1,0,0:0:0:0:
402,192,117885,1,0,0:0:0:0:
109,192,117935,1,0,0:0:0:0:
182,192,117985,1,0,0:0:0:0:
329,192,117985,1,0,0:0:0:0:
402,192,118035,1,0,0:0:0:0:
475,192,118035,1,0,0:0:0:0:
36,192,118035,1,0,0:0:0:0:
256,192,118085,1,0,0:0:0:0:
109,192,118135,1,0,0:0:0:0:
329,192,118135,1,0,0:0:0:0:
182,192,118185,1,0,0:0:0:0:
402,192,118185,1,0,0:0:0:0:
256,192,118235,1,0,0:0:0:0:
36,192,118285,1,0,0:0:0:0:
329,192,118285,1,0,0:0:0:0:
109,192,118335,1,0,0:0:0:0:
182,192,118335,1,0,0:0:0:0:
475,192,118335,1,0,0:0:0:0:
402,192,118385,1,0,0:0:0:0:
36,192,118435,1,0,0:0:0:0:
329,192,118435,1,0,0:0:0:0:
475,192,118485,1,0,0:0:0:0:
109,192,118485,1,0,0:0:0:0:
182,192,118535,1,0,0:0:0:0:
256,192,118585,1,0,0:0:0:0:
402,192,118585,1,0,0:0:0:0:
329,192,118635,1,0,0:0:0:0:
36,192,118635,1,0,0:0:0:0:
475,192,118635,1,0,0:0:0:0:
109,192,118635,128,0,118710:0:0:0:0:
182,192,118685,1,0,0:0:0:0:
256,192,118735,1,0,0:0:0:0:
402,192,118735,1,0,0:0:0:0:
329,192,118785,1,0,0:0:0:0:
36,192,118785,1,0,0:0:0:0:
182,192,118835,1,0,0:0:0:0:
256,192,118885,1,0,0:0:0:0:
475,192,118885,1,0,0:0:0:0:
109,192,118935,1,0,0:0:0:0:
402,192,118935,1,0,0:0:0:0:
36,192,118935,1,0,0:0:0:0:
329,192,118985,1,0,0:0:0:0:
256,192,119035,1,0,0:0:0:0:
475,192,119035,1,0,0:0:0:0:
109,192,119085,1,0,0:0:0:0:
182,192,119085,1,0,0:0:0:0:
329,192,119135,1,0,0:0:0:0:
256,192,119185,1,0,0:0:0:0:
402,192,119185,1,0,0:0:0:0:
109,192,119235,1,0,0:0:0:0:
36,192,119235,1,0,0:0:0:0:
475,192,119235,1,0,0:0:0:0:
182,192,119285,1,0,0:0:0:0:
329,192,119335,1,0,0:0:0:0:
256,192,119335,1,0,0:0:0:0:
402,192,119385,1,0,0:0:0:0:
475,192,119385,1,0,0:0:0:0:
109,192,119435,1,0,0:0:0:0:
182,192,119485,1,0,0:0:0:0:
329,192,119485,1,0,0:0:0:0:
256,192,119535,1,0,0:0:0:0:
36,192,119535,1,0,0:0:0:0:
475,192,119535,1,0,0:0:0:0:
402,192,119585,1,0,0:0:0:0:
109,192,119635,1,0,0:0:0:0:
329,192,119635,1,0,0:0:0:0:
256,192,119685,1,0,0:0:0:0:
36,192,119685,1,0,0:0:0:0:
402,192,119735,1,0,0:0:0:0:
182,192,119785,1,0,0:0:0:0:
329,192,119785,1,0,0:0:0:0:
256,192,119835,1,0,0:0:0:0:
475,192,119835,1,0,0:0:0:0:
36,192,119835,1,0,0:0:0:0:
402,192,119835,128,0,119910:0:0:0:0:
109,192,119885,1,0,0:0:0:0:
182,192,119935,1,0,0:0:0:0:
329,192,119935,1,0,0:0:0:0:
256,192,119985,1,0,0:0:0:0:
475,192,119985,1,0,0:0:0:0:
109,192,120035,1,0,0:0:0:0:
402,192,120085,1,0,0:0:0:0:
182,192,120085,1,0,0:0:0:0:
256,192,120135,1,0,0:0:0:0:
36,192,120135,1,0,0:0:0:0:
475,192,120135,1,0,0:0:0:0:
329,192,120185,1,0,0:0:0:0:
402,192,120235,1,0,0:0:0:0:
109,192,120235,1,0,0:0:0:0:
182,192,120285,1,0,0:0:0:0:
475,192,120285,1,0,0:0:0:0:
402,192,120335,1,0,0:0:0:0:
329,192,120385,1,0,0:0:0:0:
109,192,120385,1,0,0:0:0:0:
256,192,120435,1,0,0:0:0:0:
36,192,120435,1,0,0:0:0:0:
475,192,120435,1,0,0:0:0:0:
182,192,120485,1,0,0:0:0:0:
402,192,120535,1,0,0:0:0:0:
109,192,120535,1,0,0:0:0:0:
36,192,120585,1,0,0:0:0:0:
329,192,120585,1,0,0:0:0:0:
256,192,120635,1,0,0:0:0:0:
402,192,120685,1,0,0:0:0:0:
182,192,120685,1,0,0:0:0:0:
256,192,120735,1,0,0:0:0:0:
475,192,120735,1,0,0:0:0:0:
36,192,120735,1,0,0:0:0:0:
329,192,120785,1,0,0:0:0:0:
182,192,120835,1,0,0:0:0:0:
109,192,120835,1,0,0:0:0:0:
256,192,120885,1,0,0:0:0:0:
402,192,120885,1,0,0:0:0:0:
36,192,120935,1,0,0:0:0:0:
109,192,120985,1,0,0:0:0:0:
182,192,120985,1,0,0:0:0:0:
402,192,121035,1,0,0:0:0:0:
475,192,121035,1,0,0:0:0:0:
329,192,121035,1,0,0:0:0:0:
256,192,121035,128,0,121110:0:0:0:0:
36,192,121085,1,0,0:0:0:0:
109,192,121135,1,0,0:0:0:0:
182,192,121135,1,0,0:0:0:0:
329,192,121185,1,0,0:0:0:0:
402,192,121185,1,0,0:0:0:0:
256,192,121235,1,0,0:0:0:0:
182,192,121285,1,0,0:0:0:0:
109,192,121285,1,0,0:0:0:0:
402,192,121335,1,0,0:0:0:0:
475,192,121335,1,0,0:0:0:0:
36,192,121335,1,0,0:0:0:0:
329,192,121385,1,0,0:0:0:0:
182,192,121435,1,0,0:0:0:0:
256,192,121435,1,0,0:0:0:0:
109,192,121485,1,0,0:0:0:0:
402,192,121485,1,0,0:0:0:0:
329,192,121535,1,0,0:0:0:0:
256,192,121585,1,0,0:0:0:0:
182,192,121585,1,0,0:0:0:0:
109,192,121635,1,0,0:0:0:0:
402,192,121635,1,0,0:0:0:0:
475,192,121635,1,0,0:0:0:0:
36,192,121685,1,0,0:0:0:0:
182,192,121735,1,0,0:0:0:0:
329,192,121735,1,0,0:0:0:0:
109,192,121785,1,0,0:0:0:0:
402,192,121785,1,0,0:0:0:0:
256,192,121835,1,0,0:0:0:0:
329,192,121885,1,0,0:0:0:0:
182,192,121885,1,0,0:0:0:0:
109,192,121935,1,0,0:0:0:0:
36,192,121935,1,0,0:0:0:0:
475,192,121935,1,0,0:0:0:0:
402,192,121985,1,0,0:0:0:0:
329,192,122035,1,0,0:0:0:0:
256,192,122035,1,0,0:0:0:0:
182,192,122085,1,0,0:0:0:0:
36,192,122085,1,0,0:0:0:0:
402,192,122135,1,0,0:0:0:0:
329,192,122185,1,0,0:0:0:0:
109,192,122185,1,0,0:0:0:0:
182,192,122235,1,0,0:0:0:0:
36,192,122235,1,0,0:0:0:0:
256,192,122235,1,0,0:0:0:0:
475,192,122235,128,0,122310:0:0:0:0:
402,192,122285,1,0,0:0:0:0:
329,192,122335,1,0,0:0:0:0:
109,192,122335,1,0,0:0:0:0:
182,192,122385,1,0,0:0:0:0:
475,192,122385,1,0,0:0:0:0:
256,192,122435,1,0,0:0:0:0:
329,192,122485,1,0,0:0:0:0:
36,192,122485,1,0,0:0:0:0:
109,192,122535,1,0,0:0:0:0:
402,192,122535,1,0,0:0:0:0:
475,192,122535,1,0,0:0:0:0:
256,192,122585,1,0,0:0:0:0:
329,192,122635,1,0,0:0:0:0:
36,192,122635,1,0,0:0:0:0:
402,192,122685,1,0,0:0:0:0:
182,192,122685,1,0,0:0:0:0:
109,192,122735,1,0,0:0:0:0:
256,192,122785,1,0,0:0:0:0:
36,192,122785,1,0,0:0:0:0:
475,192,122835,1,0,0:0:0:0:
402,192,122835,1,0,0:0:0:0:
182,192,122835,1,0,0:0:0:0:
109,192,122885,1,0,0:0:0:0:
256,192,122935,1,0,0:0:0:0:
329,192,122935,1,0,0:0:0:0:
36,192,122985,1,0,0:0:0:0:
182,192,122985,1,0,0:0:0:0:
402,192,123035,1,0,0:0:0:0:
329,192,123085,1,0,0:0:0:0:
256,192,123085,1,0,0:0:0:0:
36,192,123135,1,0,0:0:0:0:
109,192,123135,1,0,0:0:0:0:
475,192,123135,1,0,0:0:0:0:
182,192,123185,1,0,0:0:0:0:
402,192,123235,1,0,0:0:0:0:
256,192,123235,1,0,0:0:0:0:
329,192,123285,1,0,0:0:0:0:
475,192,123285,1,0,0:0:0:0:
182,192,123335,1,0,0:0:0:0:
256,192,123385,1,0,0:0:0:0:
402,192,123385,1,0,0:0:0:0:
475,192,123435,1,0,0:0:0:0:
329,192,123435,1,0,0:0:0:0:
36,192,123435,1,0,0:0:0:0:
109,192,123435,128,0,123510:0:0:0:0:
182,192,123485,1,0,0:0:0:0:
402,192,123535,1,0,0:0:0:0:
256,192,123535,1,0,0:0:0:0:
36,192,123585,1,0,0:0:0:0:
329,192,123585,1,0,0:0:0:0:
182,192,123635,1,0,0:0:0:0:
109,192,123685,1,0,0:0:0:0:
256,192,123685,1,0,0:0:0:0:
402,192,123735,1,0,0:0:0:0:
475,192,123735,1,0,0:0:0:0:
36,192,123735,1,0,0:0:0:0:
182,192,123785,1,0,0:0:0:0:
329,192,123835,1,0,0:0:0:0:
109,192,123835,1,0,0:0:0:0:
256,192,123885,1,0,0:0:0:0:
475,192,123885,1,0,0:0:0:0:
329,192,123935,1,0,0:0:0:0:
182,192,123985,1,0,0:0:0:0:
402,192,123985,1,0,0:0:0:0:
475,192,124035,1,0,0:0:0:0:
109,192,124035,1,0,0:0:0:0:
36,192,124035,1,0,0:0:0:0:
256,192,124085,1,0,0:0:0:0:
329,192,124135,1,0,0:0:0:0:
182,192,124135,1,0,0:0:0:0:
109,192,124185,1,0,0:0:0:0:
402,192,124185,1,0,0:0:0:0:
256,192,124235,1,0,0:0:0:0:
182,192,124285,1,0,0:0:0:0:
36,192,124285,1,0,0:0:0:0:
109,192,124335,1,0,0:0:0:0:
329,192,124335,1,0,0:0:0:0:
475,192,124335,1,0,0:0:0:0:
256,192,124385,1,0,0:0:0:0:
182,192,124435,1,0,0:0:0:0:
36,192,124435,1,0,0:0:0:0:
475,192,124485,1,0,0:0:0:0:
329,192,124485,1,0,0:0:0:0:
402,192,124485,1,0,0:0:0:0:
109,192,124535,1,0,0:0:0:0:
256,192,124585,1,0,0:0:0:0:
182,192,124585,1,0,0:0:0:0:
36,192,124635,1,0,0:0:0:0:
329,192,124635,1,0,0:0:0:0:
475,192,124635,1,0,0:0:0:0:
402,192,124635,128,0,124710:0:0:0:0:
182,192,124685,1,0,0:0:0:0:
256,192,124710,1,0,0:0:0:0:
36,192,124735,1,0,0:0:0:0:
109,192,124785,1,0,0:0:0:0:
329,192,124785,1,0,0:0:0:0:
182,192,124835,1,0,0:0:0:0:
256,192,124860,1,0,0:0:0:0:
402,192,124885,1,0,0:0:0:0:
329,192,124935,1,0,0:0:0:0:
109,192,124935,1,0,0:0:0:0:
36,192,124935,1,0,0:0:0:0:
182,192,124985,1,0,0:0:0:0:
475,192,125010,1,0,0:0:0:0:
256,192,125035,1,0,0:0:0:0:
109,192,125085,1,0,0:0:0:0:
329,192,125085,1,0,0:0:0:0:
402,192,125135,1,0,0:0:0:0:
182,192,125160,1,0,0:0:0:0:
256,192,125185,1,0,0:0:0:0:
36,192,125235,1,0,0:0:0:0:
329,192,125235,1,0,0:0:0:0:
475,192,125235,1,0,0:0:0:0:
182,192,125285,1,0,0:0:0:0:
402,192,125310,1,0,0:0:0:0:
109,192,125335,1,0,0:0:0:0:
256,192,125385,1,0,0:0:0:0:
475,192,125385,1,0,0:0:0:0:
182,192,125435,1,0,0:0:0:0:
329,192,125460,1,0,0:0:0:0:
402,192,125485,1,0,0:0:0:0:
475,192,125535,1,0,0:0:0:0:
109,192,125535,1,0,0:0:0:0:
36,192,125535,1,0,0:0:0:0:
256,192,125585,1,0,0:0:0:0:
329,192,125610,1,0,0:0:0:0:
402,192,125635,1,0,0:0:0:0:
475,192,125685,1,0,0:0:0:0:
109,192,125685,1,0,0:0:0:0:
329,192,125735,1,0,0:0:0:0:
256,192,125760,1,0,0:0:0:0:
182,192,125785,1,0,0:0:0:0:
329,192,125835,1,0,0:0:0:0:
475,192,125835,1,0,0:0:0:0:
109,192,125835,1,0,0:0:0:0:
36,192,125835,128,0,125910:0:0:0:0:
402,192,125885,1,0,0:0:0:0:
256,192,125910,1,0,0:0:0:0:
182,192,125935,1,0,0:0:0:0:
36,192,125985,1,0,0:0:0:0:
329,192,125985,1,0,0:0:0:0:
109,192,126035,1,0,0:0:0:0:
256,192,126060,1,0,0:0:0:0:
402,192,126085,1,0,0:0:0:0:
182,192,126135,1,0,0:0:0:0:
36,192,126135,1,0,0:0:0:0:
475,192,126135,1,0,0:0:0:0:
329,192,126185,1,0,0:0:0:0:
256,192,126210,1,0,0:0:0:0:
109,192,126235,1,0,0:0:0:0:
475,192,126285,1,0,0:0:0:0:
36,192,126285,1,0,0:0:0:0:
182,192,126335,1,0,0:0:0:0:
256,192,126360,1,0,0:0:0:0:
329,192,126385,1,0,0:0:0:0:
402,192,126435,1,0,0:0:0:0:
36,192,126435,1,0,0:0:0:0:
109,192,126435,1,0,0:0:0:0:
182,192,126485,1,0,0:0:0:0:
256,192,126510,1,0,0:0:0:0:
475,192,126535,1,0,0:0:0:0:
329,192,126585,1,0,0:0:0:0:
36,192,126585,1,0,0:0:0:0:
402,192,126635,1,0,0:0:0:0:
256,192,126660,1,0,0:0:0:0:
182,192,126685,1,0,0:0:0:0:
329,192,126735,1,0,0:0:0:0:
475,192,126735,1,0,0:0:0:0:
109,192,126735,1,0,0:0:0:0:
256,192,126785,1,0,0:0:0:0:
36,192,126810,1,0,0:0:0:0:
182,192,126835,1,0,0:0:0:0:
329,192,126885,1,0,0:0:0:0:
475,192,126885,1,0,0:0:0:0:
256,192,126935,1,0,0:0:0:0:
109,192,126960,1,0,0:0:0:0:
182,192,126985,1,0,0:0:0:0:
329,192,127035,1,0,0:0:0:0:
475,192,127035,1,0,0:0:0:0:
36,192,127035,1,0,0:0:0:0:
402,192,127035,128,0,127110:0:0:0:0:
109,192,127085,1,0,0:0:0:0:
182,192,127110,1,0,0:0:0:0:
256,192,127135,1,0,0:0:0:0:
329,192,127185,1,0,0:0:0:0:
36,192,127185,1,0,0:0:0:0:
182,192,127235,1,0,0:0:0:0:
109,192,127260,1,0,0:0:0:0:
256,192,127285,1,0,0:0:0:0:
329,192,127335,1,0,0:0:0:0:
36,192,127335,1,0,0:0:0:0:
475,192,127335,1,0,0:0:0:0:
402,192,127385,1,0,0:0:0:0:
182,192,127410,1,0,0:0:0:0:
109,192,127435,1,0,0:0:0:0:
256,192,127485,1,0,0:0:0:0:
475,192,127485,1,0,0:0:0:0:
329,192,127535,1,0,0:0:0:0:
182,192,127560,1,0,0:0:0:0:
402,192,127585,1,0,0:0:0:0:
256,192,127635,1,0,0:0:0:0:
36,192,127635,1,0,0:0:0:0:
475,192,127635,1,0,0:0:0:0:
109,192,127685,1,0,0:0:0:0:
329,192,127710,1,0,0:0:0:0:
182,192,127735,1,0,0:0:0:0:
402,192,127785,1,0,0:0:0:0:
36,192,127785,1,0,0:0:0:0:
256,192,127835,1,0,0:0:0:0:
329,192,127860,1,0,0:0:0:0:
109,192,127885,1,0,0:0:0:0:
36,192,127935,1,0,0:0:0:0:
182,192,127935,1,0,0:0:0:0:
475,192,127935,1,0,0:0:0:0:
402,192,127985,1,0,0:0:0:0:
256,192,128010,1,0,0:0:0:0:
109,192,128035,1,0,0:0:0:0:
329,192,128085,1,0,0:0:0:0:
475,192,128085,1,0,0:0:0:0:
182,192,128135,1,0,0:0:0:0:
256,192,128160,1,0,0:0:0:0:
402,192,128185,1,0,0:0:0:0:
329,192,128235,1,0,0:0:0:0:
36,192,128235,1,0,0:0:0:0:
109,192,128235,1,0,0:0:0:0:
475,192,128235,128,0,128310:0:0:0:0:
182,192,128285,1,0,0:0:0:0:
256,192,128310,1,0,0:0:0:0:
329,192,128335,1,0,0:0:0:0:
475,192,128385,1,0,0:0:0:0:
36,192,128385,1,0,0:0:0:0:
402,192,128435,1,0,0:0:0:0:
182,192,128460,1,0,0:0:0:0:
329,192,128485,1,0,0:0:0:0:
109,192,128535,1,0,0:0:0:0:
36,192,128535,1,0,0:0:0:0:
256,192,128535,1,0,0:0:0:0:
402,192,128585,1,0,0:0:0:0:
329,192,128610,1,0,0:0:0:0:
182,192,128635,1,0,0:0:0:0:
256,192,128685,1,0,0:0:0:0:
475,192,128685,1,0,0:0:0:0:
36,192,128735,1,0,0:0:0:0:
109,192,128760,1,0,0:0:0:0:
182,192,128785,1,0,0:0:0:0:
329,192,128835,1,0,0:0:0:0:
36,192,128835,1,0,0:0:0:0:
475,192,128835,1,0,0:0:0:0:
402,192,128835,128,0,128910:0:0:0:0:
109,192,128885,1,0,0:0:0:0:
182,192,128910,1,0,0:0:0:0:
256,192,128935,1,0,0:0:0:0:
329,192,128985,1,0,0:0:0:0:
475,192,128985,1,0,0:0:0:0:
182,192,129035,1,0,0:0:0:0:
256,192,129060,1,0,0:0:0:0:
402,192,129085,1,0,0:0:0:0:
329,192,129135,1,0,0:0:0:0:
109,192,129135,1,0,0:0:0:0:
36,192,129135,1,0,0:0:0:0:
475,192,129185,1,0,0:0:0:0:
402,192,129210,1,0,0:0:0:0:
256,192,129235,1,0,0:0:0:0:
182,192,129285,1,0,0:0:0:0:
36,192,129285,1,0,0:0:0:0:
109,192,129285,1,0,0:0:0:0:
329,192,129335,1,0,0:0:0:0:
475,192,129360,1,0,0:0:0:0:
256,192,129385,1,0,0:0:0:0:
109,192,129435,1,0,0:0:0:0:
329,192,129435,1,0,0:0:0:0:
402,192,129435,1,0,0:0:0:0:
36,192,129435,128,0,129510:0:0:0:0:
182,192,129485,1,0,0:0:0:0:
256,192,129510,1,0,0:0:0:0:
475,192,129535,1,0,0:0:0:0:
329,192,129585,1,0,0:0:0:0:
109,192,129585,1,0,0:0:0:0:
256,192,129635,1,0,0:0:0:0:
36,192,129660,1,0,0:0:0:0:
182,192,129685,1,0,0:0:0:0:
402,192,129735,1,0,0:0:0:0:
475,192,129735,1,0,0:0:0:0:
109,192,129735,1,0,0:0:0:0:
329,192,129785,1,0,0:0:0:0:
182,192,129810,1,0,0:0:0:0:
36,192,129835,1,0,0:0:0:0:
475,192,129885,1,0,0:0:0:0:
256,192,129885,1,0,0:0:0:0:
109,192,129935,1,0,0:0:0:0:
329,192,129960,1,0,0:0:0:0:
182,192,129985,1,0,0:0:0:0:
36,192,130035,1,0,0:0:0:0:
402,192,130035,1,0,0:0:0:0:
475,192,130035,1,0,0:0:0:0:
256,192,130085,1,0,0:0:0:0:
109,192,130110,1,0,0:0:0:0:
329,192,130135,1,0,0:0:0:0:
182,192,130185,1,0,0:0:0:0:
475,192,130185,1,0,0:0:0:0:
402,192,130235,1,0,0:0:0:0:
109,192,130260,1,0,0:0:0:0:
256,192,130285,1,0,0:0:0:0:
329,192,130335,1,0,0:0:0:0:
182,192,130335,1,0,0:0:0:0:
475,192,130335,1,0,0:0:0:0:
36,192,130385,1,0,0:0:0:0:
256,192,130410,1,0,0:0:0:0:
182,192,130435,1,0,0:0:0:0:
109,192,130485,1,0,0:0:0:0:
402,192,130485,1,0,0:0:0:0:
329,192,130535,1,0,0:0:0:0:
36,192,130560,1,0,0:0:0:0:
256,192,130585,1,0,0:0:0:0:
109,192,130635,1,0,0:0:0:0:
182,192,130635,1,0,0:0:0:0:
475,192,130635,1,0,0:0:0:0:
402,192,130685,1,0,0:0:0:0:
256,192,130710,1,0,0:0:0:0:
329,192,130735,1,0,0:0:0:0:
36,192,130785,1,0,0:0:0:0:
475,192,130785,1,0,0:0:0:0:
402,192,130835,1,0,0:0:0:0:
256,192,130860,1,0,0:0:0:0:
109,192,130885,1,0,0:0:0:0:
329,192,130935,1,0,0:0:0:0:
182,192,130935,1,0,0:0:0:0:
475,192,130935,1,0,0:0:0:0:
36,192,130985,1,0,0:0:0:0:
402,192,131010,1,0,0:0:0:0:
256,192,131035,1,0,0:0:0:0:
109,192,131085,1,0,0:0:0:0:
475,192,131085,1,0,0:0:0:0:
329,192,131135,1,0,0:0:0:0:
402,192,131160,1,0,0:0:0:0:
36,192,131185,1,0,0:0:0:0:
109,192,131235,1,0,0:0:0:0:
182,192,131235,1,0,0:0:0:0:
475,192,131235,1,0,0:0:0:0:
256,192,131235,128,0,131310:0:0:0:0:
329,192,131272,1,0,0:0:0:0:
402,192,131310,1,0,0:0:0:0:
36,192,131310,1,0,0:0:0:0:
109,192,131347,1,0,0:0:0:0:
182,192,131385,1,0,0:0:0:0:
475,192,131385,1,0,0:0:0:0:
402,192,131422,1,0,0:0:0:0:
329,192,131460,1,0,0:0:0:0:
36,192,131460,1,0,0:0:0:0:
109,192,131497,1,0,0:0:0:0:
182,192,131535,1,0,0:0:0:0:
256,192,131535,1,0,0:0:0:0:
475,192,131535,1,0,0:0:0:0:
329,192,131572,1,0,0:0:0:0:
402,192,131610,1,0,0:0:0:0:
109,192,131610,1,0,0:0:0:0:
182,192,131647,1,0,0:0:0:0:
256,192,131685,1,0,0:0:0:0:
475,192,131685,1,0,0:0:0:0:
36,192,131685,1,0,0:0:0:0:
329,192,131722,1,0,0:0:0:0:
182,192,131760,1,0,0:0:0:0:
402,192,131760,1,0,0:0:0:0:
109,192,131797,1,0,0:0:0:0:
256,192,131835,128,0,131985:0:0:0:0:
36,192,131835,128,0,131910:0:0:0:0:
329,192,131835,128,0,131910:0:0:0:0:
475,192,131835,128,0,131910:0:0:0:0:
182,192,131910,128,0,131985:0:0:0:0:
109,192,131910,128,0,132060:0:0:0:0:
36,192,131985,128,0,132060:0:0:0:0:
475,192,131985,128,0,132060:0:0:0:0:
402,192,131985,128,0,132060:0:0:0:0:
329,192,131985,128,0,132135:0:0:0:0:
256,192,132060,128,0,132135:0:0:0:0:
182,192,132060,128,0,132210:0:0:0:0:
109,192,132135,128,0,132210:0:0:0:0:
36,192,132135,128,0,132210:0:0:0:0:
475,192,132135,128,0,132210:0:0:0:0:
402,192,132135,128,0,132285:0:0:0:0:
329,192,132210,128,0,132285:0:0:0:0:
256,192,132210,128,0,132435:0:0:0:0:
182,192,132285,128,0,132360:0:0:0:0:
109,192,132285,128,0,132360:0:0:0:0:
36,192,132285,128,0,132360:0:0:0:0:
475,192,132285,128,0,132360:0:0:0:0:
402,192,132360,128,0,132510:0:0:0:0:
329,192,132360,128,0,132435:0:0:0:0:
475,192,132435,128,0,132510:0:0:0:0:
36,192,132435,128,0,132510:0:0:0:0:
109,192,132435,128,0,132510:0:0:0:0:
182,192,132435,128,0,132585:0:0:0:0:
256,192,132510,128,0,132585:0:0:0:0:
329,192,132510,128,0,132660:0:0:0:0:
475,192,132585,128,0,132660:0:0:0:0:
402,192,132585,128,0,132660:0:0:0:0:
36,192,132585,128,0,132660:0:0:0:0:
109,192,132585,128,0,132735:0:0:0:0:
182,192,132660,128,0,132735:0:0:0:0:
256,192,132660,128,0,132885:0:0:0:0:
329,192,132735,128,0,132810:0:0:0:0:
402,192,132735,128,0,132810:0:0:0:0:
475,192,132735,128,0,132810:0:0:0:0:
36,192,132735,128,0,132810:0:0:0:0:
109,192,132810,128,0,132960:0:0:0:0:
182,192,132810,128,0,132885:0:0:0:0:
36,192,132885,128,0,132960:0:0:0:0:
402,192,132885,128,0,132960:0:0:0:0:
475,192,132885,128,0,132960:0:0:0:0:
329,192,132885,128,0,133035:0:0:0:0:
182,192,132960,128,0,133035:0:0:0:0:
256,192,132960,128,0,133110:0:0:0:0:
402,192,133035,128,0,133110:0:0:0:0:
475,192,133035,128,0,133110:0:0:0:0:
109,192,133035,128,0,133110:0:0:0:0:
36,192,133035,128,0,133110:0:0:0:0:
329,192,133110,128,0,133185:0:0:0:0:
182,192,133110,128,0,133185:0:0:0:0:
256,192,133185,128,0,133260:0:0:0:0:
109,192,133185,128,0,133260:0:0:0:0:
36,192,133185,128,0,133260:0:0:0:0:
402,192,133185,128,0,133260:0:0:0:0:
475,192,133185,128,0,133260:0:0:0:0:
329,192,133260,128,0,133335:0:0:0:0:
182,192,133260,128,0,133335:0:0:0:0:
402,192,133335,1,0,0:0:0:0:
36,192,133335,128,0,133410:0:0:0:0:
109,192,133335,128,0,133410:0:0:0:0:
256,192,133335,128,0,133410:0:0:0:0:
475,192,133335,128,0,133410:0:0:0:0:
329,192,133410,128,0,133485:0:0:0:0:
402,192,133410,128,0,133485:0:0:0:0:
182,192,133485,1,0,0:0:0:0:
475,192,133485,128,0,133560:0:0:0:0:
256,192,133485,128,0,133560:0:0:0:0:
109,192,133485,128,0,133560:0:0:0:0:
36,192,133485,128,0,133560:0:0:0:0:
182,192,133560,1,0,0:0:0:0:
402,192,133560,128,0,133635:0:0:0:0:
36,192,133635,1,0,0:0:0:0:
109,192,133635,1,0,0:0:0:0:
256,192,133635,1,0,0:0:0:0:
475,192,133635,1,0,0:0:0:0:
329,192,133635,1,0,0:0:0:0:
329,192,133710,1,0,0:0:0:0:
36,192,133710,1,0,0:0:0:0:
109,192,133710,1,0,0:0:0:0:
256,192,133710,1,0,0:0:0:0:
475,192,133710,1,0,0:0:0:0:
36,192,133785,128,0,133860:0:0:0:0:
109,192,133785,128,0,133860:0:0:0:0:
475,192,133785,128,0,133860:0:0:0:0:
402,192,133822,128,0,133897:0:0:0:0:
329,192,133860,128,0,133935:0:0:0:0:
256,192,133897,128,0,133972:0:0:0:0:
402,192,133935,128,0,134010:0:0:0:0:
475,192,133935,128,0,134010:0:0:0:0:
109,192,133935,128,0,134010:0:0:0:0:
36,192,133935,128,0,134010:0:0:0:0:
182,192,133935,128,0,134085:0:0:0:0:
329,192,134010,128,0,134085:0:0:0:0:
256,192,134010,128,0,134160:0:0:0:0:
402,192,134085,128,0,134160:0:0:0:0:
475,192,134085,128,0,134160:0:0:0:0:
109,192,134085,128,0,134160:0:0:0:0:
36,192,134085,128,0,134160:0:0:0:0:
182,192,134160,128,0,134235:0:0:0:0:
329,192,134160,128,0,134235:0:0:0:0:
402,192,134235,1,0,0:0:0:0:
475,192,134235,1,0,0:0:0:0:
256,192,134235,128,0,134310:0:0:0:0:
36,192,134235,128,0,134310:0:0:0:0:
109,192,134235,128,0,134285:0:0:0:0:
402,192,134310,128,0,134460:0:0:0:0:
475,192,134310,128,0,134460:0:0:0:0:
182,192,134310,128,0,134385:0:0:0:0:
36,192,134385,1,0,0:0:0:0:
256,192,134385,128,0,134460:0:0:0:0:
109,192,134385,128,0,134435:0:0:0:0:
329,192,134460,128,0,134535:0:0:0:0:
182,192,134460,128,0,134510:0:0:0:0:
109,192,134535,1,0,0:0:0:0:
36,192,134535,1,0,0:0:0:0:
475,192,134535,128,0,134610:0:0:0:0:
256,192,134535,128,0,134585:0:0:0:0:
36,192,134610,128,0,134760:0:0:0:0:
109,192,134610,128,0,134685:0:0:0:0:
402,192,134610,128,0,134685:0:0:0:0:
475,192,134685,1,0,0:0:0:0:
329,192,134685,128,0,134760:0:0:0:0:
182,192,134685,128,0,134735:0:0:0:0:
256,192,134760,128,0,134835:0:0:0:0:
109,192,134760,128,0,134810:0:0:0:0:
329,192,134835,1,0,0:0:0:0:
402,192,134835,1,0,0:0:0:0:
182,192,134835,128,0,134910:0:0:0:0:
36,192,134835,128,0,134885:0:0:0:0:
329,192,134910,128,0,134985:0:0:0:0:
402,192,134910,128,0,135060:0:0:0:0:
36,192,134985,1,0,0:0:0:0:
256,192,134985,128,0,135060:0:0:0:0:
109,192,134985,128,0,135035:0:0:0:0:
329,192,135060,128,0,135135:0:0:0:0:
475,192,135060,128,0,135110:0:0:0:0:
109,192,135135,1,0,0:0:0:0:
182,192,135135,1,0,0:0:0:0:
402,192,135135,128,0,135210:0:0:0:0:
36,192,135135,128,0,135185:0:0:0:0:
109,192,135210,128,0,135360:0:0:0:0:
182,192,135210,128,0,135285:0:0:0:0:
475,192,135285,1,0,0:0:0:0:
256,192,135285,128,0,135360:0:0:0:0:
329,192,135285,128,0,135335:0:0:0:0:
182,192,135360,128,0,135435:0:0:0:0:
36,192,135360,128,0,135410:0:0:0:0:
402,192,135435,1,0,0:0:0:0:
256,192,135435,1,0,0:0:0:0:
109,192,135435,128,0,135510:0:0:0:0:
475,192,135435,128,0,135485:0:0:0:0:
256,192,135510,128,0,135585:0:0:0:0:
402,192,135510,128,0,135660:0:0:0:0:
36,192,135585,1,0,0:0:0:0:
182,192,135585,128,0,135660:0:0:0:0:
329,192,135585,128,0,135635:0:0:0:0:
109,192,135660,128,0,135735:0:0:0:0:
256,192,135660,128,0,135710:0:0:0:0:
182,192,135735,1,0,0:0:0:0:
36,192,135735,1,0,0:0:0:0:
402,192,135735,128,0,135810:0:0:0:0:
475,192,135735,128,0,135785:0:0:0:0:
36,192,135810,128,0,135960:0:0:0:0:
182,192,135810,128,0,135960:0:0:0:0:
475,192,135885,1,0,0:0:0:0:
256,192,135885,128,0,135960:0:0:0:0:
109,192,135885,128,0,135935:0:0:0:0:
329,192,135960,128,0,136035:0:0:0:0:
402,192,135960,128,0,136010:0:0:0:0:
182,192,136035,1,0,0:0:0:0:
256,192,136035,1,0,0:0:0:0:
475,192,136035,128,0,136110:0:0:0:0:
36,192,136035,128,0,136085:0:0:0:0:
256,192,136110,128,0,136260:0:0:0:0:
182,192,136110,128,0,136185:0:0:0:0:
402,192,136185,128,0,136260:0:0:0:0:
475,192,136185,128,0,136235:0:0:0:0:
329,192,136260,128,0,136335:0:0:0:0:
182,192,136260,128,0,136310:0:0:0:0:
256,192,136335,1,0,0:0:0:0:
475,192,136335,1,0,0:0:0:0:
109,192,136335,128,0,136410:0:0:0:0:
36,192,136335,128,0,136385:0:0:0:0:
256,192,136410,128,0,136485:0:0:0:0:
475,192,136410,128,0,136560:0:0:0:0:
36,192,136485,1,0,0:0:0:0:
182,192,136485,128,0,136560:0:0:0:0:
402,192,136485,128,0,136535:0:0:0:0:
256,192,136560,128,0,136635:0:0:0:0:
329,192,136560,128,0,136610:0:0:0:0:
402,192,136635,1,0,0:0:0:0:
182,192,136635,1,0,0:0:0:0:
109,192,136635,128,0,136710:0:0:0:0:
475,192,136635,128,0,136685:0:0:0:0:
402,192,136710,128,0,136860:0:0:0:0:
182,192,136710,128,0,136785:0:0:0:0:
475,192,136785,1,0,0:0:0:0:
256,192,136785,128,0,136860:0:0:0:0:
36,192,136785,128,0,136835:0:0:0:0:
182,192,136860,128,0,136935:0:0:0:0:
329,192,136860,128,0,136910:0:0:0:0:
109,192,136935,1,0,0:0:0:0:
36,192,136935,1,0,0:0:0:0:
256,192,136935,128,0,137010:0:0:0:0:
475,192,136935,128,0,136985:0:0:0:0:
36,192,137010,128,0,137160:0:0:0:0:
109,192,137010,128,0,137085:0:0:0:0:
402,192,137085,1,0,0:0:0:0:
329,192,137085,128,0,137160:0:0:0:0:
182,192,137085,128,0,137135:0:0:0:0:
256,192,137160,128,0,137235:0:0:0:0:
109,192,137160,128,0,137210:0:0:0:0:
402,192,137235,1,0,0:0:0:0:
475,192,137235,1,0,0:0:0:0:
182,192,137235,128,0,137310:0:0:0:0:
36,192,137235,128,0,137285:0:0:0:0:
402,192,137310,128,0,137385:0:0:0:0:
475,192,137310,128,0,137460:0:0:0:0:
36,192,137385,1,0,0:0:0:0:
109,192,137385,128,0,137460:0:0:0:0:
329,192,137385,128,0,137435:0:0:0:0:
182,192,137460,128,0,137535:0:0:0:0:
402,192,137460,128,0,137510:0:0:0:0:
36,192,137535,1,0,0:0:0:0:
109,192,137535,1,0,0:0:0:0:
256,192,137535,128,0,137610:0:0:0:0:
475,192,137535,128,0,137585:0:0:0:0:
36,192,137610,128,0,137760:0:0:0:0:
109,192,137610,128,0,137685:0:0:0:0:
402,192,137685,1,0,0:0:0:0:
329,192,137685,128,0,137760:0:0:0:0:
182,192,137685,128,0,137735:0:0:0:0:
256,192,137760,128,0,137835:0:0:0:0:
109,192,137760,128,0,137810:0:0:0:0:
182,192,137835,1,0,0:0:0:0:
402,192,137835,1,0,0:0:0:0:
36,192,137835,128,0,137910:0:0:0:0:
475,192,137835,128,0,137885:0:0:0:0:
402,192,137910,128,0,137985:0:0:0:0:
182,192,137910,128,0,138060:0:0:0:0:
36,192,137985,1,0,0:0:0:0:
329,192,137985,128,0,138060:0:0:0:0:
109,192,137985,128,0,138035:0:0:0:0:
402,192,138060,128,0,138135:0:0:0:0:
256,192,138060,128,0,138110:0:0:0:0:
182,192,138135,1,0,0:0:0:0:
329,192,138135,1,0,0:0:0:0:
475,192,138135,128,0,138210:0:0:0:0:
109,192,138135,128,0,138185:0:0:0:0:
182,192,138210,128,0,138285:0:0:0:0:
329,192,138210,128,0,138360:0:0:0:0:
36,192,138285,1,0,0:0:0:0:
475,192,138285,128,0,138360:0:0:0:0:
256,192,138285,128,0,138335:0:0:0:0:
402,192,138360,128,0,138435:0:0:0:0:
182,192,138360,128,0,138410:0:0:0:0:
329,192,138435,1,0,0:0:0:0:
109,192,138435,1,0,0:0:0:0:
475,192,138435,128,0,138510:0:0:0:0:
36,192,138435,128,0,138485:0:0:0:0:
109,192,138510,128,0,138660:0:0:0:0:
329,192,138510,128,0,138585:0:0:0:0:
475,192,138585,1,0,0:0:0:0:
182,192,138585,128,0,138660:0:0:0:0:
402,192,138585,128,0,138635:0:0:0:0:
256,192,138660,128,0,138735:0:0:0:0:
36,192,138660,128,0,138710:0:0:0:0:
329,192,138735,1,0,0:0:0:0:
475,192,138735,1,0,0:0:0:0:
182,192,138735,128,0,138810:0:0:0:0:
109,192,138735,128,0,138785:0:0:0:0:
329,192,138810,128,0,138960:0:0:0:0:
475,192,138810,128,0,138960:0:0:0:0:
182,192,138885,1,0,0:0:0:0:
36,192,138885,1,0,0:0:0:0:
256,192,138885,128,0,138960:0:0:0:0:
402,192,138885,128,0,138960:0:0:0:0:
182,192,138960,128,0,139110:0:0:0:0:
36,192,138960,128,0,139110:0:0:0:0:
256,192,139035,1,0,0:0:0:0:
329,192,139035,1,0,0:0:0:0:
475,192,139035,128,0,139110:0:0:0:0:
256,192,139110,128,0,139260:0:0:0:0:
329,192,139110,128,0,139185:0:0:0:0:
36,192,139185,1,0,0:0:0:0:
402,192,139185,128,0,139260:0:0:0:0:
182,192,139185,128,0,139235:0:0:0:0:
329,192,139260,128,0,139335:0:0:0:0:
475,192,139260,128,0,139310:0:0:0:0:
109,192,139335,1,0,0:0:0:0:
256,192,139335,1,0,0:0:0:0:
36,192,139335,128,0,139410:0:0:0:0:
109,192,139410,128,0,139485:0:0:0:0:
256,192,139410,128,0,139560:0:0:0:0:
475,192,139485,1,0,0:0:0:0:
182,192,139485,128,0,139560:0:0:0:0:
402,192,139485,128,0,139535:0:0:0:0:
109,192,139560,128,0,139635:0:0:0:0:
329,192,139560,128,0,139610:0:0:0:0:
256,192,139635,1,0,0:0:0:0:
402,192,139635,1,0,0:0:0:0:
36,192,139635,128,0,139710:0:0:0:0:
475,192,139635,128,0,139685:0:0:0:0:
256,192,139710,128,0,139860:0:0:0:0:
402,192,139710,128,0,139785:0:0:0:0:
36,192,139785,1,0,0:0:0:0:
329,192,139785,128,0,139860:0:0:0:0:
182,192,139785,128,0,139835:0:0:0:0:
402,192,139860,128,0,139935:0:0:0:0:
475,192,139860,128,0,139910:0:0:0:0:
36,192,139935,1,0,0:0:0:0:
256,192,139935,1,0,0:0:0:0:
329,192,139935,128,0,140010:0:0:0:0:
109,192,139935,128,0,139985:0:0:0:0:
256,192,140010,128,0,140085:0:0:0:0:
36,192,140010,128,0,140160:0:0:0:0:
475,192,140085,1,0,0:0:0:0:
182,192,140085,128,0,140160:0:0:0:0:
402,192,140085,128,0,140135:0:0:0:0:
109,192,140160,128,0,140235:0:0:0:0:
256,192,140160,128,0,140210:0:0:0:0:
182,192,140235,1,0,0:0:0:0:
475,192,140235,1,0,0:0:0:0:
36,192,140235,128,0,140310:0:0:0:0:
329,192,140235,128,0,140285:0:0:0:0:
182,192,140310,128,0,140385:0:0:0:0:
475,192,140310,128,0,140460:0:0:0:0:
36,192,140385,1,0,0:0:0:0:
256,192,140385,128,0,140460:0:0:0:0:
402,192,140385,128,0,140435:0:0:0:0:
182,192,140460,128,0,140535:0:0:0:0:
109,192,140460,128,0,140510:0:0:0:0:
329,192,140535,1,0,0:0:0:0:
36,192,140535,1,0,0:0:0:0:
256,192,140535,128,0,140610:0:0:0:0:
475,192,140535,128,0,140585:0:0:0:0:
329,192,140610,128,0,140760:0:0:0:0:
36,192,140610,128,0,140760:0:0:0:0:
475,192,140685,1,0,0:0:0:0:
182,192,140685,128,0,140760:0:0:0:0:
402,192,140685,128,0,140735:0:0:0:0:
256,192,140760,128,0,140835:0:0:0:0:
109,192,140760,128,0,140810:0:0:0:0:
329,192,140835,1,0,0:0:0:0:
475,192,140835,1,0,0:0:0:0:
182,192,140835,128,0,140910:0:0:0:0:
36,192,140835,128,0,140885:0:0:0:0:
329,192,140910,128,0,140985:0:0:0:0:
475,192,140910,128,0,141060:0:0:0:0:
36,192,140985,1,0,0:0:0:0:
109,192,140985,128,0,141060:0:0:0:0:
256,192,140985,128,0,141035:0:0:0:0:
182,192,141060,128,0,141135:0:0:0:0:
329,192,141060,128,0,141110:0:0:0:0:
256,192,141135,1,0,0:0:0:0:
402,192,141135,1,0,0:0:0:0:
109,192,141135,128,0,141210:0:0:0:0:
475,192,141135,128,0,141185:0:0:0:0:
256,192,141210,128,0,141360:0:0:0:0:
402,192,141210,128,0,141285:0:0:0:0:
109,192,141285,1,0,0:0:0:0:
182,192,141285,128,0,141360:0:0:0:0:
36,192,141285,128,0,141335:0:0:0:0:
329,192,141360,128,0,141435:0:0:0:0:
475,192,141360,128,0,141410:0:0:0:0:
36,192,141435,1,0,0:0:0:0:
109,192,141435,1,0,0:0:0:0:
402,192,141435,128,0,141510:0:0:0:0:
256,192,141435,128,0,141485:0:0:0:0:
36,192,141510,128,0,141660:0:0:0:0:
109,192,141510,128,0,141585:0:0:0:0:
475,192,141585,1,0,0:0:0:0:
256,192,141585,128,0,141660:0:0:0:0:
329,192,141585,128,0,141635:0:0:0:0:
182,192,141660,128,0,141735:0:0:0:0:
109,192,141660,128,0,141710:0:0:0:0:
36,192,141735,1,0,0:0:0:0:
329,192,141735,1,0,0:0:0:0:
402,192,141735,128,0,141810:0:0:0:0:
475,192,141735,128,0,141785:0:0:0:0:
36,192,141810,128,0,141960:0:0:0:0:
329,192,141810,128,0,141960:0:0:0:0:
109,192,141885,1,0,0:0:0:0:
182,192,141885,128,0,141960:0:0:0:0:
475,192,141885,128,0,141935:0:0:0:0:
256,192,141960,128,0,142035:0:0:0:0:
402,192,141960,128,0,142010:0:0:0:0:
109,192,142035,1,0,0:0:0:0:
329,192,142035,1,0,0:0:0:0:
475,192,142035,128,0,142110:0:0:0:0:
36,192,142035,128,0,142085:0:0:0:0:
329,192,142110,128,0,142260:0:0:0:0:
109,192,142110,128,0,142260:0:0:0:0:
36,192,142185,1,0,0:0:0:0:
256,192,142185,128,0,142260:0:0:0:0:
475,192,142185,128,0,142235:0:0:0:0:
182,192,142260,128,0,142335:0:0:0:0:
402,192,142260,128,0,142310:0:0:0:0:
329,192,142335,1,0,0:0:0:0:
475,192,142335,1,0,0:0:0:0:
109,192,142335,128,0,142410:0:0:0:0:
36,192,142335,128,0,142385:0:0:0:0:
329,192,142410,128,0,142485:0:0:0:0:
475,192,142410,128,0,142560:0:0:0:0:
182,192,142485,1,0,0:0:0:0:
36,192,142485,128,0,142560:0:0:0:0:
256,192,142485,128,0,142535:0:0:0:0:
109,192,142560,128,0,142635:0:0:0:0:
329,192,142560,128,0,142610:0:0:0:0:
182,192,142635,1,0,0:0:0:0:
36,192,142635,1,0,0:0:0:0:
402,192,142635,128,0,142710:0:0:0:0:
475,192,142635,128,0,142685:0:0:0:0:
182,192,142710,128,0,142785:0:0:0:0:
36,192,142710,128,0,142860:0:0:0:0:
475,192,142785,1,0,0:0:0:0:
402,192,142785,128,0,142860:0:0:0:0:
256,192,142785,128,0,142835:0:0:0:0:
329,192,142860,128,0,142935:0:0:0:0:
182,192,142860,128,0,142910:0:0:0:0:
256,192,142935,1,0,0:0:0:0:
475,192,142935,1,0,0:0:0:0:
109,192,142935,128,0,143010:0:0:0:0:
36,192,142935,128,0,142985:0:0:0:0:
256,192,143010,128,0,143085:0:0:0:0:
475,192,143010,128,0,143160:0:0:0:0:
402,192,143085,1,0,0:0:0:0:
182,192,143085,128,0,143160:0:0:0:0:
329,192,143085,128,0,143135:0:0:0:0:
109,192,143160,128,0,143235:0:0:0:0:
256,192,143160,128,0,143210:0:0:0:0:
182,192,143235,1,0,0:0:0:0:
402,192,143235,1,0,0:0:0:0:
36,192,143235,128,0,143310:0:0:0:0:
475,192,143235,128,0,143285:0:0:0:0:
402,192,143310,128,0,143460:0:0:0:0:
182,192,143310,128,0,143460:0:0:0:0:
36,192,143385,1,0,0:0:0:0:
329,192,143385,128,0,143460:0:0:0:0:
109,192,143385,128,0,143435:0:0:0:0:
475,192,143460,128,0,143535:0:0:0:0:
256,192,143460,128,0,143510:0:0:0:0:
182,192,143535,1,0,0:0:0:0:
329,192,143535,1,0,0:0:0:0:
402,192,143535,128,0,143610:0:0:0:0:
36,192,143535,128,0,143585:0:0:0:0:
182,192,143610,128,0,143760:0:0:0:0:
329,192,143610,128,0,143760:0:0:0:0:
402,192,143685,1,0,0:0:0:0:
256,192,143685,128,0,143760:0:0:0:0:
475,192,143685,128,0,143735:0:0:0:0:
109,192,143685,1,0,0:0:0:0:
109,192,143760,128,0,143835:0:0:0:0:
36,192,143760,128,0,143810:0:0:0:0:
402,192,143835,1,0,0:0:0:0:
475,192,143835,1,0,0:0:0:0:
256,192,143835,128,0,143910:0:0:0:0:
182,192,143835,128,0,143885:0:0:0:0:
475,192,143910,128,0,144060:0:0:0:0:
402,192,143910,128,0,143985:0:0:0:0:
182,192,143985,1,0,0:0:0:0:
329,192,143985,128,0,144060:0:0:0:0:
109,192,143985,128,0,144035:0:0:0:0:
402,192,144060,128,0,144135:0:0:0:0:
256,192,144060,128,0,144110:0:0:0:0:
109,192,144135,1,0,0:0:0:0:
36,192,144135,1,0,0:0:0:0:
475,192,144135,128,0,144210:0:0:0:0:
329,192,144135,128,0,144185:0:0:0:0:
36,192,144210,128,0,144360:0:0:0:0:
109,192,144210,128,0,144285:0:0:0:0:
256,192,144285,1,0,0:0:0:0:
182,192,144285,128,0,144360:0:0:0:0:
402,192,144285,128,0,144335:0:0:0:0:
109,192,144360,128,0,144435:0:0:0:0:
329,192,144360,128,0,144410:0:0:0:0:
182,192,144435,1,0,0:0:0:0:
402,192,144435,1,0,0:0:0:0:
36,192,144435,128,0,144510:0:0:0:0:
475,192,144435,128,0,144485:0:0:0:0:
402,192,144510,128,0,144585:0:0:0:0:
182,192,144510,128,0,144585:0:0:0:0:
256,192,144585,1,0,0:0:0:0:
329,192,144585,128,0,144660:0:0:0:0:
109,192,144585,128,0,144635:0:0:0:0:
402,192,144660,128,0,144735:0:0:0:0:
182,192,144660,128,0,144710:0:0:0:0:
256,192,144735,1,0,0:0:0:0:
475,192,144735,1,0,0:0:0:0:
109,192,144735,128,0,144810:0:0:0:0:
36,192,144735,128,0,144785:0:0:0:0:
256,192,144810,128,0,144960:0:0:0:0:
475,192,144810,128,0,144960:0:0:0:0:
182,192,144885,1,0,0:0:0:0:
36,192,144885,128,0,144960:0:0:0:0:
402,192,144885,128,0,144935:0:0:0:0:
109,192,144960,128,0,145035:0:0:0:0:
329,192,144960,128,0,145010:0:0:0:0:
256,192,145035,1,0,0:0:0:0:
182,192,145035,1,0,0:0:0:0:
402,192,145035,128,0,145110:0:0:0:0:
475,192,145035,128,0,145085:0:0:0:0:
256,192,145110,128,0,145260:0:0:0:0:
182,192,145110,128,0,145185:0:0:0:0:
36,192,145185,1,0,0:0:0:0:
329,192,145185,128,0,145260:0:0:0:0:
109,192,145185,128,0,145235:0:0:0:0:
402,192,145260,128,0,145335:0:0:0:0:
182,192,145260,128,0,145310:0:0:0:0:
36,192,145335,1,0,0:0:0:0:
109,192,145335,1,0,0:0:0:0:
475,192,145335,128,0,145410:0:0:0:0:
256,192,145335,128,0,145385:0:0:0:0:
36,192,145410,128,0,145560:0:0:0:0:
109,192,145410,128,0,145485:0:0:0:0:
402,192,145485,1,0,0:0:0:0:
329,192,145485,128,0,145560:0:0:0:0:
182,192,145485,128,0,145535:0:0:0:0:
256,192,145560,128,0,145635:0:0:0:0:
109,192,145560,128,0,145610:0:0:0:0:
402,192,145635,1,0,0:0:0:0:
475,192,145635,1,0,0:0:0:0:
182,192,145635,128,0,145785:0:0:0:0:
36,192,145635,128,0,145685:0:0:0:0:
402,192,145710,128,0,145785:0:0:0:0:
475,192,145710,128,0,145860:0:0:0:0:
256,192,145785,1,0,0:0:0:0:
329,192,145785,128,0,145860:0:0:0:0:
109,192,145785,128,0,145835:0:0:0:0:
402,192,145860,128,0,145935:0:0:0:0:
182,192,145860,128,0,145910:0:0:0:0:
256,192,145935,1,0,0:0:0:0:
36,192,145935,1,0,0:0:0:0:
475,192,145935,128,0,146085:0:0:0:0:
109,192,145935,128,0,145985:0:0:0:0:
256,192,146010,128,0,146085:0:0:0:0:
36,192,146010,128,0,146160:0:0:0:0:
329,192,146085,1,0,0:0:0:0:
182,192,146085,128,0,146160:0:0:0:0:
402,192,146085,128,0,146135:0:0:0:0:
256,192,146160,128,0,146235:0:0:0:0:
109,192,146160,128,0,146210:0:0:0:0:
329,192,146235,1,0,0:0:0:0:
475,192,146235,1,0,0:0:0:0:
36,192,146235,128,0,146385:0:0:0:0:
182,192,146235,128,0,146285:0:0:0:0:
329,192,146310,128,0,146385:0:0:0:0:
475,192,146310,128,0,146460:0:0:0:0:
402,192,146385,1,0,0:0:0:0:
109,192,146385,128,0,146460:0:0:0:0:
256,192,146385,128,0,146435:0:0:0:0:
182,192,146460,128,0,146535:0:0:0:0:
329,192,146460,128,0,146510:0:0:0:0:
109,192,146535,1,0,0:0:0:0:
36,192,146535,1,0,0:0:0:0:
256,192,146535,128,0,146685:0:0:0:0:
475,192,146535,128,0,146585:0:0:0:0:
36,192,146610,128,0,146685:0:0:0:0:
109,192,146610,128,0,146685:0:0:0:0:
402,192,146685,1,0,0:0:0:0:
182,192,146685,128,0,146760:0:0:0:0:
329,192,146685,128,0,146735:0:0:0:0:
109,192,146760,128,0,146835:0:0:0:0:
36,192,146760,128,0,146810:0:0:0:0:
256,192,146835,1,0,0:0:0:0:
402,192,146835,1,0,0:0:0:0:
475,192,146835,128,0,146985:0:0:0:0:
182,192,146835,128,0,146885:0:0:0:0:
256,192,146910,128,0,147060:0:0:0:0:
402,192,146910,128,0,146985:0:0:0:0:
36,192,146985,1,0,0:0:0:0:
329,192,146985,128,0,147060:0:0:0:0:
182,192,146985,128,0,147035:0:0:0:0:
402,192,147060,128,0,147135:0:0:0:0:
109,192,147060,128,0,147110:0:0:0:0:
256,192,147135,1,0,0:0:0:0:
36,192,147135,1,0,0:0:0:0:
475,192,147135,128,0,147285:0:0:0:0:
329,192,147135,128,0,147185:0:0:0:0:
256,192,147210,128,0,147285:0:0:0:0:
36,192,147210,128,0,147360:0:0:0:0:
109,192,147285,1,0,0:0:0:0:
402,192,147285,128,0,147360:0:0:0:0:
182,192,147285,128,0,147335:0:0:0:0:
329,192,147360,128,0,147435:0:0:0:0:
256,192,147360,128,0,147410:0:0:0:0:
475,192,147435,1,0,0:0:0:0:
182,192,147435,1,0,0:0:0:0:
109,192,147435,128,0,147585:0:0:0:0:
36,192,147435,128,0,147485:0:0:0:0:
182,192,147510,128,0,147660:0:0:0:0:
475,192,147510,128,0,147660:0:0:0:0:
256,192,147585,1,0,0:0:0:0:
329,192,147585,128,0,147660:0:0:0:0:
36,192,147585,128,0,147635:0:0:0:0:
402,192,147660,128,0,147735:0:0:0:0:
109,192,147660,128,0,147710:0:0:0:0:
182,192,147735,1,0,0:0:0:0:
36,192,147735,1,0,0:0:0:0:
475,192,147735,128,0,147885:0:0:0:0:
256,192,147735,128,0,147785:0:0:0:0:
182,192,147810,128,0,147885:0:0:0:0:
36,192,147810,128,0,147960:0:0:0:0:
109,192,147885,1,0,0:0:0:0:
329,192,147885,128,0,147960:0:0:0:0:
402,192,147885,128,0,147935:0:0:0:0:
182,192,147960,128,0,148035:0:0:0:0:
256,192,147960,128,0,148010:0:0:0:0:
402,192,148035,1,0,0:0:0:0:
475,192,148035,1,0,0:0:0:0:
109,192,148035,128,0,148185:0:0:0:0:
36,192,148035,128,0,148085:0:0:0:0:
402,192,148110,128,0,148260:0:0:0:0:
475,192,148110,128,0,148260:0:0:0:0:
182,192,148185,1,0,0:0:0:0:
36,192,148185,128,0,148260:0:0:0:0:
329,192,148185,128,0,148235:0:0:0:0:
109,192,148260,128,0,148335:0:0:0:0:
256,192,148260,128,0,148310:0:0:0:0:
329,192,148335,1,0,0:0:0:0:
402,192,148335,1,0,0:0:0:0:
475,192,148335,128,0,148485:0:0:0:0:
182,192,148335,128,0,148385:0:0:0:0:
329,192,148410,128,0,148560:0:0:0:0:
402,192,148410,128,0,148560:0:0:0:0:
109,192,148485,1,0,0:0:0:0:
36,192,148485,1,0,0:0:0:0:
182,192,148485,1,0,0:0:0:0:
256,192,148485,1,0,0:0:0:0:
182,192,148560,1,0,0:0:0:0:
109,192,148560,1,0,0:0:0:0:
36,192,148635,128,0,148710:0:0:0:0:
256,192,148635,128,0,148728:0:0:0:0:
402,192,148635,128,0,148710:0:0:0:0:
329,192,148635,128,0,148691:0:0:0:0:
475,192,148635,128,0,148691:0:0:0:0:
109,192,148710,128,0,148860:0:0:0:0:
182,192,148710,128,0,148785:0:0:0:0:
36,192,148785,128,0,148841:0:0:0:0:
256,192,148785,128,0,148935:0:0:0:0:
329,192,148785,128,0,148878:0:0:0:0:
402,192,148785,128,0,148841:0:0:0:0:
475,192,148785,128,0,148860:0:0:0:0:
182,192,148860,128,0,148935:0:0:0:0:
36,192,148935,128,0,148991:0:0:0:0:
109,192,148935,128,0,149010:0:0:0:0:
329,192,148935,128,0,149028:0:0:0:0:
402,192,148935,128,0,148991:0:0:0:0:
475,192,148935,128,0,149010:0:0:0:0:
182,192,149010,128,0,149160:0:0:0:0:
256,192,149010,128,0,149085:0:0:0:0:
109,192,149085,128,0,149141:0:0:0:0:
36,192,149085,128,0,149160:0:0:0:0:
329,192,149085,128,0,149235:0:0:0:0:
402,192,149085,128,0,149178:0:0:0:0:
475,192,149085,128,0,149141:0:0:0:0:
256,192,149160,128,0,149235:0:0:0:0:
36,192,149235,128,0,149291:0:0:0:0:
109,192,149235,128,0,149310:0:0:0:0:
182,192,149235,128,0,149291:0:0:0:0:
402,192,149235,128,0,149328:0:0:0:0:
475,192,149235,128,0,149310:0:0:0:0:
256,192,149310,128,0,149460:0:0:0:0:
329,192,149310,128,0,149385:0:0:0:0:
402,192,149385,128,0,149535:0:0:0:0:
475,192,149385,128,0,149441:0:0:0:0:
36,192,149385,128,0,149460:0:0:0:0:
109,192,149385,128,0,149478:0:0:0:0:
182,192,149385,128,0,149441:0:0:0:0:
329,192,149460,128,0,149535:0:0:0:0:
36,192,149535,128,0,149591:0:0:0:0:
109,192,149535,128,0,149610:0:0:0:0:
182,192,149535,128,0,149591:0:0:0:0:
256,192,149535,128,0,149628:0:0:0:0:
475,192,149535,128,0,149610:0:0:0:0:
329,192,149610,128,0,149685:0:0:0:0:
402,192,149610,128,0,149685:0:0:0:0:
475,192,149685,1,0,0:0:0:0:
256,192,149685,1,0,0:0:0:0:
182,192,149685,1,0,0:0:0:0:
109,192,149685,1,0,0:0:0:0:
36,192,149685,1,0,0:0:0:0:
36,192,149760,1,0,0:0:0:0:
109,192,149760,1,0,0:0:0:0:
182,192,149760,1,0,0:0:0:0:
475,192,149760,1,0,0:0:0:0:
256,192,149760,1,0,0:0:0:0:
36,192,149835,128,0,149891:0:0:0:0:
109,192,149835,128,0,149910:0:0:0:0:
182,192,149835,128,0,149891:0:0:0:0:
256,192,149835,128,0,149928:0:0:0:0:
475,192,149835,128,0,149910:0:0:0:0:
329,192,149910,128,0,149985:0:0:0:0:
402,192,149910,128,0,150060:0:0:0:0:
475,192,149985,128,0,150078:0:0:0:0:
256,192,149985,128,0,150135:0:0:0:0:
182,192,149985,128,0,150041:0:0:0:0:
109,192,149985,128,0,150041:0:0:0:0:
36,192,149985,128,0,150060:0:0:0:0:
329,192,150060,128,0,150135:0:0:0:0:
402,192,150135,128,0,150228:0:0:0:0:
475,192,150135,128,0,150210:0:0:0:0:
36,192,150135,128,0,150191:0:0:0:0:
109,192,150135,128,0,150191:0:0:0:0:
182,192,150135,128,0,150210:0:0:0:0:
256,192,150210,128,0,150285:0:0:0:0:
329,192,150210,128,0,150360:0:0:0:0:
402,192,150285,128,0,150378:0:0:0:0:
475,192,150285,128,0,150341:0:0:0:0:
182,192,150285,128,0,150435:0:0:0:0:
109,192,150285,128,0,150341:0:0:0:0:
36,192,150285,128,0,150360:0:0:0:0:
256,192,150360,128,0,150435:0:0:0:0:
36,192,150435,128,0,150491:0:0:0:0:
109,192,150435,128,0,150510:0:0:0:0:
329,192,150435,128,0,150510:0:0:0:0:
402,192,150435,128,0,150491:0:0:0:0:
475,192,150435,128,0,150528:0:0:0:0:
182,192,150510,128,0,150585:0:0:0:0:
256,192,150510,128,0,150660:0:0:0:0:
329,192,150585,128,0,150641:0:0:0:0:
402,192,150585,128,0,150660:0:0:0:0:
475,192,150585,128,0,150641:0:0:0:0:
109,192,150585,128,0,150735:0:0:0:0:
36,192,150585,128,0,150678:0:0:0:0:
182,192,150660,128,0,150735:0:0:0:0:
256,192,150735,128,0,150810:0:0:0:0:
329,192,150735,128,0,150791:0:0:0:0:
402,192,150735,128,0,150791:0:0:0:0:
475,192,150735,128,0,150828:0:0:0:0:
36,192,150735,128,0,150810:0:0:0:0:
182,192,150810,128,0,150885:0:0:0:0:
109,192,150810,128,0,150847:0:0:0:0:
329,192,150885,128,0,150941:0:0:0:0:
402,192,150885,128,0,151035:0:0:0:0:
475,192,150885,128,0,150978:0:0:0:0:
36,192,150885,128,0,150960:0:0:0:0:
256,192,150885,128,0,150922:0:0:0:0:
109,192,150922,128,0,150997:0:0:0:0:
182,192,150960,128,0,151035:0:0:0:0:
256,192,150997,128,0,151035:0:0:0:0:
329,192,151035,128,0,151128:0:0:0:0:
36,192,151035,128,0,151185:0:0:0:0:
475,192,151035,128,0,151091:0:0:0:0:
109,192,151110,128,0,151166:0:0:0:0:
402,192,151110,128,0,151260:0:0:0:0:
256,192,151110,128,0,151203:0:0:0:0:
329,192,151185,128,0,151241:0:0:0:0:
475,192,151185,128,0,151260:0:0:0:0:
182,192,151185,128,0,151278:0:0:0:0:
36,192,151260,128,0,151335:0:0:0:0:
109,192,151260,128,0,151335:0:0:0:0:
256,192,151260,128,0,151335:0:0:0:0:
182,192,151335,128,0,151391:0:0:0:0:
329,192,151335,128,0,151410:0:0:0:0:
402,192,151335,128,0,151485:0:0:0:0:
475,192,151335,128,0,151428:0:0:0:0:
36,192,151410,128,0,151485:0:0:0:0:
109,192,151410,128,0,151560:0:0:0:0:
256,192,151410,128,0,151485:0:0:0:0:
182,192,151485,128,0,151541:0:0:0:0:
329,192,151485,128,0,151578:0:0:0:0:
475,192,151485,128,0,151560:0:0:0:0:
402,192,151560,128,0,151635:0:0:0:0:
256,192,151560,128,0,151635:0:0:0:0:
36,192,151560,128,0,151635:0:0:0:0:
109,192,151635,128,0,151785:0:0:0:0:
182,192,151635,128,0,151728:0:0:0:0:
329,192,151635,128,0,151710:0:0:0:0:
475,192,151635,128,0,151691:0:0:0:0:
36,192,151710,128,0,151766:0:0:0:0:
256,192,151710,128,0,151785:0:0:0:0:
402,192,151710,128,0,151860:0:0:0:0:
182,192,151785,128,0,151841:0:0:0:0:
329,192,151785,128,0,151878:0:0:0:0:
475,192,151785,128,0,151860:0:0:0:0:
256,192,151860,128,0,151935:0:0:0:0:
109,192,151860,128,0,151916:0:0:0:0:
36,192,151860,128,0,151953:0:0:0:0:
182,192,151935,128,0,152010:0:0:0:0:
329,192,151935,128,0,152028:0:0:0:0:
402,192,151935,128,0,151991:0:0:0:0:
475,192,151935,128,0,152085:0:0:0:0:
36,192,152010,128,0,152066:0:0:0:0:
256,192,152010,128,0,152085:0:0:0:0:
109,192,152010,128,0,152160:0:0:0:0:
182,192,152085,128,0,152141:0:0:0:0:
329,192,152085,128,0,152178:0:0:0:0:
402,192,152085,128,0,152160:0:0:0:0:
475,192,152160,128,0,152253:0:0:0:0:
36,192,152160,128,0,152460:0:0:0:0:
256,192,152160,128,0,152216:0:0:0:0:
182,192,152235,1,0,0:0:0:0:
329,192,152235,1,0,0:0:0:0:
402,192,152235,1,0,0:0:0:0:
109,192,152235,128,0,152460:0:0:0:0:
256,192,152310,1,0,0:0:0:0:
182,192,152310,128,0,152460:0:0:0:0:
256,192,152385,128,0,152460:0:0:0:0:
329,192,152385,128,0,152535:0:0:0:0:
402,192,152460,128,0,152535:0:0:0:0:
36,192,152535,1,0,0:0:0:0:
256,192,152535,1,0,0:0:0:0:
475,192,152535,1,0,0:0:0:0:
182,192,152535,128,0,152610:0:0:0:0:
109,192,152610,1,0,0:0:0:0:
329,192,152610,1,0,0:0:0:0:
256,192,152610,128,0,152760:0:0:0:0:
182,192,152685,1,0,0:0:0:0:
402,192,152685,1,0,0:0:0:0:
329,192,152685,128,0,152760:0:0:0:0:
36,192,152722,1,0,0:0:0:0:
475,192,152760,1,0,0:0:0:0:
109,192,152760,1,0,0:0:0:0:
402,192,152760,128,0,152835:0:0:0:0:
182,192,152797,1,0,0:0:0:0:
256,192,152835,1,0,0:0:0:0:
329,192,152835,1,0,0:0:0:0:
36,192,152835,1,0,0:0:0:0:
475,192,152835,1,0,0:0:0:0:
109,192,152910,1,0,0:0:0:0:
182,192,152910,1,0,0:0:0:0:
402,192,152910,1,0,0:0:0:0:
329,192,152985,1,0,0:0:0:0:
256,192,152985,1,0,0:0:0:0:
36,192,152985,1,0,0:0:0:0:
475,192,152985,1,0,0:0:0:0:
402,192,153060,1,0,0:0:0:0:
182,192,153060,1,0,0:0:0:0:
329,192,153060,1,0,0:0:0:0:
36,192,153135,1,0,0:0:0:0:
109,192,153135,1,0,0:0:0:0:
256,192,153135,1,0,0:0:0:0:
475,192,153135,1,0,0:0:0:0:
402,192,153172,1,0,0:0:0:0:
329,192,153210,1,0,0:0:0:0:
182,192,153210,1,0,0:0:0:0:
109,192,153247,1,0,0:0:0:0:
36,192,153285,1,0,0:0:0:0:
256,192,153285,1,0,0:0:0:0:
475,192,153285,1,0,0:0:0:0:
402,192,153285,1,0,0:0:0:0:
109,192,153360,1,0,0:0:0:0:
182,192,153360,1,0,0:0:0:0:
329,192,153360,1,0,0:0:0:0:
36,192,153435,128,0,153960:0:0:0:0:
402,192,153435,128,0,153566:0:0:0:0:
475,192,153435,128,0,153603:0:0:0:0:
256,192,153435,128,0,153528:0:0:0:0:
182,192,153510,128,0,153585:0:0:0:0:
329,192,153510,128,0,153641:0:0:0:0:
109,192,153585,128,0,153641:0:0:0:0:
256,192,153585,128,0,153678:0:0:0:0:
402,192,153660,128,0,153735:0:0:0:0:
475,192,153660,128,0,153791:0:0:0:0:
329,192,153735,128,0,153903:0:0:0:0:
182,192,153735,128,0,153828:0:0:0:0:
109,192,153735,128,0,153791:0:0:0:0:
256,192,153810,128,0,153941:0:0:0:0:
402,192,153810,128,0,153866:0:0:0:0:
182,192,153885,128,0,153960:0:0:0:0:
109,192,153885,128,0,153978:0:0:0:0:
402,192,153960,128,0,154053:0:0:0:0:
475,192,153960,128,0,154091:0:0:0:0:
329,192,154035,128,0,155141:0:0:0:0:
182,192,154035,128,0,154166:0:0:0:0:
36,192,154035,128,0,154128:0:0:0:0:
256,192,154035,128,0,154091:0:0:0:0:
109,192,154110,128,0,154241:0:0:0:0:
402,192,154110,128,0,154203:0:0:0:0:
256,192,154185,128,0,154335:0:0:0:0:
36,192,154185,128,0,154278:0:0:0:0:
182,192,154260,128,0,154353:0:0:0:0:
475,192,154260,128,0,154353:0:0:0:0:
402,192,154335,128,0,154503:0:0:0:0:
109,192,154335,128,0,154466:0:0:0:0:
36,192,154335,128,0,154428:0:0:0:0:
182,192,154410,128,0,154541:0:0:0:0:
256,192,154410,128,0,154503:0:0:0:0:
475,192,154485,128,0,154578:0:0:0:0:
36,192,154485,128,0,154653:0:0:0:0:
109,192,154560,128,0,154616:0:0:0:0:
256,192,154560,128,0,154653:0:0:0:0:
402,192,154635,128,0,154766:0:0:0:0:
182,192,154635,128,0,154766:0:0:0:0:
475,192,154635,128,0,154691:0:0:0:0:
256,192,154710,128,0,154878:0:0:0:0:
36,192,154710,128,0,154803:0:0:0:0:
109,192,154785,128,0,154953:0:0:0:0:
475,192,154785,128,0,154860:0:0:0:0:
182,192,154860,128,0,154916:0:0:0:0:
402,192,154860,128,0,154916:0:0:0:0:
36,192,154935,128,0,155103:0:0:0:0:
475,192,154935,128,0,155066:0:0:0:0:
256,192,154935,128,0,154991:0:0:0:0:
182,192,155010,128,0,155066:0:0:0:0:
402,192,155010,128,0,155103:0:0:0:0:
109,192,155085,128,0,155216:0:0:0:0:
256,192,155085,128,0,155178:0:0:0:0:
182,192,155160,128,0,155253:0:0:0:0:
402,192,155160,128,0,155291:0:0:0:0:
475,192,155235,128,0,155422:0:0:0:0:
36,192,155235,128,0,155403:0:0:0:0:
329,192,155235,128,0,155328:0:0:0:0:
256,192,155235,128,0,155291:0:0:0:0:
182,192,155310,128,0,155366:0:0:0:0:
109,192,155310,128,0,155478:0:0:0:0:
256,192,155385,128,0,155460:0:0:0:0:
329,192,155385,128,0,155516:0:0:0:0:
402,192,155441,128,0,155647:0:0:0:0:
182,192,155460,128,0,155553:0:0:0:0:
36,192,155460,128,0,155516:0:0:0:0:
256,192,155535,128,0,155703:0:0:0:0:
109,192,155535,128,0,155591:0:0:0:0:
475,192,155535,128,0,155591:0:0:0:0:
329,192,155610,128,0,155816:0:0:0:0:
36,192,155610,128,0,155741:0:0:0:0:
182,192,155610,128,0,155666:0:0:0:0:
109,192,155685,128,0,155778:0:0:0:0:
475,192,155685,128,0,155741:0:0:0:0:
256,192,155760,128,0,155891:0:0:0:0:
182,192,155760,128,0,155853:0:0:0:0:
402,192,155835,128,0,156322:0:0:0:0:
109,192,155835,128,0,155966:0:0:0:0:
475,192,155835,128,0,156003:0:0:0:0:
36,192,155835,128,0,155928:0:0:0:0:
182,192,155910,128,0,156041:0:0:0:0:
329,192,155910,128,0,155966:0:0:0:0:
256,192,155985,128,0,156060:0:0:0:0:
36,192,155985,128,0,156041:0:0:0:0:
109,192,156060,128,0,156191:0:0:0:0:
329,192,156060,128,0,156116:0:0:0:0:
475,192,156135,128,0,156303:0:0:0:0:
256,192,156135,128,0,156303:0:0:0:0:
36,192,156135,128,0,156228:0:0:0:0:
182,192,156210,128,0,156341:0:0:0:0:
329,192,156210,128,0,156266:0:0:0:0:
36,192,156285,128,0,156341:0:0:0:0:
109,192,156285,128,0,156416:0:0:0:0:
256,192,156360,128,0,156416:0:0:0:0:
329,192,156360,128,0,156453:0:0:0:0:
182,192,156435,128,0,157560:0:0:0:0:
36,192,156435,128,0,156566:0:0:0:0:
402,192,156435,128,0,156566:0:0:0:0:
475,192,156435,128,0,156491:0:0:0:0:
329,192,156510,128,0,156641:0:0:0:0:
109,192,156510,128,0,156603:0:0:0:0:
256,192,156585,128,0,156678:0:0:0:0:
475,192,156585,128,0,156641:0:0:0:0:
109,192,156660,128,0,156753:0:0:0:0:
402,192,156660,128,0,156828:0:0:0:0:
36,192,156735,128,0,156903:0:0:0:0:
329,192,156735,128,0,156791:0:0:0:0:
475,192,156735,128,0,156828:0:0:0:0:
256,192,156810,128,0,156922:0:0:0:0:
109,192,156810,128,0,156866:0:0:0:0:
329,192,156885,128,0,156941:0:0:0:0:
475,192,156885,128,0,156978:0:0:0:0:
36,192,156960,128,0,157091:0:0:0:0:
402,192,156960,128,0,157016:0:0:0:0:
256,192,157035,128,0,157166:0:0:0:0:
109,192,157035,128,0,157110:0:0:0:0:
475,192,157035,128,0,157110:0:0:0:0:
329,192,157110,128,0,157241:0:0:0:0:
402,192,157110,128,0,157203:0:0:0:0:
475,192,157185,128,0,157278:0:0:0:0:
109,192,157185,128,0,157278:0:0:0:0:
36,192,157185,128,0,157260:0:0:0:0:
256,192,157260,128,0,157391:0:0:0:0:
402,192,157260,128,0,157353:0:0:0:0:
36,192,157335,128,0,157503:0:0:0:0:
329,192,157335,128,0,157503:0:0:0:0:
475,192,157335,128,0,157391:0:0:0:0:
109,192,157410,128,0,157466:0:0:0:0:
402,192,157410,128,0,157541:0:0:0:0:
475,192,157485,128,0,157560:0:0:0:0:
256,192,157485,128,0,157578:0:0:0:0:
329,192,157560,128,0,157653:0:0:0:0:
109,192,157560,128,0,157728:0:0:0:0:
36,192,157635,128,0,158160:0:0:0:0:
182,192,157635,128,0,157766:0:0:0:0:
402,192,157635,128,0,157728:0:0:0:0:
475,192,157635,128,0,157691:0:0:0:0:
329,192,157710,128,0,157841:0:0:0:0:
256,192,157710,128,0,157785:0:0:0:0:
402,192,157785,128,0,157878:0:0:0:0:
475,192,157785,128,0,157860:0:0:0:0:
182,192,157860,128,0,157916:0:0:0:0:
256,192,157860,128,0,157953:0:0:0:0:
329,192,157935,128,0,158122:0:0:0:0:
109,192,157935,128,0,158066:0:0:0:0:
475,192,157935,128,0,158028:0:0:0:0:
182,192,158010,128,0,158103:0:0:0:0:
256,192,158085,128,0,158178:0:0:0:0:
402,192,158085,128,0,158253:0:0:0:0:
475,192,158085,128,0,158141:0:0:0:0:
109,192,158160,128,0,158253:0:0:0:0:
182,192,158160,128,0,158216:0:0:0:0:
36,192,158235,128,0,158835:0:0:0:0:
256,192,158235,128,0,158366:0:0:0:0:
475,192,158235,128,0,158403:0:0:0:0:
329,192,158235,128,0,158291:0:0:0:0:
182,192,158310,128,0,158441:0:0:0:0:
109,192,158310,128,0,158403:0:0:0:0:
402,192,158385,128,0,158478:0:0:0:0:
329,192,158385,128,0,158497:0:0:0:0:
256,192,158460,128,0,158535:0:0:0:0:
109,192,158460,128,0,158553:0:0:0:0:
182,192,158535,128,0,158703:0:0:0:0:
402,192,158535,128,0,158628:0:0:0:0:
475,192,158535,128,0,158610:0:0:0:0:
329,192,158610,128,0,158741:0:0:0:0:
256,192,158610,128,0,158685:0:0:0:0:
475,192,158685,128,0,158778:0:0:0:0:
402,192,158685,128,0,158760:0:0:0:0:
256,192,158760,128,0,158816:0:0:0:0:
109,192,158760,128,0,158853:0:0:0:0:
182,192,158835,128,0,159960:0:0:0:0:
329,192,158835,128,0,158985:0:0:0:0:
475,192,158835,128,0,158966:0:0:0:0:
402,192,158835,128,0,158891:0:0:0:0:
36,192,158910,128,0,159003:0:0:0:0:
256,192,158910,128,0,159003:0:0:0:0:
402,192,158985,128,0,159078:0:0:0:0:
109,192,158985,128,0,159135:0:0:0:0:
36,192,159060,128,0,159153:0:0:0:0:
329,192,159060,128,0,159116:0:0:0:0:
256,192,159135,128,0,159266:0:0:0:0:
475,192,159135,128,0,159266:0:0:0:0:
402,192,159135,128,0,159228:0:0:0:0:
329,192,159210,128,0,159341:0:0:0:0:
109,192,159210,128,0,159378:0:0:0:0:
402,192,159285,128,0,159378:0:0:0:0:
36,192,159285,128,0,159360:0:0:0:0:
475,192,159360,128,0,159435:0:0:0:0:
256,192,159360,128,0,159453:0:0:0:0:
36,192,159435,128,0,159603:0:0:0:0:
109,192,159435,128,0,159566:0:0:0:0:
329,192,159435,128,0,159510:0:0:0:0:
402,192,159510,128,0,159566:0:0:0:0:
256,192,159510,128,0,159641:0:0:0:0:
329,192,159585,128,0,159678:0:0:0:0:
475,192,159585,128,0,159678:0:0:0:0:
402,192,159660,128,0,159753:0:0:0:0:
109,192,159660,128,0,159753:0:0:0:0:
36,192,159735,128,0,159866:0:0:0:0:
475,192,159735,128,0,159903:0:0:0:0:
256,192,159735,128,0,159810:0:0:0:0:
329,192,159810,128,0,159866:0:0:0:0:
109,192,159810,128,0,159978:0:0:0:0:
402,192,159885,128,0,159978:0:0:0:0:
256,192,159885,128,0,159941:0:0:0:0:
36,192,159960,128,0,160053:0:0:0:0:
329,192,159960,128,0,160016:0:0:0:0:
475,192,160035,128,0,160222:0:0:0:0:
256,192,160035,128,0,160260:0:0:0:0:
182,192,160035,128,0,160110:0:0:0:0:
402,192,160035,128,0,160128:0:0:0:0:
109,192,160035,128,0,160128:0:0:0:0:
36,192,160110,128,0,160203:0:0:0:0:
329,192,160110,128,0,160166:0:0:0:0:
109,192,160185,128,0,160278:0:0:0:0:
182,192,160235,128,0,160435:0:0:0:0:
402,192,160235,128,0,160435:0:0:0:0:
329,192,160260,128,0,160353:0:0:0:0:
36,192,160260,128,0,160391:0:0:0:0:
256,192,160335,128,0,160410:0:0:0:0:
475,192,160410,128,0,160541:0:0:0:0:
329,192,160435,128,0,160610:0:0:0:0:
109,192,160435,128,0,160560:0:0:0:0:
256,192,160485,128,0,160541:0:0:0:0:
36,192,160485,128,0,160578:0:0:0:0:
182,192,160560,128,0,160653:0:0:0:0:
256,192,160635,128,0,161141:0:0:0:0:
475,192,160635,128,0,161178:0:0:0:0:
109,192,160635,128,0,160766:0:0:0:0:
36,192,160635,128,0,160710:0:0:0:0:
402,192,160635,128,0,160728:0:0:0:0:
182,192,160710,128,0,160803:0:0:0:0:
329,192,160710,128,0,160878:0:0:0:0:
402,192,160785,128,0,160860:0:0:0:0:
36,192,160785,128,0,160841:0:0:0:0:
182,192,160860,128,0,161028:0:0:0:0:
109,192,160860,128,0,160953:0:0:0:0:
36,192,160935,128,0,161085:0:0:0:0:
402,192,160935,128,0,161103:0:0:0:0:
329,192,161010,128,0,161178:0:0:0:0:
109,192,161028,128,0,161103:0:0:0:0:
182,192,161085,128,0,161141:0:0:0:0:
109,192,161160,128,0,161291:0:0:0:0:
36,192,161160,128,0,161235:0:0:0:0:
182,192,161235,128,0,162716:0:0:0:0:
402,192,161235,128,0,162735:0:0:0:0:
256,192,161235,128,0,161385:0:0:0:0:
475,192,161235,128,0,161366:0:0:0:0:
36,192,161310,128,0,161403:0:0:0:0:
329,192,161310,128,0,161403:0:0:0:0:
109,192,161385,128,0,161478:0:0:0:0:
256,192,161460,128,0,161553:0:0:0:0:
475,192,161460,128,0,161591:0:0:0:0:
36,192,161535,128,0,161685:0:0:0:0:
329,192,161535,128,0,161666:0:0:0:0:
109,192,161610,128,0,161741:0:0:0:0:
256,192,161685,128,0,161778:0:0:0:0:
475,192,161685,128,0,161760:0:0:0:0:
329,192,161760,128,0,161835:0:0:0:0:
36,192,161760,128,0,161853:0:0:0:0:
109,192,161835,128,0,161966:0:0:0:0:
475,192,161835,128,0,161985:0:0:0:0:
329,192,161910,128,0,162003:0:0:0:0:
256,192,161985,128,0,162078:0:0:0:0:
36,192,161985,128,0,162116:0:0:0:0:
109,192,162060,128,0,162153:0:0:0:0:
475,192,162060,128,0,162191:0:0:0:0:
329,192,162135,128,0,162285:0:0:0:0:
256,192,162210,128,0,162303:0:0:0:0:
36,192,162210,128,0,162303:0:0:0:0:
109,192,162285,128,0,162378:0:0:0:0:
475,192,162285,128,0,162378:0:0:0:0:
36,192,162360,128,0,162453:0:0:0:0:
329,192,162360,128,0,162416:0:0:0:0:
475,192,162435,128,0,162603:0:0:0:0:
256,192,162435,128,0,162528:0:0:0:0:
329,192,162510,128,0,162660:0:0:0:0:
109,192,162510,128,0,162566:0:0:0:0:
256,192,162585,128,0,162678:0:0:0:0:
36,192,162585,128,0,162660:0:0:0:0:
109,192,162660,128,0,162828:0:0:0:0:
36,192,162735,128,0,162960:0:0:0:0:
329,192,162735,128,0,162847:0:0:0:0:
256,192,162810,128,0,162903:0:0:0:0:
182,192,162885,128,0,162978:0:0:0:0:
402,192,162885,128,0,162941:0:0:0:0:
475,192,162885,128,0,162960:0:0:0:0:
109,192,162960,128,0,163053:0:0:0:0:
256,192,162960,128,0,163053:0:0:0:0:
329,192,162960,128,0,163035:0:0:0:0:
36,192,163035,128,0,163541:0:0:0:0:
475,192,163035,128,0,163203:0:0:0:0:
182,192,163035,128,0,163203:0:0:0:0:
402,192,163035,128,0,163128:0:0:0:0:
109,192,163110,128,0,163222:0:0:0:0:
329,192,163110,128,0,163166:0:0:0:0:
402,192,163185,128,0,163353:0:0:0:0:
256,192,163185,128,0,163241:0:0:0:0:
182,192,163260,128,0,163428:0:0:0:0:
329,192,163260,128,0,163316:0:0:0:0:
475,192,163335,128,0,163485:0:0:0:0:
256,192,163335,128,0,163410:0:0:0:0:
109,192,163335,128,0,163391:0:0:0:0:
402,192,163410,128,0,163503:0:0:0:0:
329,192,163410,128,0,163560:0:0:0:0:
256,192,163485,128,0,163578:0:0:0:0:
109,192,163485,128,0,163560:0:0:0:0:
475,192,163560,128,0,163691:0:0:0:0:
402,192,163560,128,0,163653:0:0:0:0:
182,192,163635,128,0,164760:0:0:0:0:
109,192,163635,128,0,163803:0:0:0:0:
329,192,163635,128,0,163728:0:0:0:0:
36,192,163635,128,0,163728:0:0:0:0:
256,192,163710,128,0,163878:0:0:0:0:
402,192,163710,128,0,163803:0:0:0:0:
329,192,163785,128,0,163841:0:0:0:0:
36,192,163785,128,0,163860:0:0:0:0:
109,192,163860,128,0,163935:0:0:0:0:
475,192,163860,128,0,164010:0:0:0:0:
36,192,163935,128,0,164085:0:0:0:0:
256,192,163935,128,0,164085:0:0:0:0:
402,192,163935,128,0,164028:0:0:0:0:
109,192,164010,128,0,164066:0:0:0:0:
329,192,164010,128,0,164103:0:0:0:0:
402,192,164085,128,0,164178:0:0:0:0:
475,192,164085,128,0,164160:0:0:0:0:
36,192,164160,128,0,164328:0:0:0:0:
256,192,164160,128,0,164253:0:0:0:0:
402,192,164235,128,0,164385:0:0:0:0:
475,192,164235,128,0,164403:0:0:0:0:
329,192,164235,128,0,164310:0:0:0:0:
109,192,164310,128,0,164403:0:0:0:0:
256,192,164310,128,0,164441:0:0:0:0:
329,192,164385,128,0,164460:0:0:0:0:
36,192,164385,128,0,164478:0:0:0:0:
402,192,164460,128,0,164535:0:0:0:0:
109,192,164460,128,0,164553:0:0:0:0:
256,192,164535,128,0,164666:0:0:0:0:
475,192,164535,128,0,164703:0:0:0:0:
36,192,164535,128,0,164610:0:0:0:0:
329,192,164610,128,0,164760:0:0:0:0:
402,192,164610,128,0,164685:0:0:0:0:
109,192,164685,128,0,164816:0:0:0:0:
36,192,164685,128,0,164760:0:0:0:0:
256,192,164760,128,0,164835:0:0:0:0:
402,192,164760,128,0,164891:0:0:0:0:
475,192,164835,128,0,165060:0:0:0:0:
36,192,164835,128,0,164966:0:0:0:0:
329,192,164835,128,0,164928:0:0:0:0:
182,192,164835,128,0,164928:0:0:0:0:
256,192,164910,128,0,165003:0:0:0:0:
109,192,164910,128,0,164985:0:0:0:0:
182,192,164985,128,0,165135:0:0:0:0:
402,192,164985,128,0,165078:0:0:0:0:
329,192,165035,128,0,165260:0:0:0:0:
36,192,165060,128,0,165153:0:0:0:0:
256,192,165060,128,0,165153:0:0:0:0:
109,192,165135,128,0,165266:0:0:0:0:
402,192,165135,128,0,165210:0:0:0:0:
475,192,165135,128,0,165210:0:0:0:0:
256,192,165210,128,0,165285:0:0:0:0:
36,192,165210,128,0,165378:0:0:0:0:
182,192,165235,128,0,165435:0:0:0:0:
402,192,165285,128,0,165378:0:0:0:0:
475,192,165285,128,0,165360:0:0:0:0:
329,192,165360,128,0,165453:0:0:0:0:
256,192,165360,128,0,165528:0:0:0:0:
402,192,165435,128,0,165960:0:0:0:0:
36,192,165435,128,0,165585:0:0:0:0:
475,192,165435,128,0,165603:0:0:0:0:
109,192,165435,128,0,165510:0:0:0:0:
182,192,165510,128,0,165603:0:0:0:0:
329,192,165510,128,0,165566:0:0:0:0:
256,192,165585,128,0,165678:0:0:0:0:
109,192,165585,128,0,165716:0:0:0:0:
182,192,165660,128,0,165753:0:0:0:0:
329,192,165660,128,0,165735:0:0:0:0:
36,192,165735,128,0,165885:0:0:0:0:
475,192,165735,128,0,165903:0:0:0:0:
256,192,165735,128,0,165828:0:0:0:0:
329,192,165810,128,0,165885:0:0:0:0:
109,192,165810,128,0,165960:0:0:0:0:
182,192,165885,128,0,165978:0:0:0:0:
256,192,165885,128,0,165941:0:0:0:0:
36,192,165960,128,0,166091:0:0:0:0:
329,192,165960,128,0,166053:0:0:0:0:
109,192,166035,128,0,167235:0:0:0:0:
256,192,166035,128,0,166185:0:0:0:0:
402,192,166035,128,0,166203:0:0:0:0:
182,192,166035,128,0,166128:0:0:0:0:
475,192,166110,128,0,166278:0:0:0:0:
329,192,166110,128,0,166166:0:0:0:0:
182,192,166185,128,0,166353:0:0:0:0:
36,192,166185,128,0,166241:0:0:0:0:
256,192,166260,128,0,166391:0:0:0:0:
329,192,166260,128,0,166316:0:0:0:0:
402,192,166335,128,0,166503:0:0:0:0:
36,192,166335,128,0,166485:0:0:0:0:
475,192,166335,128,0,166410:0:0:0:0:
182,192,166410,128,0,166466:0:0:0:0:
329,192,166410,128,0,166578:0:0:0:0:
256,192,166485,128,0,166560:0:0:0:0:
475,192,166485,128,0,166541:0:0:0:0:
182,192,166560,128,0,166653:0:0:0:0:
402,192,166560,128,0,166710:0:0:0:0:
36,192,166635,128,0,166785:0:0:0:0:
256,192,166635,128,0,166691:0:0:0:0:
475,192,166635,128,0,166710:0:0:0:0:
329,192,166710,128,0,166878:0:0:0:0:
182,192,166710,128,0,166803:0:0:0:0:
256,192,166785,128,0,166860:0:0:0:0:
475,192,166785,128,0,166860:0:0:0:0:
36,192,166860,128,0,166935:0:0:0:0:
402,192,166860,128,0,167010:0:0:0:0:
329,192,166935,128,0,167103:0:0:0:0:
182,192,166935,128,0,167066:0:0:0:0:
475,192,166935,128,0,167010:0:0:0:0:
256,192,167010,128,0,167160:0:0:0:0:
36,192,167010,128,0,167085:0:0:0:0:
402,192,167085,128,0,167178:0:0:0:0:
475,192,167085,128,0,167160:0:0:0:0:
329,192,167160,128,0,167216:0:0:0:0:
182,192,167160,128,0,167235:0:0:0:0:
36,192,167235,128,0,167760:0:0:0:0:
256,192,167235,128,0,167385:0:0:0:0:
402,192,167235,128,0,167366:0:0:0:0:
475,192,167235,128,0,167310:0:0:0:0:
182,192,167310,128,0,167460:0:0:0:0:
109,192,167310,128,0,167403:0:0:0:0:
475,192,167385,128,0,167553:0:0:0:0:
329,192,167385,128,0,167478:0:0:0:0:
256,192,167460,128,0,167535:0:0:0:0:
402,192,167460,128,0,167628:0:0:0:0:
182,192,167535,128,0,167610:0:0:0:0:
109,192,167535,128,0,167610:0:0:0:0:
329,192,167535,128,0,167610:0:0:0:0:
256,192,167610,128,0,167666:0:0:0:0:
475,192,167610,128,0,167685:0:0:0:0:
182,192,167685,128,0,167778:0:0:0:0:
109,192,167685,128,0,167760:0:0:0:0:
329,192,167685,128,0,167760:0:0:0:0:
256,192,167760,128,0,167835:0:0:0:0:
475,192,167760,128,0,167835:0:0:0:0:
402,192,167760,128,0,167835:0:0:0:0:
36,192,167835,128,0,167891:0:0:0:0:
109,192,167835,128,0,167910:0:0:0:0:
182,192,167835,128,0,167928:0:0:0:0:
329,192,167835,128,0,167910:0:0:0:0:
256,192,167910,128,0,167985:0:0:0:0:
402,192,167910,128,0,167985:0:0:0:0:
475,192,167910,128,0,168060:0:0:0:0:
329,192,167985,128,0,168060:0:0:0:0:
182,192,167985,128,0,168041:0:0:0:0:
109,192,167985,128,0,168078:0:0:0:0:
36,192,167985,128,0,168135:0:0:0:0:
256,192,168060,128,0,168135:0:0:0:0:
402,192,168060,128,0,168135:0:0:0:0:
475,192,168135,128,0,168228:0:0:0:0:
329,192,168135,128,0,168191:0:0:0:0:
182,192,168135,128,0,168210:0:0:0:0:
109,192,168135,128,0,168210:0:0:0:0:
36,192,168210,128,0,168285:0:0:0:0:
402,192,168210,128,0,168285:0:0:0:0:
256,192,168210,128,0,168360:0:0:0:0:
329,192,168285,128,0,168378:0:0:0:0:
182,192,168285,128,0,168341:0:0:0:0:
109,192,168285,128,0,168360:0:0:0:0:
475,192,168285,128,0,168435:0:0:0:0:
36,192,168360,128,0,168435:0:0:0:0:
402,192,168360,128,0,168435:0:0:0:0:
329,192,168435,128,0,168510:0:0:0:0:
182,192,168435,128,0,168491:0:0:0:0:
256,192,168435,128,0,168510:0:0:0:0:
109,192,168435,128,0,168528:0:0:0:0:
36,192,168510,128,0,168660:0:0:0:0:
402,192,168510,128,0,168585:0:0:0:0:
475,192,168510,128,0,168585:0:0:0:0:
109,192,168585,128,0,168660:0:0:0:0:
182,192,168585,128,0,168735:0:0:0:0:
256,192,168585,128,0,168678:0:0:0:0:
329,192,168585,128,0,168641:0:0:0:0:
402,192,168660,128,0,168716:0:0:0:0:
475,192,168660,128,0,168753:0:0:0:0:
329,192,168735,128,0,168828:0:0:0:0:
109,192,168735,128,0,168791:0:0:0:0:
36,192,168735,128,0,168810:0:0:0:0:
256,192,168735,128,0,168810:0:0:0:0:
402,192,168810,128,0,168885:0:0:0:0:
475,192,168810,128,0,168866:0:0:0:0:
182,192,168810,128,0,168903:0:0:0:0:
256,192,168885,1,0,0:0:0:0:
329,192,168885,1,0,0:0:0:0:
109,192,168885,1,0,0:0:0:0:
36,192,168885,1,0,0:0:0:0:
109,192,168960,1,0,0:0:0:0:
36,192,168960,1,0,0:0:0:0:
256,192,168960,1,0,0:0:0:0:
329,192,168960,1,0,0:0:0:0:
36,192,169035,128,0,169110:0:0:0:0:
256,192,169035,128,0,169128:0:0:0:0:
329,192,169035,128,0,169110:0:0:0:0:
475,192,169035,128,0,169091:0:0:0:0:
402,192,169110,128,0,169260:0:0:0:0:
182,192,169110,128,0,169260:0:0:0:0:
109,192,169110,128,0,169185:0:0:0:0:
36,192,169185,128,0,169335:0:0:0:0:
256,192,169185,128,0,169278:0:0:0:0:
329,192,169185,128,0,169335:0:0:0:0:
475,192,169185,128,0,169241:0:0:0:0:
109,192,169260,128,0,169335:0:0:0:0:
402,192,169335,128,0,169428:0:0:0:0:
475,192,169335,128,0,169410:0:0:0:0:
256,192,169335,128,0,169410:0:0:0:0:
182,192,169335,128,0,169391:0:0:0:0:
109,192,169410,128,0,169485:0:0:0:0:
36,192,169410,128,0,169560:0:0:0:0:
329,192,169410,128,0,169485:0:0:0:0:
256,192,169485,128,0,169578:0:0:0:0:
182,192,169485,128,0,169635:0:0:0:0:
402,192,169485,128,0,169560:0:0:0:0:
475,192,169485,128,0,169541:0:0:0:0:
109,192,169560,128,0,169635:0:0:0:0:
329,192,169560,128,0,169635:0:0:0:0:
36,192,169635,128,0,169691:0:0:0:0:
402,192,169635,128,0,169728:0:0:0:0:
475,192,169635,128,0,169710:0:0:0:0:
256,192,169635,128,0,169710:0:0:0:0:
182,192,169710,128,0,169785:0:0:0:0:
109,192,169710,128,0,169860:0:0:0:0:
329,192,169710,128,0,169785:0:0:0:0:
36,192,169785,128,0,169860:0:0:0:0:
256,192,169785,128,0,169841:0:0:0:0:
402,192,169785,128,0,169935:0:0:0:0:
475,192,169785,128,0,169878:0:0:0:0:
329,192,169860,128,0,169953:0:0:0:0:
182,192,169860,128,0,169916:0:0:0:0:
256,192,169935,128,0,170010:0:0:0:0:
109,192,169935,128,0,169991:0:0:0:0:
36,192,169935,128,0,170028:0:0:0:0:
475,192,169935,128,0,170010:0:0:0:0:
402,192,170010,128,0,170085:0:0:0:0:
329,192,170010,128,0,170103:0:0:0:0:
182,192,170010,128,0,170066:0:0:0:0:
109,192,170085,1,0,0:0:0:0:
36,192,170085,1,0,0:0:0:0:
475,192,170085,1,0,0:0:0:0:
256,192,170085,1,0,0:0:0:0:
36,192,170160,1,0,0:0:0:0:
109,192,170160,1,0,0:0:0:0:
475,192,170160,1,0,0:0:0:0:
256,192,170160,1,0,0:0:0:0:
36,192,170235,128,0,170310:0:0:0:0:
109,192,170235,128,0,170291:0:0:0:0:
256,192,170235,128,0,170328:0:0:0:0:
402,192,170235,128,0,170310:0:0:0:0:
475,192,170310,128,0,170460:0:0:0:0:
329,192,170310,128,0,170403:0:0:0:0:
182,192,170310,128,0,170366:0:0:0:0:
402,192,170385,128,0,170441:0:0:0:0:
256,192,170385,128,0,170478:0:0:0:0:
109,192,170385,128,0,170535:0:0:0:0:
36,192,170385,128,0,170460:0:0:0:0:
182,192,170460,128,0,170516:0:0:0:0:
329,192,170460,128,0,170553:0:0:0:0:
256,192,170535,128,0,170628:0:0:0:0:
402,192,170535,128,0,170591:0:0:0:0:
475,192,170535,128,0,170610:0:0:0:0:
36,192,170535,128,0,170610:0:0:0:0:
109,192,170610,128,0,170685:0:0:0:0:
182,192,170610,128,0,170666:0:0:0:0:
329,192,170610,128,0,170703:0:0:0:0:
36,192,170685,128,0,170760:0:0:0:0:
256,192,170685,128,0,170778:0:0:0:0:
402,192,170685,128,0,170741:0:0:0:0:
475,192,170685,128,0,170760:0:0:0:0:
182,192,170760,1,0,0:0:0:0:
329,192,170760,128,0,170853:0:0:0:0:
109,192,170760,128,0,170816:0:0:0:0:
36,192,170835,128,0,170966:0:0:0:0:
182,192,170835,128,0,170891:0:0:0:0:
256,192,170835,128,0,170928:0:0:0:0:
402,192,170835,128,0,170985:0:0:0:0:
475,192,170835,128,0,171003:0:0:0:0:
109,192,170885,128,0,170985:0:0:0:0:
329,192,170935,128,0,171035:0:0:0:0:
182,192,170985,128,0,171035:0:0:0:0:
256,192,171035,128,0,171085:0:0:0:0:
109,192,171060,128,0,171210:0:0:0:0:
36,192,171060,128,0,171228:0:0:0:0:
402,192,171060,128,0,171172:0:0:0:0:
475,192,171060,128,0,171153:0:0:0:0:
329,192,171085,128,0,171185:0:0:0:0:
182,192,171135,128,0,171247:0:0:0:0:
256,192,171185,128,0,171285:0:0:0:0:
402,192,171235,128,0,171360:0:0:0:0:
475,192,171285,128,0,171378:0:0:0:0:
36,192,171285,128,0,171341:0:0:0:0:
109,192,171285,128,0,171360:0:0:0:0:
329,192,171285,128,0,171335:0:0:0:0:
182,192,171322,128,0,171397:0:0:0:0:
256,192,171360,128,0,171435:0:0:0:0:
329,192,171397,128,0,171472:0:0:0:0:
36,192,171435,128,0,171528:0:0:0:0:
109,192,171435,128,0,171547:0:0:0:0:
402,192,171435,128,0,171491:0:0:0:0:
475,192,171435,128,0,171510:0:0:0:0:
182,192,171510,128,0,171585:0:0:0:0:
256,192,171510,128,0,171622:0:0:0:0:
329,192,171585,128,0,171641:0:0:0:0:
402,192,171585,128,0,171660:0:0:0:0:
475,192,171585,128,0,171678:0:0:0:0:
36,192,171585,128,0,171678:0:0:0:0:
109,192,171622,128,0,171697:0:0:0:0:
182,192,171660,128,0,171735:0:0:0:0:
256,192,171697,128,0,171772:0:0:0:0:
329,192,171735,128,0,171791:0:0:0:0:
402,192,171735,128,0,171810:0:0:0:0:
475,192,171735,128,0,171828:0:0:0:0:
36,192,171735,128,0,171828:0:0:0:0:
109,192,171810,128,0,171903:0:0:0:0:
182,192,171810,128,0,171866:0:0:0:0:
36,192,171885,128,0,171978:0:0:0:0:
329,192,171885,128,0,171978:0:0:0:0:
402,192,171885,128,0,171960:0:0:0:0:
475,192,171885,128,0,171941:0:0:0:0:
256,192,171922,128,0,171997:0:0:0:0:
182,192,171960,128,0,172035:0:0:0:0:
109,192,171997,128,0,172072:0:0:0:0:
36,192,172035,128,0,172110:0:0:0:0:
402,192,172035,128,0,172128:0:0:0:0:
475,192,172035,128,0,172091:0:0:0:0:
256,192,172110,128,0,172203:0:0:0:0:
329,192,172110,128,0,172185:0:0:0:0:
182,192,172110,128,0,172166:0:0:0:0:
109,192,172185,128,0,172241:0:0:0:0:
36,192,172185,128,0,172260:0:0:0:0:
402,192,172185,128,0,172278:0:0:0:0:
475,192,172185,128,0,172260:0:0:0:0:
182,192,172260,128,0,172335:0:0:0:0:
256,192,172260,128,0,172316:0:0:0:0:
329,192,172260,128,0,172353:0:0:0:0:
402,192,172335,128,0,172410:0:0:0:0:
475,192,172335,128,0,172391:0:0:0:0:
109,192,172335,128,0,172410:0:0:0:0:
36,192,172335,128,0,172428:0:0:0:0:
182,192,172410,128,0,172447:0:0:0:0:
256,192,172410,128,0,172466:0:0:0:0:
329,192,172410,128,0,172447:0:0:0:0:
36,192,172485,1,0,0:0:0:0:
109,192,172485,1,0,0:0:0:0:
402,192,172485,1,0,0:0:0:0:
475,192,172485,1,0,0:0:0:0:
182,192,172522,1,0,0:0:0:0:
256,192,172522,1,0,0:0:0:0:
329,192,172522,1,0,0:0:0:0:
109,192,172560,1,0,0:0:0:0:
36,192,172560,1,0,0:0:0:0:
402,192,172560,1,0,0:0:0:0:
475,192,172560,1,0,0:0:0:0:
182,192,172597,1,0,0:0:0:0:
256,192,172597,1,0,0:0:0:0:
329,192,172597,1,0,0:0:0:0:
402,192,172635,1,0,0:0:0:0:
475,192,172635,1,0,0:0:0:0:
36,192,172635,128,0,173835:0:0:0:0:
109,192,172635,128,0,173835:0:0:0:0:
402,192,173835,128,0,174435:0:0:0:0:
475,192,173835,128,0,174435:0:0:0:0:
329,192,173835,128,0,174435:0:0:0:0:
36,192,174435,128,0,175035:0:0:0:0:
109,192,174435,128,0,175035:0:0:0:0:
182,192,174435,128,0,175035:0:0:0:0:
329,192,175035,128,0,176235:0:0:0:0:
402,192,175035,128,0,176235:0:0:0:0:
475,192,175035,128,0,176235:0:0:0:0:
182,192,176235,128,0,176535:0:0:0:0:
109,192,176235,128,0,176460:0:0:0:0:
36,192,176235,128,0,176460:0:0:0:0:
36,192,176535,128,0,176835:0:0:0:0:
109,192,176535,128,0,176760:0:0:0:0:
256,192,176535,128,0,176760:0:0:0:0:
256,192,176835,128,0,176985:0:0:0:0:
182,192,176835,128,0,176985:0:0:0:0:
109,192,176835,128,0,177035:0:0:0:0:
329,192,176835,128,0,176985:0:0:0:0:
182,192,177035,128,0,177235:0:0:0:0:
256,192,177035,128,0,177185:0:0:0:0:
329,192,177035,128,0,177185:0:0:0:0:
402,192,177035,128,0,177185:0:0:0:0:
329,192,177235,128,0,177385:0:0:0:0:
402,192,177235,128,0,177385:0:0:0:0:
256,192,177235,128,0,177385:0:0:0:0:
475,192,177235,128,0,177385:0:0:0:0:
329,192,177435,128,0,178035:0:0:0:0:
402,192,177435,128,0,178035:0:0:0:0:
475,192,177435,128,0,178035:0:0:0:0:
109,192,178035,128,0,178860:0:0:0:0:
182,192,178035,128,0,178860:0:0:0:0:
36,192,178035,128,0,178860:0:0:0:0:
36,192,178935,128,0,179235:0:0:0:0:
109,192,178935,128,0,179235:0:0:0:0:
182,192,178935,128,0,179160:0:0:0:0:
182,192,179235,128,0,179535:0:0:0:0:
256,192,179235,128,0,179535:0:0:0:0:
329,192,179235,128,0,179460:0:0:0:0:
329,192,179535,128,0,179760:0:0:0:0:
402,192,179535,128,0,179760:0:0:0:0:
475,192,179535,128,0,179760:0:0:0:0:
329,192,179835,128,0,180360:0:0:0:0:
402,192,179835,128,0,180435:0:0:0:0:
475,192,179835,128,0,180435:0:0:0:0:
182,192,179835,1,0,0:0:0:0:
109,192,179910,1,0,0:0:0:0:
182,192,179985,1,0,0:0:0:0:
109,192,180060,1,0,0:0:0:0:
182,192,180135,1,0,0:0:0:0:
109,192,180210,1,0,0:0:0:0:
182,192,180285,1,0,0:0:0:0:
256,192,180360,1,0,0:0:0:0:
182,192,180435,128,0,180960:0:0:0:0:
109,192,180435,128,0,180960:0:0:0:0:
36,192,180435,128,0,180960:0:0:0:0:
329,192,180435,1,0,0:0:0:0:
402,192,180510,1,0,0:0:0:0:
329,192,180585,1,0,0:0:0:0:
402,192,180660,1,0,0:0:0:0:
329,192,180735,1,0,0:0:0:0:
402,192,180810,1,0,0:0:0:0:
329,192,180885,1,0,0:0:0:0:
402,192,180960,1,0,0:0:0:0:
182,192,181035,128,0,181560:0:0:0:0:
256,192,181035,128,0,181560:0:0:0:0:
329,192,181035,128,0,181560:0:0:0:0:
475,192,181035,1,0,0:0:0:0:
36,192,181035,1,0,0:0:0:0:
109,192,181110,1,0,0:0:0:0:
402,192,181110,1,0,0:0:0:0:
475,192,181185,1,0,0:0:0:0:
36,192,181185,1,0,0:0:0:0:
109,192,181260,1,0,0:0:0:0:
402,192,181260,1,0,0:0:0:0:
475,192,181335,1,0,0:0:0:0:
36,192,181335,1,0,0:0:0:0:
109,192,181410,1,0,0:0:0:0:
402,192,181410,1,0,0:0:0:0:
475,192,181485,1,0,0:0:0:0:
36,192,181485,1,0,0:0:0:0:
109,192,181560,1,0,0:0:0:0:
329,192,181635,128,0,182160:0:0:0:0:
402,192,181635,128,0,182160:0:0:0:0:
475,192,181635,128,0,182160:0:0:0:0:
182,192,181635,1,0,0:0:0:0:
256,192,181635,1,0,0:0:0:0:
109,192,181710,1,0,0:0:0:0:
36,192,181710,1,0,0:0:0:0:
182,192,181785,1,0,0:0:0:0:
256,192,181785,1,0,0:0:0:0:
109,192,181860,1,0,0:0:0:0:
36,192,181860,1,0,0:0:0:0:
182,192,181935,1,0,0:0:0:0:
256,192,181935,1,0,0:0:0:0:
109,192,182010,1,0,0:0:0:0:
36,192,182010,1,0,0:0:0:0:
182,192,182085,1,0,0:0:0:0:
256,192,182085,1,0,0:0:0:0:
109,192,182160,1,0,0:0:0:0:
36,192,182160,1,0,0:0:0:0:
182,192,182235,1,0,0:0:0:0:
256,192,182235,1,0,0:0:0:0:
402,192,182235,1,0,0:0:0:0:
475,192,182235,128,0,182310:0:0:0:0:
109,192,182310,1,0,0:0:0:0:
475,192,182385,128,0,182460:0:0:0:0:
329,192,182385,1,0,0:0:0:0:
36,192,182460,1,0,0:0:0:0:
475,192,182535,128,0,182610:0:0:0:0:
402,192,182535,128,0,182610:0:0:0:0:
256,192,182535,1,0,0:0:0:0:
182,192,182610,1,0,0:0:0:0:
475,192,182685,128,0,182760:0:0:0:0:
402,192,182685,128,0,182760:0:0:0:0:
329,192,182685,1,0,0:0:0:0:
109,192,182760,1,0,0:0:0:0:
475,192,182835,128,0,182910:0:0:0:0:
402,192,182835,128,0,182910:0:0:0:0:
329,192,182835,128,0,182910:0:0:0:0:
256,192,182835,1,0,0:0:0:0:
36,192,182910,1,0,0:0:0:0:
475,192,182985,128,0,183060:0:0:0:0:
329,192,182985,128,0,183060:0:0:0:0:
402,192,182985,128,0,183060:0:0:0:0:
182,192,182985,1,0,0:0:0:0:
109,192,183060,1,0,0:0:0:0:
475,192,183135,128,0,183210:0:0:0:0:
402,192,183135,128,0,183210:0:0:0:0:
329,192,183135,128,0,183210:0:0:0:0:
256,192,183135,1,0,0:0:0:0:
36,192,183210,1,0,0:0:0:0:
475,192,183285,128,0,183360:0:0:0:0:
402,192,183285,128,0,183360:0:0:0:0:
329,192,183285,128,0,183360:0:0:0:0:
182,192,183285,1,0,0:0:0:0:
109,192,183360,1,0,0:0:0:0:
475,192,183435,128,0,183510:0:0:0:0:
329,192,183435,128,0,183510:0:0:0:0:
402,192,183435,128,0,183510:0:0:0:0:
256,192,183435,1,0,0:0:0:0:
36,192,183435,1,0,0:0:0:0:
182,192,183435,1,0,0:0:0:0:
109,192,183510,1,0,0:0:0:0:
182,192,183585,1,0,0:0:0:0:
36,192,183660,128,0,183735:0:0:0:0:
256,192,183660,128,0,183735:0:0:0:0:
402,192,183660,128,0,183735:0:0:0:0:
475,192,183735,1,0,0:0:0:0:
109,192,183735,1,0,0:0:0:0:
182,192,183810,1,0,0:0:0:0:
36,192,183885,128,0,183960:0:0:0:0:
329,192,183885,128,0,183960:0:0:0:0:
402,192,183885,128,0,183960:0:0:0:0:
256,192,183960,1,0,0:0:0:0:
109,192,184035,128,0,184110:0:0:0:0:
36,192,184035,128,0,184110:0:0:0:0:
475,192,184035,128,0,184110:0:0:0:0:
329,192,184110,1,0,0:0:0:0:
182,192,184185,128,0,184260:0:0:0:0:
256,192,184185,128,0,184260:0:0:0:0:
402,192,184185,128,0,184260:0:0:0:0:
109,192,184260,1,0,0:0:0:0:
36,192,184335,128,0,184560:0:0:0:0:
256,192,184335,128,0,184560:0:0:0:0:
475,192,184335,128,0,184560:0:0:0:0:
475,192,184635,128,0,184710:0:0:0:0:
402,192,184635,128,0,184785:0:0:0:0:
256,192,184635,128,0,184710:0:0:0:0:
36,192,184635,128,0,184710:0:0:0:0:
109,192,184672,1,0,0:0:0:0:
329,192,184710,128,0,184785:0:0:0:0:
182,192,184747,1,0,0:0:0:0:
256,192,184785,1,0,0:0:0:0:
36,192,184785,128,0,184860:0:0:0:0:
475,192,184822,1,0,0:0:0:0:
402,192,184860,128,0,184935:0:0:0:0:
182,192,184897,1,0,0:0:0:0:
109,192,184935,1,0,0:0:0:0:
36,192,184935,1,0,0:0:0:0:
329,192,184935,128,0,185010:0:0:0:0:
475,192,184972,1,0,0:0:0:0:
256,192,185010,128,0,185085:0:0:0:0:
182,192,185047,1,0,0:0:0:0:
329,192,185085,1,0,0:0:0:0:
402,192,185085,128,0,185160:0:0:0:0:
36,192,185122,1,0,0:0:0:0:
109,192,185160,128,0,185197:0:0:0:0:
182,192,185197,1,0,0:0:0:0:
402,192,185235,1,0,0:0:0:0:
475,192,185235,1,0,0:0:0:0:
256,192,185235,128,0,185310:0:0:0:0:
109,192,185272,1,0,0:0:0:0:
36,192,185310,128,0,185385:0:0:0:0:
182,192,185347,1,0,0:0:0:0:
475,192,185385,1,0,0:0:0:0:
329,192,185385,128,0,185460:0:0:0:0:
256,192,185422,1,0,0:0:0:0:
109,192,185460,128,0,185535:0:0:0:0:
36,192,185497,1,0,0:0:0:0:
182,192,185535,1,0,0:0:0:0:
475,192,185535,1,0,0:0:0:0:
402,192,185535,128,0,185610:0:0:0:0:
329,192,185572,1,0,0:0:0:0:
109,192,185610,128,0,185685:0:0:0:0:
256,192,185647,1,0,0:0:0:0:
182,192,185685,128,0,185760:0:0:0:0:
36,192,185685,128,0,185760:0:0:0:0:
402,192,185685,128,0,185760:0:0:0:0:
475,192,185685,128,0,185760:0:0:0:0:
109,192,185760,128,0,185835:0:0:0:0:
329,192,185760,128,0,185797:0:0:0:0:
256,192,185760,128,0,185835:0:0:0:0:
402,192,185835,128,0,185910:0:0:0:0:
182,192,185835,128,0,185910:0:0:0:0:
36,192,185835,128,0,185910:0:0:0:0:
475,192,185835,128,0,185985:0:0:0:0:
329,192,185872,1,0,0:0:0:0:
256,192,185910,128,0,185985:0:0:0:0:
109,192,185947,1,0,0:0:0:0:
182,192,185985,1,0,0:0:0:0:
402,192,185985,128,0,186060:0:0:0:0:
329,192,186022,1,0,0:0:0:0:
36,192,186060,128,0,186135:0:0:0:0:
109,192,186097,1,0,0:0:0:0:
182,192,186135,1,0,0:0:0:0:
256,192,186135,1,0,0:0:0:0:
475,192,186135,128,0,186210:0:0:0:0:
329,192,186172,1,0,0:0:0:0:
36,192,186210,128,0,186285:0:0:0:0:
109,192,186247,1,0,0:0:0:0:
182,192,186285,1,0,0:0:0:0:
402,192,186285,128,0,186360:0:0:0:0:
329,192,186322,1,0,0:0:0:0:
256,192,186360,128,0,186435:0:0:0:0:
109,192,186397,1,0,0:0:0:0:
36,192,186435,1,0,0:0:0:0:
402,192,186435,1,0,0:0:0:0:
475,192,186435,128,0,186510:0:0:0:0:
182,192,186472,1,0,0:0:0:0:
329,192,186510,128,0,186585:0:0:0:0:
109,192,186547,1,0,0:0:0:0:
402,192,186585,1,0,0:0:0:0:
256,192,186585,128,0,186660:0:0:0:0:
36,192,186622,1,0,0:0:0:0:
182,192,186660,128,0,186735:0:0:0:0:
329,192,186697,1,0,0:0:0:0:
475,192,186735,1,0,0:0:0:0:
402,192,186735,1,0,0:0:0:0:
109,192,186735,128,0,186810:0:0:0:0:
256,192,186772,1,0,0:0:0:0:
36,192,186810,128,0,186885:0:0:0:0:
182,192,186847,1,0,0:0:0:0:
475,192,186885,1,0,0:0:0:0:
329,192,186885,128,0,186960:0:0:0:0:
109,192,186922,1,0,0:0:0:0:
256,192,186960,128,0,187035:0:0:0:0:
182,192,186997,1,0,0:0:0:0:
329,192,187035,128,0,187110:0:0:0:0:
36,192,187035,128,0,187110:0:0:0:0:
475,192,187035,128,0,187110:0:0:0:0:
402,192,187035,128,0,187185:0:0:0:0:
109,192,187072,1,0,0:0:0:0:
256,192,187110,128,0,187185:0:0:0:0:
182,192,187147,1,0,0:0:0:0:
329,192,187185,1,0,0:0:0:0:
36,192,187185,128,0,187260:0:0:0:0:
109,192,187222,1,0,0:0:0:0:
256,192,187260,128,0,187335:0:0:0:0:
402,192,187297,1,0,0:0:0:0:
182,192,187335,1,0,0:0:0:0:
36,192,187335,1,0,0:0:0:0:
475,192,187335,128,0,187410:0:0:0:0:
329,192,187372,1,0,0:0:0:0:
109,192,187410,128,0,187485:0:0:0:0:
256,192,187447,1,0,0:0:0:0:
475,192,187485,1,0,0:0:0:0:
402,192,187485,128,0,187560:0:0:0:0:
182,192,187522,1,0,0:0:0:0:
36,192,187560,128,0,187635:0:0:0:0:
256,192,187597,1,0,0:0:0:0:
109,192,187635,1,0,0:0:0:0:
475,192,187635,1,0,0:0:0:0:
329,192,187635,128,0,187710:0:0:0:0:
182,192,187672,1,0,0:0:0:0:
402,192,187710,128,0,187785:0:0:0:0:
256,192,187747,1,0,0:0:0:0:
36,192,187785,1,0,0:0:0:0:
475,192,187785,128,0,187860:0:0:0:0:
182,192,187822,1,0,0:0:0:0:
329,192,187860,128,0,187935:0:0:0:0:
109,192,187897,1,0,0:0:0:0:
402,192,187935,1,0,0:0:0:0:
475,192,187935,1,0,0:0:0:0:
256,192,187935,128,0,188010:0:0:0:0:
182,192,187972,1,0,0:0:0:0:
36,192,188010,128,0,188085:0:0:0:0:
329,192,188047,1,0,0:0:0:0:
256,192,188085,1,0,0:0:0:0:
109,192,188085,128,0,188160:0:0:0:0:
402,192,188122,1,0,0:0:0:0:
475,192,188160,128,0,188197:0:0:0:0:
182,192,188197,1,0,0:0:0:0:
329,192,188235,128,0,188310:0:0:0:0:
256,192,188235,128,0,188310:0:0:0:0:
109,192,188235,128,0,188385:0:0:0:0:
36,192,188235,128,0,188310:0:0:0:0:
475,192,188272,1,0,0:0:0:0:
402,192,188310,128,0,188385:0:0:0:0:
182,192,188347,1,0,0:0:0:0:
36,192,188385,1,0,0:0:0:0:
329,192,188385,128,0,188460:0:0:0:0:
256,192,188422,1,0,0:0:0:0:
109,192,188460,128,0,188535:0:0:0:0:
402,192,188497,1,0,0:0:0:0:
182,192,188535,1,0,0:0:0:0:
329,192,188535,1,0,0:0:0:0:
36,192,188535,128,0,188610:0:0:0:0:
475,192,188572,1,0,0:0:0:0:
256,192,188610,128,0,188685:0:0:0:0:
402,192,188647,1,0,0:0:0:0:
109,192,188685,1,0,0:0:0:0:
182,192,188685,128,0,188722:0:0:0:0:
329,192,188722,1,0,0:0:0:0:
36,192,188760,128,0,188835:0:0:0:0:
182,192,188797,1,0,0:0:0:0:
402,192,188835,1,0,0:0:0:0:
475,192,188835,1,0,0:0:0:0:
256,192,188835,128,0,188910:0:0:0:0:
109,192,188872,1,0,0:0:0:0:
36,192,188910,128,0,188985:0:0:0:0:
329,192,188947,1,0,0:0:0:0:
182,192,188985,1,0,0:0:0:0:
402,192,188985,128,0,189060:0:0:0:0:
109,192,189022,1,0,0:0:0:0:
256,192,189060,128,0,189135:0:0:0:0:
475,192,189097,1,0,0:0:0:0:
402,192,189135,1,0,0:0:0:0:
36,192,189135,1,0,0:0:0:0:
182,192,189135,128,0,189210:0:0:0:0:
329,192,189172,1,0,0:0:0:0:
109,192,189210,128,0,189285:0:0:0:0:
256,192,189247,1,0,0:0:0:0:
475,192,189285,1,0,0:0:0:0:
402,192,189285,128,0,189360:0:0:0:0:
182,192,189322,1,0,0:0:0:0:
329,192,189360,128,0,189435:0:0:0:0:
36,192,189397,1,0,0:0:0:0:
402,192,189435,128,0,189510:0:0:0:0:
256,192,189435,128,0,189510:0:0:0:0:
475,192,189435,128,0,189547:0:0:0:0:
109,192,189435,128,0,189510:0:0:0:0:
182,192,189472,1,0,0:0:0:0:
36,192,189510,128,0,189585:0:0:0:0:
329,192,189547,1,0,0:0:0:0:
109,192,189585,1,0,0:0:0:0:
182,192,189585,128,0,189660:0:0:0:0:
475,192,189622,1,0,0:0:0:0:
256,192,189660,128,0,189735:0:0:0:0:
402,192,189697,1,0,0:0:0:0:
109,192,189735,1,0,0:0:0:0:
36,192,189735,1,0,0:0:0:0:
329,192,189735,128,0,189810:0:0:0:0:
182,192,189772,1,0,0:0:0:0:
475,192,189810,128,0,189885:0:0:0:0:
256,192,189847,1,0,0:0:0:0:
109,192,189885,1,0,0:0:0:0:
402,192,189885,128,0,189960:0:0:0:0:
329,192,189922,1,0,0:0:0:0:
182,192,189960,128,0,190035:0:0:0:0:
36,192,189997,1,0,0:0:0:0:
256,192,190035,1,0,0:0:0:0:
402,192,190035,1,0,0:0:0:0:
475,192,190035,128,0,190110:0:0:0:0:
109,192,190072,1,0,0:0:0:0:
182,192,190110,128,0,190185:0:0:0:0:
329,192,190147,1,0,0:0:0:0:
475,192,190185,1,0,0:0:0:0:
36,192,190185,128,0,190260:0:0:0:0:
256,192,190222,1,0,0:0:0:0:
402,192,190260,128,0,190335:0:0:0:0:
109,192,190297,1,0,0:0:0:0:
182,192,190335,1,0,0:0:0:0:
475,192,190335,1,0,0:0:0:0:
329,192,190335,128,0,190410:0:0:0:0:
36,192,190372,1,0,0:0:0:0:
256,192,190410,128,0,190485:0:0:0:0:
109,192,190447,1,0,0:0:0:0:
329,192,190485,1,0,0:0:0:0:
182,192,190485,128,0,190560:0:0:0:0:
402,192,190522,1,0,0:0:0:0:
36,192,190560,128,0,190635:0:0:0:0:
109,192,190597,1,0,0:0:0:0:
329,192,190635,128,0,190710:0:0:0:0:
475,192,190635,128,0,190710:0:0:0:0:
182,192,190635,128,0,190785:0:0:0:0:
256,192,190635,128,0,190672:0:0:0:0:
402,192,190672,1,0,0:0:0:0:
36,192,190710,128,0,190785:0:0:0:0:
256,192,190747,1,0,0:0:0:0:
475,192,190785,1,0,0:0:0:0:
329,192,190785,128,0,190860:0:0:0:0:
109,192,190822,1,0,0:0:0:0:
182,192,190860,128,0,190935:0:0:0:0:
402,192,190897,1,0,0:0:0:0:
329,192,190935,1,0,0:0:0:0:
36,192,190935,1,0,0:0:0:0:
256,192,190935,128,0,191010:0:0:0:0:
109,192,190972,1,0,0:0:0:0:
402,192,191010,128,0,191085:0:0:0:0:
182,192,191047,1,0,0:0:0:0:
256,192,191085,1,0,0:0:0:0:
475,192,191085,128,0,191160:0:0:0:0:
36,192,191122,1,0,0:0:0:0:
109,192,191160,128,0,191235:0:0:0:0:
329,192,191197,1,0,0:0:0:0:
475,192,191235,1,0,0:0:0:0:
402,192,191235,1,0,0:0:0:0:
182,192,191235,128,0,191310:0:0:0:0:
36,192,191272,1,0,0:0:0:0:
256,192,191310,128,0,191385:0:0:0:0:
109,192,191347,1,0,0:0:0:0:
475,192,191385,1,0,0:0:0:0:
329,192,191385,128,0,191460:0:0:0:0:
182,192,191422,1,0,0:0:0:0:
36,192,191460,128,0,191535:0:0:0:0:
256,192,191497,1,0,0:0:0:0:
402,192,191535,1,0,0:0:0:0:
475,192,191535,1,0,0:0:0:0:
109,192,191535,128,0,191610:0:0:0:0:
329,192,191572,1,0,0:0:0:0:
182,192,191610,128,0,191685:0:0:0:0:
402,192,191647,1,0,0:0:0:0:
36,192,191685,1,0,0:0:0:0:
256,192,191685,128,0,191760:0:0:0:0:
109,192,191722,1,0,0:0:0:0:
329,192,191760,128,0,191797:0:0:0:0:
402,192,191797,1,0,0:0:0:0:
475,192,191835,128,0,191910:0:0:0:0:
256,192,191835,128,0,191985:0:0:0:0:
182,192,191835,128,0,191910:0:0:0:0:
36,192,191835,128,0,191910:0:0:0:0:
329,192,191872,1,0,0:0:0:0:
109,192,191910,128,0,191985:0:0:0:0:
402,192,191947,1,0,0:0:0:0:
36,192,191985,1,0,0:0:0:0:
182,192,191985,128,0,192060:0:0:0:0:
329,192,192022,1,0,0:0:0:0:
475,192,192060,128,0,192135:0:0:0:0:
256,192,192097,1,0,0:0:0:0:
109,192,192135,1,0,0:0:0:0:
36,192,192135,1,0,0:0:0:0:
402,192,192135,128,0,192210:0:0:0:0:
182,192,192172,1,0,0:0:0:0:
329,192,192210,128,0,192285:0:0:0:0:
475,192,192247,1,0,0:0:0:0:
36,192,192285,1,0,0:0:0:0:
256,192,192285,128,0,192360:0:0:0:0:
109,192,192322,1,0,0:0:0:0:
402,192,192360,128,0,192435:0:0:0:0:
329,192,192397,1,0,0:0:0:0:
36,192,192435,1,0,0:0:0:0:
256,192,192435,1,0,0:0:0:0:
182,192,192435,128,0,192510:0:0:0:0:
475,192,192472,1,0,0:0:0:0:
402,192,192510,128,0,192547:0:0:0:0:
329,192,192547,1,0,0:0:0:0:
109,192,192585,1,0,0:0:0:0:
256,192,192585,128,0,192660:0:0:0:0:
402,192,192622,1,0,0:0:0:0:
475,192,192660,128,0,192697:0:0:0:0:
182,192,192697,1,0,0:0:0:0:
36,192,192735,1,0,0:0:0:0:
109,192,192735,1,0,0:0:0:0:
329,192,192735,128,0,192810:0:0:0:0:
475,192,192772,1,0,0:0:0:0:
402,192,192810,1,0,0:0:0:0:
256,192,192847,1,0,0:0:0:0:
36,192,192885,1,0,0:0:0:0:
182,192,192885,128,0,192960:0:0:0:0:
475,192,192922,1,0,0:0:0:0:
329,192,192960,128,0,193035:0:0:0:0:
109,192,192997,1,0,0:0:0:0:
256,192,193035,1,0,0:0:0:0:
182,192,193035,128,0,193072:0:0:0:0:
36,192,193035,128,0,193185:0:0:0:0:
402,192,193035,128,0,193110:0:0:0:0:
475,192,193072,1,0,0:0:0:0:
329,192,193110,128,0,193185:0:0:0:0:
182,192,193147,1,0,0:0:0:0:
475,192,193185,1,0,0:0:0:0:
109,192,193185,128,0,193260:0:0:0:0:
256,192,193222,1,0,0:0:0:0:
402,192,193260,128,0,193335:0:0:0:0:
36,192,193297,1,0,0:0:0:0:
182,192,193335,1,0,0:0:0:0:
475,192,193335,1,0,0:0:0:0:
329,192,193335,128,0,193410:0:0:0:0:
109,192,193372,1,0,0:0:0:0:
256,192,193410,128,0,193485:0:0:0:0:
402,192,193447,1,0,0:0:0:0:
36,192,193485,1,0,0:0:0:0:
475,192,193485,128,0,193560:0:0:0:0:
182,192,193522,1,0,0:0:0:0:
329,192,193560,128,0,193635:0:0:0:0:
109,192,193597,1,0,0:0:0:0:
402,192,193635,1,0,0:0:0:0:
256,192,193635,128,0,193710:0:0:0:0:
475,192,193672,1,0,0:0:0:0:
182,192,193710,128,0,193785:0:0:0:0:
36,192,193747,1,0,0:0:0:0:
402,192,193785,1,0,0:0:0:0:
329,192,193785,128,0,193860:0:0:0:0:
109,192,193822,1,0,0:0:0:0:
256,192,193860,128,0,193935:0:0:0:0:
182,192,193897,1,0,0:0:0:0:
36,192,193935,1,0,0:0:0:0:
475,192,193935,1,0,0:0:0:0:
329,192,193935,1,0,0:0:0:0:
402,192,193935,128,0,194010:0:0:0:0:
109,192,193972,1,0,0:0:0:0:
256,192,194010,128,0,194085:0:0:0:0:
329,192,194047,1,0,0:0:0:0:
182,192,194085,1,0,0:0:0:0:
36,192,194085,1,0,0:0:0:0:
475,192,194085,1,0,0:0:0:0:
402,192,194085,128,0,194160:0:0:0:0:
109,192,194122,1,0,0:0:0:0:
256,192,194160,128,0,194235:0:0:0:0:
329,192,194197,1,0,0:0:0:0:
36,192,194235,128,0,194310:0:0:0:0:
182,192,194235,128,0,194310:0:0:0:0:
402,192,194235,128,0,194385:0:0:0:0:
475,192,194235,128,0,194310:0:0:0:0:
109,192,194272,1,0,0:0:0:0:
329,192,194310,1,0,0:0:0:0:
256,192,194347,1,0,0:0:0:0:
36,192,194385,1,0,0:0:0:0:
182,192,194385,128,0,194460:0:0:0:0:
475,192,194422,1,0,0:0:0:0:
402,192,194460,128,0,194535:0:0:0:0:
109,192,194497,1,0,0:0:0:0:
182,192,194535,1,0,0:0:0:0:
256,192,194535,1,0,0:0:0:0:
329,192,194535,128,0,194610:0:0:0:0:
36,192,194572,1,0,0:0:0:0:
402,192,194610,128,0,194685:0:0:0:0:
109,192,194647,1,0,0:0:0:0:
256,192,194685,1,0,0:0:0:0:
475,192,194685,128,0,194760:0:0:0:0:
182,192,194722,1,0,0:0:0:0:
36,192,194760,128,0,194835:0:0:0:0:
329,192,194797,1,0,0:0:0:0:
402,192,194835,1,0,0:0:0:0:
475,192,194835,1,0,0:0:0:0:
109,192,194835,128,0,194910:0:0:0:0:
256,192,194872,1,0,0:0:0:0:
182,192,194910,128,0,194985:0:0:0:0:
36,192,194947,1,0,0:0:0:0:
475,192,194985,1,0,0:0:0:0:
329,192,194985,128,0,195060:0:0:0:0:
109,192,195022,1,0,0:0:0:0:
256,192,195060,128,0,195135:0:0:0:0:
36,192,195097,1,0,0:0:0:0:
402,192,195135,1,0,0:0:0:0:
329,192,195135,1,0,0:0:0:0:
182,192,195135,128,0,195210:0:0:0:0:
109,192,195172,1,0,0:0:0:0:
256,192,195210,128,0,195285:0:0:0:0:
475,192,195247,1,0,0:0:0:0:
182,192,195285,1,0,0:0:0:0:
36,192,195285,128,0,195360:0:0:0:0:
402,192,195322,1,0,0:0:0:0:
329,192,195360,128,0,195397:0:0:0:0:
256,192,195397,1,0,0:0:0:0:
36,192,195435,128,0,195510:0:0:0:0:
109,192,195435,128,0,195510:0:0:0:0:
475,192,195435,128,0,195585:0:0:0:0:
182,192,195435,128,0,195510:0:0:0:0:
329,192,195472,1,0,0:0:0:0:
402,192,195510,128,0,195585:0:0:0:0:
256,192,195547,1,0,0:0:0:0:
36,192,195585,1,0,0:0:0:0:
182,192,195585,128,0,195660:0:0:0:0:
329,192,195622,1,0,0:0:0:0:
475,192,195660,128,0,195735:0:0:0:0:
256,192,195697,1,0,0:0:0:0:
182,192,195735,1,0,0:0:0:0:
402,192,195735,1,0,0:0:0:0:
109,192,195735,128,0,195810:0:0:0:0:
329,192,195772,1,0,0:0:0:0:
36,192,195810,128,0,195885:0:0:0:0:
256,192,195847,1,0,0:0:0:0:
475,192,195885,1,0,0:0:0:0:
402,192,195885,128,0,195960:0:0:0:0:
109,192,195922,1,0,0:0:0:0:
329,192,195960,128,0,196035:0:0:0:0:
36,192,195997,1,0,0:0:0:0:
182,192,196035,128,0,196635:0:0:0:0:
402,192,196035,1,0,0:0:0:0:
475,192,196035,1,0,0:0:0:0:
256,192,196035,128,0,196110:0:0:0:0:
109,192,196072,1,0,0:0:0:0:
329,192,196110,128,0,196185:0:0:0:0:
36,192,196147,1,0,0:0:0:0:
475,192,196185,1,0,0:0:0:0:
402,192,196185,128,0,196260:0:0:0:0:
256,192,196222,1,0,0:0:0:0:
109,192,196260,128,0,196335:0:0:0:0:
329,192,196297,1,0,0:0:0:0:
36,192,196335,1,0,0:0:0:0:
475,192,196335,128,0,196410:0:0:0:0:
256,192,196372,1,0,0:0:0:0:
402,192,196410,128,0,196485:0:0:0:0:
109,192,196447,1,0,0:0:0:0:
475,192,196485,1,0,0:0:0:0:
329,192,196485,128,0,196560:0:0:0:0:
36,192,196522,1,0,0:0:0:0:
256,192,196560,128,0,196597:0:0:0:0:
109,192,196597,1,0,0:0:0:0:
329,192,196635,128,0,197835:0:0:0:0:
402,192,196635,128,0,196710:0:0:0:0:
36,192,196635,128,0,196710:0:0:0:0:
475,192,196635,128,0,196747:0:0:0:0:
256,192,196672,1,0,0:0:0:0:
182,192,196710,128,0,196785:0:0:0:0:
109,192,196747,1,0,0:0:0:0:
402,192,196785,1,0,0:0:0:0:
36,192,196785,128,0,196860:0:0:0:0:
475,192,196822,1,0,0:0:0:0:
182,192,196860,128,0,196935:0:0:0:0:
256,192,196897,1,0,0:0:0:0:
36,192,196935,1,0,0:0:0:0:
109,192,196935,128,0,197010:0:0:0:0:
402,192,196972,1,0,0:0:0:0:
182,192,197010,128,0,197085:0:0:0:0:
475,192,197047,1,0,0:0:0:0:
36,192,197085,1,0,0:0:0:0:
256,192,197085,128,0,197160:0:0:0:0:
109,192,197122,1,0,0:0:0:0:
402,192,197160,128,0,197235:0:0:0:0:
182,192,197197,1,0,0:0:0:0:
256,192,197235,1,0,0:0:0:0:
475,192,197235,128,0,197310:0:0:0:0:
36,192,197272,1,0,0:0:0:0:
182,192,197310,128,0,197385:0:0:0:0:
109,192,197347,1,0,0:0:0:0:
402,192,197385,1,0,0:0:0:0:
256,192,197385,128,0,197460:0:0:0:0:
36,192,197422,1,0,0:0:0:0:
182,192,197460,128,0,197535:0:0:0:0:
109,192,197497,1,0,0:0:0:0:
402,192,197535,1,0,0:0:0:0:
475,192,197535,128,0,197610:0:0:0:0:
256,192,197572,1,0,0:0:0:0:
36,192,197610,128,0,197685:0:0:0:0:
182,192,197647,1,0,0:0:0:0:
402,192,197685,1,0,0:0:0:0:
109,192,197685,128,0,197760:0:0:0:0:
256,192,197722,1,0,0:0:0:0:
36,192,197760,128,0,197835:0:0:0:0:
182,192,197797,1,0,0:0:0:0:
475,192,197835,128,0,198435:0:0:0:0:
402,192,197835,128,0,197910:0:0:0:0:
109,192,197835,128,0,197947:0:0:0:0:
256,192,197872,1,0,0:0:0:0:
36,192,197910,128,0,197985:0:0:0:0:
182,192,197947,1,0,0:0:0:0:
402,192,197985,1,0,0:0:0:0:
329,192,197985,128,0,198060:0:0:0:0:
109,192,198022,1,0,0:0:0:0:
256,192,198060,128,0,198135:0:0:0:0:
36,192,198097,1,0,0:0:0:0:
402,192,198135,1,0,0:0:0:0:
182,192,198135,128,0,198210:0:0:0:0:
329,192,198172,1,0,0:0:0:0:
109,192,198210,128,0,198285:0:0:0:0:
256,192,198247,1,0,0:0:0:0:
182,192,198285,1,0,0:0:0:0:
36,192,198285,128,0,198360:0:0:0:0:
329,192,198322,1,0,0:0:0:0:
109,192,198360,128,0,198435:0:0:0:0:
182,192,198397,1,0,0:0:0:0:
402,192,198435,128,0,199035:0:0:0:0:
256,192,198435,128,0,198510:0:0:0:0:
329,192,198435,128,0,198585:0:0:0:0:
36,192,198472,1,0,0:0:0:0:
109,192,198510,128,0,198547:0:0:0:0:
182,192,198547,1,0,0:0:0:0:
475,192,198585,1,0,0:0:0:0:
256,192,198585,128,0,198660:0:0:0:0:
109,192,198622,1,0,0:0:0:0:
36,192,198660,128,0,198735:0:0:0:0:
182,192,198697,1,0,0:0:0:0:
256,192,198735,1,0,0:0:0:0:
329,192,198735,128,0,198810:0:0:0:0:
109,192,198772,1,0,0:0:0:0:
36,192,198810,128,0,198847:0:0:0:0:
182,192,198847,1,0,0:0:0:0:
256,192,198885,1,0,0:0:0:0:
329,192,198885,1,0,0:0:0:0:
475,192,198885,128,0,198960:0:0:0:0:
36,192,198922,1,0,0:0:0:0:
109,192,198960,1,0,0:0:0:0:
182,192,198997,1,0,0:0:0:0:
329,192,199035,128,0,200835:0:0:0:0:
36,192,199035,128,0,199110:0:0:0:0:
475,192,199035,128,0,199110:0:0:0:0:
256,192,199035,128,0,199147:0:0:0:0:
109,192,199072,1,0,0:0:0:0:
182,192,199110,128,0,199185:0:0:0:0:
402,192,199147,1,0,0:0:0:0:
475,192,199185,1,0,0:0:0:0:
36,192,199185,128,0,199260:0:0:0:0:
256,192,199222,1,0,0:0:0:0:
109,192,199260,128,0,199335:0:0:0:0:
182,192,199297,1,0,0:0:0:0:
36,192,199335,1,0,0:0:0:0:
402,192,199335,128,0,199410:0:0:0:0:
475,192,199372,1,0,0:0:0:0:
256,192,199410,128,0,199485:0:0:0:0:
109,192,199447,1,0,0:0:0:0:
36,192,199485,1,0,0:0:0:0:
182,192,199485,128,0,199560:0:0:0:0:
402,192,199522,1,0,0:0:0:0:
256,192,199560,128,0,199597:0:0:0:0:
109,192,199597,1,0,0:0:0:0:
182,192,199635,1,0,0:0:0:0:
475,192,199635,128,0,199710:0:0:0:0:
256,192,199672,1,0,0:0:0:0:
36,192,199710,128,0,199785:0:0:0:0:
109,192,199747,1,0,0:0:0:0:
402,192,199785,1,0,0:0:0:0:
182,192,199785,128,0,199860:0:0:0:0:
475,192,199822,1,0,0:0:0:0:
256,192,199860,128,0,199935:0:0:0:0:
109,192,199897,1,0,0:0:0:0:
182,192,199935,1,0,0:0:0:0:
36,192,199935,128,0,200010:0:0:0:0:
475,192,199972,1,0,0:0:0:0:
256,192,200010,128,0,200085:0:0:0:0:
109,192,200047,1,0,0:0:0:0:
182,192,200085,1,0,0:0:0:0:
402,192,200085,128,0,200160:0:0:0:0:
475,192,200122,1,0,0:0:0:0:
36,192,200160,128,0,200235:0:0:0:0:
256,192,200197,1,0,0:0:0:0:
402,192,200235,1,0,0:0:0:0:
109,192,200235,128,0,200310:0:0:0:0:
182,192,200272,1,0,0:0:0:0:
36,192,200310,128,0,200385:0:0:0:0:
256,192,200347,1,0,0:0:0:0:
475,192,200385,1,0,0:0:0:0:
109,192,200385,128,0,200460:0:0:0:0:
402,192,200422,1,0,0:0:0:0:
182,192,200460,128,0,200535:0:0:0:0:
36,192,200497,1,0,0:0:0:0:
109,192,200535,1,0,0:0:0:0:
475,192,200535,128,0,200610:0:0:0:0:
256,192,200572,1,0,0:0:0:0:
182,192,200610,128,0,200685:0:0:0:0:
36,192,200647,1,0,0:0:0:0:
475,192,200685,1,0,0:0:0:0:
402,192,200685,128,0,200760:0:0:0:0:
109,192,200722,1,0,0:0:0:0:
182,192,200760,128,0,200835:0:0:0:0:
36,192,200797,1,0,0:0:0:0:
256,192,200835,128,0,201360:0:0:0:0:
475,192,200835,128,0,200910:0:0:0:0:
402,192,200835,128,0,200947:0:0:0:0:
109,192,200872,1,0,0:0:0:0:
182,192,200910,128,0,200985:0:0:0:0:
329,192,200947,1,0,0:0:0:0:
36,192,200985,1,0,0:0:0:0:
475,192,200985,128,0,201060:0:0:0:0:
402,192,201022,1,0,0:0:0:0:
109,192,201060,128,0,201135:0:0:0:0:
36,192,201097,1,0,0:0:0:0:
402,192,201135,1,0,0:0:0:0:
475,192,201135,1,0,0:0:0:0:
329,192,201135,128,0,201210:0:0:0:0:
182,192,201172,1,0,0:0:0:0:
109,192,201210,1,0,0:0:0:0:
36,192,201247,1,0,0:0:0:0:
475,192,201285,1,0,0:0:0:0:
402,192,201285,1,0,0:0:0:0:
329,192,201285,128,0,201360:0:0:0:0:
182,192,201322,1,0,0:0:0:0:
109,192,201360,1,0,0:0:0:0:
36,192,201397,1,0,0:0:0:0:
475,192,201435,128,0,201603:0:0:0:0:
402,192,201435,128,0,201491:0:0:0:0:
329,192,201435,128,0,201510:0:0:0:0:
256,192,201435,128,0,201528:0:0:0:0:
182,192,201472,128,0,201547:0:0:0:0:
36,192,201510,128,0,201585:0:0:0:0:
109,192,201510,128,0,201566:0:0:0:0:
182,192,201585,128,0,201678:0:0:0:0:
256,192,201585,128,0,201660:0:0:0:0:
329,192,201585,128,0,201641:0:0:0:0:
402,192,201585,128,0,201753:0:0:0:0:
109,192,201622,128,0,201697:0:0:0:0:
475,192,201660,128,0,201716:0:0:0:0:
36,192,201660,128,0,201735:0:0:0:0:
109,192,201735,128,0,201828:0:0:0:0:
256,192,201735,128,0,201791:0:0:0:0:
182,192,201735,128,0,201810:0:0:0:0:
329,192,201735,128,0,201903:0:0:0:0:
36,192,201772,128,0,201847:0:0:0:0:
402,192,201810,128,0,201866:0:0:0:0:
475,192,201810,128,0,201885:0:0:0:0:
256,192,201885,128,0,201960:0:0:0:0:
182,192,201885,128,0,201941:0:0:0:0:
109,192,201885,128,0,201960:0:0:0:0:
36,192,201885,128,0,201978:0:0:0:0:
475,192,201922,128,0,201997:0:0:0:0:
329,192,201960,128,0,202035:0:0:0:0:
402,192,201960,128,0,202016:0:0:0:0:
36,192,202035,128,0,202203:0:0:0:0:
109,192,202035,128,0,202091:0:0:0:0:
182,192,202035,128,0,202110:0:0:0:0:
256,192,202035,128,0,202128:0:0:0:0:
329,192,202072,128,0,202147:0:0:0:0:
402,192,202110,128,0,202166:0:0:0:0:
475,192,202110,128,0,202185:0:0:0:0:
109,192,202185,128,0,202353:0:0:0:0:
182,192,202185,128,0,202241:0:0:0:0:
256,192,202185,128,0,202260:0:0:0:0:
329,192,202185,128,0,202278:0:0:0:0:
402,192,202222,128,0,202297:0:0:0:0:
36,192,202260,128,0,202335:0:0:0:0:
475,192,202260,128,0,202316:0:0:0:0:
182,192,202335,128,0,202372:0:0:0:0:
256,192,202335,128,0,202391:0:0:0:0:
329,192,202335,128,0,202410:0:0:0:0:
402,192,202335,128,0,202428:0:0:0:0:
475,192,202372,128,0,202447:0:0:0:0:
36,192,202410,128,0,202466:0:0:0:0:
109,192,202410,128,0,202503:0:0:0:0:
256,192,202485,1,0,0:0:0:0:
329,192,202485,1,0,0:0:0:0:
402,192,202485,1,0,0:0:0:0:
475,192,202485,1,0,0:0:0:0:
182,192,202485,1,0,0:0:0:0:
182,192,202560,1,0,0:0:0:0:
256,192,202560,1,0,0:0:0:0:
329,192,202560,1,0,0:0:0:0:
402,192,202560,1,0,0:0:0:0:
475,192,202560,1,0,0:0:0:0:
475,192,202635,128,0,202803:0:0:0:0:
402,192,202635,128,0,202691:0:0:0:0:
329,192,202635,128,0,202710:0:0:0:0:
256,192,202635,128,0,202728:0:0:0:0:
182,192,202672,128,0,202747:0:0:0:0:
109,192,202710,128,0,202766:0:0:0:0:
36,192,202710,128,0,202785:0:0:0:0:
182,192,202785,128,0,202878:0:0:0:0:
256,192,202785,128,0,202860:0:0:0:0:
329,192,202785,128,0,202841:0:0:0:0:
402,192,202785,128,0,202953:0:0:0:0:
109,192,202822,128,0,202897:0:0:0:0:
36,192,202860,128,0,202916:0:0:0:0:
475,192,202860,128,0,202935:0:0:0:0:
109,192,202935,128,0,203028:0:0:0:0:
182,192,202935,128,0,203066:0:0:0:0:
256,192,202935,128,0,203010:0:0:0:0:
329,192,202935,128,0,203103:0:0:0:0:
36,192,202972,128,0,203047:0:0:0:0:
402,192,203010,128,0,203141:0:0:0:0:
475,192,203010,128,0,203178:0:0:0:0:
256,192,203085,128,0,203141:0:0:0:0:
109,192,203085,128,0,203160:0:0:0:0:
36,192,203085,128,0,203178:0:0:0:0:
182,192,203160,128,0,203216:0:0:0:0:
329,192,203160,128,0,203253:0:0:0:0:
109,192,203235,1,0,0:0:0:0:
402,192,203235,1,0,0:0:0:0:
256,192,203235,1,0,0:0:0:0:
36,192,203235,1,0,0:0:0:0:
475,192,203235,1,0,0:0:0:0:
109,192,203310,1,0,0:0:0:0:
402,192,203310,1,0,0:0:0:0:
256,192,203310,1,0,0:0:0:0:
36,192,203310,1,0,0:0:0:0:
475,192,203310,1,0,0:0:0:0:
36,192,203385,128,0,203441:0:0:0:0:
109,192,203385,128,0,203460:0:0:0:0:
402,192,203385,128,0,203478:0:0:0:0:
475,192,203385,128,0,203460:0:0:0:0:
329,192,203422,128,0,203497:0:0:0:0:
256,192,203460,128,0,203535:0:0:0:0:
182,192,203497,128,0,203572:0:0:0:0:
36,192,203535,128,0,203610:0:0:0:0:
109,192,203535,128,0,203591:0:0:0:0:
402,192,203535,128,0,203628:0:0:0:0:
475,192,203535,128,0,203610:0:0:0:0:
182,192,203610,128,0,203703:0:0:0:0:
256,192,203610,128,0,203685:0:0:0:0:
329,192,203610,128,0,203666:0:0:0:0:
109,192,203685,128,0,203741:0:0:0:0:
36,192,203685,128,0,203760:0:0:0:0:
402,192,203685,128,0,203778:0:0:0:0:
475,192,203685,128,0,203760:0:0:0:0:
182,192,203760,128,0,203853:0:0:0:0:
256,192,203760,128,0,203835:0:0:0:0:
329,192,203760,128,0,203816:0:0:0:0:
36,192,203835,1,0,0:0:0:0:
402,192,203835,1,0,0:0:0:0:
475,192,203835,1,0,0:0:0:0:
109,192,203835,128,0,203985:0:0:0:0:
329,192,203872,1,0,0:0:0:0:
256,192,203910,128,0,203985:0:0:0:0:
182,192,203910,1,0,0:0:0:0:
329,192,203985,128,0,204135:0:0:0:0:
402,192,203985,1,0,0:0:0:0:
475,192,203985,1,0,0:0:0:0:
36,192,203985,1,0,0:0:0:0:
182,192,204060,128,0,204135:0:0:0:0:
109,192,204060,1,0,0:0:0:0:
256,192,204097,1,0,0:0:0:0:
36,192,204135,128,0,204285:0:0:0:0:
402,192,204135,1,0,0:0:0:0:
475,192,204135,1,0,0:0:0:0:
256,192,204210,128,0,204285:0:0:0:0:
182,192,204210,1,0,0:0:0:0:
329,192,204247,1,0,0:0:0:0:
475,192,204285,128,0,204435:0:0:0:0:
109,192,204285,1,0,0:0:0:0:
402,192,204285,1,0,0:0:0:0:
329,192,204360,128,0,204435:0:0:0:0:
256,192,204360,1,0,0:0:0:0:
36,192,204397,1,0,0:0:0:0:
182,192,204435,128,0,204585:0:0:0:0:
109,192,204435,1,0,0:0:0:0:
402,192,204435,1,0,0:0:0:0:
36,192,204510,128,0,204585:0:0:0:0:
256,192,204510,1,0,0:0:0:0:
329,192,204547,1,0,0:0:0:0:
402,192,204585,128,0,204735:0:0:0:0:
475,192,204585,1,0,0:0:0:0:
109,192,204585,1,0,0:0:0:0:
256,192,204660,128,0,204735:0:0:0:0:
182,192,204660,1,0,0:0:0:0:
109,192,204735,128,0,204885:0:0:0:0:
36,192,204735,1,0,0:0:0:0:
475,192,204735,1,0,0:0:0:0:
402,192,204772,1,0,0:0:0:0:
329,192,204810,128,0,204885:0:0:0:0:
182,192,204810,1,0,0:0:0:0:
475,192,204885,128,0,205035:0:0:0:0:
256,192,204885,1,0,0:0:0:0:
36,192,204885,1,0,0:0:0:0:
182,192,204960,128,0,205035:0:0:0:0:
402,192,204960,1,0,0:0:0:0:
329,192,204997,1,0,0:0:0:0:
36,192,205035,128,0,205185:0:0:0:0:
109,192,205035,1,0,0:0:0:0:
256,192,205035,1,0,0:0:0:0:
329,192,205110,128,0,205185:0:0:0:0:
182,192,205110,1,0,0:0:0:0:
256,192,205185,128,0,205335:0:0:0:0:
475,192,205185,1,0,0:0:0:0:
402,192,205185,1,0,0:0:0:0:
109,192,205260,128,0,205335:0:0:0:0:
329,192,205260,1,0,0:0:0:0:
402,192,205297,1,0,0:0:0:0:
475,192,205335,128,0,205485:0:0:0:0:
36,192,205335,1,0,0:0:0:0:
182,192,205335,1,0,0:0:0:0:
329,192,205410,128,0,205485:0:0:0:0:
109,192,205410,1,0,0:0:0:0:
182,192,205485,128,0,205635:0:0:0:0:
402,192,205485,1,0,0:0:0:0:
256,192,205485,1,0,0:0:0:0:
109,192,205522,1,0,0:0:0:0:
36,192,205560,128,0,205635:0:0:0:0:
329,192,205560,1,0,0:0:0:0:
402,192,205635,128,0,205785:0:0:0:0:
109,192,205635,1,0,0:0:0:0:
475,192,205635,1,0,0:0:0:0:
329,192,205672,1,0,0:0:0:0:
256,192,205710,128,0,205785:0:0:0:0:
182,192,205710,1,0,0:0:0:0:
109,192,205785,128,0,205935:0:0:0:0:
36,192,205785,1,0,0:0:0:0:
475,192,205785,1,0,0:0:0:0:
329,192,205860,128,0,205935:0:0:0:0:
256,192,205860,1,0,0:0:0:0:
182,192,205897,1,0,0:0:0:0:
475,192,205935,128,0,206085:0:0:0:0:
36,192,205935,1,0,0:0:0:0:
402,192,205935,1,0,0:0:0:0:
182,192,206010,128,0,206085:0:0:0:0:
329,192,206010,1,0,0:0:0:0:
109,192,206047,1,0,0:0:0:0:
36,192,206085,128,0,206235:0:0:0:0:
256,192,206085,1,0,0:0:0:0:
402,192,206085,1,0,0:0:0:0:
329,192,206160,128,0,206235:0:0:0:0:
182,192,206160,1,0,0:0:0:0:
256,192,206235,128,0,206385:0:0:0:0:
402,192,206235,1,0,0:0:0:0:
475,192,206235,1,0,0:0:0:0:
109,192,206310,128,0,206385:0:0:0:0:
182,192,206310,1,0,0:0:0:0:
329,192,206347,1,0,0:0:0:0:
475,192,206385,128,0,206535:0:0:0:0:
402,192,206385,1,0,0:0:0:0:
36,192,206385,1,0,0:0:0:0:
329,192,206460,128,0,206535:0:0:0:0:
109,192,206460,1,0,0:0:0:0:
182,192,206535,128,0,206685:0:0:0:0:
256,192,206535,1,0,0:0:0:0:
402,192,206535,1,0,0:0:0:0:
36,192,206610,128,0,206685:0:0:0:0:
329,192,206610,1,0,0:0:0:0:
256,192,206647,1,0,0:0:0:0:
402,192,206685,128,0,206835:0:0:0:0:
109,192,206685,1,0,0:0:0:0:
475,192,206685,1,0,0:0:0:0:
256,192,206760,128,0,206835:0:0:0:0:
182,192,206760,1,0,0:0:0:0:
329,192,206797,1,0,0:0:0:0:
109,192,206835,128,0,206985:0:0:0:0:
36,192,206835,1,0,0:0:0:0:
475,192,206835,1,0,0:0:0:0:
329,192,206910,128,0,206985:0:0:0:0:
256,192,206910,1,0,0:0:0:0:
182,192,206947,1,0,0:0:0:0:
475,192,206985,128,0,207135:0:0:0:0:
36,192,206985,1,0,0:0:0:0:
402,192,206985,1,0,0:0:0:0:
182,192,207060,128,0,207135:0:0:0:0:
329,192,207060,1,0,0:0:0:0:
256,192,207097,1,0,0:0:0:0:
36,192,207135,128,0,207285:0:0:0:0:
109,192,207135,1,0,0:0:0:0:
402,192,207135,1,0,0:0:0:0:
256,192,207210,128,0,207285:0:0:0:0:
475,192,207210,1,0,0:0:0:0:
402,192,207247,1,0,0:0:0:0:
329,192,207285,1,0,0:0:0:0:
182,192,207285,1,0,0:0:0:0:
109,192,207285,128,0,207435:0:0:0:0:
475,192,207360,128,0,207435:0:0:0:0:
256,192,207360,1,0,0:0:0:0:
402,192,207435,128,0,207585:0:0:0:0:
36,192,207435,1,0,0:0:0:0:
329,192,207435,128,0,207472:0:0:0:0:
182,192,207510,128,0,207585:0:0:0:0:
109,192,207510,1,0,0:0:0:0:
256,192,207510,128,0,207547:0:0:0:0:
36,192,207585,128,0,207735:0:0:0:0:
475,192,207585,1,0,0:0:0:0:
329,192,207585,128,0,207622:0:0:0:0:
475,192,207660,128,0,207735:0:0:0:0:
256,192,207660,1,0,0:0:0:0:
109,192,207660,1,0,0:0:0:0:
329,192,207735,128,0,207885:0:0:0:0:
182,192,207735,1,0,0:0:0:0:
402,192,207735,128,0,207772:0:0:0:0:
109,192,207810,128,0,207885:0:0:0:0:
256,192,207810,1,0,0:0:0:0:
475,192,207810,128,0,207847:0:0:0:0:
182,192,207885,128,0,208035:0:0:0:0:
36,192,207885,1,0,0:0:0:0:
402,192,207885,128,0,207922:0:0:0:0:
329,192,207960,128,0,208035:0:0:0:0:
256,192,207960,1,0,0:0:0:0:
475,192,207960,1,0,0:0:0:0:
36,192,208035,128,0,208185:0:0:0:0:
402,192,208035,1,0,0:0:0:0:
109,192,208035,128,0,208072:0:0:0:0:
475,192,208110,128,0,208185:0:0:0:0:
256,192,208110,1,0,0:0:0:0:
182,192,208110,128,0,208147:0:0:0:0:
329,192,208185,128,0,208335:0:0:0:0:
402,192,208185,1,0,0:0:0:0:
109,192,208185,128,0,208222:0:0:0:0:
36,192,208260,128,0,208335:0:0:0:0:
182,192,208260,1,0,0:0:0:0:
256,192,208260,1,0,0:0:0:0:
402,192,208335,128,0,208485:0:0:0:0:
109,192,208335,1,0,0:0:0:0:
475,192,208335,128,0,208372:0:0:0:0:
256,192,208410,1,0,0:0:0:0:
329,192,208410,128,0,208447:0:0:0:0:
182,192,208410,1,0,0:0:0:0:
36,192,208485,128,0,208635:0:0:0:0:
109,192,208485,1,0,0:0:0:0:
475,192,208485,128,0,208522:0:0:0:0:
182,192,208485,1,0,0:0:0:0:
256,192,208560,128,0,208635:0:0:0:0:
329,192,208560,1,0,0:0:0:0:
402,192,208560,1,0,0:0:0:0:
109,192,208635,128,0,208785:0:0:0:0:
475,192,208635,1,0,0:0:0:0:
182,192,208635,128,0,208672:0:0:0:0:
329,192,208710,128,0,208785:0:0:0:0:
402,192,208710,1,0,0:0:0:0:
256,192,208710,128,0,208747:0:0:0:0:
475,192,208785,128,0,208935:0:0:0:0:
36,192,208785,1,0,0:0:0:0:
182,192,208785,128,0,208822:0:0:0:0:
256,192,208860,128,0,208935:0:0:0:0:
109,192,208860,1,0,0:0:0:0:
329,192,208860,1,0,0:0:0:0:
402,192,208935,128,0,209085:0:0:0:0:
36,192,208935,1,0,0:0:0:0:
182,192,208935,128,0,208972:0:0:0:0:
109,192,209010,128,0,209085:0:0:0:0:
329,192,209010,1,0,0:0:0:0:
256,192,209010,128,0,209047:0:0:0:0:
36,192,209085,128,0,209235:0:0:0:0:
475,192,209085,1,0,0:0:0:0:
182,192,209085,128,0,209122:0:0:0:0:
109,192,209160,128,0,209235:0:0:0:0:
256,192,209160,1,0,0:0:0:0:
402,192,209160,1,0,0:0:0:0:
329,192,209235,128,0,209385:0:0:0:0:
475,192,209235,1,0,0:0:0:0:
182,192,209235,128,0,209272:0:0:0:0:
256,192,209310,128,0,209385:0:0:0:0:
36,192,209310,1,0,0:0:0:0:
109,192,209310,128,0,209347:0:0:0:0:
475,192,209385,128,0,209535:0:0:0:0:
402,192,209385,1,0,0:0:0:0:
182,192,209385,128,0,209422:0:0:0:0:
256,192,209460,128,0,209535:0:0:0:0:
109,192,209460,1,0,0:0:0:0:
329,192,209460,1,0,0:0:0:0:
36,192,209535,128,0,209685:0:0:0:0:
182,192,209535,1,0,0:0:0:0:
402,192,209535,128,0,209572:0:0:0:0:
329,192,209610,128,0,209685:0:0:0:0:
256,192,209610,1,0,0:0:0:0:
475,192,209610,128,0,209647:0:0:0:0:
182,192,209685,128,0,209835:0:0:0:0:
109,192,209685,1,0,0:0:0:0:
402,192,209685,128,0,209722:0:0:0:0:
256,192,209760,128,0,209835:0:0:0:0:
36,192,209760,1,0,0:0:0:0:
475,192,209760,1,0,0:0:0:0:
329,192,209835,128,0,209985:0:0:0:0:
402,192,209835,1,0,0:0:0:0:
109,192,209835,128,0,209872:0:0:0:0:
475,192,209910,128,0,209985:0:0:0:0:
36,192,209910,1,0,0:0:0:0:
182,192,209910,128,0,209947:0:0:0:0:
256,192,209985,128,0,210135:0:0:0:0:
402,192,209985,1,0,0:0:0:0:
109,192,209985,128,0,210022:0:0:0:0:
329,192,210060,128,0,210135:0:0:0:0:
182,192,210060,1,0,0:0:0:0:
36,192,210060,1,0,0:0:0:0:
475,192,210135,128,0,210285:0:0:0:0:
109,192,210135,1,0,0:0:0:0:
402,192,210135,128,0,210172:0:0:0:0:
36,192,210210,128,0,210285:0:0:0:0:
182,192,210210,1,0,0:0:0:0:
329,192,210210,128,0,210247:0:0:0:0:
256,192,210285,128,0,210435:0:0:0:0:
109,192,210285,1,0,0:0:0:0:
402,192,210285,128,0,210322:0:0:0:0:
182,192,210360,128,0,210435:0:0:0:0:
329,192,210360,1,0,0:0:0:0:
475,192,210360,1,0,0:0:0:0:
36,192,210435,128,0,210585:0:0:0:0:
109,192,210435,1,0,0:0:0:0:
402,192,210435,128,0,210472:0:0:0:0:
329,192,210510,128,0,210585:0:0:0:0:
256,192,210510,1,0,0:0:0:0:
475,192,210510,128,0,210547:0:0:0:0:
182,192,210585,128,0,210735:0:0:0:0:
109,192,210585,1,0,0:0:0:0:
402,192,210585,128,0,210622:0:0:0:0:
475,192,210660,128,0,210735:0:0:0:0:
256,192,210660,1,0,0:0:0:0:
329,192,210660,1,0,0:0:0:0:
36,192,210735,128,0,210885:0:0:0:0:
402,192,210735,1,0,0:0:0:0:
109,192,210735,128,0,210772:0:0:0:0:
329,192,210810,128,0,210885:0:0:0:0:
475,192,210810,1,0,0:0:0:0:
182,192,210810,128,0,210847:0:0:0:0:
256,192,210885,128,0,211035:0:0:0:0:
402,192,210885,1,0,0:0:0:0:
109,192,210885,128,0,210922:0:0:0:0:
182,192,210960,128,0,211035:0:0:0:0:
36,192,210960,1,0,0:0:0:0:
329,192,210960,1,0,0:0:0:0:
475,192,211035,128,0,211185:0:0:0:0:
109,192,211035,1,0,0:0:0:0:
402,192,211035,128,0,211072:0:0:0:0:
329,192,211110,128,0,211185:0:0:0:0:
36,192,211110,1,0,0:0:0:0:
256,192,211110,128,0,211147:0:0:0:0:
182,192,211185,128,0,211335:0:0:0:0:
109,192,211185,1,0,0:0:0:0:
402,192,211185,128,0,211222:0:0:0:0:
329,192,211260,128,0,211335:0:0:0:0:
256,192,211260,1,0,0:0:0:0:
475,192,211260,1,0,0:0:0:0:
36,192,211335,128,0,211485:0:0:0:0:
402,192,211335,1,0,0:0:0:0:
109,192,211335,128,0,211372:0:0:0:0:
256,192,211410,128,0,211485:0:0:0:0:
329,192,211410,1,0,0:0:0:0:
182,192,211410,128,0,211447:0:0:0:0:
475,192,211485,128,0,211635:0:0:0:0:
402,192,211485,1,0,0:0:0:0:
109,192,211485,128,0,211522:0:0:0:0:
182,192,211560,128,0,211635:0:0:0:0:
36,192,211560,1,0,0:0:0:0:
256,192,211560,1,0,0:0:0:0:
329,192,211635,128,0,211785:0:0:0:0:
109,192,211635,1,0,0:0:0:0:
402,192,211635,128,0,211672:0:0:0:0:
182,192,211710,128,0,211785:0:0:0:0:
256,192,211710,1,0,0:0:0:0:
475,192,211710,128,0,211747:0:0:0:0:
36,192,211785,128,0,211935:0:0:0:0:
109,192,211785,1,0,0:0:0:0:
402,192,211785,128,0,211822:0:0:0:0:
329,192,211860,128,0,211935:0:0:0:0:
182,192,211860,1,0,0:0:0:0:
475,192,211860,1,0,0:0:0:0:
256,192,211935,128,0,212085:0:0:0:0:
402,192,211935,1,0,0:0:0:0:
109,192,211935,128,0,211972:0:0:0:0:
36,192,212010,128,0,212085:0:0:0:0:
329,192,212010,1,0,0:0:0:0:
182,192,212010,128,0,212047:0:0:0:0:
475,192,212085,128,0,212235:0:0:0:0:
402,192,212085,1,0,0:0:0:0:
109,192,212085,128,0,212122:0:0:0:0:
329,192,212160,128,0,212235:0:0:0:0:
182,192,212160,1,0,0:0:0:0:
256,192,212160,1,0,0:0:0:0:
36,192,212235,128,0,212385:0:0:0:0:
402,192,212235,1,0,0:0:0:0:
109,192,212235,128,0,212272:0:0:0:0:
182,192,212310,128,0,212385:0:0:0:0:
329,192,212310,1,0,0:0:0:0:
256,192,212310,128,0,212347:0:0:0:0:
402,192,212385,128,0,212535:0:0:0:0:
475,192,212385,1,0,0:0:0:0:
109,192,212385,128,0,212422:0:0:0:0:
256,192,212460,128,0,212535:0:0:0:0:
182,192,212460,1,0,0:0:0:0:
36,192,212460,1,0,0:0:0:0:
109,192,212535,128,0,212685:0:0:0:0:
475,192,212535,1,0,0:0:0:0:
329,192,212535,128,0,212572:0:0:0:0:
402,192,212610,128,0,212685:0:0:0:0:
36,192,212610,1,0,0:0:0:0:
256,192,212610,128,0,212647:0:0:0:0:
182,192,212685,128,0,212835:0:0:0:0:
475,192,212685,1,0,0:0:0:0:
329,192,212685,128,0,212722:0:0:0:0:
256,192,212760,128,0,212835:0:0:0:0:
402,192,212760,1,0,0:0:0:0:
109,192,212760,1,0,0:0:0:0:
36,192,212835,128,0,212985:0:0:0:0:
329,192,212835,1,0,0:0:0:0:
475,192,212835,128,0,212872:0:0:0:0:
402,192,212910,128,0,212985:0:0:0:0:
182,192,212910,1,0,0:0:0:0:
256,192,212910,128,0,212947:0:0:0:0:
329,192,212985,128,0,213135:0:0:0:0:
109,192,212985,1,0,0:0:0:0:
475,192,212985,128,0,213022:0:0:0:0:
256,192,213060,128,0,213135:0:0:0:0:
36,192,213060,1,0,0:0:0:0:
182,192,213060,1,0,0:0:0:0:
402,192,213135,128,0,213285:0:0:0:0:
475,192,213135,1,0,0:0:0:0:
109,192,213135,128,0,213172:0:0:0:0:
329,192,213210,1,0,0:0:0:0:
256,192,213210,128,0,213247:0:0:0:0:
182,192,213210,128,0,213285:0:0:0:0:
475,192,213285,128,0,213435:0:0:0:0:
36,192,213285,1,0,0:0:0:0:
109,192,213285,128,0,213322:0:0:0:0:
329,192,213285,1,0,0:0:0:0:
182,192,213360,128,0,213435:0:0:0:0:
256,192,213360,1,0,0:0:0:0:
402,192,213360,1,0,0:0:0:0:
329,192,213435,128,0,213585:0:0:0:0:
36,192,213435,1,0,0:0:0:0:
402,192,213435,1,0,0:0:0:0:
109,192,213435,128,0,213472:0:0:0:0:
182,192,213510,128,0,213585:0:0:0:0:
475,192,213510,1,0,0:0:0:0:
256,192,213510,128,0,213547:0:0:0:0:
402,192,213585,128,0,213735:0:0:0:0:
36,192,213585,1,0,0:0:0:0:
109,192,213585,128,0,213622:0:0:0:0:
256,192,213660,128,0,213735:0:0:0:0:
182,192,213660,1,0,0:0:0:0:
329,192,213660,1,0,0:0:0:0:
36,192,213735,128,0,213885:0:0:0:0:
109,192,213735,1,0,0:0:0:0:
475,192,213735,128,0,213772:0:0:0:0:
182,192,213810,128,0,213885:0:0:0:0:
256,192,213810,1,0,0:0:0:0:
402,192,213810,128,0,213847:0:0:0:0:
475,192,213885,128,0,214035:0:0:0:0:
109,192,213885,1,0,0:0:0:0:
329,192,213885,128,0,213922:0:0:0:0:
402,192,213960,128,0,214035:0:0:0:0:
182,192,213960,1,0,0:0:0:0:
256,192,213960,1,0,0:0:0:0:
109,192,214035,128,0,214185:0:0:0:0:
36,192,214035,128,0,214072:0:0:0:0:
329,192,214035,128,0,214147:0:0:0:0:
256,192,214110,128,0,214185:0:0:0:0:
475,192,214110,1,0,0:0:0:0:
182,192,214110,128,0,214147:0:0:0:0:
402,192,214185,128,0,214335:0:0:0:0:
329,192,214185,1,0,0:0:0:0:
36,192,214185,128,0,214222:0:0:0:0:
475,192,214260,128,0,214335:0:0:0:0:
109,192,214260,1,0,0:0:0:0:
256,192,214260,1,0,0:0:0:0:
182,192,214335,128,0,214485:0:0:0:0:
36,192,214335,1,0,0:0:0:0:
329,192,214335,128,0,214372:0:0:0:0:
256,192,214410,128,0,214485:0:0:0:0:
475,192,214410,1,0,0:0:0:0:
402,192,214410,128,0,214447:0:0:0:0:
36,192,214485,128,0,214635:0:0:0:0:
109,192,214485,1,0,0:0:0:0:
329,192,214485,128,0,214522:0:0:0:0:
256,192,214560,128,0,214635:0:0:0:0:
402,192,214560,1,0,0:0:0:0:
475,192,214560,1,0,0:0:0:0:
329,192,214635,128,0,214785:0:0:0:0:
109,192,214635,128,0,214747:0:0:0:0:
182,192,214635,128,0,214672:0:0:0:0:
36,192,214710,128,0,214785:0:0:0:0:
475,192,214710,1,0,0:0:0:0:
256,192,214710,128,0,214747:0:0:0:0:
402,192,214785,128,0,214935:0:0:0:0:
109,192,214785,1,0,0:0:0:0:
182,192,214785,128,0,214822:0:0:0:0:
256,192,214860,128,0,214935:0:0:0:0:
329,192,214860,1,0,0:0:0:0:
475,192,214860,1,0,0:0:0:0:
36,192,214935,128,0,215085:0:0:0:0:
109,192,214935,1,0,0:0:0:0:
182,192,214935,128,0,214972:0:0:0:0:
475,192,215010,128,0,215085:0:0:0:0:
402,192,215010,1,0,0:0:0:0:
329,192,215010,128,0,215047:0:0:0:0:
256,192,215085,128,0,215235:0:0:0:0:
109,192,215085,1,0,0:0:0:0:
182,192,215085,128,0,215122:0:0:0:0:
329,192,215160,128,0,215235:0:0:0:0:
475,192,215160,1,0,0:0:0:0:
36,192,215160,1,0,0:0:0:0:
402,192,215235,128,0,215385:0:0:0:0:
182,192,215235,1,0,0:0:0:0:
109,192,215235,128,0,215272:0:0:0:0:
256,192,215310,128,0,215385:0:0:0:0:
475,192,215310,128,0,215422:0:0:0:0:
329,192,215310,128,0,215347:0:0:0:0:
36,192,215385,128,0,215535:0:0:0:0:
182,192,215385,1,0,0:0:0:0:
109,192,215385,128,0,215422:0:0:0:0:
329,192,215460,128,0,215535:0:0:0:0:
256,192,215460,1,0,0:0:0:0:
402,192,215460,1,0,0:0:0:0:
475,192,215535,128,0,215685:0:0:0:0:
109,192,215535,1,0,0:0:0:0:
182,192,215535,128,0,215572:0:0:0:0:
256,192,215610,128,0,215685:0:0:0:0:
402,192,215610,1,0,0:0:0:0:
329,192,215610,128,0,215647:0:0:0:0:
109,192,215685,128,0,215835:0:0:0:0:
36,192,215685,1,0,0:0:0:0:
182,192,215685,128,0,215722:0:0:0:0:
402,192,215760,128,0,215835:0:0:0:0:
256,192,215760,1,0,0:0:0:0:
475,192,215760,1,0,0:0:0:0:
329,192,215835,128,0,215985:0:0:0:0:
182,192,215835,128,0,215872:0:0:0:0:
36,192,215835,128,0,215947:0:0:0:0:
256,192,215910,128,0,215985:0:0:0:0:
402,192,215910,1,0,0:0:0:0:
109,192,215910,128,0,215947:0:0:0:0:
36,192,215985,128,0,216135:0:0:0:0:
475,192,215985,1,0,0:0:0:0:
182,192,215985,128,0,216022:0:0:0:0:
402,192,216060,128,0,216135:0:0:0:0:
329,192,216060,1,0,0:0:0:0:
109,192,216060,1,0,0:0:0:0:
256,192,216135,128,0,216285:0:0:0:0:
475,192,216135,1,0,0:0:0:0:
182,192,216135,128,0,216172:0:0:0:0:
109,192,216210,128,0,216285:0:0:0:0:
402,192,216210,1,0,0:0:0:0:
329,192,216210,128,0,216247:0:0:0:0:
475,192,216285,128,0,216435:0:0:0:0:
36,192,216285,1,0,0:0:0:0:
182,192,216285,128,0,216322:0:0:0:0:
329,192,216360,128,0,216435:0:0:0:0:
109,192,216360,1,0,0:0:0:0:
256,192,216360,1,0,0:0:0:0:
36,192,216435,128,0,216585:0:0:0:0:
182,192,216435,1,0,0:0:0:0:
402,192,216435,128,0,216472:0:0:0:0:
109,192,216510,128,0,216585:0:0:0:0:
256,192,216510,1,0,0:0:0:0:
329,192,216510,128,0,216547:0:0:0:0:
402,192,216585,128,0,216735:0:0:0:0:
182,192,216585,1,0,0:0:0:0:
475,192,216585,128,0,216622:0:0:0:0:
36,192,216660,1,0,0:0:0:0:
329,192,216660,1,0,0:0:0:0:
256,192,216660,128,0,216735:0:0:0:0:
109,192,216735,128,0,216885:0:0:0:0:
475,192,216735,1,0,0:0:0:0:
182,192,216735,128,0,216772:0:0:0:0:
329,192,216810,128,0,216885:0:0:0:0:
402,192,216810,1,0,0:0:0:0:
256,192,216810,128,0,216847:0:0:0:0:
475,192,216885,128,0,217035:0:0:0:0:
36,192,216885,1,0,0:0:0:0:
182,192,216885,128,0,216922:0:0:0:0:
256,192,216960,128,0,217035:0:0:0:0:
109,192,216960,1,0,0:0:0:0:
329,192,216960,1,0,0:0:0:0:
402,192,217035,128,0,217185:0:0:0:0:
182,192,217035,1,0,0:0:0:0:
36,192,217035,128,0,217072:0:0:0:0:
182,192,217110,128,0,217185:0:0:0:0:
475,192,217110,1,0,0:0:0:0:
109,192,217110,128,0,217147:0:0:0:0:
329,192,217185,128,0,217335:0:0:0:0:
256,192,217185,1,0,0:0:0:0:
36,192,217185,128,0,217222:0:0:0:0:
109,192,217260,128,0,217335:0:0:0:0:
402,192,217260,1,0,0:0:0:0:
475,192,217260,1,0,0:0:0:0:
256,192,217335,128,0,217485:0:0:0:0:
36,192,217335,1,0,0:0:0:0:
182,192,217335,128,0,217372:0:0:0:0:
36,192,217410,128,0,217485:0:0:0:0:
475,192,217410,1,0,0:0:0:0:
402,192,217410,128,0,217447:0:0:0:0:
182,192,217485,128,0,217635:0:0:0:0:
329,192,217485,1,0,0:0:0:0:
109,192,217485,128,0,217522:0:0:0:0:
475,192,217560,128,0,217635:0:0:0:0:
256,192,217560,1,0,0:0:0:0:
402,192,217560,1,0,0:0:0:0:
109,192,217635,128,0,217785:0:0:0:0:
36,192,217635,1,0,0:0:0:0:
329,192,217635,128,0,217672:0:0:0:0:
402,192,217710,128,0,217785:0:0:0:0:
256,192,217710,1,0,0:0:0:0:
182,192,217710,128,0,217747:0:0:0:0:
36,192,217785,128,0,217935:0:0:0:0:
256,192,217785,1,0,0:0:0:0:
475,192,217785,128,0,217822:0:0:0:0:
329,192,217860,128,0,217935:0:0:0:0:
109,192,217860,1,0,0:0:0:0:
182,192,217860,1,0,0:0:0:0:
256,192,217935,128,0,218085:0:0:0:0:
475,192,217935,1,0,0:0:0:0:
402,192,217935,128,0,217972:0:0:0:0:
109,192,218010,128,0,218085:0:0:0:0:
36,192,218010,1,0,0:0:0:0:
182,192,218010,128,0,218047:0:0:0:0:
329,192,218085,128,0,218235:0:0:0:0:
475,192,218085,1,0,0:0:0:0:
402,192,218085,128,0,218122:0:0:0:0:
182,192,218160,128,0,218235:0:0:0:0:
109,192,218160,1,0,0:0:0:0:
36,192,218160,1,0,0:0:0:0:
36,192,218235,128,0,218291:0:0:0:0:
109,192,218235,128,0,218310:0:0:0:0:
256,192,218235,128,0,218328:0:0:0:0:
402,192,218235,128,0,218291:0:0:0:0:
475,192,218235,128,0,218328:0:0:0:0:
182,192,218310,128,0,218478:0:0:0:0:
329,192,218310,128,0,218366:0:0:0:0:
402,192,218385,1,0,0:0:0:0:
36,192,218385,128,0,218441:0:0:0:0:
109,192,218385,128,0,218460:0:0:0:0:
256,192,218385,128,0,218441:0:0:0:0:
475,192,218385,128,0,218441:0:0:0:0:
329,192,218460,128,0,218516:0:0:0:0:
402,192,218460,128,0,218535:0:0:0:0:
36,192,218535,128,0,218610:0:0:0:0:
109,192,218535,128,0,218628:0:0:0:0:
182,192,218535,128,0,218610:0:0:0:0:
256,192,218535,128,0,218591:0:0:0:0:
475,192,218535,128,0,218591:0:0:0:0:
329,192,218610,128,0,218760:0:0:0:0:
402,192,218610,128,0,218741:0:0:0:0:
182,192,218685,1,0,0:0:0:0:
109,192,218685,1,0,0:0:0:0:
256,192,218685,128,0,218778:0:0:0:0:
36,192,218685,128,0,218741:0:0:0:0:
475,192,218703,128,0,218741:0:0:0:0:
109,192,218760,128,0,218816:0:0:0:0:
182,192,218760,128,0,218853:0:0:0:0:
36,192,218835,128,0,218928:0:0:0:0:
256,192,218835,128,0,218872:0:0:0:0:
329,192,218835,128,0,218891:0:0:0:0:
402,192,218835,128,0,218910:0:0:0:0:
475,192,218835,128,0,218928:0:0:0:0:
109,192,218910,128,0,219041:0:0:0:0:
182,192,218910,128,0,218966:0:0:0:0:
329,192,218985,1,0,0:0:0:0:
36,192,218985,128,0,219060:0:0:0:0:
256,192,218985,128,0,219041:0:0:0:0:
402,192,218985,128,0,219060:0:0:0:0:
475,192,218985,128,0,219078:0:0:0:0:
182,192,219060,128,0,219153:0:0:0:0:
329,192,219060,128,0,219116:0:0:0:0:
256,192,219135,128,0,219191:0:0:0:0:
109,192,219135,128,0,219210:0:0:0:0:
36,192,219135,128,0,219191:0:0:0:0:
402,192,219135,128,0,219228:0:0:0:0:
475,192,219135,128,0,219210:0:0:0:0:
182,192,219210,128,0,219266:0:0:0:0:
329,192,219210,128,0,219303:0:0:0:0:
256,192,219285,1,0,0:0:0:0:
36,192,219285,1,0,0:0:0:0:
402,192,219285,1,0,0:0:0:0:
475,192,219285,1,0,0:0:0:0:
109,192,219285,1,0,0:0:0:0:
36,192,219360,1,0,0:0:0:0:
109,192,219360,1,0,0:0:0:0:
256,192,219360,1,0,0:0:0:0:
402,192,219360,1,0,0:0:0:0:
475,192,219360,1,0,0:0:0:0:
36,192,219435,128,0,219491:0:0:0:0:
109,192,219435,128,0,219510:0:0:0:0:
256,192,219435,128,0,219528:0:0:0:0:
402,192,219435,128,0,219510:0:0:0:0:
475,192,219435,128,0,219528:0:0:0:0:
182,192,219510,128,0,219678:0:0:0:0:
329,192,219510,128,0,219585:0:0:0:0:
475,192,219585,1,0,0:0:0:0:
256,192,219585,128,0,219678:0:0:0:0:
109,192,219585,128,0,219660:0:0:0:0:
36,192,219585,128,0,219641:0:0:0:0:
402,192,219585,128,0,219641:0:0:0:0:
329,192,219660,128,0,219735:0:0:0:0:
475,192,219660,128,0,219716:0:0:0:0:
36,192,219735,128,0,219810:0:0:0:0:
109,192,219735,128,0,219828:0:0:0:0:
182,192,219735,128,0,219810:0:0:0:0:
256,192,219735,128,0,219791:0:0:0:0:
402,192,219735,128,0,219810:0:0:0:0:
329,192,219810,128,0,219866:0:0:0:0:
475,192,219810,128,0,219960:0:0:0:0:
109,192,219885,1,0,0:0:0:0:
402,192,219885,128,0,219978:0:0:0:0:
256,192,219885,128,0,219941:0:0:0:0:
182,192,219885,128,0,219960:0:0:0:0:
36,192,219885,128,0,219978:0:0:0:0:
109,192,219960,128,0,220016:0:0:0:0:
329,192,219960,128,0,220016:0:0:0:0:
182,192,220035,128,0,220110:0:0:0:0:
256,192,220035,128,0,220091:0:0:0:0:
36,192,220035,128,0,220128:0:0:0:0:
402,192,220035,128,0,220128:0:0:0:0:
475,192,220035,128,0,220110:0:0:0:0:
109,192,220110,128,0,220166:0:0:0:0:
329,192,220110,128,0,220241:0:0:0:0:
256,192,220185,1,0,0:0:0:0:
36,192,220185,128,0,220260:0:0:0:0:
182,192,220185,128,0,220260:0:0:0:0:
402,192,220185,128,0,220260:0:0:0:0:
475,192,220185,128,0,220278:0:0:0:0:
256,192,220260,128,0,220316:0:0:0:0:
109,192,220260,128,0,220391:0:0:0:0:
182,192,220335,1,0,0:0:0:0:
329,192,220335,1,0,0:0:0:0:
36,192,220335,128,0,220410:0:0:0:0:
402,192,220335,128,0,220447:0:0:0:0:
475,192,220335,128,0,220485:0:0:0:0:
256,192,220410,1,0,0:0:0:0:
36,192,220447,128,0,220503:0:0:0:0:
109,192,220466,128,0,220522:0:0:0:0:
182,192,220485,128,0,220541:0:0:0:0:
256,192,220503,128,0,220560:0:0:0:0:
329,192,220522,128,0,220578:0:0:0:0:
402,192,220541,128,0,220597:0:0:0:0:
475,192,220560,128,0,220616:0:0:0:0:
109,192,220635,128,0,220803:0:0:0:0:
36,192,220635,128,0,220728:0:0:0:0:
256,192,220635,128,0,220728:0:0:0:0:
402,192,220635,128,0,220728:0:0:0:0:
475,192,220635,128,0,220710:0:0:0:0:
182,192,220710,128,0,220785:0:0:0:0:
329,192,220710,128,0,220803:0:0:0:0:
402,192,220785,128,0,220841:0:0:0:0:
475,192,220785,128,0,220860:0:0:0:0:
256,192,220785,128,0,220878:0:0:0:0:
36,192,220785,128,0,220878:0:0:0:0:
109,192,220860,1,0,0:0:0:0:
182,192,220860,128,0,220935:0:0:0:0:
329,192,220860,128,0,220935:0:0:0:0:
36,192,220935,128,0,221085:0:0:0:0:
109,192,220935,128,0,221047:0:0:0:0:
402,192,220935,128,0,221028:0:0:0:0:
475,192,220935,128,0,221010:0:0:0:0:
256,192,220935,128,0,221047:0:0:0:0:
182,192,221010,128,0,221085:0:0:0:0:
329,192,221010,128,0,221047:0:0:0:0:
475,192,221047,128,0,221103:0:0:0:0:
402,192,221066,128,0,221122:0:0:0:0:
329,192,221085,128,0,221141:0:0:0:0:
256,192,221103,128,0,221160:0:0:0:0:
182,192,221122,128,0,221178:0:0:0:0:
109,192,221141,128,0,221197:0:0:0:0:
36,192,221160,128,0,221216:0:0:0:0:
36,192,221235,128,0,221310:0:0:0:0:
109,192,221235,128,0,221328:0:0:0:0:
256,192,221235,128,0,221310:0:0:0:0:
475,192,221235,128,0,221366:0:0:0:0:
402,192,221235,128,0,221403:0:0:0:0:
329,192,221310,128,0,221478:0:0:0:0:
182,192,221310,128,0,221403:0:0:0:0:
256,192,221385,128,0,221460:0:0:0:0:
109,192,221385,128,0,221441:0:0:0:0:
36,192,221385,128,0,221478:0:0:0:0:
182,192,221460,128,0,221516:0:0:0:0:
402,192,221460,128,0,221553:0:0:0:0:
475,192,221460,128,0,221535:0:0:0:0:
329,192,221535,128,0,221591:0:0:0:0:
256,192,221535,128,0,221610:0:0:0:0:
109,192,221535,128,0,221703:0:0:0:0:
36,192,221535,128,0,221610:0:0:0:0:
182,192,221610,128,0,221666:0:0:0:0:
402,192,221610,128,0,221666:0:0:0:0:
475,192,221610,128,0,221685:0:0:0:0:
329,192,221685,1,0,0:0:0:0:
36,192,221685,128,0,221741:0:0:0:0:
256,192,221685,128,0,221760:0:0:0:0:
182,192,221722,1,0,0:0:0:0:
402,192,221760,1,0,0:0:0:0:
475,192,221760,1,0,0:0:0:0:
109,192,221760,1,0,0:0:0:0:
329,192,221797,1,0,0:0:0:0:
182,192,221835,128,0,221928:0:0:0:0:
36,192,221835,128,0,221985:0:0:0:0:
256,192,221835,128,0,221910:0:0:0:0:
402,192,221835,128,0,221966:0:0:0:0:
475,192,221835,128,0,221910:0:0:0:0:
109,192,221910,1,0,0:0:0:0:
329,192,221910,128,0,222003:0:0:0:0:
256,192,221985,1,0,0:0:0:0:
182,192,221985,128,0,222041:0:0:0:0:
475,192,221985,128,0,222078:0:0:0:0:
109,192,222022,1,0,0:0:0:0:
36,192,222060,1,0,0:0:0:0:
402,192,222060,128,0,222116:0:0:0:0:
329,192,222060,128,0,222247:0:0:0:0:
256,192,222097,1,0,0:0:0:0:
182,192,222135,128,0,222191:0:0:0:0:
109,192,222135,128,0,222210:0:0:0:0:
36,192,222135,128,0,222228:0:0:0:0:
475,192,222135,128,0,222228:0:0:0:0:
402,192,222210,1,0,0:0:0:0:
256,192,222228,128,0,222285:0:0:0:0:
182,192,222247,128,0,222303:0:0:0:0:
109,192,222266,128,0,222322:0:0:0:0:
36,192,222285,128,0,222341:0:0:0:0:
475,192,222303,128,0,222360:0:0:0:0:
402,192,222322,128,0,222378:0:0:0:0:
329,192,222341,128,0,222397:0:0:0:0:
256,192,222360,128,0,222416:0:0:0:0:
182,192,222378,128,0,222435:0:0:0:0:
109,192,222435,128,0,222528:0:0:0:0:
36,192,222435,128,0,222510:0:0:0:0:
402,192,222435,128,0,222491:0:0:0:0:
475,192,222435,128,0,222510:0:0:0:0:
182,192,222510,128,0,222547:0:0:0:0:
256,192,222510,128,0,222566:0:0:0:0:
329,192,222510,128,0,222585:0:0:0:0:
402,192,222585,128,0,222622:0:0:0:0:
475,192,222585,128,0,222641:0:0:0:0:
36,192,222585,128,0,222660:0:0:0:0:
109,192,222585,128,0,222678:0:0:0:0:
182,192,222660,128,0,222716:0:0:0:0:
256,192,222660,128,0,222735:0:0:0:0:
329,192,222660,128,0,222753:0:0:0:0:
402,192,222735,128,0,222772:0:0:0:0:
475,192,222735,128,0,222791:0:0:0:0:
36,192,222735,128,0,222791:0:0:0:0:
109,192,222753,128,0,222810:0:0:0:0:
182,192,222772,128,0,222828:0:0:0:0:
256,192,222791,128,0,222847:0:0:0:0:
329,192,222810,128,0,222866:0:0:0:0:
402,192,222828,128,0,222885:0:0:0:0:
36,192,222828,128,0,222885:0:0:0:0:
475,192,222847,128,0,222903:0:0:0:0:
109,192,222847,128,0,222903:0:0:0:0:
182,192,222866,128,0,222922:0:0:0:0:
256,192,222885,128,0,222941:0:0:0:0:
329,192,222903,128,0,222960:0:0:0:0:
402,192,222922,128,0,222978:0:0:0:0:
36,192,222922,128,0,222978:0:0:0:0:
475,192,222941,128,0,222997:0:0:0:0:
109,192,222941,128,0,222997:0:0:0:0:
182,192,222960,128,0,223016:0:0:0:0:
256,192,222978,128,0,223035:0:0:0:0:
329,192,222997,128,0,223053:0:0:0:0:
402,192,223016,128,0,223072:0:0:0:0:
475,192,223035,128,0,223091:0:0:0:0:
36,192,223035,128,0,223635:0:0:0:0:
109,192,223035,128,0,223260:0:0:0:0:
182,192,223072,128,0,223222:0:0:0:0:
256,192,223110,128,0,223185:0:0:0:0:
329,192,223147,128,0,223335:0:0:0:0:
402,192,223185,128,0,223297:0:0:0:0:
475,192,223222,128,0,223260:0:0:0:0:
256,192,223260,128,0,223372:0:0:0:0:
182,192,223297,128,0,223410:0:0:0:0:
109,192,223335,128,0,223447:0:0:0:0:
475,192,223335,128,0,223485:0:0:0:0:
402,192,223372,128,0,223522:0:0:0:0:
329,192,223410,128,0,223560:0:0:0:0:
256,192,223447,128,0,223560:0:0:0:0:
182,192,223485,128,0,223560:0:0:0:0:
109,192,223522,128,0,223635:0:0:0:0:
475,192,223560,128,0,223635:0:0:0:0:
402,192,223597,128,0,223653:0:0:0:0:
182,192,223635,128,0,224853:0:0:0:0:
329,192,223635,128,0,223728:0:0:0:0:
256,192,223635,128,0,223710:0:0:0:0:
109,192,223710,128,0,223803:0:0:0:0:
402,192,223710,128,0,223766:0:0:0:0:
475,192,223710,128,0,223878:0:0:0:0:
36,192,223785,128,0,223878:0:0:0:0:
256,192,223785,128,0,223916:0:0:0:0:
329,192,223785,128,0,223860:0:0:0:0:
109,192,223860,128,0,223953:0:0:0:0:
402,192,223860,128,0,223953:0:0:0:0:
36,192,223935,128,0,224028:0:0:0:0:
329,192,223935,128,0,224010:0:0:0:0:
475,192,223935,128,0,224028:0:0:0:0:
109,192,224010,128,0,224103:0:0:0:0:
256,192,224010,128,0,224085:0:0:0:0:
402,192,224010,128,0,224160:0:0:0:0:
36,192,224085,128,0,224216:0:0:0:0:
329,192,224085,128,0,224178:0:0:0:0:
475,192,224085,128,0,224178:0:0:0:0:
109,192,224160,128,0,224235:0:0:0:0:
256,192,224160,128,0,224253:0:0:0:0:
329,192,224235,128,0,224328:0:0:0:0:
475,192,224235,128,0,224291:0:0:0:0:
402,192,224235,128,0,224310:0:0:0:0:
256,192,224310,128,0,224441:0:0:0:0:
109,192,224310,128,0,224403:0:0:0:0:
36,192,224310,128,0,224385:0:0:0:0:
329,192,224385,128,0,224460:0:0:0:0:
402,192,224385,128,0,224478:0:0:0:0:
475,192,224385,128,0,224553:0:0:0:0:
109,192,224460,128,0,224553:0:0:0:0:
36,192,224460,128,0,224535:0:0:0:0:
256,192,224535,128,0,224628:0:0:0:0:
329,192,224535,128,0,224685:0:0:0:0:
402,192,224535,128,0,224610:0:0:0:0:
475,192,224610,128,0,224760:0:0:0:0:
109,192,224610,128,0,224703:0:0:0:0:
36,192,224610,128,0,224760:0:0:0:0:
402,192,224685,128,0,224778:0:0:0:0:
256,192,224685,128,0,224760:0:0:0:0:
109,192,224760,128,0,224853:0:0:0:0:
329,192,224760,128,0,224835:0:0:0:0:
475,192,224835,128,0,225035:0:0:0:0:
402,192,224835,128,0,224910:0:0:0:0:
256,192,224835,128,0,224928:0:0:0:0:
36,192,224835,128,0,224910:0:0:0:0:
109,192,224910,128,0,224966:0:0:0:0:
182,192,224910,128,0,224985:0:0:0:0:
329,192,224910,128,0,225003:0:0:0:0:
256,192,224985,128,0,225078:0:0:0:0:
36,192,224985,128,0,225060:0:0:0:0:
402,192,225035,128,0,225235:0:0:0:0:
329,192,225060,128,0,225153:0:0:0:0:
182,192,225060,128,0,225228:0:0:0:0:
109,192,225060,128,0,225135:0:0:0:0:
256,192,225135,128,0,225210:0:0:0:0:
36,192,225135,128,0,225285:0:0:0:0:
475,192,225135,128,0,225210:0:0:0:0:
109,192,225210,128,0,225285:0:0:0:0:
329,192,225235,128,0,225535:0:0:0:0:
182,192,225285,128,0,225472:0:0:0:0:
256,192,225285,128,0,225360:0:0:0:0:
475,192,225285,128,0,225378:0:0:0:0:
109,192,225360,128,0,225435:0:0:0:0:
36,192,225360,128,0,225397:0:0:0:0:
402,192,225435,128,0,226035:0:0:0:0:
256,192,225435,128,0,225510:0:0:0:0:
475,192,225435,128,0,225585:0:0:0:0:
36,192,225472,128,0,225697:0:0:0:0:
109,192,225510,128,0,225660:0:0:0:0:
182,192,225547,128,0,225622:0:0:0:0:
256,192,225585,128,0,225772:0:0:0:0:
329,192,225622,128,0,225735:0:0:0:0:
475,192,225660,128,0,225885:0:0:0:0:
182,192,225697,128,0,225810:0:0:0:0:
109,192,225735,128,0,225847:0:0:0:0:
36,192,225772,128,0,225978:0:0:0:0:
329,192,225810,128,0,225922:0:0:0:0:
256,192,225847,128,0,225960:0:0:0:0:
182,192,225885,128,0,225960:0:0:0:0:
109,192,225922,128,0,225978:0:0:0:0:
475,192,225960,128,0,226035:0:0:0:0:
329,192,225997,128,0,226053:0:0:0:0:
182,192,226035,128,0,227235:0:0:0:0:
256,192,226035,128,0,226128:0:0:0:0:
109,192,226035,128,0,226260:0:0:0:0:
36,192,226035,128,0,226110:0:0:0:0:
329,192,226110,128,0,226203:0:0:0:0:
402,192,226110,128,0,226260:0:0:0:0:
475,192,226110,128,0,226185:0:0:0:0:
36,192,226185,128,0,226260:0:0:0:0:
256,192,226185,128,0,226278:0:0:0:0:
475,192,226260,128,0,226353:0:0:0:0:
329,192,226260,128,0,226335:0:0:0:0:
256,192,226335,128,0,226428:0:0:0:0:
109,192,226335,128,0,226503:0:0:0:0:
36,192,226335,128,0,226410:0:0:0:0:
402,192,226335,128,0,226410:0:0:0:0:
329,192,226410,128,0,226485:0:0:0:0:
475,192,226410,128,0,226560:0:0:0:0:
36,192,226485,128,0,226560:0:0:0:0:
256,192,226485,128,0,226560:0:0:0:0:
402,192,226485,128,0,226578:0:0:0:0:
109,192,226560,128,0,226635:0:0:0:0:
329,192,226560,128,0,226653:0:0:0:0:
36,192,226635,128,0,226710:0:0:0:0:
256,192,226635,128,0,226728:0:0:0:0:
402,192,226635,128,0,226785:0:0:0:0:
475,192,226635,128,0,226710:0:0:0:0:
109,192,226710,128,0,226860:0:0:0:0:
329,192,226710,128,0,226803:0:0:0:0:
36,192,226785,128,0,226878:0:0:0:0:
256,192,226785,128,0,226860:0:0:0:0:
475,192,226785,128,0,226860:0:0:0:0:
329,192,226860,128,0,226935:0:0:0:0:
402,192,226860,128,0,226953:0:0:0:0:
475,192,226935,128,0,227010:0:0:0:0:
256,192,226935,128,0,227085:0:0:0:0:
36,192,226935,128,0,227010:0:0:0:0:
109,192,226935,128,0,227028:0:0:0:0:
329,192,227010,128,0,227103:0:0:0:0:
402,192,227010,128,0,227160:0:0:0:0:
475,192,227085,128,0,227160:0:0:0:0:
36,192,227085,128,0,227160:0:0:0:0:
109,192,227085,128,0,227160:0:0:0:0:
256,192,227160,128,0,227235:0:0:0:0:
329,192,227160,128,0,227253:0:0:0:0:
109,192,227235,128,0,227760:0:0:0:0:
402,192,227235,128,0,227328:0:0:0:0:
475,192,227235,128,0,227310:0:0:0:0:
36,192,227235,128,0,227328:0:0:0:0:
182,192,227310,128,0,227385:0:0:0:0:
256,192,227310,128,0,227478:0:0:0:0:
329,192,227310,128,0,227403:0:0:0:0:
36,192,227385,128,0,227535:0:0:0:0:
402,192,227385,128,0,227460:0:0:0:0:
475,192,227385,128,0,227460:0:0:0:0:
182,192,227460,128,0,227553:0:0:0:0:
329,192,227460,128,0,227610:0:0:0:0:
402,192,227535,128,0,227628:0:0:0:0:
475,192,227535,128,0,227610:0:0:0:0:
256,192,227535,128,0,227685:0:0:0:0:
182,192,227610,128,0,227703:0:0:0:0:
36,192,227610,128,0,227778:0:0:0:0:
402,192,227685,128,0,227760:0:0:0:0:
475,192,227685,128,0,227760:0:0:0:0:
329,192,227685,128,0,227778:0:0:0:0:
256,192,227760,128,0,227835:0:0:0:0:
182,192,227760,128,0,227872:0:0:0:0:
109,192,227835,128,0,228435:0:0:0:0:
36,192,227835,128,0,228172:0:0:0:0:
402,192,227835,128,0,227947:0:0:0:0:
475,192,227835,128,0,227910:0:0:0:0:
329,192,227872,128,0,227985:0:0:0:0:
256,192,227910,128,0,228022:0:0:0:0:
182,192,227947,128,0,228060:0:0:0:0:
475,192,227985,128,0,228060:0:0:0:0:
402,192,228022,128,0,228097:0:0:0:0:
329,192,228060,128,0,228135:0:0:0:0:
256,192,228097,128,0,228247:0:0:0:0:
182,192,228135,128,0,228210:0:0:0:0:
475,192,228135,128,0,228360:0:0:0:0:
402,192,228172,128,0,228322:0:0:0:0:
329,192,228210,128,0,228285:0:0:0:0:
36,192,228247,128,0,228360:0:0:0:0:
182,192,228285,128,0,228378:0:0:0:0:
256,192,228322,128,0,228435:0:0:0:0:
329,192,228360,128,0,228453:0:0:0:0:
402,192,228397,128,0,228510:0:0:0:0:
182,192,228435,128,0,229560:0:0:0:0:
475,192,228435,128,0,228528:0:0:0:0:
36,192,228435,128,0,228510:0:0:0:0:
109,192,228510,128,0,228603:0:0:0:0:
256,192,228510,128,0,228585:0:0:0:0:
329,192,228510,128,0,228660:0:0:0:0:
36,192,228585,128,0,228753:0:0:0:0:
402,192,228585,128,0,228678:0:0:0:0:
475,192,228585,128,0,228660:0:0:0:0:
109,192,228660,128,0,228735:0:0:0:0:
256,192,228660,128,0,228810:0:0:0:0:
329,192,228735,128,0,228828:0:0:0:0:
475,192,228735,128,0,228810:0:0:0:0:
402,192,228735,128,0,228978:0:0:0:0:
109,192,228810,128,0,228903:0:0:0:0:
36,192,228810,128,0,228885:0:0:0:0:
329,192,228885,128,0,229128:0:0:0:0:
256,192,228885,128,0,228960:0:0:0:0:
475,192,228885,128,0,228960:0:0:0:0:
36,192,228960,128,0,229053:0:0:0:0:
109,192,228960,128,0,229035:0:0:0:0:
256,192,229035,128,0,229110:0:0:0:0:
402,192,229035,128,0,229260:0:0:0:0:
475,192,229035,128,0,229110:0:0:0:0:
36,192,229110,128,0,229185:0:0:0:0:
109,192,229110,128,0,229203:0:0:0:0:
475,192,229185,128,0,229278:0:0:0:0:
329,192,229185,128,0,229260:0:0:0:0:
256,192,229185,128,0,229353:0:0:0:0:
36,192,229260,128,0,229335:0:0:0:0:
109,192,229260,128,0,229410:0:0:0:0:
329,192,229335,128,0,229428:0:0:0:0:
402,192,229335,128,0,229503:0:0:0:0:
475,192,229335,128,0,229410:0:0:0:0:
36,192,229410,128,0,229560:0:0:0:0:
256,192,229410,128,0,229485:0:0:0:0:
109,192,229485,128,0,229578:0:0:0:0:
329,192,229485,128,0,229578:0:0:0:0:
475,192,229485,128,0,229560:0:0:0:0:
256,192,229560,128,0,229635:0:0:0:0:
402,192,229560,128,0,229635:0:0:0:0:
182,192,229635,128,0,229841:0:0:0:0:
475,192,229635,128,0,229835:0:0:0:0:
329,192,229635,128,0,229710:0:0:0:0:
109,192,229635,128,0,229728:0:0:0:0:
36,192,229635,128,0,229710:0:0:0:0:
256,192,229710,128,0,229803:0:0:0:0:
402,192,229710,128,0,229785:0:0:0:0:
36,192,229785,128,0,229953:0:0:0:0:
329,192,229785,128,0,229953:0:0:0:0:
402,192,229835,128,0,230035:0:0:0:0:
109,192,229835,128,0,230035:0:0:0:0:
256,192,229860,128,0,229935:0:0:0:0:
182,192,229935,128,0,230028:0:0:0:0:
475,192,229935,128,0,230028:0:0:0:0:
256,192,230010,128,0,230103:0:0:0:0:
329,192,230035,128,0,230260:0:0:0:0:
36,192,230035,128,0,230235:0:0:0:0:
182,192,230085,128,0,230160:0:0:0:0:
475,192,230085,128,0,230178:0:0:0:0:
256,192,230160,128,0,230253:0:0:0:0:
402,192,230160,128,0,230235:0:0:0:0:
182,192,230235,128,0,230760:0:0:0:0:
475,192,230235,128,0,230835:0:0:0:0:
109,192,230235,128,0,230328:0:0:0:0:
256,192,230310,128,0,230478:0:0:0:0:
402,192,230310,128,0,230403:0:0:0:0:
36,192,230385,128,0,230610:0:0:0:0:
109,192,230385,128,0,230460:0:0:0:0:
329,192,230460,128,0,230553:0:0:0:0:
402,192,230460,128,0,230535:0:0:0:0:
109,192,230535,128,0,230628:0:0:0:0:
256,192,230535,128,0,230685:0:0:0:0:
329,192,230610,128,0,230778:0:0:0:0:
402,192,230610,128,0,230760:0:0:0:0:
109,192,230685,128,0,230760:0:0:0:0:
36,192,230685,128,0,230778:0:0:0:0:
256,192,230760,128,0,230853:0:0:0:0:
109,192,230835,128,0,232260:0:0:0:0:
402,192,230835,128,0,232260:0:0:0:0:
36,192,230835,128,0,230985:0:0:0:0:
182,192,230835,128,0,230928:0:0:0:0:
329,192,230835,128,0,230910:0:0:0:0:
256,192,230910,128,0,231003:0:0:0:0:
475,192,230910,128,0,231060:0:0:0:0:
182,192,230985,128,0,231060:0:0:0:0:
329,192,230985,128,0,231078:0:0:0:0:
256,192,231060,128,0,231210:0:0:0:0:
36,192,231060,128,0,231153:0:0:0:0:
182,192,231135,128,0,231303:0:0:0:0:
329,192,231135,128,0,231228:0:0:0:0:
475,192,231153,128,0,231228:0:0:0:0:
36,192,231210,128,0,231285:0:0:0:0:
256,192,231285,128,0,231378:0:0:0:0:
329,192,231285,128,0,231360:0:0:0:0:
475,192,231285,128,0,231360:0:0:0:0:
36,192,231360,128,0,231453:0:0:0:0:
182,192,231360,128,0,231397:0:0:0:0:
475,192,231435,128,0,231585:0:0:0:0:
329,192,231435,128,0,231491:0:0:0:0:
256,192,231435,128,0,231510:0:0:0:0:
182,192,231472,128,0,231547:0:0:0:0:
36,192,231510,128,0,231697:0:0:0:0:
329,192,231547,128,0,231622:0:0:0:0:
256,192,231585,128,0,231660:0:0:0:0:
182,192,231622,128,0,231735:0:0:0:0:
475,192,231660,128,0,231810:0:0:0:0:
329,192,231697,128,0,231772:0:0:0:0:
256,192,231735,128,0,231885:0:0:0:0:
36,192,231772,128,0,231997:0:0:0:0:
182,192,231810,128,0,231847:0:0:0:0:
329,192,231847,128,0,231922:0:0:0:0:
475,192,231885,128,0,231960:0:0:0:0:
182,192,231922,128,0,232035:0:0:0:0:
256,192,231960,128,0,232072:0:0:0:0:
329,192,231997,128,0,232110:0:0:0:0:
475,192,232035,128,0,232147:0:0:0:0:
36,192,232072,128,0,232260:0:0:0:0:
182,192,232110,128,0,232185:0:0:0:0:
256,192,232147,128,0,232222:0:0:0:0:
329,192,232185,128,0,232260:0:0:0:0:
475,192,232222,128,0,232260:0:0:0:0:
182,192,232260,128,0,232335:0:0:0:0:
256,192,232297,128,0,232353:0:0:0:0:
36,192,232335,128,0,232560:0:0:0:0:
329,192,232335,128,0,232391:0:0:0:0:
402,192,232335,128,0,232410:0:0:0:0:
475,192,232335,128,0,232428:0:0:0:0:
109,192,232335,128,0,232428:0:0:0:0:
182,192,232410,128,0,232503:0:0:0:0:
256,192,232410,128,0,232578:0:0:0:0:
402,192,232485,1,0,0:0:0:0:
475,192,232485,1,0,0:0:0:0:
329,192,232485,1,0,0:0:0:0:
109,192,232503,128,0,232578:0:0:0:0:
329,192,232560,1,0,0:0:0:0:
402,192,232560,1,0,0:0:0:0:
475,192,232560,1,0,0:0:0:0:
182,192,232560,128,0,232635:0:0:0:0:
36,192,232635,128,0,233235:0:0:0:0:
329,192,232635,128,0,232747:0:0:0:0:
402,192,232635,128,0,232710:0:0:0:0:
475,192,232635,128,0,232860:0:0:0:0:
109,192,232635,128,0,232672:0:0:0:0:
256,192,232672,128,0,232785:0:0:0:0:
182,192,232710,128,0,232822:0:0:0:0:
109,192,232747,128,0,233085:0:0:0:0:
402,192,232785,128,0,232897:0:0:0:0:
329,192,232822,128,0,232935:0:0:0:0:
256,192,232860,128,0,232972:0:0:0:0:
182,192,232897,128,0,233160:0:0:0:0:
475,192,232935,128,0,233085:0:0:0:0:
402,192,232972,128,0,233047:0:0:0:0:
329,192,233010,1,0,0:0:0:0:
256,192,233047,128,0,233141:0:0:0:0:
329,192,233085,128,0,233160:0:0:0:0:
402,192,233122,128,0,233178:0:0:0:0:
109,192,233160,128,0,233253:0:0:0:0:
475,192,233160,128,0,233310:0:0:0:0:
256,192,233197,128,0,233328:0:0:0:0:
182,192,233235,128,0,234453:0:0:0:0:
329,192,233235,128,0,233385:0:0:0:0:
402,192,233235,128,0,233310:0:0:0:0:
109,192,233310,128,0,233403:0:0:0:0:
36,192,233310,128,0,233460:0:0:0:0:
256,192,233385,128,0,233460:0:0:0:0:
402,192,233385,128,0,233478:0:0:0:0:
475,192,233385,128,0,233460:0:0:0:0:
109,192,233460,128,0,233553:0:0:0:0:
329,192,233460,128,0,233535:0:0:0:0:
36,192,233535,128,0,233610:0:0:0:0:
256,192,233535,128,0,233628:0:0:0:0:
402,192,233535,128,0,233703:0:0:0:0:
475,192,233535,128,0,233610:0:0:0:0:
109,192,233610,128,0,233760:0:0:0:0:
329,192,233610,128,0,233685:0:0:0:0:
36,192,233685,128,0,233760:0:0:0:0:
256,192,233685,128,0,233778:0:0:0:0:
475,192,233685,128,0,233760:0:0:0:0:
329,192,233760,128,0,233835:0:0:0:0:
402,192,233760,128,0,233853:0:0:0:0:
475,192,233835,128,0,233910:0:0:0:0:
256,192,233835,128,0,233985:0:0:0:0:
109,192,233835,128,0,233928:0:0:0:0:
36,192,233835,128,0,233910:0:0:0:0:
329,192,233910,128,0,234003:0:0:0:0:
402,192,233910,128,0,234060:0:0:0:0:
475,192,233985,128,0,234078:0:0:0:0:
109,192,233985,128,0,234078:0:0:0:0:
36,192,233985,128,0,234060:0:0:0:0:
256,192,234060,128,0,234135:0:0:0:0:
329,192,234060,128,0,234153:0:0:0:0:
402,192,234135,128,0,234228:0:0:0:0:
475,192,234135,128,0,234210:0:0:0:0:
109,192,234135,128,0,234303:0:0:0:0:
36,192,234135,128,0,234210:0:0:0:0:
256,192,234210,128,0,234285:0:0:0:0:
329,192,234210,128,0,234378:0:0:0:0:
402,192,234285,128,0,234360:0:0:0:0:
475,192,234285,128,0,234360:0:0:0:0:
36,192,234285,128,0,234378:0:0:0:0:
109,192,234360,128,0,234453:0:0:0:0:
256,192,234360,128,0,234435:0:0:0:0:
402,192,234435,128,0,234635:0:0:0:0:
36,192,234435,128,0,234528:0:0:0:0:
329,192,234435,128,0,234603:0:0:0:0:
475,192,234435,128,0,234510:0:0:0:0:
109,192,234510,128,0,234585:0:0:0:0:
256,192,234510,128,0,234585:0:0:0:0:
182,192,234585,128,0,234678:0:0:0:0:
36,192,234585,128,0,234735:0:0:0:0:
475,192,234585,128,0,234678:0:0:0:0:
256,192,234635,128,0,234835:0:0:0:0:
109,192,234660,128,0,234753:0:0:0:0:
329,192,234660,128,0,234753:0:0:0:0:
182,192,234735,128,0,234810:0:0:0:0:
402,192,234735,128,0,234828:0:0:0:0:
475,192,234735,128,0,234810:0:0:0:0:
36,192,234810,128,0,234885:0:0:0:0:
329,192,234810,128,0,234978:0:0:0:0:
109,192,234835,128,0,235035:0:0:0:0:
182,192,234885,128,0,235016:0:0:0:0:
402,192,234885,128,0,234960:0:0:0:0:
475,192,234885,128,0,234960:0:0:0:0:
36,192,234960,128,0,235091:0:0:0:0:
256,192,234960,128,0,235128:0:0:0:0:
329,192,235035,128,0,235635:0:0:0:0:
402,192,235035,128,0,235222:0:0:0:0:
475,192,235035,128,0,235335:0:0:0:0:
182,192,235072,128,0,235147:0:0:0:0:
109,192,235110,128,0,235185:0:0:0:0:
36,192,235147,128,0,235522:0:0:0:0:
256,192,235185,128,0,235260:0:0:0:0:
182,192,235222,128,0,235297:0:0:0:0:
109,192,235260,128,0,235485:0:0:0:0:
402,192,235297,128,0,235372:0:0:0:0:
256,192,235335,128,0,235410:0:0:0:0:
182,192,235372,128,0,235447:0:0:0:0:
475,192,235410,128,0,235560:0:0:0:0:
402,192,235447,128,0,235560:0:0:0:0:
256,192,235485,128,0,235578:0:0:0:0:
182,192,235522,128,0,235560:0:0:0:0:
109,192,235560,128,0,235653:0:0:0:0:
36,192,235597,128,0,235803:0:0:0:0:
182,192,235635,128,0,236760:0:0:0:0:
256,192,235635,128,0,235785:0:0:0:0:
402,192,235635,128,0,235728:0:0:0:0:
475,192,235635,128,0,235710:0:0:0:0:
109,192,235710,128,0,235860:0:0:0:0:
329,192,235710,128,0,235860:0:0:0:0:
402,192,235785,128,0,235878:0:0:0:0:
475,192,235785,128,0,235860:0:0:0:0:
36,192,235860,128,0,235935:0:0:0:0:
256,192,235860,128,0,235953:0:0:0:0:
109,192,235935,128,0,236103:0:0:0:0:
329,192,235935,128,0,236010:0:0:0:0:
402,192,235935,128,0,236160:0:0:0:0:
475,192,235935,128,0,236028:0:0:0:0:
36,192,236010,128,0,236160:0:0:0:0:
256,192,236010,128,0,236085:0:0:0:0:
329,192,236085,128,0,236178:0:0:0:0:
475,192,236085,128,0,236160:0:0:0:0:
256,192,236160,128,0,236235:0:0:0:0:
109,192,236160,128,0,236253:0:0:0:0:
36,192,236235,128,0,236385:0:0:0:0:
329,192,236235,128,0,236478:0:0:0:0:
402,192,236235,128,0,236328:0:0:0:0:
475,192,236235,128,0,236310:0:0:0:0:
109,192,236310,128,0,236403:0:0:0:0:
256,192,236310,128,0,236460:0:0:0:0:
402,192,236385,128,0,236535:0:0:0:0:
475,192,236385,128,0,236460:0:0:0:0:
109,192,236460,128,0,236553:0:0:0:0:
36,192,236460,128,0,236535:0:0:0:0:
256,192,236535,128,0,236685:0:0:0:0:
329,192,236535,128,0,236628:0:0:0:0:
475,192,236535,128,0,236610:0:0:0:0:
36,192,236610,128,0,236760:0:0:0:0:
109,192,236610,128,0,236760:0:0:0:0:
402,192,236610,128,0,236703:0:0:0:0:
329,192,236685,128,0,236760:0:0:0:0:
475,192,236685,128,0,236778:0:0:0:0:
256,192,236760,128,0,236853:0:0:0:0:
402,192,236760,128,0,236835:0:0:0:0:
109,192,236835,128,0,237360:0:0:0:0:
475,192,236835,128,0,237078:0:0:0:0:
182,192,236835,128,0,237003:0:0:0:0:
36,192,236835,128,0,236928:0:0:0:0:
329,192,236835,128,0,236910:0:0:0:0:
402,192,236910,128,0,237060:0:0:0:0:
256,192,236910,128,0,237060:0:0:0:0:
329,192,236985,128,0,237078:0:0:0:0:
36,192,237003,128,0,237078:0:0:0:0:
182,192,237060,128,0,237153:0:0:0:0:
36,192,237135,128,0,237228:0:0:0:0:
256,192,237135,128,0,237228:0:0:0:0:
402,192,237135,128,0,237210:0:0:0:0:
475,192,237135,128,0,237210:0:0:0:0:
329,192,237153,128,0,237228:0:0:0:0:
182,192,237210,128,0,237285:0:0:0:0:
36,192,237285,128,0,237360:0:0:0:0:
256,192,237285,128,0,237360:0:0:0:0:
329,192,237285,128,0,237360:0:0:0:0:
402,192,237285,128,0,237378:0:0:0:0:
475,192,237285,128,0,237378:0:0:0:0:
182,192,237360,128,0,237435:0:0:0:0:
109,192,237435,128,0,238035:0:0:0:0:
36,192,237435,128,0,237535:0:0:0:0:
256,192,237435,128,0,237528:0:0:0:0:
329,192,237435,128,0,237510:0:0:0:0:
402,192,237435,128,0,237491:0:0:0:0:
475,192,237435,128,0,237485:0:0:0:0:
182,192,237510,128,0,237585:0:0:0:0:
36,192,237585,128,0,237685:0:0:0:0:
256,192,237585,128,0,237678:0:0:0:0:
329,192,237585,128,0,237660:0:0:0:0:
402,192,237585,128,0,237641:0:0:0:0:
475,192,237585,128,0,237635:0:0:0:0:
182,192,237660,128,0,237735:0:0:0:0:
36,192,237735,128,0,237785:0:0:0:0:
256,192,237735,128,0,237885:0:0:0:0:
329,192,237735,128,0,237791:0:0:0:0:
402,192,237735,128,0,237810:0:0:0:0:
475,192,237735,128,0,237828:0:0:0:0:
182,192,237810,128,0,237978:0:0:0:0:
36,192,237885,128,0,237935:0:0:0:0:
329,192,237885,128,0,237941:0:0:0:0:
402,192,237885,128,0,237960:0:0:0:0:
475,192,237885,128,0,237978:0:0:0:0:
256,192,237960,128,0,238035:0:0:0:0:
182,192,238035,128,0,239235:0:0:0:0:
36,192,238035,128,0,238128:0:0:0:0:
329,192,238035,128,0,238110:0:0:0:0:
402,192,238035,128,0,238091:0:0:0:0:
475,192,238035,128,0,238085:0:0:0:0:
256,192,238110,128,0,238185:0:0:0:0:
109,192,238185,128,0,238241:0:0:0:0:
36,192,238185,128,0,238235:0:0:0:0:
329,192,238185,128,0,238260:0:0:0:0:
402,192,238185,128,0,238278:0:0:0:0:
475,192,238185,128,0,238285:0:0:0:0:
256,192,238260,128,0,238335:0:0:0:0:
109,192,238335,128,0,238428:0:0:0:0:
36,192,238335,128,0,238435:0:0:0:0:
329,192,238335,128,0,238410:0:0:0:0:
402,192,238335,128,0,238391:0:0:0:0:
475,192,238335,128,0,238385:0:0:0:0:
256,192,238410,128,0,238485:0:0:0:0:
109,192,238485,1,0,0:0:0:0:
36,192,238485,1,0,0:0:0:0:
329,192,238485,1,0,0:0:0:0:
402,192,238485,1,0,0:0:0:0:
475,192,238485,1,0,0:0:0:0:
109,192,238560,1,0,0:0:0:0:
36,192,238560,1,0,0:0:0:0:
329,192,238560,1,0,0:0:0:0:
402,192,238560,1,0,0:0:0:0:
475,192,238560,1,0,0:0:0:0:
109,192,238635,128,0,238728:0:0:0:0:
36,192,238635,128,0,238735:0:0:0:0:
329,192,238635,128,0,238710:0:0:0:0:
402,192,238635,128,0,238691:0:0:0:0:
475,192,238635,128,0,238685:0:0:0:0:
256,192,238710,128,0,238785:0:0:0:0:
109,192,238785,128,0,238878:0:0:0:0:
36,192,238785,128,0,238885:0:0:0:0:
329,192,238785,128,0,238935:0:0:0:0:
402,192,238785,128,0,238860:0:0:0:0:
475,192,238785,128,0,238841:0:0:0:0:
256,192,238860,128,0,239028:0:0:0:0:
36,192,238935,128,0,238991:0:0:0:0:
109,192,238935,128,0,239010:0:0:0:0:
402,192,238935,128,0,239028:0:0:0:0:
475,192,238935,128,0,239010:0:0:0:0:
329,192,239010,128,0,239085:0:0:0:0:
256,192,239085,128,0,239160:0:0:0:0:
109,192,239085,128,0,239178:0:0:0:0:
36,192,239085,128,0,239185:0:0:0:0:
402,192,239085,128,0,239141:0:0:0:0:
475,192,239085,128,0,239135:0:0:0:0:
329,192,239160,128,0,239310:0:0:0:0:
475,192,239235,128,0,239435:0:0:0:0:
402,192,239235,128,0,239328:0:0:0:0:
256,192,239235,128,0,239328:0:0:0:0:
109,192,239235,128,0,239310:0:0:0:0:
36,192,239235,128,0,239291:0:0:0:0:
182,192,239310,128,0,239385:0:0:0:0:
256,192,239385,128,0,239535:0:0:0:0:
402,192,239385,128,0,239441:0:0:0:0:
109,192,239385,128,0,239460:0:0:0:0:
36,192,239385,128,0,239478:0:0:0:0:
329,192,239435,128,0,239635:0:0:0:0:
182,192,239460,128,0,239553:0:0:0:0:
109,192,239535,128,0,239610:0:0:0:0:
36,192,239535,128,0,239628:0:0:0:0:
402,192,239535,128,0,239591:0:0:0:0:
475,192,239535,128,0,239585:0:0:0:0:
256,192,239610,128,0,239760:0:0:0:0:
182,192,239635,128,0,239835:0:0:0:0:
402,192,239685,128,0,239760:0:0:0:0:
475,192,239685,128,0,239778:0:0:0:0:
109,192,239685,128,0,239741:0:0:0:0:
36,192,239685,128,0,239735:0:0:0:0:
329,192,239760,128,0,239910:0:0:0:0:
256,192,239835,128,0,240435:0:0:0:0:
402,192,239835,128,0,239928:0:0:0:0:
475,192,239835,128,0,239935:0:0:0:0:
36,192,239835,128,0,239885:0:0:0:0:
109,192,239835,128,0,239891:0:0:0:0:
182,192,239910,128,0,239985:0:0:0:0:
109,192,239985,128,0,240078:0:0:0:0:
36,192,239985,128,0,240085:0:0:0:0:
329,192,239985,128,0,240135:0:0:0:0:
402,192,239985,128,0,240060:0:0:0:0:
475,192,239985,128,0,240041:0:0:0:0:
182,192,240060,128,0,240191:0:0:0:0:
36,192,240135,128,0,240210:0:0:0:0:
109,192,240135,128,0,240228:0:0:0:0:
402,192,240135,128,0,240228:0:0:0:0:
475,192,240135,128,0,240210:0:0:0:0:
329,192,240210,128,0,240285:0:0:0:0:
182,192,240285,1,0,0:0:0:0:
109,192,240285,1,0,0:0:0:0:
36,192,240285,1,0,0:0:0:0:
402,192,240285,1,0,0:0:0:0:
475,192,240285,1,0,0:0:0:0:
402,192,240360,1,0,0:0:0:0:
475,192,240360,1,0,0:0:0:0:
182,192,240360,1,0,0:0:0:0:
109,192,240360,1,0,0:0:0:0:
36,192,240360,1,0,0:0:0:0:
475,192,240435,128,0,240960:0:0:0:0:
36,192,240435,128,0,240585:0:0:0:0:
109,192,240435,128,0,240585:0:0:0:0:
182,192,240435,128,0,240510:0:0:0:0:
402,192,240435,128,0,240585:0:0:0:0:
329,192,240472,128,0,240585:0:0:0:0:
256,192,240510,128,0,240603:0:0:0:0:
182,192,240585,128,0,240678:0:0:0:0:
109,192,240660,128,0,240828:0:0:0:0:
36,192,240660,128,0,240810:0:0:0:0:
256,192,240660,128,0,240735:0:0:0:0:
402,192,240660,128,0,240922:0:0:0:0:
329,192,240678,128,0,240772:0:0:0:0:
182,192,240735,128,0,240847:0:0:0:0:
256,192,240810,128,0,240866:0:0:0:0:
329,192,240847,128,0,240903:0:0:0:0:
36,192,240885,128,0,240941:0:0:0:0:
109,192,240903,128,0,240960:0:0:0:0:
182,192,240922,128,0,240978:0:0:0:0:
256,192,240941,128,0,240997:0:0:0:0:
329,192,240960,128,0,241016:0:0:0:0:
402,192,240978,128,0,241035:0:0:0:0:
475,192,241035,128,0,241072:0:0:0:0:
36,192,241035,128,0,241091:0:0:0:0:
109,192,241035,128,0,241110:0:0:0:0:
182,192,241072,128,0,241128:0:0:0:0:
256,192,241110,128,0,241147:0:0:0:0:
329,192,241110,128,0,241166:0:0:0:0:
402,192,241110,128,0,241185:0:0:0:0:
475,192,241147,128,0,241203:0:0:0:0:
36,192,241185,128,0,241241:0:0:0:0:
109,192,241185,128,0,241353:0:0:0:0:
182,192,241185,128,0,241335:0:0:0:0:
256,192,241222,128,0,241297:0:0:0:0:
402,192,241260,1,0,0:0:0:0:
475,192,241260,1,0,0:0:0:0:
329,192,241260,1,0,0:0:0:0:
36,192,241297,128,0,241353:0:0:0:0:
475,192,241335,128,0,241372:0:0:0:0:
402,192,241335,128,0,241391:0:0:0:0:
329,192,241335,128,0,241410:0:0:0:0:
256,192,241372,128,0,241428:0:0:0:0:
182,192,241410,128,0,241447:0:0:0:0:
109,192,241410,128,0,241466:0:0:0:0:
36,192,241410,128,0,241485:0:0:0:0:
475,192,241447,128,0,241503:0:0:0:0:
402,192,241485,128,0,241522:0:0:0:0:
329,192,241485,128,0,241541:0:0:0:0:
256,192,241485,128,0,241560:0:0:0:0:
182,192,241522,128,0,241578:0:0:0:0:
109,192,241560,128,0,241597:0:0:0:0:
36,192,241560,128,0,241616:0:0:0:0:
475,192,241560,128,0,241616:0:0:0:0:
402,192,241597,128,0,241653:0:0:0:0:
329,192,241635,128,0,241691:0:0:0:0:
182,192,241635,128,0,241691:0:0:0:0:
256,192,241653,128,0,241710:0:0:0:0:
475,192,241691,128,0,241747:0:0:0:0:
36,192,241710,128,0,241766:0:0:0:0:
402,192,241728,128,0,241785:0:0:0:0:
109,192,241735,128,0,241785:0:0:0:0:
329,192,241747,128,0,241803:0:0:0:0:
182,192,241760,128,0,241810:0:0:0:0:
256,192,241785,128,0,241822:0:0:0:0:
36,192,241803,128,0,241860:0:0:0:0:
475,192,241810,128,0,241860:0:0:0:0:
109,192,241822,128,0,241878:0:0:0:0:
402,192,241835,128,0,241885:0:0:0:0:
329,192,241841,128,0,241897:0:0:0:0:
182,192,241860,128,0,241916:0:0:0:0:
256,192,241885,128,0,241935:0:0:0:0:
475,192,241897,128,0,241953:0:0:0:0:
36,192,241910,128,0,241960:0:0:0:0:
402,192,241935,128,0,241991:0:0:0:0:
109,192,241935,128,0,241972:0:0:0:0:
329,192,241953,128,0,242010:0:0:0:0:
182,192,241960,128,0,242010:0:0:0:0:
256,192,241985,128,0,242035:0:0:0:0:
36,192,242010,128,0,242066:0:0:0:0:
475,192,242010,128,0,242047:0:0:0:0:
109,192,242028,128,0,242085:0:0:0:0:
402,192,242035,128,0,242085:0:0:0:0:
329,192,242060,128,0,242110:0:0:0:0:
182,192,242066,128,0,242103:0:0:0:0:
256,192,242085,128,0,242141:0:0:0:0:
475,192,242103,128,0,242160:0:0:0:0:
36,192,242110,128,0,242160:0:0:0:0:
109,192,242135,128,0,242185:0:0:0:0:
402,192,242141,128,0,242197:0:0:0:0:
329,192,242160,128,0,242216:0:0:0:0:
182,192,242178,128,0,242235:0:0:0:0:
256,192,242185,128,0,242235:0:0:0:0:
36,192,242235,128,0,244560:0:0:0:0:
109,192,242235,128,0,244560:0:0:0:0:
402,192,242235,128,0,243360:0:0:0:0:
475,192,242235,128,0,243360:0:0:0:0:
329,192,243435,128,0,243960:0:0:0:0:
402,192,243435,128,0,244560:0:0:0:0:
475,192,243435,128,0,244560:0:0:0:0:
182,192,244035,128,0,244560:0:0:0:0:
329,192,244035,128,0,244560:0:0:0:0:
36,192,244635,128,0,245760:0:0:0:0:
109,192,244635,128,0,245760:0:0:0:0:
256,192,244635,128,0,245760:0:0:0:0:
402,192,244635,128,0,245760:0:0:0:0:
475,192,244635,128,0,245760:0:0:0:0:
182,192,245835,128,0,246060:0:0:0:0:
256,192,245835,128,0,246060:0:0:0:0:
329,192,245835,128,0,246060:0:0:0:0:
402,192,245835,128,0,246060:0:0:0:0:
475,192,245835,128,0,246060:0:0:0:0:
36,192,246135,128,0,246360:0:0:0:0:
109,192,246135,128,0,246360:0:0:0:0:
256,192,246135,128,0,246360:0:0:0:0:
182,192,246135,128,0,246360:0:0:0:0:
329,192,246135,128,0,246360:0:0:0:0:
109,192,246435,128,0,246585:0:0:0:0:
36,192,246435,128,0,246585:0:0:0:0:
182,192,246435,128,0,246585:0:0:0:0:
256,192,246435,128,0,246585:0:0:0:0:
329,192,246435,128,0,246585:0:0:0:0:
109,192,246635,128,0,246785:0:0:0:0:
182,192,246635,128,0,246785:0:0:0:0:
256,192,246635,128,0,246785:0:0:0:0:
329,192,246635,128,0,246785:0:0:0:0:
402,192,246635,128,0,246785:0:0:0:0:
182,192,246835,128,0,246985:0:0:0:0:
256,192,246835,128,0,246985:0:0:0:0:
329,192,246835,128,0,246985:0:0:0:0:
402,192,246835,128,0,246985:0:0:0:0:
475,192,246835,128,0,246985:0:0:0:0:
182,192,247035,128,0,247560:0:0:0:0:
256,192,247035,128,0,247560:0:0:0:0:
329,192,247035,128,0,247560:0:0:0:0:
402,192,247035,128,0,247560:0:0:0:0:
475,192,247035,128,0,247560:0:0:0:0:
109,192,247635,128,0,248160:0:0:0:0:
182,192,247635,128,0,248160:0:0:0:0:
329,192,247635,128,0,248160:0:0:0:0:
402,192,247635,128,0,248160:0:0:0:0:
256,192,247635,128,0,253035:0:0:0:0:
109,192,248216,1,0,0:0:0:0:
402,192,248216,1,0,0:0:0:0:
36,192,248235,128,0,253035:0:0:0:0:
475,192,248235,128,0,253035:0:0:0:0:
182,192,248235,128,0,253035:0:0:0:0:
329,192,248235,128,0,253035:0:0:0:0:
