osu file format v14

[General]
AudioFilename: zenith.mp3
AudioLeadIn: 0
PreviewTime: 153435
Countdown: 0
SampleSet: Soft
StackLeniency: 0.7
Mode: 3
LetterboxInBreaks: 0
SpecialStyle: 0
WidescreenStoryboard: 1

[Editor]
DistanceSpacing: 1.5
BeatDivisor: 4
GridSize: 4
TimelineZoom: 2.9

[Metadata]
Title:Blue Zenith
TitleUnicode:Blue Zenith
Artist:xi
ArtistUnicode:xi
Creator:Jinjin
Version:Bluanother I (Ignition)
Source:
Tags:
BeatmapID:891714
BeatmapSetID:290031

[Difficulty]
HPDrainRate:7.5
CircleSize:7
OverallDifficulty:6.2
ApproachRate:5
SliderMultiplier:1.4
SliderTickRate:1

[Events]
//Background and Video events
0,0,"earth_15-wallpaper-1366x768.jpg",0,0
//Break Periods
//Storyboard Layer 0 (Background)
//Storyboard Layer 1 (Fail)
//Storyboard Layer 2 (Pass)
//Storyboard Layer 3 (Foreground)
//Storyboard Sound Samples

[TimingPoints]
2235,300,4,2,0,0,1,0
69435,-125,4,2,0,0,0,0
92835,-100,4,2,0,0,0,0

[HitObjects]
256,192,1335,128,0,2235:0:0:0:0:
182,192,2235,1,0,0:0:0:0:
329,192,2235,1,0,0:0:0:0:
182,192,2535,1,0,0:0:0:0:
329,192,2535,1,0,0:0:0:0:
182,192,2835,1,0,0:0:0:0:
329,192,2835,1,0,0:0:0:0:
182,192,3135,1,0,0:0:0:0:
329,192,3135,1,0,0:0:0:0:
182,192,3435,1,0,0:0:0:0:
329,192,3435,1,0,0:0:0:0:
182,192,3735,1,0,0:0:0:0:
329,192,3735,1,0,0:0:0:0:
182,192,4035,1,0,0:0:0:0:
329,192,4035,1,0,0:0:0:0:
182,192,4335,1,0,0:0:0:0:
329,192,4335,1,0,0:0:0:0:
182,192,4635,1,0,0:0:0:0:
329,192,4635,1,0,0:0:0:0:
182,192,4935,1,0,0:0:0:0:
329,192,4935,1,0,0:0:0:0:
182,192,5235,1,0,0:0:0:0:
329,192,5235,1,0,0:0:0:0:
182,192,5535,1,0,0:0:0:0:
329,192,5535,1,0,0:0:0:0:
182,192,5835,1,0,0:0:0:0:
329,192,5835,1,0,0:0:0:0:
182,192,6135,1,0,0:0:0:0:
329,192,6135,1,0,0:0:0:0:
182,192,6435,1,0,0:0:0:0:
329,192,6435,1,0,0:0:0:0:
182,192,6735,1,0,0:0:0:0:
329,192,6735,1,0,0:0:0:0:
402,192,7035,1,0,0:0:0:0:
36,192,7035,1,0,0:0:0:0:
109,192,7035,1,0,0:0:0:0:
475,192,7035,1,0,0:0:0:0:
329,192,7110,1,0,0:0:0:0:
256,192,7185,1,0,0:0:0:0:
182,192,7260,1,0,0:0:0:0:
109,192,7335,1,0,0:0:0:0:
36,192,7335,1,0,0:0:0:0:
402,192,7335,1,0,0:0:0:0:
475,192,7335,1,0,0:0:0:0:
329,192,7410,1,0,0:0:0:0:
256,192,7485,1,0,0:0:0:0:
182,192,7560,1,0,0:0:0:0:
109,192,7635,1,0,0:0:0:0:
36,192,7635,1,0,0:0:0:0:
475,192,7635,1,0,0:0:0:0:
402,192,7635,1,0,0:0:0:0:
329,192,7710,1,0,0:0:0:0:
256,192,7785,1,0,0:0:0:0:
182,192,7860,1,0,0:0:0:0:
109,192,7935,1,0,0:0:0:0:
36,192,7935,1,0,0:0:0:0:
402,192,7935,1,0,0:0:0:0:
475,192,7935,1,0,0:0:0:0:
329,192,8010,1,0,0:0:0:0:
256,192,8085,1,0,0:0:0:0:
182,192,8160,1,0,0:0:0:0:
109,192,8235,1,0,0:0:0:0:
36,192,8235,1,0,0:0:0:0:
402,192,8235,1,0,0:0:0:0:
475,192,8235,1,0,0:0:0:0:
329,192,8310,1,0,0:0:0:0:
256,192,8385,1,0,0:0:0:0:
182,192,8460,1,0,0:0:0:0:
109,192,8535,1,0,0:0:0:0:
402,192,8535,1,0,0:0:0:0:
475,192,8535,1,0,0:0:0:0:
36,192,8535,1,0,0:0:0:0:
329,192,8610,1,0,0:0:0:0:
256,192,8685,1,0,0:0:0:0:
182,192,8760,1,0,0:0:0:0:
109,192,8835,1,0,0:0:0:0:
36,192,8835,1,0,0:0:0:0:
402,192,8835,1,0,0:0:0:0:
475,192,8835,1,0,0:0:0:0:
329,192,8910,1,0,0:0:0:0:
256,192,8985,1,0,0:0:0:0:
182,192,9060,1,0,0:0:0:0:
109,192,9135,1,0,0:0:0:0:
36,192,9135,1,0,0:0:0:0:
402,192,9135,1,0,0:0:0:0:
475,192,9135,1,0,0:0:0:0:
329,192,9210,1,0,0:0:0:0:
256,192,9285,1,0,0:0:0:0:
182,192,9360,1,0,0:0:0:0:
109,192,9435,1,0,0:0:0:0:
36,192,9435,1,0,0:0:0:0:
475,192,9435,1,0,0:0:0:0:
402,192,9435,1,0,0:0:0:0:
109,192,9735,1,0,0:0:0:0:
182,192,9735,1,0,0:0:0:0:
329,192,9735,1,0,0:0:0:0:
402,192,9735,1,0,0:0:0:0:
402,192,10035,1,0,0:0:0:0:
329,192,10035,1,0,0:0:0:0:
182,192,10035,1,0,0:0:0:0:
109,192,10035,1,0,0:0:0:0:
182,192,10335,1,0,0:0:0:0:
109,192,10335,1,0,0:0:0:0:
329,192,10335,1,0,0:0:0:0:
402,192,10335,1,0,0:0:0:0:
36,192,10410,1,0,0:0:0:0:
475,192,10485,1,0,0:0:0:0:
256,192,10560,1,0,0:0:0:0:
36,192,10635,1,0,0:0:0:0:
109,192,10635,1,0,0:0:0:0:
402,192,10635,1,0,0:0:0:0:
475,192,10635,1,0,0:0:0:0:
182,192,10710,1,0,0:0:0:0:
329,192,10785,1,0,0:0:0:0:
182,192,10860,1,0,0:0:0:0:
109,192,10935,1,0,0:0:0:0:
36,192,10935,1,0,0:0:0:0:
402,192,10935,1,0,0:0:0:0:
475,192,10935,1,0,0:0:0:0:
329,192,11010,1,0,0:0:0:0:
182,192,11085,1,0,0:0:0:0:
329,192,11160,1,0,0:0:0:0:
36,192,11235,1,0,0:0:0:0:
109,192,11235,1,0,0:0:0:0:
402,192,11235,1,0,0:0:0:0:
475,192,11235,1,0,0:0:0:0:
182,192,11310,1,0,0:0:0:0:
256,192,11310,1,0,0:0:0:0:
329,192,11385,1,0,0:0:0:0:
402,192,11385,1,0,0:0:0:0:
109,192,11460,1,0,0:0:0:0:
182,192,11460,1,0,0:0:0:0:
329,192,11535,1,0,0:0:0:0:
402,192,11535,1,0,0:0:0:0:
475,192,11535,1,0,0:0:0:0:
36,192,11610,1,0,0:0:0:0:
109,192,11610,1,0,0:0:0:0:
329,192,11685,1,0,0:0:0:0:
402,192,11685,1,0,0:0:0:0:
475,192,11685,1,0,0:0:0:0:
109,192,11760,1,0,0:0:0:0:
182,192,11760,1,0,0:0:0:0:
36,192,11835,1,0,0:0:0:0:
329,192,11835,1,0,0:0:0:0:
402,192,11835,1,0,0:0:0:0:
475,192,11835,1,0,0:0:0:0:
256,192,11835,1,0,0:0:0:0:
109,192,11910,1,0,0:0:0:0:
182,192,11910,1,0,0:0:0:0:
329,192,11985,1,0,0:0:0:0:
475,192,11985,1,0,0:0:0:0:
256,192,12060,1,0,0:0:0:0:
182,192,12135,1,0,0:0:0:0:
36,192,12135,1,0,0:0:0:0:
109,192,12135,1,0,0:0:0:0:
402,192,12210,1,0,0:0:0:0:
475,192,12210,1,0,0:0:0:0:
256,192,12285,1,0,0:0:0:0:
329,192,12285,1,0,0:0:0:0:
182,192,12360,1,0,0:0:0:0:
109,192,12360,1,0,0:0:0:0:
329,192,12435,1,0,0:0:0:0:
402,192,12435,1,0,0:0:0:0:
475,192,12435,1,0,0:0:0:0:
182,192,12510,1,0,0:0:0:0:
256,192,12510,1,0,0:0:0:0:
36,192,12585,1,0,0:0:0:0:
109,192,12585,1,0,0:0:0:0:
402,192,12660,1,0,0:0:0:0:
475,192,12660,1,0,0:0:0:0:
256,192,12735,1,0,0:0:0:0:
182,192,12735,1,0,0:0:0:0:
36,192,12735,1,0,0:0:0:0:
402,192,12810,1,0,0:0:0:0:
329,192,12810,1,0,0:0:0:0:
109,192,12885,1,0,0:0:0:0:
182,192,12885,1,0,0:0:0:0:
256,192,12960,1,0,0:0:0:0:
329,192,13035,1,0,0:0:0:0:
475,192,13035,1,0,0:0:0:0:
402,192,13035,1,0,0:0:0:0:
36,192,13110,1,0,0:0:0:0:
109,192,13110,1,0,0:0:0:0:
329,192,13185,1,0,0:0:0:0:
402,192,13185,1,0,0:0:0:0:
256,192,13260,1,0,0:0:0:0:
182,192,13335,1,0,0:0:0:0:
109,192,13335,1,0,0:0:0:0:
36,192,13335,1,0,0:0:0:0:
402,192,13410,1,0,0:0:0:0:
475,192,13410,1,0,0:0:0:0:
329,192,13485,1,0,0:0:0:0:
256,192,13485,1,0,0:0:0:0:
182,192,13560,1,0,0:0:0:0:
109,192,13560,1,0,0:0:0:0:
329,192,13635,1,0,0:0:0:0:
402,192,13635,1,0,0:0:0:0:
475,192,13635,1,0,0:0:0:0:
109,192,13710,1,0,0:0:0:0:
36,192,13710,1,0,0:0:0:0:
182,192,13785,1,0,0:0:0:0:
256,192,13785,1,0,0:0:0:0:
329,192,13860,1,0,0:0:0:0:
402,192,13860,1,0,0:0:0:0:
182,192,13935,1,0,0:0:0:0:
109,192,13935,1,0,0:0:0:0:
36,192,13935,1,0,0:0:0:0:
402,192,14010,1,0,0:0:0:0:
475,192,14010,1,0,0:0:0:0:
36,192,14085,1,0,0:0:0:0:
109,192,14085,1,0,0:0:0:0:
182,192,14160,1,0,0:0:0:0:
256,192,14235,1,0,0:0:0:0:
329,192,14235,1,0,0:0:0:0:
475,192,14235,1,0,0:0:0:0:
36,192,14310,1,0,0:0:0:0:
109,192,14310,1,0,0:0:0:0:
329,192,14385,1,0,0:0:0:0:
402,192,14385,1,0,0:0:0:0:
256,192,14460,1,0,0:0:0:0:
109,192,14535,1,0,0:0:0:0:
182,192,14535,1,0,0:0:0:0:
36,192,14535,1,0,0:0:0:0:
402,192,14610,1,0,0:0:0:0:
475,192,14610,1,0,0:0:0:0:
182,192,14685,1,0,0:0:0:0:
256,192,14685,1,0,0:0:0:0:
109,192,14760,1,0,0:0:0:0:
36,192,14760,1,0,0:0:0:0:
256,192,14835,1,0,0:0:0:0:
329,192,14835,1,0,0:0:0:0:
402,192,14835,1,0,0:0:0:0:
109,192,14910,1,0,0:0:0:0:
36,192,14910,1,0,0:0:0:0:
329,192,14985,1,0,0:0:0:0:
402,192,14985,1,0,0:0:0:0:
182,192,15060,1,0,0:0:0:0:
256,192,15060,1,0,0:0:0:0:
329,192,15135,1,0,0:0:0:0:
475,192,15135,1,0,0:0:0:0:
402,192,15135,1,0,0:0:0:0:
109,192,15210,1,0,0:0:0:0:
182,192,15210,1,0,0:0:0:0:
402,192,15285,1,0,0:0:0:0:
475,192,15285,1,0,0:0:0:0:
329,192,15360,1,0,0:0:0:0:
256,192,15435,1,0,0:0:0:0:
182,192,15435,1,0,0:0:0:0:
109,192,15435,1,0,0:0:0:0:
402,192,15510,1,0,0:0:0:0:
475,192,15510,1,0,0:0:0:0:
36,192,15585,1,0,0:0:0:0:
109,192,15585,1,0,0:0:0:0:
182,192,15660,1,0,0:0:0:0:
329,192,15660,1,0,0:0:0:0:
256,192,15735,1,0,0:0:0:0:
36,192,15810,1,0,0:0:0:0:
402,192,15810,1,0,0:0:0:0:
475,192,15810,1,0,0:0:0:0:
256,192,15885,1,0,0:0:0:0:
329,192,15885,1,0,0:0:0:0:
109,192,15960,1,0,0:0:0:0:
182,192,15960,1,0,0:0:0:0:
402,192,16035,1,0,0:0:0:0:
36,192,16035,1,0,0:0:0:0:
475,192,16035,1,0,0:0:0:0:
182,192,16110,1,0,0:0:0:0:
256,192,16110,1,0,0:0:0:0:
402,192,16185,1,0,0:0:0:0:
475,192,16185,1,0,0:0:0:0:
109,192,16260,1,0,0:0:0:0:
182,192,16260,1,0,0:0:0:0:
329,192,16335,1,0,0:0:0:0:
402,192,16335,1,0,0:0:0:0:
475,192,16335,1,0,0:0:0:0:
256,192,16335,1,0,0:0:0:0:
329,192,16485,1,0,0:0:0:0:
402,192,16485,1,0,0:0:0:0:
256,192,16485,1,0,0:0:0:0:
475,192,16485,1,0,0:0:0:0:
36,192,16635,1,0,0:0:0:0:
475,192,16635,1,0,0:0:0:0:
256,192,16635,1,0,0:0:0:0:
402,192,16710,1,0,0:0:0:0:
109,192,16710,1,0,0:0:0:0:
329,192,16785,1,0,0:0:0:0:
182,192,16785,1,0,0:0:0:0:
402,192,16860,1,0,0:0:0:0:
109,192,16860,1,0,0:0:0:0:
475,192,16935,1,0,0:0:0:0:
36,192,16935,1,0,0:0:0:0:
402,192,17010,1,0,0:0:0:0:
109,192,17010,1,0,0:0:0:0:
329,192,17085,1,0,0:0:0:0:
182,192,17085,1,0,0:0:0:0:
402,192,17160,1,0,0:0:0:0:
109,192,17160,1,0,0:0:0:0:
475,192,17235,1,0,0:0:0:0:
36,192,17235,1,0,0:0:0:0:
402,192,17310,1,0,0:0:0:0:
109,192,17310,1,0,0:0:0:0:
329,192,17385,1,0,0:0:0:0:
182,192,17385,1,0,0:0:0:0:
402,192,17460,1,0,0:0:0:0:
109,192,17460,1,0,0:0:0:0:
475,192,17535,1,0,0:0:0:0:
256,192,17535,1,0,0:0:0:0:
36,192,17535,1,0,0:0:0:0:
475,192,17685,1,0,0:0:0:0:
256,192,17685,1,0,0:0:0:0:
36,192,17685,1,0,0:0:0:0:
475,192,17835,1,0,0:0:0:0:
36,192,17835,1,0,0:0:0:0:
182,192,17835,1,0,0:0:0:0:
329,192,17835,1,0,0:0:0:0:
109,192,17910,1,0,0:0:0:0:
402,192,17910,1,0,0:0:0:0:
182,192,17985,1,0,0:0:0:0:
329,192,17985,1,0,0:0:0:0:
109,192,18060,1,0,0:0:0:0:
402,192,18060,1,0,0:0:0:0:
36,192,18135,1,0,0:0:0:0:
475,192,18135,1,0,0:0:0:0:
109,192,18210,1,0,0:0:0:0:
402,192,18210,1,0,0:0:0:0:
182,192,18285,1,0,0:0:0:0:
329,192,18285,1,0,0:0:0:0:
402,192,18360,1,0,0:0:0:0:
109,192,18360,1,0,0:0:0:0:
475,192,18435,1,0,0:0:0:0:
36,192,18435,1,0,0:0:0:0:
256,192,18435,1,0,0:0:0:0:
109,192,18510,1,0,0:0:0:0:
402,192,18510,1,0,0:0:0:0:
182,192,18585,1,0,0:0:0:0:
329,192,18585,1,0,0:0:0:0:
256,192,18660,1,0,0:0:0:0:
109,192,18735,1,0,0:0:0:0:
475,192,18735,1,0,0:0:0:0:
402,192,18735,1,0,0:0:0:0:
36,192,18735,1,0,0:0:0:0:
109,192,18885,1,0,0:0:0:0:
402,192,18885,1,0,0:0:0:0:
36,192,18885,1,0,0:0:0:0:
475,192,18885,1,0,0:0:0:0:
36,192,19035,128,0,19110:0:0:0:0:
109,192,19035,1,0,0:0:0:0:
475,192,19035,1,0,0:0:0:0:
182,192,19035,1,0,0:0:0:0:
329,192,19035,1,0,0:0:0:0:
36,192,19185,128,0,19260:0:0:0:0:
109,192,19185,1,0,0:0:0:0:
329,192,19185,1,0,0:0:0:0:
475,192,19185,1,0,0:0:0:0:
109,192,19335,1,0,0:0:0:0:
36,192,19335,128,0,19410:0:0:0:0:
329,192,19335,1,0,0:0:0:0:
475,192,19335,1,0,0:0:0:0:
329,192,19485,1,0,0:0:0:0:
36,192,19485,128,0,19560:0:0:0:0:
109,192,19485,1,0,0:0:0:0:
475,192,19485,1,0,0:0:0:0:
475,192,19635,128,0,19710:0:0:0:0:
402,192,19635,1,0,0:0:0:0:
329,192,19635,1,0,0:0:0:0:
182,192,19635,1,0,0:0:0:0:
36,192,19635,1,0,0:0:0:0:
182,192,19785,1,0,0:0:0:0:
402,192,19785,1,0,0:0:0:0:
475,192,19785,128,0,19860:0:0:0:0:
36,192,19785,1,0,0:0:0:0:
402,192,19935,1,0,0:0:0:0:
475,192,19935,128,0,20010:0:0:0:0:
182,192,19935,1,0,0:0:0:0:
36,192,19935,1,0,0:0:0:0:
182,192,20085,1,0,0:0:0:0:
475,192,20085,128,0,20160:0:0:0:0:
402,192,20085,1,0,0:0:0:0:
36,192,20085,1,0,0:0:0:0:
109,192,20235,1,0,0:0:0:0:
402,192,20235,1,0,0:0:0:0:
475,192,20235,1,0,0:0:0:0:
36,192,20235,128,0,20335:0:0:0:0:
256,192,20235,1,0,0:0:0:0:
475,192,20385,1,0,0:0:0:0:
402,192,20422,1,0,0:0:0:0:
182,192,20460,128,0,20535:0:0:0:0:
329,192,20460,1,0,0:0:0:0:
256,192,20497,1,0,0:0:0:0:
36,192,20535,1,0,0:0:0:0:
109,192,20535,1,0,0:0:0:0:
402,192,20685,128,0,20760:0:0:0:0:
109,192,20685,1,0,0:0:0:0:
182,192,20722,1,0,0:0:0:0:
256,192,20760,1,0,0:0:0:0:
329,192,20797,1,0,0:0:0:0:
36,192,20835,128,0,20910:0:0:0:0:
402,192,20835,1,0,0:0:0:0:
475,192,20835,1,0,0:0:0:0:
182,192,20910,1,0,0:0:0:0:
475,192,20985,128,0,21060:0:0:0:0:
256,192,20985,1,0,0:0:0:0:
329,192,20985,1,0,0:0:0:0:
109,192,21060,1,0,0:0:0:0:
36,192,21135,128,0,21285:0:0:0:0:
182,192,21135,1,0,0:0:0:0:
329,192,21135,1,0,0:0:0:0:
256,192,21210,1,0,0:0:0:0:
475,192,21285,1,0,0:0:0:0:
402,192,21285,1,0,0:0:0:0:
109,192,21322,1,0,0:0:0:0:
182,192,21360,1,0,0:0:0:0:
256,192,21397,1,0,0:0:0:0:
36,192,21435,1,0,0:0:0:0:
475,192,21435,1,0,0:0:0:0:
329,192,21435,1,0,0:0:0:0:
402,192,21510,1,0,0:0:0:0:
109,192,21585,1,0,0:0:0:0:
329,192,21585,1,0,0:0:0:0:
182,192,21660,1,0,0:0:0:0:
36,192,21735,1,0,0:0:0:0:
256,192,21735,1,0,0:0:0:0:
402,192,21735,1,0,0:0:0:0:
109,192,21810,1,0,0:0:0:0:
329,192,21885,1,0,0:0:0:0:
182,192,21885,1,0,0:0:0:0:
402,192,21960,1,0,0:0:0:0:
36,192,22035,1,0,0:0:0:0:
256,192,22035,1,0,0:0:0:0:
475,192,22035,1,0,0:0:0:0:
182,192,22110,1,0,0:0:0:0:
109,192,22185,1,0,0:0:0:0:
475,192,22185,1,0,0:0:0:0:
402,192,22260,1,0,0:0:0:0:
329,192,22335,1,0,0:0:0:0:
36,192,22335,1,0,0:0:0:0:
256,192,22335,1,0,0:0:0:0:
109,192,22410,1,0,0:0:0:0:
402,192,22485,1,0,0:0:0:0:
182,192,22485,1,0,0:0:0:0:
475,192,22560,1,0,0:0:0:0:
36,192,22635,1,0,0:0:0:0:
109,192,22635,1,0,0:0:0:0:
329,192,22635,1,0,0:0:0:0:
256,192,22710,1,0,0:0:0:0:
475,192,22785,1,0,0:0:0:0:
182,192,22785,1,0,0:0:0:0:
329,192,22860,1,0,0:0:0:0:
36,192,22935,1,0,0:0:0:0:
256,192,22935,1,0,0:0:0:0:
475,192,22935,1,0,0:0:0:0:
182,192,23010,1,0,0:0:0:0:
109,192,23085,1,0,0:0:0:0:
329,192,23085,1,0,0:0:0:0:
182,192,23160,1,0,0:0:0:0:
256,192,23235,1,0,0:0:0:0:
36,192,23235,1,0,0:0:0:0:
475,192,23235,1,0,0:0:0:0:
402,192,23310,1,0,0:0:0:0:
182,192,23385,1,0,0:0:0:0:
475,192,23385,1,0,0:0:0:0:
256,192,23460,1,0,0:0:0:0:
36,192,23535,1,0,0:0:0:0:
329,192,23535,1,0,0:0:0:0:
475,192,23535,1,0,0:0:0:0:
109,192,23610,1,0,0:0:0:0:
329,192,23685,1,0,0:0:0:0:
182,192,23685,1,0,0:0:0:0:
109,192,23760,1,0,0:0:0:0:
36,192,23835,1,0,0:0:0:0:
256,192,23835,1,0,0:0:0:0:
329,192,23835,128,0,23985:0:0:0:0:
402,192,23910,128,0,23985:0:0:0:0:
182,192,23910,1,0,0:0:0:0:
475,192,23985,128,0,24135:0:0:0:0:
109,192,23985,1,0,0:0:0:0:
402,192,24060,128,0,24135:0:0:0:0:
36,192,24060,1,0,0:0:0:0:
329,192,24135,128,0,24285:0:0:0:0:
109,192,24135,1,0,0:0:0:0:
402,192,24210,128,0,24285:0:0:0:0:
182,192,24210,1,0,0:0:0:0:
475,192,24285,128,0,24435:0:0:0:0:
109,192,24285,1,0,0:0:0:0:
402,192,24360,128,0,24435:0:0:0:0:
182,192,24360,1,0,0:0:0:0:
36,192,24435,128,0,24585:0:0:0:0:
256,192,24435,1,0,0:0:0:0:
329,192,24435,1,0,0:0:0:0:
109,192,24510,128,0,24585:0:0:0:0:
475,192,24510,1,0,0:0:0:0:
182,192,24585,128,0,24735:0:0:0:0:
402,192,24585,1,0,0:0:0:0:
109,192,24660,128,0,24735:0:0:0:0:
329,192,24660,1,0,0:0:0:0:
36,192,24735,128,0,24885:0:0:0:0:
402,192,24735,1,0,0:0:0:0:
109,192,24810,128,0,24885:0:0:0:0:
475,192,24810,1,0,0:0:0:0:
182,192,24885,128,0,25035:0:0:0:0:
402,192,24885,1,0,0:0:0:0:
109,192,24960,128,0,25035:0:0:0:0:
329,192,24960,1,0,0:0:0:0:
36,192,25035,1,0,0:0:0:0:
256,192,25035,1,0,0:0:0:0:
475,192,25035,1,0,0:0:0:0:
402,192,25110,1,0,0:0:0:0:
329,192,25185,1,0,0:0:0:0:
109,192,25185,1,0,0:0:0:0:
256,192,25260,1,0,0:0:0:0:
182,192,25335,1,0,0:0:0:0:
475,192,25335,1,0,0:0:0:0:
402,192,25410,1,0,0:0:0:0:
109,192,25410,1,0,0:0:0:0:
36,192,25485,1,0,0:0:0:0:
329,192,25485,1,0,0:0:0:0:
109,192,25560,1,0,0:0:0:0:
402,192,25560,1,0,0:0:0:0:
475,192,25635,128,0,26235:0:0:0:0:
256,192,25635,1,0,0:0:0:0:
182,192,25635,1,0,0:0:0:0:
329,192,25710,1,0,0:0:0:0:
402,192,25785,1,0,0:0:0:0:
109,192,25785,1,0,0:0:0:0:
182,192,25860,1,0,0:0:0:0:
36,192,25935,128,0,26235:0:0:0:0:
402,192,25935,1,0,0:0:0:0:
329,192,25935,1,0,0:0:0:0:
256,192,25935,1,0,0:0:0:0:
109,192,26010,1,0,0:0:0:0:
182,192,26010,1,0,0:0:0:0:
402,192,26085,1,0,0:0:0:0:
329,192,26085,1,0,0:0:0:0:
109,192,26160,1,0,0:0:0:0:
182,192,26160,1,0,0:0:0:0:
402,192,26235,1,0,0:0:0:0:
256,192,26235,128,0,29835:0:0:0:0:
329,192,26235,1,0,0:0:0:0:
109,192,26310,1,0,0:0:0:0:
182,192,26385,1,0,0:0:0:0:
109,192,26460,1,0,0:0:0:0:
329,192,26535,1,0,0:0:0:0:
475,192,26535,1,0,0:0:0:0:
182,192,26610,1,0,0:0:0:0:
36,192,26610,1,0,0:0:0:0:
475,192,26685,1,0,0:0:0:0:
329,192,26685,1,0,0:0:0:0:
182,192,26760,1,0,0:0:0:0:
36,192,26835,1,0,0:0:0:0:
109,192,26835,1,0,0:0:0:0:
475,192,26835,1,0,0:0:0:0:
402,192,26910,1,0,0:0:0:0:
329,192,26985,1,0,0:0:0:0:
182,192,27060,1,0,0:0:0:0:
475,192,27135,1,0,0:0:0:0:
402,192,27135,1,0,0:0:0:0:
109,192,27210,1,0,0:0:0:0:
36,192,27210,1,0,0:0:0:0:
402,192,27285,1,0,0:0:0:0:
329,192,27285,1,0,0:0:0:0:
182,192,27360,1,0,0:0:0:0:
402,192,27435,1,0,0:0:0:0:
475,192,27435,1,0,0:0:0:0:
36,192,27435,1,0,0:0:0:0:
109,192,27510,1,0,0:0:0:0:
182,192,27585,1,0,0:0:0:0:
329,192,27660,1,0,0:0:0:0:
475,192,27735,1,0,0:0:0:0:
402,192,27735,1,0,0:0:0:0:
109,192,27810,1,0,0:0:0:0:
182,192,27810,1,0,0:0:0:0:
402,192,27885,1,0,0:0:0:0:
329,192,27885,1,0,0:0:0:0:
36,192,27960,1,0,0:0:0:0:
109,192,27960,1,0,0:0:0:0:
475,192,28035,1,0,0:0:0:0:
402,192,28035,1,0,0:0:0:0:
329,192,28035,1,0,0:0:0:0:
109,192,28110,1,0,0:0:0:0:
182,192,28185,1,0,0:0:0:0:
329,192,28260,1,0,0:0:0:0:
402,192,28335,1,0,0:0:0:0:
475,192,28335,1,0,0:0:0:0:
109,192,28410,1,0,0:0:0:0:
36,192,28410,1,0,0:0:0:0:
329,192,28485,1,0,0:0:0:0:
475,192,28485,1,0,0:0:0:0:
36,192,28560,1,0,0:0:0:0:
182,192,28560,1,0,0:0:0:0:
475,192,28635,128,0,30960:0:0:0:0:
402,192,28635,1,0,0:0:0:0:
329,192,28635,1,0,0:0:0:0:
182,192,28710,1,0,0:0:0:0:
109,192,28785,1,0,0:0:0:0:
36,192,28860,1,0,0:0:0:0:
329,192,28935,1,0,0:0:0:0:
402,192,28935,1,0,0:0:0:0:
182,192,29010,1,0,0:0:0:0:
109,192,29085,1,0,0:0:0:0:
36,192,29160,1,0,0:0:0:0:
329,192,29235,1,0,0:0:0:0:
402,192,29235,1,0,0:0:0:0:
182,192,29310,1,0,0:0:0:0:
109,192,29385,1,0,0:0:0:0:
36,192,29460,1,0,0:0:0:0:
329,192,29535,1,0,0:0:0:0:
402,192,29535,1,0,0:0:0:0:
182,192,29610,1,0,0:0:0:0:
109,192,29685,1,0,0:0:0:0:
36,192,29760,1,0,0:0:0:0:
402,192,29835,1,0,0:0:0:0:
182,192,29835,1,0,0:0:0:0:
329,192,29835,1,0,0:0:0:0:
256,192,29910,1,0,0:0:0:0:
36,192,29985,1,0,0:0:0:0:
109,192,29985,1,0,0:0:0:0:
182,192,30022,1,0,0:0:0:0:
256,192,30060,1,0,0:0:0:0:
329,192,30097,1,0,0:0:0:0:
36,192,30135,1,0,0:0:0:0:
402,192,30135,1,0,0:0:0:0:
109,192,30210,1,0,0:0:0:0:
329,192,30285,1,0,0:0:0:0:
402,192,30285,1,0,0:0:0:0:
256,192,30322,1,0,0:0:0:0:
182,192,30360,1,0,0:0:0:0:
109,192,30397,1,0,0:0:0:0:
36,192,30435,1,0,0:0:0:0:
402,192,30435,1,0,0:0:0:0:
329,192,30510,1,0,0:0:0:0:
256,192,30585,1,0,0:0:0:0:
109,192,30585,1,0,0:0:0:0:
402,192,30735,1,0,0:0:0:0:
182,192,30735,1,0,0:0:0:0:
256,192,30810,1,0,0:0:0:0:
36,192,30885,1,0,0:0:0:0:
109,192,30885,1,0,0:0:0:0:
182,192,30922,1,0,0:0:0:0:
256,192,30960,1,0,0:0:0:0:
329,192,30997,1,0,0:0:0:0:
402,192,31035,1,0,0:0:0:0:
36,192,31035,1,0,0:0:0:0:
475,192,31035,128,0,32235:0:0:0:0:
182,192,31110,1,0,0:0:0:0:
329,192,31185,1,0,0:0:0:0:
182,192,31260,1,0,0:0:0:0:
109,192,31335,1,0,0:0:0:0:
329,192,31335,1,0,0:0:0:0:
402,192,31335,1,0,0:0:0:0:
256,192,31410,1,0,0:0:0:0:
36,192,31485,1,0,0:0:0:0:
329,192,31560,1,0,0:0:0:0:
109,192,31635,1,0,0:0:0:0:
182,192,31635,1,0,0:0:0:0:
402,192,31635,1,0,0:0:0:0:
329,192,31710,1,0,0:0:0:0:
36,192,31785,1,0,0:0:0:0:
182,192,31860,1,0,0:0:0:0:
109,192,31935,1,0,0:0:0:0:
329,192,31935,1,0,0:0:0:0:
402,192,31935,1,0,0:0:0:0:
256,192,32010,1,0,0:0:0:0:
109,192,32085,1,0,0:0:0:0:
36,192,32160,1,0,0:0:0:0:
329,192,32235,128,0,33435:0:0:0:0:
182,192,32235,1,0,0:0:0:0:
256,192,32235,1,0,0:0:0:0:
402,192,32235,1,0,0:0:0:0:
36,192,32310,1,0,0:0:0:0:
182,192,32385,1,0,0:0:0:0:
475,192,32460,1,0,0:0:0:0:
109,192,32535,1,0,0:0:0:0:
256,192,32535,1,0,0:0:0:0:
402,192,32535,1,0,0:0:0:0:
36,192,32610,1,0,0:0:0:0:
475,192,32685,1,0,0:0:0:0:
182,192,32760,1,0,0:0:0:0:
36,192,32835,1,0,0:0:0:0:
109,192,32835,1,0,0:0:0:0:
402,192,32835,1,0,0:0:0:0:
256,192,32910,1,0,0:0:0:0:
109,192,32985,1,0,0:0:0:0:
475,192,33060,1,0,0:0:0:0:
182,192,33135,1,0,0:0:0:0:
402,192,33135,1,0,0:0:0:0:
36,192,33135,1,0,0:0:0:0:
256,192,33210,1,0,0:0:0:0:
109,192,33285,1,0,0:0:0:0:
475,192,33360,1,0,0:0:0:0:
182,192,33435,128,0,34635:0:0:0:0:
36,192,33435,1,0,0:0:0:0:
402,192,33435,1,0,0:0:0:0:
256,192,33435,128,0,33510:0:0:0:0:
329,192,33510,128,0,33585:0:0:0:0:
402,192,33585,128,0,33660:0:0:0:0:
475,192,33660,128,0,33735:0:0:0:0:
36,192,33735,1,0,0:0:0:0:
109,192,33735,1,0,0:0:0:0:
256,192,33735,128,0,33810:0:0:0:0:
329,192,33810,128,0,33885:0:0:0:0:
402,192,33885,128,0,33960:0:0:0:0:
475,192,33960,128,0,34035:0:0:0:0:
36,192,34035,1,0,0:0:0:0:
109,192,34035,1,0,0:0:0:0:
256,192,34035,128,0,34110:0:0:0:0:
329,192,34110,128,0,34185:0:0:0:0:
402,192,34185,128,0,34260:0:0:0:0:
475,192,34260,128,0,34335:0:0:0:0:
36,192,34335,1,0,0:0:0:0:
109,192,34335,1,0,0:0:0:0:
256,192,34335,128,0,34410:0:0:0:0:
329,192,34410,128,0,34485:0:0:0:0:
402,192,34485,128,0,34560:0:0:0:0:
475,192,34560,128,0,34635:0:0:0:0:
36,192,34635,128,0,35835:0:0:0:0:
109,192,34635,1,0,0:0:0:0:
256,192,34635,1,0,0:0:0:0:
329,192,34635,1,0,0:0:0:0:
475,192,34710,1,0,0:0:0:0:
182,192,34785,1,0,0:0:0:0:
402,192,34860,1,0,0:0:0:0:
256,192,34935,1,0,0:0:0:0:
329,192,34935,1,0,0:0:0:0:
109,192,34935,1,0,0:0:0:0:
475,192,35010,1,0,0:0:0:0:
182,192,35085,1,0,0:0:0:0:
402,192,35160,1,0,0:0:0:0:
256,192,35235,1,0,0:0:0:0:
109,192,35235,1,0,0:0:0:0:
475,192,35235,1,0,0:0:0:0:
329,192,35310,1,0,0:0:0:0:
182,192,35385,1,0,0:0:0:0:
475,192,35460,1,0,0:0:0:0:
109,192,35535,1,0,0:0:0:0:
182,192,35535,1,0,0:0:0:0:
256,192,35535,1,0,0:0:0:0:
402,192,35610,1,0,0:0:0:0:
329,192,35685,1,0,0:0:0:0:
182,192,35760,1,0,0:0:0:0:
475,192,35835,128,0,37035:0:0:0:0:
109,192,35835,1,0,0:0:0:0:
256,192,35835,1,0,0:0:0:0:
402,192,35835,1,0,0:0:0:0:
329,192,35910,1,0,0:0:0:0:
36,192,35985,1,0,0:0:0:0:
182,192,36060,1,0,0:0:0:0:
36,192,36135,1,0,0:0:0:0:
329,192,36135,1,0,0:0:0:0:
402,192,36135,1,0,0:0:0:0:
256,192,36210,1,0,0:0:0:0:
109,192,36285,1,0,0:0:0:0:
256,192,36360,1,0,0:0:0:0:
182,192,36435,1,0,0:0:0:0:
36,192,36435,1,0,0:0:0:0:
402,192,36435,1,0,0:0:0:0:
329,192,36510,1,0,0:0:0:0:
182,192,36585,1,0,0:0:0:0:
329,192,36660,1,0,0:0:0:0:
109,192,36735,1,0,0:0:0:0:
256,192,36735,1,0,0:0:0:0:
402,192,36735,1,0,0:0:0:0:
36,192,36810,1,0,0:0:0:0:
182,192,36885,1,0,0:0:0:0:
36,192,36960,1,0,0:0:0:0:
329,192,37035,128,0,38235:0:0:0:0:
109,192,37035,1,0,0:0:0:0:
256,192,37035,1,0,0:0:0:0:
402,192,37035,1,0,0:0:0:0:
36,192,37110,1,0,0:0:0:0:
182,192,37185,1,0,0:0:0:0:
475,192,37260,1,0,0:0:0:0:
109,192,37335,1,0,0:0:0:0:
256,192,37335,1,0,0:0:0:0:
402,192,37335,1,0,0:0:0:0:
475,192,37410,1,0,0:0:0:0:
182,192,37485,1,0,0:0:0:0:
36,192,37560,1,0,0:0:0:0:
256,192,37635,1,0,0:0:0:0:
402,192,37635,1,0,0:0:0:0:
475,192,37635,1,0,0:0:0:0:
182,192,37710,1,0,0:0:0:0:
109,192,37785,1,0,0:0:0:0:
182,192,37860,1,0,0:0:0:0:
36,192,37935,1,0,0:0:0:0:
256,192,37935,1,0,0:0:0:0:
475,192,37935,1,0,0:0:0:0:
109,192,38010,1,0,0:0:0:0:
182,192,38085,1,0,0:0:0:0:
256,192,38160,1,0,0:0:0:0:
475,192,38235,128,0,39435:0:0:0:0:
109,192,38235,1,0,0:0:0:0:
36,192,38235,1,0,0:0:0:0:
402,192,38235,128,0,38310:0:0:0:0:
182,192,38310,1,0,0:0:0:0:
329,192,38310,128,0,38385:0:0:0:0:
256,192,38385,128,0,38460:0:0:0:0:
329,192,38460,1,0,0:0:0:0:
182,192,38460,128,0,38535:0:0:0:0:
402,192,38535,1,0,0:0:0:0:
36,192,38535,1,0,0:0:0:0:
109,192,38535,128,0,38610:0:0:0:0:
329,192,38610,1,0,0:0:0:0:
182,192,38610,128,0,38685:0:0:0:0:
256,192,38685,128,0,38760:0:0:0:0:
182,192,38760,1,0,0:0:0:0:
329,192,38760,128,0,38835:0:0:0:0:
109,192,38835,1,0,0:0:0:0:
36,192,38835,1,0,0:0:0:0:
402,192,38835,128,0,38910:0:0:0:0:
329,192,38910,128,0,38985:0:0:0:0:
256,192,38985,128,0,39060:0:0:0:0:
182,192,39060,128,0,39135:0:0:0:0:
36,192,39135,1,0,0:0:0:0:
109,192,39135,1,0,0:0:0:0:
402,192,39135,128,0,39210:0:0:0:0:
329,192,39210,128,0,39285:0:0:0:0:
256,192,39285,128,0,39360:0:0:0:0:
182,192,39360,128,0,39435:0:0:0:0:
36,192,39435,128,0,40635:0:0:0:0:
109,192,39435,1,0,0:0:0:0:
402,192,39435,1,0,0:0:0:0:
329,192,39435,1,0,0:0:0:0:
182,192,39510,1,0,0:0:0:0:
475,192,39585,1,0,0:0:0:0:
329,192,39660,1,0,0:0:0:0:
109,192,39735,1,0,0:0:0:0:
182,192,39735,1,0,0:0:0:0:
402,192,39735,1,0,0:0:0:0:
256,192,39810,1,0,0:0:0:0:
475,192,39885,1,0,0:0:0:0:
329,192,39960,1,0,0:0:0:0:
182,192,40035,1,0,0:0:0:0:
475,192,40035,1,0,0:0:0:0:
402,192,40035,1,0,0:0:0:0:
109,192,40110,1,0,0:0:0:0:
256,192,40185,1,0,0:0:0:0:
182,192,40260,1,0,0:0:0:0:
329,192,40335,1,0,0:0:0:0:
402,192,40335,1,0,0:0:0:0:
475,192,40335,1,0,0:0:0:0:
256,192,40410,1,0,0:0:0:0:
402,192,40485,1,0,0:0:0:0:
475,192,40485,1,0,0:0:0:0:
329,192,40485,1,0,0:0:0:0:
256,192,40560,1,0,0:0:0:0:
182,192,40635,1,0,0:0:0:0:
109,192,40635,1,0,0:0:0:0:
475,192,40635,128,0,41835:0:0:0:0:
329,192,40635,1,0,0:0:0:0:
402,192,40710,1,0,0:0:0:0:
256,192,40785,1,0,0:0:0:0:
109,192,40860,1,0,0:0:0:0:
36,192,40935,1,0,0:0:0:0:
329,192,40935,1,0,0:0:0:0:
402,192,40935,1,0,0:0:0:0:
109,192,41010,1,0,0:0:0:0:
256,192,41085,1,0,0:0:0:0:
402,192,41160,1,0,0:0:0:0:
36,192,41235,1,0,0:0:0:0:
109,192,41235,1,0,0:0:0:0:
329,192,41235,1,0,0:0:0:0:
182,192,41310,1,0,0:0:0:0:
402,192,41385,1,0,0:0:0:0:
256,192,41460,1,0,0:0:0:0:
36,192,41535,1,0,0:0:0:0:
329,192,41535,1,0,0:0:0:0:
182,192,41535,1,0,0:0:0:0:
402,192,41610,1,0,0:0:0:0:
109,192,41685,1,0,0:0:0:0:
256,192,41760,1,0,0:0:0:0:
182,192,41835,128,0,43035:0:0:0:0:
329,192,41835,1,0,0:0:0:0:
402,192,41835,1,0,0:0:0:0:
36,192,41835,1,0,0:0:0:0:
109,192,41910,1,0,0:0:0:0:
475,192,41985,1,0,0:0:0:0:
329,192,42060,1,0,0:0:0:0:
36,192,42135,1,0,0:0:0:0:
402,192,42135,1,0,0:0:0:0:
109,192,42135,1,0,0:0:0:0:
256,192,42210,1,0,0:0:0:0:
475,192,42285,1,0,0:0:0:0:
329,192,42360,1,0,0:0:0:0:
36,192,42435,1,0,0:0:0:0:
109,192,42435,1,0,0:0:0:0:
402,192,42435,1,0,0:0:0:0:
256,192,42510,1,0,0:0:0:0:
36,192,42585,1,0,0:0:0:0:
109,192,42660,1,0,0:0:0:0:
402,192,42735,1,0,0:0:0:0:
475,192,42735,1,0,0:0:0:0:
256,192,42735,1,0,0:0:0:0:
329,192,42810,1,0,0:0:0:0:
36,192,42885,1,0,0:0:0:0:
109,192,42960,1,0,0:0:0:0:
256,192,43035,1,0,0:0:0:0:
475,192,43035,128,0,44235:0:0:0:0:
36,192,43035,1,0,0:0:0:0:
402,192,43035,128,0,43110:0:0:0:0:
329,192,43110,128,0,43185:0:0:0:0:
109,192,43185,1,0,0:0:0:0:
256,192,43185,128,0,43260:0:0:0:0:
329,192,43260,128,0,43335:0:0:0:0:
36,192,43335,1,0,0:0:0:0:
402,192,43335,128,0,43410:0:0:0:0:
182,192,43335,1,0,0:0:0:0:
329,192,43410,128,0,43485:0:0:0:0:
109,192,43485,1,0,0:0:0:0:
256,192,43485,128,0,43560:0:0:0:0:
182,192,43560,128,0,43635:0:0:0:0:
402,192,43635,1,0,0:0:0:0:
109,192,43635,128,0,43710:0:0:0:0:
329,192,43635,1,0,0:0:0:0:
182,192,43710,128,0,43785:0:0:0:0:
256,192,43785,1,0,0:0:0:0:
36,192,43785,128,0,43860:0:0:0:0:
109,192,43860,128,0,43935:0:0:0:0:
329,192,43935,1,0,0:0:0:0:
402,192,43935,1,0,0:0:0:0:
182,192,43935,128,0,44010:0:0:0:0:
109,192,44010,128,0,44085:0:0:0:0:
36,192,44085,128,0,44160:0:0:0:0:
256,192,44085,1,0,0:0:0:0:
109,192,44160,128,0,44235:0:0:0:0:
36,192,44235,128,0,45435:0:0:0:0:
256,192,44235,1,0,0:0:0:0:
402,192,44235,1,0,0:0:0:0:
182,192,44235,1,0,0:0:0:0:
329,192,44310,1,0,0:0:0:0:
402,192,44385,1,0,0:0:0:0:
256,192,44460,1,0,0:0:0:0:
109,192,44535,1,0,0:0:0:0:
182,192,44535,1,0,0:0:0:0:
475,192,44535,1,0,0:0:0:0:
402,192,44610,1,0,0:0:0:0:
256,192,44685,1,0,0:0:0:0:
475,192,44760,1,0,0:0:0:0:
329,192,44835,1,0,0:0:0:0:
182,192,44835,1,0,0:0:0:0:
109,192,44835,1,0,0:0:0:0:
475,192,44910,1,0,0:0:0:0:
256,192,44985,1,0,0:0:0:0:
402,192,45060,1,0,0:0:0:0:
109,192,45135,1,0,0:0:0:0:
182,192,45135,1,0,0:0:0:0:
475,192,45135,1,0,0:0:0:0:
329,192,45210,1,0,0:0:0:0:
109,192,45285,1,0,0:0:0:0:
182,192,45285,1,0,0:0:0:0:
475,192,45285,1,0,0:0:0:0:
402,192,45360,1,0,0:0:0:0:
256,192,45435,128,0,47235:0:0:0:0:
329,192,45435,128,0,45510:0:0:0:0:
182,192,45435,1,0,0:0:0:0:
402,192,45510,128,0,45585:0:0:0:0:
109,192,45510,1,0,0:0:0:0:
475,192,45585,128,0,45660:0:0:0:0:
36,192,45585,1,0,0:0:0:0:
402,192,45660,128,0,45735:0:0:0:0:
109,192,45660,1,0,0:0:0:0:
329,192,45735,128,0,45810:0:0:0:0:
182,192,45735,1,0,0:0:0:0:
36,192,45810,128,0,45885:0:0:0:0:
475,192,45810,1,0,0:0:0:0:
109,192,45885,128,0,45960:0:0:0:0:
402,192,45885,1,0,0:0:0:0:
182,192,45960,128,0,46035:0:0:0:0:
329,192,45960,1,0,0:0:0:0:
475,192,46035,128,0,46110:0:0:0:0:
36,192,46035,1,0,0:0:0:0:
402,192,46110,128,0,46185:0:0:0:0:
109,192,46110,1,0,0:0:0:0:
329,192,46185,128,0,46260:0:0:0:0:
182,192,46185,1,0,0:0:0:0:
402,192,46260,1,0,0:0:0:0:
36,192,46335,128,0,46410:0:0:0:0:
475,192,46335,1,0,0:0:0:0:
109,192,46410,128,0,46485:0:0:0:0:
402,192,46410,1,0,0:0:0:0:
182,192,46485,128,0,46560:0:0:0:0:
329,192,46485,1,0,0:0:0:0:
36,192,46560,128,0,46635:0:0:0:0:
475,192,46560,1,0,0:0:0:0:
402,192,46635,128,0,46710:0:0:0:0:
329,192,46710,128,0,46785:0:0:0:0:
109,192,46710,1,0,0:0:0:0:
402,192,46785,128,0,46860:0:0:0:0:
182,192,46785,1,0,0:0:0:0:
109,192,46860,1,0,0:0:0:0:
475,192,46860,128,0,46935:0:0:0:0:
402,192,46935,128,0,47010:0:0:0:0:
36,192,46935,1,0,0:0:0:0:
329,192,47010,128,0,47085:0:0:0:0:
109,192,47010,1,0,0:0:0:0:
182,192,47085,128,0,47160:0:0:0:0:
475,192,47085,1,0,0:0:0:0:
109,192,47160,128,0,47235:0:0:0:0:
402,192,47235,128,0,47535:0:0:0:0:
36,192,47235,128,0,47310:0:0:0:0:
329,192,47235,1,0,0:0:0:0:
109,192,47310,128,0,47385:0:0:0:0:
182,192,47385,128,0,47460:0:0:0:0:
256,192,47460,128,0,47535:0:0:0:0:
329,192,47535,128,0,47835:0:0:0:0:
109,192,47535,128,0,47610:0:0:0:0:
36,192,47535,1,0,0:0:0:0:
182,192,47610,128,0,47685:0:0:0:0:
256,192,47685,128,0,47760:0:0:0:0:
402,192,47760,128,0,47835:0:0:0:0:
256,192,47835,128,0,49035:0:0:0:0:
475,192,47835,1,0,0:0:0:0:
36,192,47835,128,0,47910:0:0:0:0:
109,192,47910,128,0,47985:0:0:0:0:
329,192,47910,1,0,0:0:0:0:
182,192,47985,128,0,48060:0:0:0:0:
402,192,47985,1,0,0:0:0:0:
475,192,48060,1,0,0:0:0:0:
329,192,48135,1,0,0:0:0:0:
109,192,48135,1,0,0:0:0:0:
402,192,48210,1,0,0:0:0:0:
182,192,48210,1,0,0:0:0:0:
36,192,48285,128,0,48360:0:0:0:0:
475,192,48285,1,0,0:0:0:0:
109,192,48360,128,0,48435:0:0:0:0:
329,192,48360,1,0,0:0:0:0:
182,192,48435,128,0,48510:0:0:0:0:
402,192,48435,1,0,0:0:0:0:
475,192,48510,1,0,0:0:0:0:
329,192,48585,1,0,0:0:0:0:
109,192,48585,1,0,0:0:0:0:
402,192,48660,1,0,0:0:0:0:
182,192,48660,1,0,0:0:0:0:
36,192,48735,128,0,48810:0:0:0:0:
475,192,48735,1,0,0:0:0:0:
109,192,48810,128,0,48885:0:0:0:0:
329,192,48810,1,0,0:0:0:0:
182,192,48885,128,0,48960:0:0:0:0:
402,192,48885,1,0,0:0:0:0:
109,192,48960,128,0,49035:0:0:0:0:
475,192,48960,1,0,0:0:0:0:
36,192,49035,128,0,49860:0:0:0:0:
329,192,49035,1,0,0:0:0:0:
182,192,49110,1,0,0:0:0:0:
475,192,49185,1,0,0:0:0:0:
109,192,49185,1,0,0:0:0:0:
402,192,49222,1,0,0:0:0:0:
329,192,49260,1,0,0:0:0:0:
256,192,49260,1,0,0:0:0:0:
182,192,49297,1,0,0:0:0:0:
475,192,49335,1,0,0:0:0:0:
109,192,49335,1,0,0:0:0:0:
329,192,49410,1,0,0:0:0:0:
109,192,49485,1,0,0:0:0:0:
475,192,49485,1,0,0:0:0:0:
182,192,49522,1,0,0:0:0:0:
256,192,49560,1,0,0:0:0:0:
329,192,49597,1,0,0:0:0:0:
475,192,49635,128,0,49935:0:0:0:0:
402,192,49635,1,0,0:0:0:0:
109,192,49635,1,0,0:0:0:0:
329,192,49710,1,0,0:0:0:0:
182,192,49710,1,0,0:0:0:0:
402,192,49785,1,0,0:0:0:0:
109,192,49785,1,0,0:0:0:0:
329,192,49860,1,0,0:0:0:0:
182,192,49860,1,0,0:0:0:0:
402,192,49935,1,0,0:0:0:0:
36,192,49935,128,0,50235:0:0:0:0:
256,192,49935,1,0,0:0:0:0:
109,192,50010,1,0,0:0:0:0:
182,192,50010,1,0,0:0:0:0:
475,192,50085,1,0,0:0:0:0:
402,192,50122,1,0,0:0:0:0:
329,192,50160,1,0,0:0:0:0:
256,192,50197,1,0,0:0:0:0:
109,192,50235,128,0,51435:0:0:0:0:
475,192,50235,128,0,51435:0:0:0:0:
182,192,50235,1,0,0:0:0:0:
402,192,50235,1,0,0:0:0:0:
256,192,50310,1,0,0:0:0:0:
402,192,50385,1,0,0:0:0:0:
329,192,50460,1,0,0:0:0:0:
256,192,50535,1,0,0:0:0:0:
182,192,50535,1,0,0:0:0:0:
36,192,50535,1,0,0:0:0:0:
402,192,50610,1,0,0:0:0:0:
182,192,50685,1,0,0:0:0:0:
329,192,50760,1,0,0:0:0:0:
36,192,50835,1,0,0:0:0:0:
256,192,50835,1,0,0:0:0:0:
402,192,50835,1,0,0:0:0:0:
182,192,50910,1,0,0:0:0:0:
329,192,50985,1,0,0:0:0:0:
36,192,51060,1,0,0:0:0:0:
329,192,51135,1,0,0:0:0:0:
402,192,51135,1,0,0:0:0:0:
182,192,51135,1,0,0:0:0:0:
36,192,51210,1,0,0:0:0:0:
402,192,51285,1,0,0:0:0:0:
329,192,51360,1,0,0:0:0:0:
402,192,51435,128,0,52635:0:0:0:0:
36,192,51435,128,0,52635:0:0:0:0:
182,192,51435,1,0,0:0:0:0:
256,192,51435,1,0,0:0:0:0:
329,192,51510,1,0,0:0:0:0:
109,192,51585,1,0,0:0:0:0:
256,192,51660,1,0,0:0:0:0:
475,192,51735,1,0,0:0:0:0:
329,192,51735,1,0,0:0:0:0:
109,192,51735,1,0,0:0:0:0:
182,192,51810,1,0,0:0:0:0:
475,192,51885,1,0,0:0:0:0:
256,192,51960,1,0,0:0:0:0:
109,192,52035,1,0,0:0:0:0:
182,192,52035,1,0,0:0:0:0:
475,192,52035,1,0,0:0:0:0:
329,192,52110,1,0,0:0:0:0:
109,192,52185,1,0,0:0:0:0:
329,192,52260,1,0,0:0:0:0:
182,192,52335,1,0,0:0:0:0:
256,192,52335,1,0,0:0:0:0:
475,192,52335,1,0,0:0:0:0:
109,192,52410,1,0,0:0:0:0:
475,192,52485,1,0,0:0:0:0:
256,192,52560,1,0,0:0:0:0:
329,192,52635,128,0,53835:0:0:0:0:
109,192,52635,128,0,53835:0:0:0:0:
182,192,52635,1,0,0:0:0:0:
475,192,52635,1,0,0:0:0:0:
256,192,52710,1,0,0:0:0:0:
475,192,52785,1,0,0:0:0:0:
182,192,52860,1,0,0:0:0:0:
36,192,52935,1,0,0:0:0:0:
402,192,52935,1,0,0:0:0:0:
475,192,52935,1,0,0:0:0:0:
256,192,53010,1,0,0:0:0:0:
36,192,53085,1,0,0:0:0:0:
182,192,53160,1,0,0:0:0:0:
256,192,53235,1,0,0:0:0:0:
402,192,53235,1,0,0:0:0:0:
475,192,53235,1,0,0:0:0:0:
36,192,53310,1,0,0:0:0:0:
475,192,53385,1,0,0:0:0:0:
402,192,53460,1,0,0:0:0:0:
36,192,53535,1,0,0:0:0:0:
182,192,53535,1,0,0:0:0:0:
256,192,53535,1,0,0:0:0:0:
475,192,53610,1,0,0:0:0:0:
182,192,53685,1,0,0:0:0:0:
402,192,53760,1,0,0:0:0:0:
182,192,53835,128,0,55035:0:0:0:0:
36,192,53835,128,0,55035:0:0:0:0:
256,192,53835,1,0,0:0:0:0:
475,192,53835,1,0,0:0:0:0:
402,192,53910,1,0,0:0:0:0:
329,192,53985,1,0,0:0:0:0:
256,192,54060,1,0,0:0:0:0:
109,192,54135,1,0,0:0:0:0:
402,192,54135,1,0,0:0:0:0:
475,192,54135,1,0,0:0:0:0:
256,192,54210,1,0,0:0:0:0:
329,192,54285,1,0,0:0:0:0:
402,192,54360,1,0,0:0:0:0:
475,192,54435,1,0,0:0:0:0:
109,192,54435,1,0,0:0:0:0:
256,192,54435,1,0,0:0:0:0:
329,192,54510,1,0,0:0:0:0:
402,192,54585,1,0,0:0:0:0:
475,192,54660,1,0,0:0:0:0:
256,192,54735,1,0,0:0:0:0:
402,192,54735,1,0,0:0:0:0:
109,192,54810,1,0,0:0:0:0:
256,192,54885,1,0,0:0:0:0:
402,192,54885,1,0,0:0:0:0:
109,192,54960,1,0,0:0:0:0:
475,192,55035,128,0,56235:0:0:0:0:
329,192,55035,128,0,57435:0:0:0:0:
256,192,55035,1,0,0:0:0:0:
402,192,55035,1,0,0:0:0:0:
109,192,55110,1,0,0:0:0:0:
36,192,55185,1,0,0:0:0:0:
182,192,55260,1,0,0:0:0:0:
109,192,55335,1,0,0:0:0:0:
36,192,55335,1,0,0:0:0:0:
402,192,55335,1,0,0:0:0:0:
256,192,55410,1,0,0:0:0:0:
182,192,55485,1,0,0:0:0:0:
36,192,55560,1,0,0:0:0:0:
109,192,55635,1,0,0:0:0:0:
256,192,55635,1,0,0:0:0:0:
402,192,55635,1,0,0:0:0:0:
36,192,55710,1,0,0:0:0:0:
182,192,55785,1,0,0:0:0:0:
109,192,55860,1,0,0:0:0:0:
256,192,55935,1,0,0:0:0:0:
36,192,55935,1,0,0:0:0:0:
182,192,55935,1,0,0:0:0:0:
109,192,56010,1,0,0:0:0:0:
256,192,56085,1,0,0:0:0:0:
182,192,56160,1,0,0:0:0:0:
402,192,56235,128,0,57435:0:0:0:0:
36,192,56235,1,0,0:0:0:0:
109,192,56235,1,0,0:0:0:0:
256,192,56235,1,0,0:0:0:0:
475,192,56310,1,0,0:0:0:0:
256,192,56385,1,0,0:0:0:0:
182,192,56460,1,0,0:0:0:0:
36,192,56535,1,0,0:0:0:0:
109,192,56535,1,0,0:0:0:0:
475,192,56535,1,0,0:0:0:0:
256,192,56610,1,0,0:0:0:0:
182,192,56685,1,0,0:0:0:0:
109,192,56760,1,0,0:0:0:0:
36,192,56835,1,0,0:0:0:0:
256,192,56835,1,0,0:0:0:0:
475,192,56835,1,0,0:0:0:0:
109,192,56910,1,0,0:0:0:0:
182,192,56985,1,0,0:0:0:0:
256,192,57060,1,0,0:0:0:0:
475,192,57135,1,0,0:0:0:0:
36,192,57135,1,0,0:0:0:0:
109,192,57135,1,0,0:0:0:0:
182,192,57210,1,0,0:0:0:0:
256,192,57285,1,0,0:0:0:0:
182,192,57360,1,0,0:0:0:0:
36,192,57435,128,0,58635:0:0:0:0:
475,192,57435,128,0,58635:0:0:0:0:
109,192,57435,1,0,0:0:0:0:
256,192,57435,1,0,0:0:0:0:
402,192,57510,1,0,0:0:0:0:
329,192,57585,1,0,0:0:0:0:
256,192,57660,1,0,0:0:0:0:
109,192,57735,1,0,0:0:0:0:
182,192,57735,1,0,0:0:0:0:
402,192,57735,1,0,0:0:0:0:
329,192,57810,1,0,0:0:0:0:
256,192,57885,1,0,0:0:0:0:
182,192,57960,1,0,0:0:0:0:
109,192,58035,1,0,0:0:0:0:
329,192,58035,1,0,0:0:0:0:
402,192,58035,1,0,0:0:0:0:
256,192,58110,1,0,0:0:0:0:
182,192,58185,1,0,0:0:0:0:
109,192,58260,1,0,0:0:0:0:
256,192,58335,1,0,0:0:0:0:
329,192,58335,1,0,0:0:0:0:
402,192,58335,1,0,0:0:0:0:
182,192,58410,1,0,0:0:0:0:
109,192,58485,1,0,0:0:0:0:
182,192,58560,1,0,0:0:0:0:
109,192,58635,128,0,59835:0:0:0:0:
329,192,58635,128,0,59835:0:0:0:0:
256,192,58635,1,0,0:0:0:0:
402,192,58635,1,0,0:0:0:0:
475,192,58710,1,0,0:0:0:0:
402,192,58785,1,0,0:0:0:0:
256,192,58860,1,0,0:0:0:0:
36,192,58935,1,0,0:0:0:0:
182,192,58935,1,0,0:0:0:0:
475,192,58935,1,0,0:0:0:0:
402,192,59010,1,0,0:0:0:0:
36,192,59085,1,0,0:0:0:0:
182,192,59160,1,0,0:0:0:0:
36,192,59235,1,0,0:0:0:0:
475,192,59235,1,0,0:0:0:0:
402,192,59235,1,0,0:0:0:0:
256,192,59310,1,0,0:0:0:0:
182,192,59385,1,0,0:0:0:0:
36,192,59460,1,0,0:0:0:0:
182,192,59535,1,0,0:0:0:0:
475,192,59535,1,0,0:0:0:0:
256,192,59535,1,0,0:0:0:0:
402,192,59610,1,0,0:0:0:0:
475,192,59685,1,0,0:0:0:0:
182,192,59685,1,0,0:0:0:0:
256,192,59685,1,0,0:0:0:0:
402,192,59760,1,0,0:0:0:0:
182,192,59835,128,0,61035:0:0:0:0:
475,192,59835,128,0,61035:0:0:0:0:
36,192,59835,1,0,0:0:0:0:
256,192,59835,1,0,0:0:0:0:
329,192,59910,1,0,0:0:0:0:
256,192,59985,1,0,0:0:0:0:
329,192,60060,1,0,0:0:0:0:
402,192,60135,1,0,0:0:0:0:
36,192,60135,1,0,0:0:0:0:
109,192,60135,1,0,0:0:0:0:
256,192,60210,1,0,0:0:0:0:
329,192,60285,1,0,0:0:0:0:
402,192,60360,1,0,0:0:0:0:
36,192,60435,1,0,0:0:0:0:
109,192,60435,1,0,0:0:0:0:
256,192,60435,1,0,0:0:0:0:
402,192,60510,1,0,0:0:0:0:
329,192,60585,1,0,0:0:0:0:
256,192,60660,1,0,0:0:0:0:
36,192,60735,1,0,0:0:0:0:
402,192,60735,1,0,0:0:0:0:
329,192,60735,1,0,0:0:0:0:
109,192,60810,1,0,0:0:0:0:
329,192,60885,1,0,0:0:0:0:
402,192,60960,1,0,0:0:0:0:
36,192,61035,128,0,62235:0:0:0:0:
256,192,61035,128,0,62235:0:0:0:0:
109,192,61035,1,0,0:0:0:0:
329,192,61035,1,0,0:0:0:0:
475,192,61110,1,0,0:0:0:0:
402,192,61185,1,0,0:0:0:0:
329,192,61260,1,0,0:0:0:0:
182,192,61335,1,0,0:0:0:0:
109,192,61335,1,0,0:0:0:0:
475,192,61335,1,0,0:0:0:0:
329,192,61410,1,0,0:0:0:0:
475,192,61485,1,0,0:0:0:0:
109,192,61560,1,0,0:0:0:0:
182,192,61635,1,0,0:0:0:0:
402,192,61635,1,0,0:0:0:0:
329,192,61635,128,0,62235:0:0:0:0:
475,192,61710,1,0,0:0:0:0:
109,192,61785,1,0,0:0:0:0:
402,192,61860,1,0,0:0:0:0:
475,192,61935,1,0,0:0:0:0:
109,192,61935,1,0,0:0:0:0:
402,192,62010,1,0,0:0:0:0:
182,192,62085,1,0,0:0:0:0:
402,192,62160,1,0,0:0:0:0:
475,192,62235,128,0,65835:0:0:0:0:
109,192,62235,128,0,63435:0:0:0:0:
182,192,62235,1,0,0:0:0:0:
256,192,62310,1,0,0:0:0:0:
329,192,62385,1,0,0:0:0:0:
402,192,62460,1,0,0:0:0:0:
36,192,62535,1,0,0:0:0:0:
182,192,62535,1,0,0:0:0:0:
256,192,62535,1,0,0:0:0:0:
329,192,62610,1,0,0:0:0:0:
402,192,62685,1,0,0:0:0:0:
182,192,62760,1,0,0:0:0:0:
36,192,62835,1,0,0:0:0:0:
329,192,62835,1,0,0:0:0:0:
402,192,62835,1,0,0:0:0:0:
256,192,62910,1,0,0:0:0:0:
182,192,62985,1,0,0:0:0:0:
402,192,63060,1,0,0:0:0:0:
36,192,63135,1,0,0:0:0:0:
256,192,63135,1,0,0:0:0:0:
329,192,63135,1,0,0:0:0:0:
182,192,63210,1,0,0:0:0:0:
329,192,63285,1,0,0:0:0:0:
256,192,63360,1,0,0:0:0:0:
182,192,63435,128,0,65835:0:0:0:0:
402,192,63435,128,0,64560:0:0:0:0:
36,192,63435,1,0,0:0:0:0:
109,192,63510,1,0,0:0:0:0:
329,192,63585,1,0,0:0:0:0:
256,192,63660,1,0,0:0:0:0:
36,192,63735,1,0,0:0:0:0:
109,192,63735,1,0,0:0:0:0:
329,192,63735,1,0,0:0:0:0:
256,192,63810,1,0,0:0:0:0:
36,192,63885,1,0,0:0:0:0:
109,192,63960,1,0,0:0:0:0:
329,192,64035,128,0,64560:0:0:0:0:
256,192,64035,1,0,0:0:0:0:
36,192,64035,1,0,0:0:0:0:
109,192,64110,1,0,0:0:0:0:
256,192,64185,1,0,0:0:0:0:
109,192,64260,1,0,0:0:0:0:
36,192,64335,1,0,0:0:0:0:
109,192,64410,1,0,0:0:0:0:
256,192,64485,1,0,0:0:0:0:
36,192,64485,1,0,0:0:0:0:
109,192,64560,1,0,0:0:0:0:
402,192,64635,1,0,0:0:0:0:
329,192,64635,1,0,0:0:0:0:
256,192,64635,1,0,0:0:0:0:
329,192,64785,1,0,0:0:0:0:
402,192,64785,1,0,0:0:0:0:
256,192,64785,1,0,0:0:0:0:
402,192,64935,1,0,0:0:0:0:
256,192,64935,1,0,0:0:0:0:
36,192,64935,1,0,0:0:0:0:
36,192,65085,1,0,0:0:0:0:
256,192,65085,1,0,0:0:0:0:
402,192,65085,1,0,0:0:0:0:
36,192,65235,1,0,0:0:0:0:
329,192,65235,1,0,0:0:0:0:
109,192,65235,1,0,0:0:0:0:
109,192,65385,1,0,0:0:0:0:
329,192,65385,1,0,0:0:0:0:
36,192,65385,1,0,0:0:0:0:
36,192,65535,1,0,0:0:0:0:
256,192,65535,1,0,0:0:0:0:
402,192,65535,1,0,0:0:0:0:
256,192,65685,1,0,0:0:0:0:
36,192,65685,1,0,0:0:0:0:
402,192,65685,1,0,0:0:0:0:
329,192,65760,1,0,0:0:0:0:
109,192,65835,1,0,0:0:0:0:
256,192,65835,128,0,67035:0:0:0:0:
36,192,65835,128,0,67035:0:0:0:0:
402,192,65835,1,0,0:0:0:0:
109,192,65985,1,0,0:0:0:0:
182,192,65985,1,0,0:0:0:0:
402,192,65985,1,0,0:0:0:0:
109,192,66135,1,0,0:0:0:0:
329,192,66135,1,0,0:0:0:0:
402,192,66135,1,0,0:0:0:0:
109,192,66285,1,0,0:0:0:0:
329,192,66285,1,0,0:0:0:0:
402,192,66285,1,0,0:0:0:0:
182,192,66435,1,0,0:0:0:0:
475,192,66435,1,0,0:0:0:0:
329,192,66435,1,0,0:0:0:0:
182,192,66585,1,0,0:0:0:0:
329,192,66585,1,0,0:0:0:0:
475,192,66585,1,0,0:0:0:0:
109,192,66735,1,0,0:0:0:0:
182,192,66735,1,0,0:0:0:0:
402,192,66735,1,0,0:0:0:0:
109,192,66885,1,0,0:0:0:0:
182,192,66885,1,0,0:0:0:0:
402,192,66885,1,0,0:0:0:0:
475,192,66960,1,0,0:0:0:0:
329,192,67035,128,0,68235:0:0:0:0:
109,192,67035,1,0,0:0:0:0:
182,192,67035,1,0,0:0:0:0:
402,192,67035,1,0,0:0:0:0:
36,192,67185,1,0,0:0:0:0:
109,192,67185,1,0,0:0:0:0:
402,192,67185,1,0,0:0:0:0:
475,192,67185,1,0,0:0:0:0:
36,192,67335,1,0,0:0:0:0:
109,192,67335,1,0,0:0:0:0:
402,192,67335,1,0,0:0:0:0:
475,192,67335,1,0,0:0:0:0:
36,192,67485,1,0,0:0:0:0:
109,192,67485,1,0,0:0:0:0:
402,192,67485,1,0,0:0:0:0:
475,192,67485,1,0,0:0:0:0:
256,192,67560,1,0,0:0:0:0:
36,192,67635,1,0,0:0:0:0:
109,192,67635,1,0,0:0:0:0:
402,192,67635,1,0,0:0:0:0:
475,192,67635,1,0,0:0:0:0:
36,192,67785,1,0,0:0:0:0:
402,192,67785,1,0,0:0:0:0:
475,192,67785,1,0,0:0:0:0:
109,192,67785,1,0,0:0:0:0:
475,192,67935,1,0,0:0:0:0:
402,192,67935,1,0,0:0:0:0:
36,192,67935,1,0,0:0:0:0:
109,192,67935,1,0,0:0:0:0:
109,192,68085,1,0,0:0:0:0:
402,192,68085,1,0,0:0:0:0:
475,192,68085,1,0,0:0:0:0:
36,192,68085,1,0,0:0:0:0:
182,192,68122,1,0,0:0:0:0:
256,192,68160,1,0,0:0:0:0:
402,192,68197,1,0,0:0:0:0:
475,192,68235,128,0,69435:0:0:0:0:
36,192,68235,1,0,0:0:0:0:
109,192,68235,1,0,0:0:0:0:
36,192,68385,1,0,0:0:0:0:
109,192,68385,1,0,0:0:0:0:
402,192,68385,1,0,0:0:0:0:
182,192,68422,1,0,0:0:0:0:
256,192,68460,1,0,0:0:0:0:
329,192,68497,1,0,0:0:0:0:
402,192,68535,1,0,0:0:0:0:
109,192,68535,1,0,0:0:0:0:
36,192,68535,1,0,0:0:0:0:
36,192,68685,1,0,0:0:0:0:
109,192,68685,1,0,0:0:0:0:
402,192,68685,1,0,0:0:0:0:
329,192,68722,1,0,0:0:0:0:
256,192,68760,1,0,0:0:0:0:
182,192,68797,1,0,0:0:0:0:
109,192,68835,1,0,0:0:0:0:
36,192,68835,1,0,0:0:0:0:
402,192,68835,1,0,0:0:0:0:
329,192,68910,1,0,0:0:0:0:
109,192,68985,1,0,0:0:0:0:
182,192,68985,1,0,0:0:0:0:
36,192,68985,1,0,0:0:0:0:
256,192,69022,1,0,0:0:0:0:
329,192,69060,1,0,0:0:0:0:
402,192,69097,1,0,0:0:0:0:
36,192,69135,1,0,0:0:0:0:
109,192,69135,1,0,0:0:0:0:
182,192,69135,1,0,0:0:0:0:
256,192,69210,1,0,0:0:0:0:
402,192,69285,1,0,0:0:0:0:
36,192,69285,1,0,0:0:0:0:
109,192,69285,1,0,0:0:0:0:
182,192,69322,1,0,0:0:0:0:
256,192,69360,1,0,0:0:0:0:
329,192,69397,1,0,0:0:0:0:
36,192,69435,128,0,74235:0:0:0:0:
402,192,69435,128,0,71835:0:0:0:0:
109,192,69435,128,0,74235:0:0:0:0:
475,192,71835,128,0,74235:0:0:0:0:
256,192,71835,128,0,74235:0:0:0:0:
182,192,71835,128,0,72135:0:0:0:0:
329,192,72135,128,0,72435:0:0:0:0:
402,192,72435,128,0,72735:0:0:0:0:
329,192,73635,128,0,74235:0:0:0:0:
182,192,74235,128,0,76635:0:0:0:0:
402,192,74235,1,0,0:0:0:0:
329,192,74835,128,0,76035:0:0:0:0:
475,192,76035,128,0,76635:0:0:0:0:
402,192,76235,128,0,76635:0:0:0:0:
329,192,76435,128,0,76635:0:0:0:0:
256,192,76635,128,0,79035:0:0:0:0:
36,192,76635,128,0,77235:0:0:0:0:
182,192,77235,128,0,78435:0:0:0:0:
109,192,78435,128,0,79035:0:0:0:0:
36,192,79035,128,0,81435:0:0:0:0:
475,192,79635,128,0,81435:0:0:0:0:
256,192,80835,128,0,81035:0:0:0:0:
402,192,80835,128,0,81035:0:0:0:0:
329,192,81035,128,0,81235:0:0:0:0:
182,192,81035,128,0,81235:0:0:0:0:
256,192,81235,128,0,81435:0:0:0:0:
109,192,81235,128,0,81435:0:0:0:0:
402,192,81435,128,0,82635:0:0:0:0:
182,192,81435,128,0,82035:0:0:0:0:
329,192,82035,128,0,83835:0:0:0:0:
36,192,82935,128,0,83835:0:0:0:0:
475,192,83235,128,0,83835:0:0:0:0:
182,192,83235,128,0,83835:0:0:0:0:
109,192,83535,128,0,83835:0:0:0:0:
402,192,83835,1,0,0:0:0:0:
256,192,83835,128,0,86235:0:0:0:0:
475,192,85035,128,0,86235:0:0:0:0:
36,192,85635,128,0,86235:0:0:0:0:
402,192,86235,128,0,88635:0:0:0:0:
109,192,86235,128,0,87435:0:0:0:0:
329,192,87435,128,0,87735:0:0:0:0:
182,192,87735,128,0,88035:0:0:0:0:
36,192,88035,128,0,88235:0:0:0:0:
256,192,88035,128,0,88235:0:0:0:0:
109,192,88235,128,0,88435:0:0:0:0:
329,192,88235,128,0,88435:0:0:0:0:
182,192,88435,128,0,88635:0:0:0:0:
475,192,88435,128,0,88635:0:0:0:0:
36,192,88635,128,0,91035:0:0:0:0:
256,192,88635,128,0,89235:0:0:0:0:
182,192,89235,128,0,90135:0:0:0:0:
109,192,90135,128,0,90435:0:0:0:0:
329,192,90135,128,0,90435:0:0:0:0:
182,192,90435,128,0,90735:0:0:0:0:
402,192,90435,128,0,90735:0:0:0:0:
256,192,90735,128,0,91035:0:0:0:0:
475,192,90735,128,0,91035:0:0:0:0:
402,192,91035,128,0,93435:0:0:0:0:
109,192,91035,128,0,91635:0:0:0:0:
329,192,91035,128,0,91635:0:0:0:0:
36,192,91635,128,0,92235:0:0:0:0:
256,192,91635,128,0,92235:0:0:0:0:
109,192,92235,128,0,92835:0:0:0:0:
329,192,92235,128,0,92835:0:0:0:0:
182,192,92235,128,0,93435:0:0:0:0:
475,192,92835,128,0,93435:0:0:0:0:
36,192,92835,128,0,93435:0:0:0:0:
256,192,93435,1,0,0:0:0:0:
329,192,93435,1,0,0:0:0:0:
109,192,93435,128,0,95835:0:0:0:0:
182,192,93660,1,0,0:0:0:0:
402,192,93735,1,0,0:0:0:0:
329,192,93810,1,0,0:0:0:0:
256,192,93885,1,0,0:0:0:0:
182,192,93960,1,0,0:0:0:0:
402,192,94035,128,0,95235:0:0:0:0:
329,192,94035,1,0,0:0:0:0:
256,192,94110,1,0,0:0:0:0:
182,192,94185,1,0,0:0:0:0:
256,192,94260,1,0,0:0:0:0:
36,192,94335,1,0,0:0:0:0:
182,192,94410,1,0,0:0:0:0:
256,192,94485,1,0,0:0:0:0:
329,192,94560,1,0,0:0:0:0:
182,192,94710,1,0,0:0:0:0:
329,192,94785,1,0,0:0:0:0:
182,192,94860,1,0,0:0:0:0:
475,192,94935,1,0,0:0:0:0:
329,192,95010,1,0,0:0:0:0:
256,192,95085,1,0,0:0:0:0:
182,192,95160,1,0,0:0:0:0:
475,192,95235,128,0,95835:0:0:0:0:
36,192,95235,1,0,0:0:0:0:
329,192,95435,128,0,95835:0:0:0:0:
182,192,95635,128,0,95835:0:0:0:0:
402,192,95835,128,0,98235:0:0:0:0:
36,192,96435,128,0,98235:0:0:0:0:
182,192,96660,1,0,0:0:0:0:
256,192,96735,1,0,0:0:0:0:
329,192,96810,1,0,0:0:0:0:
109,192,96885,1,0,0:0:0:0:
182,192,96960,1,0,0:0:0:0:
329,192,97035,1,0,0:0:0:0:
256,192,97110,1,0,0:0:0:0:
182,192,97185,1,0,0:0:0:0:
109,192,97260,1,0,0:0:0:0:
475,192,97335,1,0,0:0:0:0:
329,192,97410,1,0,0:0:0:0:
256,192,97485,1,0,0:0:0:0:
182,192,97560,1,0,0:0:0:0:
109,192,97635,128,0,98235:0:0:0:0:
329,192,97635,1,0,0:0:0:0:
256,192,97710,1,0,0:0:0:0:
182,192,97785,1,0,0:0:0:0:
329,192,97860,1,0,0:0:0:0:
475,192,97935,1,0,0:0:0:0:
182,192,98085,1,0,0:0:0:0:
256,192,98085,1,0,0:0:0:0:
329,192,98085,1,0,0:0:0:0:
182,192,98235,1,0,0:0:0:0:
256,192,98235,1,0,0:0:0:0:
329,192,98235,1,0,0:0:0:0:
475,192,98235,128,0,100635:0:0:0:0:
182,192,98460,1,0,0:0:0:0:
402,192,98535,1,0,0:0:0:0:
329,192,98610,1,0,0:0:0:0:
256,192,98685,1,0,0:0:0:0:
182,192,98760,1,0,0:0:0:0:
36,192,98835,128,0,100635:0:0:0:0:
329,192,98835,1,0,0:0:0:0:
256,192,98910,1,0,0:0:0:0:
182,192,98985,1,0,0:0:0:0:
256,192,99060,1,0,0:0:0:0:
109,192,99135,1,0,0:0:0:0:
182,192,99210,1,0,0:0:0:0:
256,192,99285,1,0,0:0:0:0:
329,192,99360,1,0,0:0:0:0:
182,192,99510,1,0,0:0:0:0:
329,192,99585,1,0,0:0:0:0:
256,192,99660,1,0,0:0:0:0:
182,192,99735,1,0,0:0:0:0:
402,192,99810,1,0,0:0:0:0:
329,192,99885,1,0,0:0:0:0:
256,192,99960,1,0,0:0:0:0:
182,192,100035,128,0,100235:0:0:0:0:
402,192,100035,128,0,100235:0:0:0:0:
329,192,100235,128,0,100435:0:0:0:0:
109,192,100235,128,0,100435:0:0:0:0:
256,192,100435,128,0,100635:0:0:0:0:
402,192,100435,128,0,100635:0:0:0:0:
109,192,100635,128,0,102660:0:0:0:0:
182,192,100635,128,0,101235:0:0:0:0:
402,192,101160,1,0,0:0:0:0:
329,192,101235,128,0,102135:0:0:0:0:
475,192,101235,128,0,103035:0:0:0:0:
36,192,101235,1,0,0:0:0:0:
182,192,101310,1,0,0:0:0:0:
256,192,101385,1,0,0:0:0:0:
402,192,101460,1,0,0:0:0:0:
36,192,101535,1,0,0:0:0:0:
182,192,101610,1,0,0:0:0:0:
256,192,101685,1,0,0:0:0:0:
402,192,101760,1,0,0:0:0:0:
36,192,101835,1,0,0:0:0:0:
182,192,101910,1,0,0:0:0:0:
256,192,101985,1,0,0:0:0:0:
402,192,102060,1,0,0:0:0:0:
256,192,102135,128,0,102435:0:0:0:0:
36,192,102135,128,0,103035:0:0:0:0:
182,192,102135,128,0,102435:0:0:0:0:
329,192,102435,128,0,102735:0:0:0:0:
402,192,102435,128,0,102735:0:0:0:0:
182,192,102735,128,0,103035:0:0:0:0:
109,192,102735,128,0,103035:0:0:0:0:
402,192,102885,1,0,0:0:0:0:
329,192,102885,1,0,0:0:0:0:
256,192,102960,1,0,0:0:0:0:
329,192,103035,128,0,105435:0:0:0:0:
402,192,103035,128,0,104235:0:0:0:0:
475,192,104235,128,0,105435:0:0:0:0:
109,192,104235,128,0,104835:0:0:0:0:
36,192,104835,128,0,105435:0:0:0:0:
109,192,105285,1,0,0:0:0:0:
182,192,105285,1,0,0:0:0:0:
256,192,105360,1,0,0:0:0:0:
402,192,105435,128,0,107835:0:0:0:0:
109,192,105435,128,0,106635:0:0:0:0:
182,192,106485,1,0,0:0:0:0:
329,192,106485,1,0,0:0:0:0:
256,192,106635,128,0,106935:0:0:0:0:
36,192,106635,1,0,0:0:0:0:
475,192,106635,1,0,0:0:0:0:
36,192,106935,128,0,107235:0:0:0:0:
329,192,107235,128,0,107435:0:0:0:0:
109,192,107235,128,0,107435:0:0:0:0:
182,192,107435,128,0,107635:0:0:0:0:
475,192,107435,128,0,107635:0:0:0:0:
36,192,107635,128,0,107835:0:0:0:0:
109,192,107635,128,0,107835:0:0:0:0:
256,192,107685,1,0,0:0:0:0:
329,192,107685,1,0,0:0:0:0:
182,192,107760,1,0,0:0:0:0:
475,192,107835,128,0,110235:0:0:0:0:
256,192,107835,128,0,108435:0:0:0:0:
182,192,108435,128,0,110235:0:0:0:0:
329,192,108435,128,0,109635:0:0:0:0:
402,192,108735,1,0,0:0:0:0:
256,192,108885,1,0,0:0:0:0:
402,192,108960,1,0,0:0:0:0:
109,192,109035,1,0,0:0:0:0:
36,192,109035,1,0,0:0:0:0:
36,192,109635,128,0,109935:0:0:0:0:
256,192,109635,128,0,109935:0:0:0:0:
109,192,109935,128,0,110235:0:0:0:0:
329,192,109935,128,0,110235:0:0:0:0:
256,192,110085,1,0,0:0:0:0:
402,192,110085,1,0,0:0:0:0:
36,192,110160,1,0,0:0:0:0:
402,192,110235,128,0,110835:0:0:0:0:
256,192,110235,128,0,110835:0:0:0:0:
36,192,110385,1,0,0:0:0:0:
109,192,110385,1,0,0:0:0:0:
182,192,110385,1,0,0:0:0:0:
182,192,110685,1,0,0:0:0:0:
109,192,110685,1,0,0:0:0:0:
36,192,110760,1,0,0:0:0:0:
329,192,110835,128,0,111435:0:0:0:0:
182,192,110835,128,0,111435:0:0:0:0:
475,192,110835,1,0,0:0:0:0:
109,192,110835,1,0,0:0:0:0:
109,192,110985,1,0,0:0:0:0:
475,192,110985,1,0,0:0:0:0:
36,192,111285,1,0,0:0:0:0:
475,192,111285,1,0,0:0:0:0:
256,192,111360,1,0,0:0:0:0:
109,192,111435,128,0,112035:0:0:0:0:
402,192,111435,128,0,112035:0:0:0:0:
36,192,111435,1,0,0:0:0:0:
475,192,111435,1,0,0:0:0:0:
182,192,111585,1,0,0:0:0:0:
329,192,111660,1,0,0:0:0:0:
182,192,111735,1,0,0:0:0:0:
256,192,111735,1,0,0:0:0:0:
329,192,111810,1,0,0:0:0:0:
182,192,111885,1,0,0:0:0:0:
329,192,111960,1,0,0:0:0:0:
36,192,112035,128,0,112635:0:0:0:0:
475,192,112035,128,0,112635:0:0:0:0:
182,192,112035,1,0,0:0:0:0:
256,192,112035,1,0,0:0:0:0:
329,192,112110,1,0,0:0:0:0:
402,192,112110,1,0,0:0:0:0:
109,192,112185,1,0,0:0:0:0:
182,192,112185,1,0,0:0:0:0:
329,192,112260,1,0,0:0:0:0:
402,192,112260,1,0,0:0:0:0:
109,192,112335,1,0,0:0:0:0:
182,192,112335,1,0,0:0:0:0:
329,192,112410,1,0,0:0:0:0:
402,192,112410,1,0,0:0:0:0:
109,192,112485,1,0,0:0:0:0:
182,192,112485,1,0,0:0:0:0:
329,192,112560,1,0,0:0:0:0:
402,192,112635,1,0,0:0:0:0:
109,192,112635,1,0,0:0:0:0:
182,192,112635,1,0,0:0:0:0:
256,192,112635,128,0,112710:0:0:0:0:
256,192,112785,128,0,112860:0:0:0:0:
109,192,112785,1,0,0:0:0:0:
402,192,112785,1,0,0:0:0:0:
329,192,112785,1,0,0:0:0:0:
256,192,112935,128,0,113010:0:0:0:0:
109,192,112935,1,0,0:0:0:0:
182,192,112935,1,0,0:0:0:0:
402,192,112935,1,0,0:0:0:0:
256,192,113085,128,0,113160:0:0:0:0:
109,192,113085,1,0,0:0:0:0:
329,192,113085,1,0,0:0:0:0:
402,192,113085,1,0,0:0:0:0:
182,192,113235,128,0,113310:0:0:0:0:
329,192,113235,128,0,113310:0:0:0:0:
36,192,113235,1,0,0:0:0:0:
475,192,113235,1,0,0:0:0:0:
182,192,113385,128,0,113460:0:0:0:0:
329,192,113385,128,0,113460:0:0:0:0:
36,192,113385,1,0,0:0:0:0:
475,192,113385,1,0,0:0:0:0:
182,192,113535,128,0,113610:0:0:0:0:
329,192,113535,128,0,113610:0:0:0:0:
475,192,113535,1,0,0:0:0:0:
36,192,113535,1,0,0:0:0:0:
182,192,113685,128,0,113760:0:0:0:0:
329,192,113685,128,0,113760:0:0:0:0:
36,192,113685,1,0,0:0:0:0:
475,192,113685,1,0,0:0:0:0:
109,192,113835,128,0,113910:0:0:0:0:
402,192,113835,128,0,113910:0:0:0:0:
36,192,113835,1,0,0:0:0:0:
182,192,113835,1,0,0:0:0:0:
329,192,113835,1,0,0:0:0:0:
475,192,113835,1,0,0:0:0:0:
109,192,114060,128,0,114135:0:0:0:0:
402,192,114060,128,0,114135:0:0:0:0:
182,192,114135,1,0,0:0:0:0:
329,192,114135,1,0,0:0:0:0:
475,192,114135,1,0,0:0:0:0:
36,192,114135,1,0,0:0:0:0:
182,192,114285,128,0,114360:0:0:0:0:
329,192,114285,128,0,114360:0:0:0:0:
256,192,114435,128,0,114585:0:0:0:0:
36,192,114435,1,0,0:0:0:0:
109,192,114435,1,0,0:0:0:0:
402,192,114435,1,0,0:0:0:0:
475,192,114435,1,0,0:0:0:0:
329,192,114585,128,0,114735:0:0:0:0:
182,192,114735,128,0,115035:0:0:0:0:
36,192,114735,1,0,0:0:0:0:
109,192,114735,1,0,0:0:0:0:
402,192,114735,1,0,0:0:0:0:
475,192,114735,1,0,0:0:0:0:
36,192,115035,128,0,115110:0:0:0:0:
109,192,115035,128,0,115110:0:0:0:0:
475,192,115035,128,0,115110:0:0:0:0:
329,192,115110,1,0,0:0:0:0:
402,192,115185,1,0,0:0:0:0:
182,192,115185,1,0,0:0:0:0:
256,192,115260,1,0,0:0:0:0:
109,192,115335,1,0,0:0:0:0:
329,192,115335,1,0,0:0:0:0:
475,192,115335,1,0,0:0:0:0:
182,192,115410,1,0,0:0:0:0:
256,192,115485,1,0,0:0:0:0:
402,192,115485,1,0,0:0:0:0:
109,192,115560,1,0,0:0:0:0:
182,192,115635,1,0,0:0:0:0:
329,192,115635,1,0,0:0:0:0:
475,192,115635,1,0,0:0:0:0:
36,192,115710,1,0,0:0:0:0:
109,192,115785,1,0,0:0:0:0:
402,192,115785,1,0,0:0:0:0:
256,192,115860,1,0,0:0:0:0:
182,192,115935,1,0,0:0:0:0:
329,192,115935,1,0,0:0:0:0:
475,192,115935,1,0,0:0:0:0:
109,192,116010,1,0,0:0:0:0:
36,192,116085,1,0,0:0:0:0:
256,192,116085,1,0,0:0:0:0:
182,192,116160,1,0,0:0:0:0:
329,192,116235,128,0,116310:0:0:0:0:
402,192,116235,128,0,116310:0:0:0:0:
475,192,116235,128,0,116310:0:0:0:0:
109,192,116310,1,0,0:0:0:0:
182,192,116385,1,0,0:0:0:0:
256,192,116385,1,0,0:0:0:0:
36,192,116460,1,0,0:0:0:0:
109,192,116535,1,0,0:0:0:0:
329,192,116535,1,0,0:0:0:0:
475,192,116535,1,0,0:0:0:0:
256,192,116610,1,0,0:0:0:0:
182,192,116685,1,0,0:0:0:0:
402,192,116685,1,0,0:0:0:0:
329,192,116760,1,0,0:0:0:0:
256,192,116835,1,0,0:0:0:0:
475,192,116835,1,0,0:0:0:0:
36,192,116835,1,0,0:0:0:0:
109,192,116910,1,0,0:0:0:0:
182,192,116985,1,0,0:0:0:0:
402,192,116985,1,0,0:0:0:0:
329,192,117060,1,0,0:0:0:0:
256,192,117135,1,0,0:0:0:0:
36,192,117135,1,0,0:0:0:0:
475,192,117135,1,0,0:0:0:0:
182,192,117210,1,0,0:0:0:0:
109,192,117285,1,0,0:0:0:0:
329,192,117285,1,0,0:0:0:0:
402,192,117360,1,0,0:0:0:0:
182,192,117435,128,0,117510:0:0:0:0:
256,192,117435,128,0,117510:0:0:0:0:
329,192,117435,128,0,117510:0:0:0:0:
36,192,117510,1,0,0:0:0:0:
109,192,117585,1,0,0:0:0:0:
402,192,117585,1,0,0:0:0:0:
329,192,117660,1,0,0:0:0:0:
256,192,117735,1,0,0:0:0:0:
182,192,117735,1,0,0:0:0:0:
36,192,117735,1,0,0:0:0:0:
329,192,117810,1,0,0:0:0:0:
402,192,117885,1,0,0:0:0:0:
109,192,117885,1,0,0:0:0:0:
182,192,117960,1,0,0:0:0:0:
256,192,118035,1,0,0:0:0:0:
475,192,118035,1,0,0:0:0:0:
329,192,118035,1,0,0:0:0:0:
109,192,118110,1,0,0:0:0:0:
182,192,118185,1,0,0:0:0:0:
402,192,118185,1,0,0:0:0:0:
329,192,118260,1,0,0:0:0:0:
256,192,118335,1,0,0:0:0:0:
109,192,118335,1,0,0:0:0:0:
36,192,118335,1,0,0:0:0:0:
402,192,118410,1,0,0:0:0:0:
329,192,118485,1,0,0:0:0:0:
182,192,118485,1,0,0:0:0:0:
256,192,118560,1,0,0:0:0:0:
36,192,118635,128,0,118710:0:0:0:0:
109,192,118635,128,0,118710:0:0:0:0:
182,192,118635,128,0,118710:0:0:0:0:
402,192,118710,1,0,0:0:0:0:
329,192,118785,1,0,0:0:0:0:
182,192,118785,1,0,0:0:0:0:
256,192,118860,1,0,0:0:0:0:
109,192,118935,1,0,0:0:0:0:
36,192,118935,1,0,0:0:0:0:
329,192,118935,1,0,0:0:0:0:
182,192,119010,1,0,0:0:0:0:
256,192,119085,1,0,0:0:0:0:
402,192,119085,1,0,0:0:0:0:
182,192,119160,1,0,0:0:0:0:
109,192,119235,1,0,0:0:0:0:
329,192,119235,1,0,0:0:0:0:
475,192,119235,1,0,0:0:0:0:
256,192,119310,1,0,0:0:0:0:
182,192,119385,1,0,0:0:0:0:
402,192,119385,1,0,0:0:0:0:
329,192,119460,1,0,0:0:0:0:
256,192,119535,1,0,0:0:0:0:
36,192,119535,1,0,0:0:0:0:
109,192,119535,1,0,0:0:0:0:
182,192,119610,1,0,0:0:0:0:
329,192,119685,1,0,0:0:0:0:
256,192,119685,1,0,0:0:0:0:
182,192,119760,1,0,0:0:0:0:
329,192,119835,128,0,119910:0:0:0:0:
402,192,119835,128,0,119910:0:0:0:0:
475,192,119835,128,0,119910:0:0:0:0:
109,192,119910,1,0,0:0:0:0:
182,192,119985,1,0,0:0:0:0:
329,192,119985,1,0,0:0:0:0:
256,192,120060,1,0,0:0:0:0:
182,192,120135,1,0,0:0:0:0:
109,192,120135,1,0,0:0:0:0:
36,192,120135,1,0,0:0:0:0:
402,192,120210,1,0,0:0:0:0:
329,192,120285,1,0,0:0:0:0:
182,192,120285,1,0,0:0:0:0:
109,192,120360,1,0,0:0:0:0:
329,192,120435,1,0,0:0:0:0:
402,192,120435,1,0,0:0:0:0:
475,192,120435,1,0,0:0:0:0:
182,192,120510,1,0,0:0:0:0:
256,192,120585,1,0,0:0:0:0:
36,192,120585,1,0,0:0:0:0:
109,192,120660,1,0,0:0:0:0:
182,192,120735,1,0,0:0:0:0:
475,192,120735,1,0,0:0:0:0:
329,192,120735,1,0,0:0:0:0:
256,192,120810,1,0,0:0:0:0:
182,192,120885,1,0,0:0:0:0:
36,192,120885,1,0,0:0:0:0:
109,192,120960,1,0,0:0:0:0:
182,192,121035,128,0,121110:0:0:0:0:
256,192,121035,128,0,121110:0:0:0:0:
329,192,121035,128,0,121110:0:0:0:0:
475,192,121110,1,0,0:0:0:0:
402,192,121185,1,0,0:0:0:0:
109,192,121185,1,0,0:0:0:0:
182,192,121260,1,0,0:0:0:0:
256,192,121335,1,0,0:0:0:0:
329,192,121335,1,0,0:0:0:0:
475,192,121335,1,0,0:0:0:0:
182,192,121410,1,0,0:0:0:0:
109,192,121485,1,0,0:0:0:0:
402,192,121485,1,0,0:0:0:0:
329,192,121560,1,0,0:0:0:0:
256,192,121635,1,0,0:0:0:0:
36,192,121635,1,0,0:0:0:0:
475,192,121635,1,0,0:0:0:0:
109,192,121710,1,0,0:0:0:0:
182,192,121785,1,0,0:0:0:0:
329,192,121785,1,0,0:0:0:0:
109,192,121860,1,0,0:0:0:0:
36,192,121935,1,0,0:0:0:0:
256,192,121935,1,0,0:0:0:0:
475,192,121935,1,0,0:0:0:0:
402,192,122010,1,0,0:0:0:0:
329,192,122085,1,0,0:0:0:0:
182,192,122085,1,0,0:0:0:0:
109,192,122160,1,0,0:0:0:0:
256,192,122235,128,0,122310:0:0:0:0:
402,192,122235,128,0,122310:0:0:0:0:
475,192,122235,128,0,122310:0:0:0:0:
36,192,122310,1,0,0:0:0:0:
109,192,122385,1,0,0:0:0:0:
329,192,122385,1,0,0:0:0:0:
256,192,122460,1,0,0:0:0:0:
182,192,122535,1,0,0:0:0:0:
402,192,122535,1,0,0:0:0:0:
475,192,122535,1,0,0:0:0:0:
256,192,122610,1,0,0:0:0:0:
109,192,122685,1,0,0:0:0:0:
36,192,122685,1,0,0:0:0:0:
329,192,122760,1,0,0:0:0:0:
256,192,122835,1,0,0:0:0:0:
182,192,122835,1,0,0:0:0:0:
475,192,122835,1,0,0:0:0:0:
402,192,122910,1,0,0:0:0:0:
329,192,122985,1,0,0:0:0:0:
109,192,122985,1,0,0:0:0:0:
182,192,123060,1,0,0:0:0:0:
256,192,123135,1,0,0:0:0:0:
402,192,123135,1,0,0:0:0:0:
475,192,123135,1,0,0:0:0:0:
109,192,123210,1,0,0:0:0:0:
182,192,123285,1,0,0:0:0:0:
329,192,123285,1,0,0:0:0:0:
402,192,123360,1,0,0:0:0:0:
36,192,123435,128,0,123510:0:0:0:0:
109,192,123435,128,0,123510:0:0:0:0:
256,192,123435,128,0,123510:0:0:0:0:
475,192,123510,1,0,0:0:0:0:
329,192,123585,1,0,0:0:0:0:
182,192,123585,1,0,0:0:0:0:
402,192,123660,1,0,0:0:0:0:
182,192,123735,1,0,0:0:0:0:
36,192,123735,1,0,0:0:0:0:
256,192,123735,1,0,0:0:0:0:
475,192,123810,1,0,0:0:0:0:
329,192,123885,1,0,0:0:0:0:
402,192,123885,1,0,0:0:0:0:
109,192,123960,1,0,0:0:0:0:
182,192,124035,1,0,0:0:0:0:
256,192,124035,1,0,0:0:0:0:
475,192,124035,1,0,0:0:0:0:
329,192,124110,1,0,0:0:0:0:
182,192,124185,1,0,0:0:0:0:
36,192,124185,1,0,0:0:0:0:
256,192,124260,1,0,0:0:0:0:
109,192,124335,1,0,0:0:0:0:
329,192,124335,1,0,0:0:0:0:
475,192,124335,1,0,0:0:0:0:
182,192,124410,1,0,0:0:0:0:
256,192,124485,1,0,0:0:0:0:
402,192,124485,1,0,0:0:0:0:
109,192,124485,1,0,0:0:0:0:
36,192,124560,1,0,0:0:0:0:
329,192,124635,128,0,124710:0:0:0:0:
182,192,124635,128,0,124710:0:0:0:0:
402,192,124635,128,0,124710:0:0:0:0:
109,192,124710,1,0,0:0:0:0:
36,192,124785,1,0,0:0:0:0:
256,192,124785,1,0,0:0:0:0:
182,192,124860,1,0,0:0:0:0:
109,192,124935,1,0,0:0:0:0:
329,192,124935,1,0,0:0:0:0:
475,192,124935,1,0,0:0:0:0:
256,192,125010,1,0,0:0:0:0:
182,192,125085,1,0,0:0:0:0:
402,192,125085,1,0,0:0:0:0:
475,192,125160,1,0,0:0:0:0:
329,192,125235,1,0,0:0:0:0:
109,192,125235,1,0,0:0:0:0:
36,192,125235,1,0,0:0:0:0:
402,192,125310,1,0,0:0:0:0:
256,192,125385,1,0,0:0:0:0:
182,192,125385,1,0,0:0:0:0:
402,192,125460,1,0,0:0:0:0:
109,192,125535,1,0,0:0:0:0:
36,192,125535,1,0,0:0:0:0:
475,192,125535,1,0,0:0:0:0:
256,192,125610,1,0,0:0:0:0:
182,192,125685,1,0,0:0:0:0:
329,192,125685,1,0,0:0:0:0:
402,192,125760,1,0,0:0:0:0:
109,192,125835,128,0,125910:0:0:0:0:
182,192,125835,128,0,125910:0:0:0:0:
329,192,125835,128,0,125910:0:0:0:0:
475,192,125910,1,0,0:0:0:0:
402,192,125985,1,0,0:0:0:0:
256,192,125985,1,0,0:0:0:0:
182,192,126060,1,0,0:0:0:0:
109,192,126135,1,0,0:0:0:0:
36,192,126135,1,0,0:0:0:0:
329,192,126135,1,0,0:0:0:0:
256,192,126210,1,0,0:0:0:0:
182,192,126285,1,0,0:0:0:0:
475,192,126285,1,0,0:0:0:0:
402,192,126360,1,0,0:0:0:0:
329,192,126435,1,0,0:0:0:0:
109,192,126435,1,0,0:0:0:0:
36,192,126435,1,0,0:0:0:0:
402,192,126510,1,0,0:0:0:0:
256,192,126585,1,0,0:0:0:0:
182,192,126585,1,0,0:0:0:0:
402,192,126660,1,0,0:0:0:0:
329,192,126735,1,0,0:0:0:0:
109,192,126735,1,0,0:0:0:0:
36,192,126735,1,0,0:0:0:0:
475,192,126810,1,0,0:0:0:0:
256,192,126885,1,0,0:0:0:0:
36,192,126885,1,0,0:0:0:0:
182,192,126960,1,0,0:0:0:0:
329,192,127035,128,0,127110:0:0:0:0:
402,192,127035,128,0,127110:0:0:0:0:
475,192,127035,128,0,127110:0:0:0:0:
109,192,127110,1,0,0:0:0:0:
182,192,127185,1,0,0:0:0:0:
329,192,127185,1,0,0:0:0:0:
36,192,127260,1,0,0:0:0:0:
109,192,127335,1,0,0:0:0:0:
256,192,127335,1,0,0:0:0:0:
402,192,127335,1,0,0:0:0:0:
329,192,127410,1,0,0:0:0:0:
182,192,127485,1,0,0:0:0:0:
475,192,127485,1,0,0:0:0:0:
256,192,127560,1,0,0:0:0:0:
329,192,127635,1,0,0:0:0:0:
402,192,127635,1,0,0:0:0:0:
109,192,127635,1,0,0:0:0:0:
182,192,127710,1,0,0:0:0:0:
256,192,127785,1,0,0:0:0:0:
475,192,127785,1,0,0:0:0:0:
36,192,127860,1,0,0:0:0:0:
109,192,127935,1,0,0:0:0:0:
182,192,127935,1,0,0:0:0:0:
402,192,127935,1,0,0:0:0:0:
329,192,128010,1,0,0:0:0:0:
256,192,128085,1,0,0:0:0:0:
36,192,128085,1,0,0:0:0:0:
182,192,128160,1,0,0:0:0:0:
402,192,128235,128,0,128310:0:0:0:0:
475,192,128235,128,0,128310:0:0:0:0:
109,192,128235,1,0,0:0:0:0:
256,192,128310,1,0,0:0:0:0:
182,192,128385,1,0,0:0:0:0:
36,192,128385,1,0,0:0:0:0:
329,192,128460,1,0,0:0:0:0:
256,192,128535,1,0,0:0:0:0:
109,192,128535,1,0,0:0:0:0:
475,192,128535,1,0,0:0:0:0:
402,192,128610,1,0,0:0:0:0:
329,192,128685,1,0,0:0:0:0:
182,192,128685,1,0,0:0:0:0:
36,192,128760,1,0,0:0:0:0:
329,192,128835,128,0,128910:0:0:0:0:
402,192,128835,128,0,128910:0:0:0:0:
109,192,128835,1,0,0:0:0:0:
182,192,128910,1,0,0:0:0:0:
256,192,128985,1,0,0:0:0:0:
475,192,128985,1,0,0:0:0:0:
36,192,129060,1,0,0:0:0:0:
109,192,129135,1,0,0:0:0:0:
329,192,129135,1,0,0:0:0:0:
402,192,129135,1,0,0:0:0:0:
182,192,129210,1,0,0:0:0:0:
256,192,129285,1,0,0:0:0:0:
475,192,129285,1,0,0:0:0:0:
109,192,129285,1,0,0:0:0:0:
402,192,129360,1,0,0:0:0:0:
182,192,129435,128,0,129510:0:0:0:0:
256,192,129435,128,0,129510:0:0:0:0:
329,192,129435,128,0,129510:0:0:0:0:
36,192,129510,1,0,0:0:0:0:
109,192,129585,1,0,0:0:0:0:
402,192,129585,1,0,0:0:0:0:
329,192,129660,1,0,0:0:0:0:
256,192,129735,1,0,0:0:0:0:
36,192,129735,1,0,0:0:0:0:
475,192,129735,1,0,0:0:0:0:
182,192,129810,1,0,0:0:0:0:
109,192,129885,1,0,0:0:0:0:
402,192,129885,1,0,0:0:0:0:
329,192,129960,1,0,0:0:0:0:
256,192,130035,1,0,0:0:0:0:
36,192,130035,1,0,0:0:0:0:
475,192,130035,1,0,0:0:0:0:
109,192,130110,1,0,0:0:0:0:
182,192,130185,1,0,0:0:0:0:
402,192,130185,1,0,0:0:0:0:
256,192,130260,1,0,0:0:0:0:
329,192,130335,1,0,0:0:0:0:
36,192,130335,1,0,0:0:0:0:
475,192,130335,1,0,0:0:0:0:
182,192,130410,1,0,0:0:0:0:
256,192,130485,1,0,0:0:0:0:
475,192,130485,1,0,0:0:0:0:
109,192,130560,1,0,0:0:0:0:
182,192,130635,1,0,0:0:0:0:
329,192,130635,1,0,0:0:0:0:
475,192,130635,1,0,0:0:0:0:
256,192,130710,1,0,0:0:0:0:
182,192,130785,1,0,0:0:0:0:
402,192,130785,1,0,0:0:0:0:
329,192,130860,1,0,0:0:0:0:
256,192,130935,1,0,0:0:0:0:
109,192,130935,1,0,0:0:0:0:
475,192,130935,1,0,0:0:0:0:
329,192,131010,1,0,0:0:0:0:
402,192,131085,1,0,0:0:0:0:
182,192,131085,1,0,0:0:0:0:
256,192,131160,1,0,0:0:0:0:
109,192,131235,1,0,0:0:0:0:
36,192,131235,1,0,0:0:0:0:
329,192,131235,1,0,0:0:0:0:
182,192,131310,1,0,0:0:0:0:
256,192,131385,1,0,0:0:0:0:
475,192,131385,1,0,0:0:0:0:
182,192,131460,1,0,0:0:0:0:
109,192,131535,1,0,0:0:0:0:
402,192,131535,1,0,0:0:0:0:
329,192,131535,1,0,0:0:0:0:
256,192,131610,1,0,0:0:0:0:
109,192,131685,1,0,0:0:0:0:
182,192,131685,1,0,0:0:0:0:
402,192,131685,1,0,0:0:0:0:
256,192,131760,1,0,0:0:0:0:
329,192,131835,1,0,0:0:0:0:
402,192,131835,1,0,0:0:0:0:
475,192,131835,1,0,0:0:0:0:
109,192,131910,1,0,0:0:0:0:
182,192,131910,1,0,0:0:0:0:
329,192,131985,1,0,0:0:0:0:
402,192,131985,1,0,0:0:0:0:
109,192,132060,1,0,0:0:0:0:
182,192,132060,1,0,0:0:0:0:
256,192,132135,1,0,0:0:0:0:
329,192,132135,1,0,0:0:0:0:
402,192,132135,1,0,0:0:0:0:
109,192,132210,1,0,0:0:0:0:
36,192,132210,1,0,0:0:0:0:
329,192,132285,1,0,0:0:0:0:
402,192,132285,1,0,0:0:0:0:
36,192,132360,1,0,0:0:0:0:
109,192,132360,1,0,0:0:0:0:
329,192,132435,1,0,0:0:0:0:
402,192,132435,1,0,0:0:0:0:
475,192,132435,1,0,0:0:0:0:
109,192,132510,1,0,0:0:0:0:
182,192,132510,1,0,0:0:0:0:
329,192,132585,1,0,0:0:0:0:
402,192,132585,1,0,0:0:0:0:
182,192,132660,1,0,0:0:0:0:
256,192,132660,1,0,0:0:0:0:
36,192,132735,1,0,0:0:0:0:
109,192,132735,1,0,0:0:0:0:
475,192,132735,1,0,0:0:0:0:
256,192,132810,1,0,0:0:0:0:
329,192,132810,1,0,0:0:0:0:
182,192,132885,1,0,0:0:0:0:
109,192,132885,1,0,0:0:0:0:
36,192,132885,1,0,0:0:0:0:
402,192,132960,1,0,0:0:0:0:
475,192,132960,1,0,0:0:0:0:
329,192,132960,1,0,0:0:0:0:
182,192,133035,1,0,0:0:0:0:
109,192,133035,1,0,0:0:0:0:
36,192,133035,1,0,0:0:0:0:
329,192,133110,1,0,0:0:0:0:
402,192,133110,1,0,0:0:0:0:
109,192,133185,1,0,0:0:0:0:
182,192,133185,1,0,0:0:0:0:
402,192,133260,1,0,0:0:0:0:
329,192,133260,1,0,0:0:0:0:
182,192,133335,1,0,0:0:0:0:
109,192,133335,1,0,0:0:0:0:
256,192,133335,1,0,0:0:0:0:
402,192,133410,1,0,0:0:0:0:
475,192,133410,1,0,0:0:0:0:
182,192,133485,1,0,0:0:0:0:
109,192,133485,1,0,0:0:0:0:
402,192,133560,1,0,0:0:0:0:
475,192,133560,1,0,0:0:0:0:
36,192,133635,1,0,0:0:0:0:
109,192,133635,1,0,0:0:0:0:
182,192,133635,1,0,0:0:0:0:
329,192,133710,1,0,0:0:0:0:
402,192,133710,1,0,0:0:0:0:
475,192,133710,1,0,0:0:0:0:
182,192,133785,1,0,0:0:0:0:
109,192,133785,1,0,0:0:0:0:
36,192,133785,1,0,0:0:0:0:
256,192,133822,1,0,0:0:0:0:
329,192,133860,1,0,0:0:0:0:
402,192,133897,1,0,0:0:0:0:
475,192,133935,1,0,0:0:0:0:
109,192,133935,1,0,0:0:0:0:
36,192,133935,1,0,0:0:0:0:
182,192,134010,1,0,0:0:0:0:
256,192,134010,1,0,0:0:0:0:
329,192,134010,1,0,0:0:0:0:
36,192,134085,1,0,0:0:0:0:
109,192,134085,1,0,0:0:0:0:
402,192,134085,1,0,0:0:0:0:
475,192,134085,1,0,0:0:0:0:
182,192,134160,1,0,0:0:0:0:
329,192,134160,1,0,0:0:0:0:
256,192,134160,1,0,0:0:0:0:
109,192,134235,1,0,0:0:0:0:
36,192,134235,1,0,0:0:0:0:
402,192,134235,1,0,0:0:0:0:
475,192,134235,1,0,0:0:0:0:
182,192,134310,1,0,0:0:0:0:
402,192,134385,1,0,0:0:0:0:
256,192,134385,1,0,0:0:0:0:
36,192,134460,1,0,0:0:0:0:
109,192,134535,1,0,0:0:0:0:
475,192,134535,1,0,0:0:0:0:
329,192,134535,1,0,0:0:0:0:
182,192,134610,1,0,0:0:0:0:
402,192,134685,1,0,0:0:0:0:
256,192,134685,1,0,0:0:0:0:
36,192,134760,1,0,0:0:0:0:
109,192,134835,1,0,0:0:0:0:
182,192,134835,1,0,0:0:0:0:
475,192,134835,1,0,0:0:0:0:
256,192,134910,1,0,0:0:0:0:
329,192,134985,1,0,0:0:0:0:
109,192,134985,1,0,0:0:0:0:
182,192,135060,1,0,0:0:0:0:
36,192,135135,128,0,135435:0:0:0:0:
256,192,135135,1,0,0:0:0:0:
402,192,135135,1,0,0:0:0:0:
475,192,135135,1,0,0:0:0:0:
109,192,135210,1,0,0:0:0:0:
182,192,135285,1,0,0:0:0:0:
329,192,135285,1,0,0:0:0:0:
402,192,135360,1,0,0:0:0:0:
256,192,135435,128,0,137835:0:0:0:0:
109,192,135435,1,0,0:0:0:0:
182,192,135435,1,0,0:0:0:0:
475,192,135435,1,0,0:0:0:0:
329,192,135510,1,0,0:0:0:0:
402,192,135585,1,0,0:0:0:0:
36,192,135585,1,0,0:0:0:0:
109,192,135660,1,0,0:0:0:0:
182,192,135735,1,0,0:0:0:0:
329,192,135735,1,0,0:0:0:0:
475,192,135735,1,0,0:0:0:0:
36,192,135810,1,0,0:0:0:0:
109,192,135885,1,0,0:0:0:0:
402,192,135885,1,0,0:0:0:0:
329,192,135960,1,0,0:0:0:0:
182,192,136035,1,0,0:0:0:0:
36,192,136035,1,0,0:0:0:0:
475,192,136035,1,0,0:0:0:0:
402,192,136110,1,0,0:0:0:0:
329,192,136185,1,0,0:0:0:0:
109,192,136185,1,0,0:0:0:0:
182,192,136260,1,0,0:0:0:0:
402,192,136335,1,0,0:0:0:0:
475,192,136335,1,0,0:0:0:0:
36,192,136335,1,0,0:0:0:0:
109,192,136410,1,0,0:0:0:0:
182,192,136485,1,0,0:0:0:0:
329,192,136485,1,0,0:0:0:0:
402,192,136560,1,0,0:0:0:0:
109,192,136635,1,0,0:0:0:0:
36,192,136635,1,0,0:0:0:0:
475,192,136635,1,0,0:0:0:0:
329,192,136710,1,0,0:0:0:0:
182,192,136785,1,0,0:0:0:0:
402,192,136785,1,0,0:0:0:0:
109,192,136860,1,0,0:0:0:0:
36,192,136935,1,0,0:0:0:0:
329,192,136935,1,0,0:0:0:0:
475,192,136935,1,0,0:0:0:0:
182,192,137010,1,0,0:0:0:0:
329,192,137085,1,0,0:0:0:0:
402,192,137085,1,0,0:0:0:0:
109,192,137160,1,0,0:0:0:0:
182,192,137235,1,0,0:0:0:0:
402,192,137235,1,0,0:0:0:0:
475,192,137235,1,0,0:0:0:0:
36,192,137310,1,0,0:0:0:0:
109,192,137385,1,0,0:0:0:0:
329,192,137385,1,0,0:0:0:0:
182,192,137460,1,0,0:0:0:0:
109,192,137535,1,0,0:0:0:0:
36,192,137535,1,0,0:0:0:0:
402,192,137535,1,0,0:0:0:0:
329,192,137610,1,0,0:0:0:0:
182,192,137685,1,0,0:0:0:0:
109,192,137685,1,0,0:0:0:0:
402,192,137760,1,0,0:0:0:0:
475,192,137835,128,0,139035:0:0:0:0:
36,192,137835,1,0,0:0:0:0:
109,192,137835,1,0,0:0:0:0:
329,192,137835,1,0,0:0:0:0:
402,192,137910,1,0,0:0:0:0:
182,192,137985,1,0,0:0:0:0:
256,192,137985,1,0,0:0:0:0:
329,192,138060,1,0,0:0:0:0:
109,192,138135,1,0,0:0:0:0:
36,192,138135,1,0,0:0:0:0:
402,192,138135,1,0,0:0:0:0:
256,192,138210,1,0,0:0:0:0:
182,192,138285,1,0,0:0:0:0:
329,192,138285,1,0,0:0:0:0:
109,192,138360,1,0,0:0:0:0:
256,192,138435,1,0,0:0:0:0:
402,192,138435,1,0,0:0:0:0:
36,192,138435,1,0,0:0:0:0:
182,192,138510,1,0,0:0:0:0:
109,192,138585,1,0,0:0:0:0:
329,192,138585,1,0,0:0:0:0:
402,192,138660,1,0,0:0:0:0:
256,192,138735,1,0,0:0:0:0:
182,192,138735,1,0,0:0:0:0:
36,192,138735,1,0,0:0:0:0:
329,192,138810,1,0,0:0:0:0:
109,192,138885,1,0,0:0:0:0:
182,192,138885,1,0,0:0:0:0:
256,192,138960,1,0,0:0:0:0:
402,192,139035,128,0,140235:0:0:0:0:
36,192,139035,1,0,0:0:0:0:
329,192,139035,1,0,0:0:0:0:
109,192,139035,1,0,0:0:0:0:
182,192,139110,1,0,0:0:0:0:
256,192,139185,1,0,0:0:0:0:
475,192,139185,1,0,0:0:0:0:
182,192,139260,1,0,0:0:0:0:
109,192,139335,1,0,0:0:0:0:
36,192,139335,1,0,0:0:0:0:
329,192,139335,1,0,0:0:0:0:
256,192,139410,1,0,0:0:0:0:
182,192,139485,1,0,0:0:0:0:
475,192,139485,1,0,0:0:0:0:
329,192,139560,1,0,0:0:0:0:
256,192,139635,1,0,0:0:0:0:
109,192,139635,1,0,0:0:0:0:
36,192,139635,1,0,0:0:0:0:
329,192,139710,1,0,0:0:0:0:
182,192,139785,1,0,0:0:0:0:
36,192,139785,1,0,0:0:0:0:
256,192,139860,1,0,0:0:0:0:
109,192,139935,1,0,0:0:0:0:
329,192,139935,1,0,0:0:0:0:
475,192,139935,1,0,0:0:0:0:
182,192,140010,1,0,0:0:0:0:
256,192,140085,1,0,0:0:0:0:
36,192,140085,1,0,0:0:0:0:
109,192,140160,1,0,0:0:0:0:
256,192,140235,128,0,141435:0:0:0:0:
329,192,140235,1,0,0:0:0:0:
475,192,140235,1,0,0:0:0:0:
182,192,140235,1,0,0:0:0:0:
36,192,140310,1,0,0:0:0:0:
109,192,140385,1,0,0:0:0:0:
402,192,140385,1,0,0:0:0:0:
329,192,140460,1,0,0:0:0:0:
182,192,140535,1,0,0:0:0:0:
36,192,140535,1,0,0:0:0:0:
475,192,140535,1,0,0:0:0:0:
402,192,140610,1,0,0:0:0:0:
329,192,140685,1,0,0:0:0:0:
109,192,140685,1,0,0:0:0:0:
182,192,140760,1,0,0:0:0:0:
402,192,140835,1,0,0:0:0:0:
475,192,140835,1,0,0:0:0:0:
36,192,140835,1,0,0:0:0:0:
109,192,140910,1,0,0:0:0:0:
182,192,140985,1,0,0:0:0:0:
329,192,140985,1,0,0:0:0:0:
109,192,141060,1,0,0:0:0:0:
36,192,141135,1,0,0:0:0:0:
402,192,141135,1,0,0:0:0:0:
475,192,141135,1,0,0:0:0:0:
329,192,141210,1,0,0:0:0:0:
182,192,141285,1,0,0:0:0:0:
475,192,141285,1,0,0:0:0:0:
402,192,141360,1,0,0:0:0:0:
109,192,141435,128,0,142635:0:0:0:0:
329,192,141435,1,0,0:0:0:0:
36,192,141435,1,0,0:0:0:0:
475,192,141435,1,0,0:0:0:0:
182,192,141510,1,0,0:0:0:0:
256,192,141585,1,0,0:0:0:0:
402,192,141585,1,0,0:0:0:0:
329,192,141660,1,0,0:0:0:0:
182,192,141735,1,0,0:0:0:0:
36,192,141735,1,0,0:0:0:0:
402,192,141735,1,0,0:0:0:0:
329,192,141810,1,0,0:0:0:0:
256,192,141885,1,0,0:0:0:0:
475,192,141885,1,0,0:0:0:0:
402,192,141960,1,0,0:0:0:0:
329,192,142035,1,0,0:0:0:0:
256,192,142035,1,0,0:0:0:0:
182,192,142035,1,0,0:0:0:0:
475,192,142110,1,0,0:0:0:0:
402,192,142185,1,0,0:0:0:0:
36,192,142185,1,0,0:0:0:0:
182,192,142260,1,0,0:0:0:0:
256,192,142335,1,0,0:0:0:0:
329,192,142335,1,0,0:0:0:0:
475,192,142335,1,0,0:0:0:0:
402,192,142410,1,0,0:0:0:0:
182,192,142485,1,0,0:0:0:0:
475,192,142485,1,0,0:0:0:0:
329,192,142560,1,0,0:0:0:0:
182,192,142635,128,0,144435:0:0:0:0:
402,192,142635,1,0,0:0:0:0:
475,192,142635,1,0,0:0:0:0:
36,192,142635,1,0,0:0:0:0:
256,192,142710,1,0,0:0:0:0:
329,192,142785,1,0,0:0:0:0:
109,192,142785,1,0,0:0:0:0:
402,192,142860,1,0,0:0:0:0:
329,192,142935,1,0,0:0:0:0:
36,192,142935,1,0,0:0:0:0:
475,192,142935,1,0,0:0:0:0:
256,192,143010,1,0,0:0:0:0:
109,192,143085,1,0,0:0:0:0:
402,192,143085,1,0,0:0:0:0:
329,192,143160,1,0,0:0:0:0:
256,192,143235,1,0,0:0:0:0:
36,192,143235,1,0,0:0:0:0:
475,192,143235,1,0,0:0:0:0:
329,192,143310,1,0,0:0:0:0:
402,192,143385,1,0,0:0:0:0:
109,192,143385,1,0,0:0:0:0:
256,192,143460,1,0,0:0:0:0:
329,192,143535,1,0,0:0:0:0:
475,192,143535,1,0,0:0:0:0:
36,192,143535,1,0,0:0:0:0:
109,192,143610,1,0,0:0:0:0:
256,192,143685,1,0,0:0:0:0:
402,192,143685,1,0,0:0:0:0:
36,192,143760,1,0,0:0:0:0:
109,192,143835,1,0,0:0:0:0:
329,192,143835,1,0,0:0:0:0:
475,192,143835,1,0,0:0:0:0:
256,192,143910,1,0,0:0:0:0:
36,192,143985,1,0,0:0:0:0:
402,192,143985,1,0,0:0:0:0:
329,192,144060,1,0,0:0:0:0:
256,192,144135,1,0,0:0:0:0:
109,192,144135,1,0,0:0:0:0:
475,192,144135,1,0,0:0:0:0:
402,192,144210,1,0,0:0:0:0:
329,192,144285,1,0,0:0:0:0:
36,192,144285,1,0,0:0:0:0:
109,192,144360,1,0,0:0:0:0:
329,192,144435,128,0,145035:0:0:0:0:
256,192,144435,1,0,0:0:0:0:
475,192,144435,1,0,0:0:0:0:
402,192,144435,1,0,0:0:0:0:
36,192,144510,1,0,0:0:0:0:
109,192,144585,1,0,0:0:0:0:
256,192,144585,1,0,0:0:0:0:
182,192,144660,1,0,0:0:0:0:
109,192,144735,1,0,0:0:0:0:
36,192,144735,1,0,0:0:0:0:
402,192,144735,1,0,0:0:0:0:
256,192,144810,1,0,0:0:0:0:
182,192,144885,1,0,0:0:0:0:
475,192,144885,1,0,0:0:0:0:
402,192,144960,1,0,0:0:0:0:
256,192,145035,128,0,145635:0:0:0:0:
109,192,145035,1,0,0:0:0:0:
36,192,145035,1,0,0:0:0:0:
475,192,145035,1,0,0:0:0:0:
182,192,145110,1,0,0:0:0:0:
329,192,145185,1,0,0:0:0:0:
402,192,145185,1,0,0:0:0:0:
109,192,145260,1,0,0:0:0:0:
182,192,145335,1,0,0:0:0:0:
329,192,145335,1,0,0:0:0:0:
475,192,145335,1,0,0:0:0:0:
109,192,145410,1,0,0:0:0:0:
36,192,145485,1,0,0:0:0:0:
402,192,145485,1,0,0:0:0:0:
329,192,145560,1,0,0:0:0:0:
182,192,145635,128,0,146235:0:0:0:0:
402,192,145635,1,0,0:0:0:0:
109,192,145635,1,0,0:0:0:0:
36,192,145635,1,0,0:0:0:0:
329,192,145710,1,0,0:0:0:0:
256,192,145785,1,0,0:0:0:0:
475,192,145785,1,0,0:0:0:0:
402,192,145860,1,0,0:0:0:0:
109,192,145935,1,0,0:0:0:0:
36,192,145935,1,0,0:0:0:0:
329,192,145935,1,0,0:0:0:0:
402,192,146010,1,0,0:0:0:0:
475,192,146085,1,0,0:0:0:0:
256,192,146085,1,0,0:0:0:0:
109,192,146160,1,0,0:0:0:0:
329,192,146235,128,0,147435:0:0:0:0:
36,192,146235,1,0,0:0:0:0:
402,192,146235,1,0,0:0:0:0:
475,192,146235,1,0,0:0:0:0:
256,192,146310,1,0,0:0:0:0:
182,192,146385,1,0,0:0:0:0:
109,192,146385,1,0,0:0:0:0:
256,192,146460,1,0,0:0:0:0:
402,192,146535,1,0,0:0:0:0:
475,192,146535,1,0,0:0:0:0:
36,192,146535,1,0,0:0:0:0:
109,192,146610,1,0,0:0:0:0:
182,192,146685,1,0,0:0:0:0:
256,192,146685,1,0,0:0:0:0:
109,192,146760,1,0,0:0:0:0:
36,192,146835,1,0,0:0:0:0:
402,192,146835,1,0,0:0:0:0:
475,192,146835,1,0,0:0:0:0:
256,192,146910,1,0,0:0:0:0:
182,192,146985,1,0,0:0:0:0:
109,192,146985,1,0,0:0:0:0:
256,192,147060,1,0,0:0:0:0:
36,192,147135,1,0,0:0:0:0:
402,192,147135,1,0,0:0:0:0:
475,192,147135,1,0,0:0:0:0:
109,192,147210,1,0,0:0:0:0:
182,192,147285,1,0,0:0:0:0:
256,192,147285,1,0,0:0:0:0:
36,192,147360,1,0,0:0:0:0:
475,192,147435,128,0,148485:0:0:0:0:
109,192,147435,1,0,0:0:0:0:
182,192,147435,1,0,0:0:0:0:
402,192,147435,1,0,0:0:0:0:
329,192,147510,5,0,0:0:0:0:
256,192,147585,1,0,0:0:0:0:
36,192,147585,1,0,0:0:0:0:
109,192,147660,1,0,0:0:0:0:
182,192,147735,1,0,0:0:0:0:
329,192,147735,1,0,0:0:0:0:
402,192,147735,1,0,0:0:0:0:
109,192,147810,1,0,0:0:0:0:
36,192,147885,1,0,0:0:0:0:
256,192,147885,1,0,0:0:0:0:
182,192,147960,1,0,0:0:0:0:
109,192,148035,1,0,0:0:0:0:
329,192,148035,1,0,0:0:0:0:
402,192,148035,1,0,0:0:0:0:
256,192,148110,1,0,0:0:0:0:
182,192,148185,1,0,0:0:0:0:
329,192,148185,1,0,0:0:0:0:
402,192,148260,1,0,0:0:0:0:
109,192,148335,1,0,0:0:0:0:
36,192,148335,1,0,0:0:0:0:
256,192,148335,1,0,0:0:0:0:
329,192,148410,1,0,0:0:0:0:
182,192,148485,1,0,0:0:0:0:
402,192,148485,1,0,0:0:0:0:
36,192,148485,1,0,0:0:0:0:
256,192,148560,1,0,0:0:0:0:
109,192,148560,1,0,0:0:0:0:
475,192,148635,1,0,0:0:0:0:
329,192,148635,1,0,0:0:0:0:
402,192,148635,1,0,0:0:0:0:
182,192,148635,1,0,0:0:0:0:
36,192,148710,1,0,0:0:0:0:
329,192,148785,1,0,0:0:0:0:
402,192,148785,1,0,0:0:0:0:
256,192,148785,1,0,0:0:0:0:
109,192,148860,1,0,0:0:0:0:
182,192,148935,1,0,0:0:0:0:
256,192,148935,1,0,0:0:0:0:
329,192,148935,1,0,0:0:0:0:
475,192,149010,1,0,0:0:0:0:
182,192,149085,1,0,0:0:0:0:
109,192,149085,1,0,0:0:0:0:
256,192,149085,1,0,0:0:0:0:
402,192,149160,1,0,0:0:0:0:
256,192,149235,1,0,0:0:0:0:
109,192,149235,1,0,0:0:0:0:
182,192,149235,1,0,0:0:0:0:
475,192,149310,1,0,0:0:0:0:
256,192,149385,1,0,0:0:0:0:
182,192,149385,1,0,0:0:0:0:
329,192,149385,1,0,0:0:0:0:
36,192,149460,1,0,0:0:0:0:
256,192,149535,1,0,0:0:0:0:
329,192,149535,1,0,0:0:0:0:
402,192,149535,1,0,0:0:0:0:
109,192,149610,1,0,0:0:0:0:
329,192,149685,1,0,0:0:0:0:
402,192,149685,1,0,0:0:0:0:
475,192,149685,1,0,0:0:0:0:
182,192,149760,1,0,0:0:0:0:
109,192,149760,1,0,0:0:0:0:
36,192,149760,1,0,0:0:0:0:
402,192,149835,1,0,0:0:0:0:
475,192,149835,1,0,0:0:0:0:
329,192,149835,1,0,0:0:0:0:
256,192,149910,1,0,0:0:0:0:
36,192,149985,1,0,0:0:0:0:
475,192,149985,1,0,0:0:0:0:
402,192,149985,1,0,0:0:0:0:
109,192,149985,1,0,0:0:0:0:
329,192,150060,1,0,0:0:0:0:
256,192,150135,1,0,0:0:0:0:
182,192,150135,1,0,0:0:0:0:
109,192,150135,1,0,0:0:0:0:
36,192,150135,1,0,0:0:0:0:
329,192,150210,1,0,0:0:0:0:
402,192,150285,1,0,0:0:0:0:
475,192,150285,1,0,0:0:0:0:
36,192,150285,1,0,0:0:0:0:
109,192,150285,1,0,0:0:0:0:
182,192,150360,1,0,0:0:0:0:
256,192,150435,1,0,0:0:0:0:
329,192,150435,1,0,0:0:0:0:
402,192,150435,1,0,0:0:0:0:
475,192,150435,1,0,0:0:0:0:
182,192,150510,1,0,0:0:0:0:
109,192,150585,1,0,0:0:0:0:
36,192,150585,1,0,0:0:0:0:
402,192,150585,1,0,0:0:0:0:
475,192,150585,1,0,0:0:0:0:
329,192,150660,1,0,0:0:0:0:
256,192,150735,1,0,0:0:0:0:
182,192,150735,1,0,0:0:0:0:
36,192,150735,1,0,0:0:0:0:
109,192,150735,1,0,0:0:0:0:
329,192,150810,1,0,0:0:0:0:
402,192,150885,1,0,0:0:0:0:
475,192,150885,1,0,0:0:0:0:
36,192,150885,1,0,0:0:0:0:
109,192,150885,1,0,0:0:0:0:
182,192,150922,1,0,0:0:0:0:
256,192,150960,1,0,0:0:0:0:
329,192,150997,1,0,0:0:0:0:
402,192,151035,1,0,0:0:0:0:
475,192,151035,1,0,0:0:0:0:
182,192,151035,1,0,0:0:0:0:
36,192,151035,1,0,0:0:0:0:
256,192,151110,1,0,0:0:0:0:
109,192,151110,1,0,0:0:0:0:
329,192,151185,1,0,0:0:0:0:
182,192,151185,1,0,0:0:0:0:
402,192,151260,1,0,0:0:0:0:
256,192,151260,1,0,0:0:0:0:
329,192,151335,1,0,0:0:0:0:
475,192,151335,1,0,0:0:0:0:
256,192,151410,1,0,0:0:0:0:
402,192,151410,1,0,0:0:0:0:
182,192,151485,1,0,0:0:0:0:
329,192,151485,1,0,0:0:0:0:
109,192,151560,1,0,0:0:0:0:
256,192,151560,1,0,0:0:0:0:
36,192,151635,1,0,0:0:0:0:
182,192,151635,1,0,0:0:0:0:
329,192,151635,1,0,0:0:0:0:
475,192,151635,1,0,0:0:0:0:
256,192,151710,1,0,0:0:0:0:
402,192,151710,1,0,0:0:0:0:
182,192,151785,1,0,0:0:0:0:
329,192,151785,1,0,0:0:0:0:
109,192,151860,1,0,0:0:0:0:
256,192,151860,1,0,0:0:0:0:
182,192,151935,1,0,0:0:0:0:
36,192,151935,1,0,0:0:0:0:
256,192,152010,1,0,0:0:0:0:
109,192,152010,1,0,0:0:0:0:
329,192,152085,1,0,0:0:0:0:
182,192,152085,1,0,0:0:0:0:
256,192,152160,1,0,0:0:0:0:
402,192,152160,1,0,0:0:0:0:
329,192,152235,1,0,0:0:0:0:
475,192,152235,1,0,0:0:0:0:
36,192,152235,1,0,0:0:0:0:
109,192,152235,1,0,0:0:0:0:
182,192,152235,1,0,0:0:0:0:
256,192,152310,1,0,0:0:0:0:
109,192,152385,1,0,0:0:0:0:
36,192,152385,1,0,0:0:0:0:
182,192,152385,1,0,0:0:0:0:
329,192,152460,1,0,0:0:0:0:
402,192,152460,1,0,0:0:0:0:
475,192,152460,1,0,0:0:0:0:
36,192,152535,1,0,0:0:0:0:
109,192,152535,1,0,0:0:0:0:
182,192,152535,1,0,0:0:0:0:
256,192,152610,1,0,0:0:0:0:
329,192,152685,1,0,0:0:0:0:
402,192,152685,1,0,0:0:0:0:
475,192,152685,1,0,0:0:0:0:
36,192,152722,1,0,0:0:0:0:
109,192,152760,1,0,0:0:0:0:
182,192,152797,1,0,0:0:0:0:
256,192,152835,1,0,0:0:0:0:
402,192,152835,1,0,0:0:0:0:
475,192,152835,1,0,0:0:0:0:
36,192,152835,128,0,152985:0:0:0:0:
109,192,152910,128,0,153060:0:0:0:0:
329,192,152910,1,0,0:0:0:0:
182,192,152985,128,0,153135:0:0:0:0:
402,192,152985,1,0,0:0:0:0:
256,192,153060,128,0,153210:0:0:0:0:
475,192,153060,1,0,0:0:0:0:
36,192,153135,1,0,0:0:0:0:
329,192,153135,128,0,153285:0:0:0:0:
109,192,153210,1,0,0:0:0:0:
402,192,153210,128,0,153360:0:0:0:0:
182,192,153285,1,0,0:0:0:0:
475,192,153285,128,0,153360:0:0:0:0:
256,192,153360,1,0,0:0:0:0:
402,192,153435,5,0,0:0:0:0:
475,192,153435,1,0,0:0:0:0:
36,192,153435,128,0,154035:0:0:0:0:
109,192,153435,128,0,153510:0:0:0:0:
329,192,153435,1,0,0:0:0:0:
182,192,153510,128,0,153585:0:0:0:0:
256,192,153585,128,0,153660:0:0:0:0:
329,192,153660,128,0,153735:0:0:0:0:
475,192,153735,128,0,153810:0:0:0:0:
109,192,153735,1,0,0:0:0:0:
182,192,153735,1,0,0:0:0:0:
402,192,153810,128,0,153885:0:0:0:0:
329,192,153885,128,0,153960:0:0:0:0:
256,192,153960,128,0,154035:0:0:0:0:
109,192,154035,128,0,155235:0:0:0:0:
182,192,154035,128,0,154110:0:0:0:0:
402,192,154035,1,0,0:0:0:0:
475,192,154035,1,0,0:0:0:0:
256,192,154110,128,0,154185:0:0:0:0:
329,192,154185,128,0,154260:0:0:0:0:
402,192,154260,128,0,154335:0:0:0:0:
256,192,154335,128,0,154410:0:0:0:0:
182,192,154335,1,0,0:0:0:0:
475,192,154335,1,0,0:0:0:0:
329,192,154410,128,0,154485:0:0:0:0:
402,192,154485,128,0,154560:0:0:0:0:
475,192,154560,128,0,154635:0:0:0:0:
402,192,154635,128,0,154710:0:0:0:0:
182,192,154635,1,0,0:0:0:0:
36,192,154635,1,0,0:0:0:0:
329,192,154710,128,0,154785:0:0:0:0:
256,192,154785,128,0,154860:0:0:0:0:
182,192,154860,128,0,154935:0:0:0:0:
475,192,154935,128,0,155010:0:0:0:0:
36,192,154935,1,0,0:0:0:0:
329,192,154935,1,0,0:0:0:0:
402,192,155010,128,0,155085:0:0:0:0:
329,192,155085,128,0,155160:0:0:0:0:
256,192,155160,128,0,155235:0:0:0:0:
475,192,155235,128,0,155435:0:0:0:0:
36,192,155235,128,0,155310:0:0:0:0:
182,192,155235,1,0,0:0:0:0:
402,192,155235,1,0,0:0:0:0:
109,192,155310,128,0,155385:0:0:0:0:
182,192,155385,128,0,155460:0:0:0:0:
402,192,155435,128,0,155635:0:0:0:0:
256,192,155460,128,0,155535:0:0:0:0:
182,192,155535,128,0,155610:0:0:0:0:
36,192,155535,1,0,0:0:0:0:
475,192,155535,1,0,0:0:0:0:
109,192,155610,128,0,155685:0:0:0:0:
329,192,155635,128,0,155835:0:0:0:0:
36,192,155685,128,0,155760:0:0:0:0:
182,192,155760,128,0,155835:0:0:0:0:
475,192,155835,128,0,156435:0:0:0:0:
402,192,155835,128,0,155910:0:0:0:0:
109,192,155835,1,0,0:0:0:0:
256,192,155835,1,0,0:0:0:0:
329,192,155910,128,0,155985:0:0:0:0:
256,192,155985,128,0,156060:0:0:0:0:
182,192,156060,128,0,156135:0:0:0:0:
109,192,156135,128,0,156210:0:0:0:0:
329,192,156135,1,0,0:0:0:0:
402,192,156135,1,0,0:0:0:0:
182,192,156210,128,0,156285:0:0:0:0:
256,192,156285,128,0,156360:0:0:0:0:
329,192,156360,128,0,156435:0:0:0:0:
182,192,156435,128,0,157635:0:0:0:0:
402,192,156435,128,0,156510:0:0:0:0:
109,192,156435,1,0,0:0:0:0:
36,192,156435,1,0,0:0:0:0:
329,192,156510,128,0,156585:0:0:0:0:
256,192,156585,128,0,156660:0:0:0:0:
109,192,156660,128,0,156735:0:0:0:0:
36,192,156735,128,0,156810:0:0:0:0:
402,192,156735,1,0,0:0:0:0:
475,192,156735,1,0,0:0:0:0:
109,192,156810,128,0,156885:0:0:0:0:
256,192,156885,128,0,156960:0:0:0:0:
329,192,156960,128,0,157035:0:0:0:0:
475,192,157035,128,0,157110:0:0:0:0:
109,192,157035,1,0,0:0:0:0:
36,192,157035,1,0,0:0:0:0:
402,192,157110,128,0,157185:0:0:0:0:
329,192,157185,128,0,157260:0:0:0:0:
256,192,157260,128,0,157335:0:0:0:0:
402,192,157335,128,0,157410:0:0:0:0:
109,192,157335,1,0,0:0:0:0:
475,192,157335,1,0,0:0:0:0:
329,192,157410,128,0,157485:0:0:0:0:
256,192,157485,128,0,157560:0:0:0:0:
329,192,157560,128,0,157635:0:0:0:0:
109,192,157635,128,0,158235:0:0:0:0:
36,192,157635,128,0,157710:0:0:0:0:
402,192,157635,1,0,0:0:0:0:
475,192,157635,1,0,0:0:0:0:
182,192,157710,128,0,157785:0:0:0:0:
256,192,157785,128,0,157860:0:0:0:0:
329,192,157860,128,0,157935:0:0:0:0:
182,192,157935,128,0,158010:0:0:0:0:
402,192,157935,1,0,0:0:0:0:
475,192,157935,1,0,0:0:0:0:
256,192,158010,128,0,158085:0:0:0:0:
329,192,158085,128,0,158160:0:0:0:0:
36,192,158085,1,0,0:0:0:0:
475,192,158085,1,0,0:0:0:0:
402,192,158160,128,0,158235:0:0:0:0:
36,192,158235,128,0,158835:0:0:0:0:
182,192,158235,1,0,0:0:0:0:
475,192,158235,1,0,0:0:0:0:
256,192,158235,128,0,158310:0:0:0:0:
329,192,158310,128,0,158385:0:0:0:0:
109,192,158385,128,0,158460:0:0:0:0:
182,192,158460,128,0,158535:0:0:0:0:
402,192,158535,128,0,158610:0:0:0:0:
256,192,158535,1,0,0:0:0:0:
329,192,158535,1,0,0:0:0:0:
475,192,158610,128,0,158685:0:0:0:0:
256,192,158685,128,0,158760:0:0:0:0:
329,192,158760,128,0,158835:0:0:0:0:
109,192,158835,128,0,160035:0:0:0:0:
475,192,158835,128,0,158910:0:0:0:0:
182,192,158835,1,0,0:0:0:0:
256,192,158835,1,0,0:0:0:0:
402,192,158910,128,0,158985:0:0:0:0:
256,192,158985,128,0,159060:0:0:0:0:
182,192,159060,128,0,159135:0:0:0:0:
402,192,159135,128,0,159210:0:0:0:0:
36,192,159135,1,0,0:0:0:0:
475,192,159135,1,0,0:0:0:0:
329,192,159210,128,0,159285:0:0:0:0:
182,192,159285,128,0,159360:0:0:0:0:
36,192,159360,128,0,159435:0:0:0:0:
475,192,159435,128,0,159510:0:0:0:0:
182,192,159435,1,0,0:0:0:0:
329,192,159435,1,0,0:0:0:0:
402,192,159510,128,0,159585:0:0:0:0:
182,192,159585,128,0,159660:0:0:0:0:
256,192,159660,128,0,159735:0:0:0:0:
36,192,159735,128,0,159810:0:0:0:0:
329,192,159735,1,0,0:0:0:0:
475,192,159735,1,0,0:0:0:0:
182,192,159810,128,0,159885:0:0:0:0:
329,192,159885,128,0,159960:0:0:0:0:
256,192,159960,128,0,160035:0:0:0:0:
475,192,160035,128,0,160235:0:0:0:0:
182,192,160035,128,0,160110:0:0:0:0:
36,192,160035,1,0,0:0:0:0:
109,192,160110,128,0,160185:0:0:0:0:
36,192,160185,128,0,160260:0:0:0:0:
256,192,160235,128,0,160435:0:0:0:0:
182,192,160260,128,0,160335:0:0:0:0:
475,192,160335,128,0,160410:0:0:0:0:
36,192,160335,1,0,0:0:0:0:
402,192,160410,128,0,160485:0:0:0:0:
109,192,160435,128,0,160635:0:0:0:0:
329,192,160485,128,0,160560:0:0:0:0:
256,192,160560,128,0,160635:0:0:0:0:
36,192,160635,128,0,161235:0:0:0:0:
475,192,160635,128,0,161235:0:0:0:0:
402,192,160635,128,0,160710:0:0:0:0:
329,192,160710,128,0,160785:0:0:0:0:
256,192,160785,128,0,160860:0:0:0:0:
182,192,160860,128,0,160935:0:0:0:0:
109,192,160935,128,0,161010:0:0:0:0:
329,192,160935,1,0,0:0:0:0:
402,192,160935,1,0,0:0:0:0:
182,192,161010,128,0,161085:0:0:0:0:
256,192,161085,128,0,161160:0:0:0:0:
329,192,161160,128,0,161235:0:0:0:0:
402,192,161235,128,0,163035:0:0:0:0:
182,192,161235,128,0,162735:0:0:0:0:
109,192,161235,128,0,161310:0:0:0:0:
256,192,161310,128,0,161385:0:0:0:0:
329,192,161385,128,0,161460:0:0:0:0:
475,192,161460,128,0,161535:0:0:0:0:
36,192,161535,128,0,161610:0:0:0:0:
256,192,161535,1,0,0:0:0:0:
329,192,161535,1,0,0:0:0:0:
109,192,161610,128,0,161685:0:0:0:0:
256,192,161685,128,0,161760:0:0:0:0:
329,192,161760,128,0,161835:0:0:0:0:
475,192,161835,128,0,161910:0:0:0:0:
36,192,161835,1,0,0:0:0:0:
109,192,161835,1,0,0:0:0:0:
329,192,161910,128,0,161985:0:0:0:0:
256,192,161985,128,0,162060:0:0:0:0:
109,192,162060,128,0,162135:0:0:0:0:
329,192,162135,128,0,162210:0:0:0:0:
36,192,162135,1,0,0:0:0:0:
475,192,162135,1,0,0:0:0:0:
256,192,162210,128,0,162285:0:0:0:0:
109,192,162285,128,0,162360:0:0:0:0:
36,192,162360,128,0,162435:0:0:0:0:
475,192,162435,128,0,162510:0:0:0:0:
256,192,162435,1,0,0:0:0:0:
109,192,162435,1,0,0:0:0:0:
329,192,162510,128,0,162585:0:0:0:0:
256,192,162585,128,0,162660:0:0:0:0:
109,192,162660,128,0,162735:0:0:0:0:
36,192,162735,128,0,163035:0:0:0:0:
329,192,162735,1,0,0:0:0:0:
256,192,162810,1,0,0:0:0:0:
109,192,162885,1,0,0:0:0:0:
182,192,162885,1,0,0:0:0:0:
182,192,162960,1,0,0:0:0:0:
256,192,163035,1,0,0:0:0:0:
475,192,163035,1,0,0:0:0:0:
109,192,163035,128,0,163635:0:0:0:0:
329,192,163035,128,0,163110:0:0:0:0:
182,192,163110,128,0,163185:0:0:0:0:
256,192,163185,128,0,163260:0:0:0:0:
329,192,163260,128,0,163335:0:0:0:0:
182,192,163335,128,0,163410:0:0:0:0:
475,192,163335,1,0,0:0:0:0:
402,192,163335,1,0,0:0:0:0:
329,192,163410,128,0,163485:0:0:0:0:
256,192,163485,128,0,163560:0:0:0:0:
475,192,163560,128,0,163635:0:0:0:0:
182,192,163635,128,0,164835:0:0:0:0:
402,192,163635,128,0,163710:0:0:0:0:
36,192,163635,1,0,0:0:0:0:
329,192,163635,1,0,0:0:0:0:
256,192,163710,128,0,163785:0:0:0:0:
109,192,163785,128,0,163860:0:0:0:0:
402,192,163860,128,0,163935:0:0:0:0:
329,192,163935,128,0,164010:0:0:0:0:
36,192,163935,1,0,0:0:0:0:
109,192,163935,1,0,0:0:0:0:
402,192,164010,128,0,164085:0:0:0:0:
475,192,164085,128,0,164160:0:0:0:0:
256,192,164160,128,0,164235:0:0:0:0:
329,192,164235,128,0,164310:0:0:0:0:
109,192,164235,1,0,0:0:0:0:
36,192,164235,1,0,0:0:0:0:
402,192,164310,128,0,164385:0:0:0:0:
329,192,164385,128,0,164460:0:0:0:0:
256,192,164460,128,0,164535:0:0:0:0:
109,192,164535,128,0,164610:0:0:0:0:
475,192,164535,1,0,0:0:0:0:
402,192,164535,1,0,0:0:0:0:
36,192,164610,128,0,164685:0:0:0:0:
329,192,164685,128,0,164760:0:0:0:0:
402,192,164760,128,0,164835:0:0:0:0:
475,192,164835,128,0,165035:0:0:0:0:
36,192,164835,128,0,164910:0:0:0:0:
329,192,164835,1,0,0:0:0:0:
256,192,164835,1,0,0:0:0:0:
109,192,164910,128,0,164985:0:0:0:0:
182,192,164985,128,0,165060:0:0:0:0:
329,192,165035,128,0,165235:0:0:0:0:
256,192,165060,128,0,165135:0:0:0:0:
109,192,165135,128,0,165210:0:0:0:0:
36,192,165135,1,0,0:0:0:0:
475,192,165135,1,0,0:0:0:0:
402,192,165210,128,0,165285:0:0:0:0:
182,192,165235,128,0,165435:0:0:0:0:
475,192,165285,128,0,165360:0:0:0:0:
329,192,165360,128,0,165435:0:0:0:0:
402,192,165435,128,0,166035:0:0:0:0:
36,192,165435,1,0,0:0:0:0:
109,192,165435,1,0,0:0:0:0:
256,192,165435,128,0,165510:0:0:0:0:
182,192,165510,128,0,165585:0:0:0:0:
109,192,165585,128,0,165660:0:0:0:0:
36,192,165660,128,0,165735:0:0:0:0:
329,192,165735,128,0,165810:0:0:0:0:
256,192,165735,1,0,0:0:0:0:
475,192,165735,1,0,0:0:0:0:
182,192,165810,128,0,165885:0:0:0:0:
475,192,165885,128,0,165960:0:0:0:0:
256,192,165960,128,0,166035:0:0:0:0:
109,192,166035,128,0,167235:0:0:0:0:
36,192,166035,128,0,166110:0:0:0:0:
182,192,166035,1,0,0:0:0:0:
475,192,166035,1,0,0:0:0:0:
329,192,166110,128,0,166185:0:0:0:0:
182,192,166185,128,0,166260:0:0:0:0:
402,192,166260,128,0,166335:0:0:0:0:
256,192,166335,128,0,166410:0:0:0:0:
36,192,166335,1,0,0:0:0:0:
329,192,166335,1,0,0:0:0:0:
475,192,166410,128,0,166485:0:0:0:0:
182,192,166485,128,0,166560:0:0:0:0:
402,192,166560,128,0,166635:0:0:0:0:
36,192,166635,128,0,166710:0:0:0:0:
256,192,166635,1,0,0:0:0:0:
475,192,166635,1,0,0:0:0:0:
329,192,166710,128,0,166785:0:0:0:0:
256,192,166785,128,0,166860:0:0:0:0:
475,192,166860,128,0,166935:0:0:0:0:
182,192,166935,128,0,167010:0:0:0:0:
36,192,166935,1,0,0:0:0:0:
329,192,166935,1,0,0:0:0:0:
402,192,167010,128,0,167085:0:0:0:0:
256,192,167085,128,0,167160:0:0:0:0:
475,192,167160,128,0,167235:0:0:0:0:
36,192,167235,128,0,167760:0:0:0:0:
182,192,167235,1,0,0:0:0:0:
329,192,167235,128,0,167310:0:0:0:0:
402,192,167235,1,0,0:0:0:0:
256,192,167310,128,0,167385:0:0:0:0:
182,192,167385,128,0,167460:0:0:0:0:
109,192,167460,128,0,167535:0:0:0:0:
402,192,167535,128,0,167610:0:0:0:0:
475,192,167535,1,0,0:0:0:0:
256,192,167535,1,0,0:0:0:0:
329,192,167610,128,0,167685:0:0:0:0:
256,192,167685,128,0,167760:0:0:0:0:
475,192,167685,1,0,0:0:0:0:
109,192,167685,1,0,0:0:0:0:
182,192,167760,128,0,167835:0:0:0:0:
36,192,167835,128,0,168435:0:0:0:0:
402,192,167835,1,0,0:0:0:0:
109,192,167835,128,0,167910:0:0:0:0:
475,192,167835,128,0,167910:0:0:0:0:
182,192,167910,128,0,167985:0:0:0:0:
402,192,167985,1,0,0:0:0:0:
256,192,167985,128,0,168060:0:0:0:0:
475,192,167985,128,0,168060:0:0:0:0:
182,192,168060,128,0,168135:0:0:0:0:
402,192,168135,1,0,0:0:0:0:
109,192,168135,128,0,168210:0:0:0:0:
475,192,168135,128,0,168210:0:0:0:0:
182,192,168210,128,0,168285:0:0:0:0:
402,192,168285,1,0,0:0:0:0:
256,192,168285,128,0,168360:0:0:0:0:
475,192,168285,128,0,168360:0:0:0:0:
182,192,168360,128,0,168435:0:0:0:0:
256,192,168435,128,0,169635:0:0:0:0:
402,192,168435,1,0,0:0:0:0:
109,192,168435,128,0,168510:0:0:0:0:
475,192,168435,128,0,168510:0:0:0:0:
36,192,168510,128,0,168585:0:0:0:0:
402,192,168585,1,0,0:0:0:0:
109,192,168585,128,0,168660:0:0:0:0:
475,192,168585,128,0,168660:0:0:0:0:
182,192,168660,128,0,168735:0:0:0:0:
36,192,168735,128,0,168810:0:0:0:0:
402,192,168735,1,0,0:0:0:0:
475,192,168735,128,0,168810:0:0:0:0:
109,192,168810,128,0,168885:0:0:0:0:
182,192,168885,128,0,168960:0:0:0:0:
475,192,168885,128,0,168960:0:0:0:0:
402,192,168885,1,0,0:0:0:0:
109,192,168960,128,0,169035:0:0:0:0:
329,192,168960,1,0,0:0:0:0:
36,192,169035,128,0,169110:0:0:0:0:
402,192,169035,1,0,0:0:0:0:
475,192,169035,128,0,169110:0:0:0:0:
182,192,169110,128,0,169185:0:0:0:0:
402,192,169185,1,0,0:0:0:0:
109,192,169185,128,0,169260:0:0:0:0:
475,192,169185,128,0,169260:0:0:0:0:
36,192,169260,128,0,169335:0:0:0:0:
402,192,169335,1,0,0:0:0:0:
182,192,169335,128,0,169410:0:0:0:0:
475,192,169335,128,0,169410:0:0:0:0:
109,192,169410,128,0,169485:0:0:0:0:
402,192,169485,1,0,0:0:0:0:
36,192,169485,128,0,169560:0:0:0:0:
475,192,169485,128,0,169560:0:0:0:0:
109,192,169560,128,0,169635:0:0:0:0:
475,192,169635,128,0,169835:0:0:0:0:
402,192,169635,128,0,169835:0:0:0:0:
329,192,169635,1,0,0:0:0:0:
182,192,169635,1,0,0:0:0:0:
256,192,169710,1,0,0:0:0:0:
329,192,169785,1,0,0:0:0:0:
182,192,169785,1,0,0:0:0:0:
256,192,169835,128,0,170035:0:0:0:0:
109,192,169860,1,0,0:0:0:0:
36,192,169860,1,0,0:0:0:0:
402,192,169935,1,0,0:0:0:0:
475,192,169935,1,0,0:0:0:0:
329,192,170010,1,0,0:0:0:0:
36,192,170035,128,0,170235:0:0:0:0:
109,192,170035,128,0,170135:0:0:0:0:
475,192,170085,1,0,0:0:0:0:
402,192,170085,1,0,0:0:0:0:
329,192,170160,1,0,0:0:0:0:
256,192,170235,128,0,170835:0:0:0:0:
402,192,170235,1,0,0:0:0:0:
475,192,170235,1,0,0:0:0:0:
109,192,170235,128,0,170310:0:0:0:0:
182,192,170310,128,0,170385:0:0:0:0:
36,192,170385,1,0,0:0:0:0:
402,192,170385,128,0,170460:0:0:0:0:
329,192,170460,128,0,170535:0:0:0:0:
475,192,170535,1,0,0:0:0:0:
109,192,170535,128,0,170610:0:0:0:0:
182,192,170610,128,0,170685:0:0:0:0:
36,192,170685,1,0,0:0:0:0:
402,192,170685,128,0,170760:0:0:0:0:
182,192,170760,1,0,0:0:0:0:
329,192,170760,128,0,170835:0:0:0:0:
475,192,170835,128,0,171585:0:0:0:0:
402,192,170835,128,0,171210:0:0:0:0:
36,192,170835,1,0,0:0:0:0:
109,192,170835,1,0,0:0:0:0:
329,192,170910,128,0,171135:0:0:0:0:
256,192,170985,128,0,171060:0:0:0:0:
182,192,171060,128,0,171135:0:0:0:0:
36,192,171060,1,0,0:0:0:0:
109,192,171060,1,0,0:0:0:0:
256,192,171135,128,0,171210:0:0:0:0:
329,192,171210,128,0,171285:0:0:0:0:
402,192,171285,128,0,171360:0:0:0:0:
36,192,171285,1,0,0:0:0:0:
109,192,171285,1,0,0:0:0:0:
182,192,171322,1,0,0:0:0:0:
256,192,171360,1,0,0:0:0:0:
329,192,171397,1,0,0:0:0:0:
36,192,171435,1,0,0:0:0:0:
109,192,171435,1,0,0:0:0:0:
402,192,171435,128,0,171585:0:0:0:0:
329,192,171510,128,0,171660:0:0:0:0:
256,192,171585,128,0,171735:0:0:0:0:
109,192,171585,1,0,0:0:0:0:
36,192,171585,1,0,0:0:0:0:
402,192,171660,1,0,0:0:0:0:
475,192,171660,1,0,0:0:0:0:
36,192,171735,128,0,172035:0:0:0:0:
109,192,171735,128,0,171960:0:0:0:0:
182,192,171735,128,0,171885:0:0:0:0:
329,192,171735,1,0,0:0:0:0:
256,192,171810,1,0,0:0:0:0:
402,192,171885,1,0,0:0:0:0:
475,192,171885,1,0,0:0:0:0:
329,192,171922,1,0,0:0:0:0:
256,192,171960,1,0,0:0:0:0:
182,192,171997,1,0,0:0:0:0:
475,192,172035,128,0,172335:0:0:0:0:
109,192,172035,1,0,0:0:0:0:
329,192,172035,128,0,172185:0:0:0:0:
402,192,172035,128,0,172260:0:0:0:0:
256,192,172110,1,0,0:0:0:0:
36,192,172185,1,0,0:0:0:0:
109,192,172185,1,0,0:0:0:0:
182,192,172185,1,0,0:0:0:0:
256,192,172260,1,0,0:0:0:0:
329,192,172260,1,0,0:0:0:0:
36,192,172335,1,0,0:0:0:0:
109,192,172335,1,0,0:0:0:0:
182,192,172335,1,0,0:0:0:0:
329,192,172410,1,0,0:0:0:0:
402,192,172447,1,0,0:0:0:0:
475,192,172485,1,0,0:0:0:0:
36,192,172485,1,0,0:0:0:0:
109,192,172485,1,0,0:0:0:0:
182,192,172522,1,0,0:0:0:0:
256,192,172560,1,0,0:0:0:0:
329,192,172597,1,0,0:0:0:0:
36,192,172635,128,0,173835:0:0:0:0:
109,192,172635,128,0,173835:0:0:0:0:
182,192,172635,128,0,173835:0:0:0:0:
402,192,172635,1,0,0:0:0:0:
475,192,172635,1,0,0:0:0:0:
329,192,173835,128,0,174435:0:0:0:0:
402,192,173835,128,0,174435:0:0:0:0:
475,192,173835,128,0,174435:0:0:0:0:
182,192,174435,128,0,175035:0:0:0:0:
36,192,174435,128,0,175035:0:0:0:0:
109,192,174435,128,0,175035:0:0:0:0:
329,192,175035,128,0,176235:0:0:0:0:
402,192,175035,128,0,176235:0:0:0:0:
475,192,175035,128,0,176235:0:0:0:0:
256,192,176235,128,0,176535:0:0:0:0:
36,192,176235,128,0,176835:0:0:0:0:
182,192,176235,128,0,176535:0:0:0:0:
109,192,176535,128,0,176835:0:0:0:0:
329,192,176535,128,0,176835:0:0:0:0:
182,192,176835,128,0,177435:0:0:0:0:
256,192,176835,128,0,177035:0:0:0:0:
402,192,176835,128,0,177035:0:0:0:0:
329,192,177035,128,0,177235:0:0:0:0:
475,192,177035,128,0,177235:0:0:0:0:
402,192,177235,128,0,177435:0:0:0:0:
36,192,177235,128,0,177435:0:0:0:0:
475,192,177435,128,0,178035:0:0:0:0:
329,192,177435,128,0,178035:0:0:0:0:
109,192,177435,128,0,178035:0:0:0:0:
256,192,178035,128,0,178860:0:0:0:0:
402,192,178035,128,0,178860:0:0:0:0:
36,192,178035,128,0,178860:0:0:0:0:
36,192,178935,128,0,179235:0:0:0:0:
256,192,178935,128,0,179235:0:0:0:0:
402,192,178935,128,0,179235:0:0:0:0:
109,192,179235,128,0,179535:0:0:0:0:
329,192,179235,128,0,179535:0:0:0:0:
182,192,179235,128,0,179535:0:0:0:0:
256,192,179535,128,0,179760:0:0:0:0:
402,192,179535,128,0,179760:0:0:0:0:
475,192,179535,128,0,179760:0:0:0:0:
256,192,179835,128,0,180435:0:0:0:0:
402,192,179835,128,0,180435:0:0:0:0:
475,192,179835,128,0,180435:0:0:0:0:
36,192,180435,128,0,181035:0:0:0:0:
109,192,180435,128,0,181035:0:0:0:0:
182,192,180435,128,0,181035:0:0:0:0:
329,192,180435,1,0,0:0:0:0:
402,192,180510,1,0,0:0:0:0:
329,192,180585,1,0,0:0:0:0:
402,192,180660,1,0,0:0:0:0:
329,192,180735,1,0,0:0:0:0:
402,192,180810,1,0,0:0:0:0:
329,192,180885,1,0,0:0:0:0:
256,192,180960,1,0,0:0:0:0:
329,192,181035,128,0,181635:0:0:0:0:
402,192,181035,128,0,181635:0:0:0:0:
475,192,181035,128,0,182235:0:0:0:0:
256,192,181110,1,0,0:0:0:0:
182,192,181110,1,0,0:0:0:0:
109,192,181185,1,0,0:0:0:0:
36,192,181185,1,0,0:0:0:0:
256,192,181260,1,0,0:0:0:0:
182,192,181260,1,0,0:0:0:0:
109,192,181335,1,0,0:0:0:0:
36,192,181335,1,0,0:0:0:0:
256,192,181410,1,0,0:0:0:0:
182,192,181410,1,0,0:0:0:0:
109,192,181485,1,0,0:0:0:0:
36,192,181485,1,0,0:0:0:0:
256,192,181560,1,0,0:0:0:0:
36,192,181635,128,0,182235:0:0:0:0:
182,192,181635,1,0,0:0:0:0:
109,192,181635,1,0,0:0:0:0:
329,192,181710,1,0,0:0:0:0:
402,192,181710,1,0,0:0:0:0:
109,192,181785,1,0,0:0:0:0:
182,192,181785,1,0,0:0:0:0:
329,192,181860,1,0,0:0:0:0:
402,192,181860,1,0,0:0:0:0:
256,192,181935,128,0,182235:0:0:0:0:
182,192,181935,1,0,0:0:0:0:
109,192,181935,1,0,0:0:0:0:
329,192,182010,1,0,0:0:0:0:
402,192,182010,1,0,0:0:0:0:
182,192,182085,1,0,0:0:0:0:
109,192,182085,1,0,0:0:0:0:
329,192,182160,1,0,0:0:0:0:
402,192,182160,1,0,0:0:0:0:
182,192,182235,128,0,182310:0:0:0:0:
109,192,182235,1,0,0:0:0:0:
256,192,182310,1,0,0:0:0:0:
329,192,182385,128,0,182460:0:0:0:0:
256,192,182460,1,0,0:0:0:0:
182,192,182535,128,0,182610:0:0:0:0:
256,192,182610,1,0,0:0:0:0:
329,192,182685,128,0,182760:0:0:0:0:
256,192,182760,1,0,0:0:0:0:
36,192,182835,128,0,182910:0:0:0:0:
182,192,182835,128,0,182910:0:0:0:0:
256,192,182910,1,0,0:0:0:0:
329,192,182985,128,0,183060:0:0:0:0:
475,192,182985,128,0,183060:0:0:0:0:
256,192,183060,1,0,0:0:0:0:
36,192,183135,128,0,183210:0:0:0:0:
182,192,183135,128,0,183210:0:0:0:0:
256,192,183210,1,0,0:0:0:0:
329,192,183285,128,0,183360:0:0:0:0:
475,192,183285,128,0,183360:0:0:0:0:
256,192,183360,1,0,0:0:0:0:
109,192,183435,128,0,183510:0:0:0:0:
36,192,183435,1,0,0:0:0:0:
182,192,183435,1,0,0:0:0:0:
402,192,183435,1,0,0:0:0:0:
329,192,183510,1,0,0:0:0:0:
256,192,183585,1,0,0:0:0:0:
402,192,183660,128,0,183735:0:0:0:0:
182,192,183660,1,0,0:0:0:0:
475,192,183735,1,0,0:0:0:0:
329,192,183735,1,0,0:0:0:0:
109,192,183735,1,0,0:0:0:0:
182,192,183810,1,0,0:0:0:0:
109,192,183885,128,0,183960:0:0:0:0:
256,192,183885,1,0,0:0:0:0:
329,192,183960,1,0,0:0:0:0:
182,192,184035,128,0,184185:0:0:0:0:
36,192,184035,1,0,0:0:0:0:
475,192,184035,1,0,0:0:0:0:
109,192,184035,1,0,0:0:0:0:
402,192,184110,1,0,0:0:0:0:
256,192,184185,128,0,184335:0:0:0:0:
329,192,184185,1,0,0:0:0:0:
182,192,184260,1,0,0:0:0:0:
329,192,184335,128,0,184635:0:0:0:0:
402,192,184335,1,0,0:0:0:0:
109,192,184335,1,0,0:0:0:0:
475,192,184335,1,0,0:0:0:0:
36,192,184410,1,0,0:0:0:0:
109,192,184485,1,0,0:0:0:0:
182,192,184560,1,0,0:0:0:0:
402,192,184635,1,0,0:0:0:0:
256,192,184635,1,0,0:0:0:0:
36,192,184635,1,0,0:0:0:0:
475,192,184635,128,0,185835:0:0:0:0:
109,192,184710,1,0,0:0:0:0:
182,192,184785,1,0,0:0:0:0:
256,192,184785,1,0,0:0:0:0:
329,192,184860,1,0,0:0:0:0:
109,192,184935,1,0,0:0:0:0:
36,192,184935,1,0,0:0:0:0:
402,192,184935,1,0,0:0:0:0:
182,192,185010,1,0,0:0:0:0:
256,192,185010,1,0,0:0:0:0:
36,192,185085,1,0,0:0:0:0:
109,192,185085,1,0,0:0:0:0:
329,192,185160,1,0,0:0:0:0:
182,192,185235,1,0,0:0:0:0:
402,192,185235,1,0,0:0:0:0:
256,192,185235,1,0,0:0:0:0:
109,192,185310,1,0,0:0:0:0:
36,192,185385,1,0,0:0:0:0:
329,192,185385,1,0,0:0:0:0:
256,192,185460,1,0,0:0:0:0:
182,192,185535,1,0,0:0:0:0:
329,192,185535,1,0,0:0:0:0:
402,192,185535,1,0,0:0:0:0:
109,192,185610,1,0,0:0:0:0:
36,192,185610,1,0,0:0:0:0:
256,192,185685,1,0,0:0:0:0:
329,192,185685,1,0,0:0:0:0:
182,192,185760,1,0,0:0:0:0:
329,192,185835,128,0,187035:0:0:0:0:
36,192,185835,1,0,0:0:0:0:
109,192,185835,1,0,0:0:0:0:
402,192,185835,1,0,0:0:0:0:
182,192,185910,1,0,0:0:0:0:
256,192,185985,1,0,0:0:0:0:
36,192,185985,1,0,0:0:0:0:
109,192,186060,1,0,0:0:0:0:
256,192,186135,1,0,0:0:0:0:
402,192,186135,1,0,0:0:0:0:
475,192,186135,1,0,0:0:0:0:
109,192,186210,1,0,0:0:0:0:
36,192,186210,1,0,0:0:0:0:
182,192,186285,1,0,0:0:0:0:
256,192,186285,1,0,0:0:0:0:
402,192,186360,1,0,0:0:0:0:
475,192,186435,1,0,0:0:0:0:
36,192,186435,1,0,0:0:0:0:
109,192,186435,1,0,0:0:0:0:
256,192,186510,1,0,0:0:0:0:
109,192,186585,1,0,0:0:0:0:
182,192,186585,1,0,0:0:0:0:
36,192,186660,1,0,0:0:0:0:
475,192,186735,1,0,0:0:0:0:
256,192,186735,1,0,0:0:0:0:
402,192,186735,1,0,0:0:0:0:
182,192,186810,1,0,0:0:0:0:
109,192,186810,1,0,0:0:0:0:
402,192,186885,1,0,0:0:0:0:
475,192,186885,1,0,0:0:0:0:
36,192,186960,1,0,0:0:0:0:
182,192,187035,128,0,188235:0:0:0:0:
256,192,187035,1,0,0:0:0:0:
402,192,187035,1,0,0:0:0:0:
475,192,187035,1,0,0:0:0:0:
109,192,187110,1,0,0:0:0:0:
329,192,187185,1,0,0:0:0:0:
475,192,187185,1,0,0:0:0:0:
402,192,187260,1,0,0:0:0:0:
109,192,187335,1,0,0:0:0:0:
36,192,187335,1,0,0:0:0:0:
256,192,187335,1,0,0:0:0:0:
475,192,187410,1,0,0:0:0:0:
329,192,187410,1,0,0:0:0:0:
109,192,187485,1,0,0:0:0:0:
36,192,187485,1,0,0:0:0:0:
256,192,187560,1,0,0:0:0:0:
329,192,187635,1,0,0:0:0:0:
402,192,187635,1,0,0:0:0:0:
475,192,187635,1,0,0:0:0:0:
109,192,187710,1,0,0:0:0:0:
402,192,187785,1,0,0:0:0:0:
329,192,187785,1,0,0:0:0:0:
256,192,187860,1,0,0:0:0:0:
109,192,187935,1,0,0:0:0:0:
36,192,187935,1,0,0:0:0:0:
475,192,187935,1,0,0:0:0:0:
402,192,188010,1,0,0:0:0:0:
329,192,188010,1,0,0:0:0:0:
256,192,188085,1,0,0:0:0:0:
109,192,188085,1,0,0:0:0:0:
329,192,188160,1,0,0:0:0:0:
36,192,188235,128,0,189435:0:0:0:0:
256,192,188235,1,0,0:0:0:0:
402,192,188235,1,0,0:0:0:0:
475,192,188235,1,0,0:0:0:0:
109,192,188310,1,0,0:0:0:0:
329,192,188385,1,0,0:0:0:0:
182,192,188385,1,0,0:0:0:0:
256,192,188460,1,0,0:0:0:0:
329,192,188535,1,0,0:0:0:0:
402,192,188535,1,0,0:0:0:0:
475,192,188535,1,0,0:0:0:0:
182,192,188610,1,0,0:0:0:0:
109,192,188610,1,0,0:0:0:0:
329,192,188685,1,0,0:0:0:0:
402,192,188685,1,0,0:0:0:0:
256,192,188760,1,0,0:0:0:0:
402,192,188835,1,0,0:0:0:0:
475,192,188835,1,0,0:0:0:0:
109,192,188835,1,0,0:0:0:0:
182,192,188910,1,0,0:0:0:0:
329,192,188985,1,0,0:0:0:0:
256,192,188985,1,0,0:0:0:0:
109,192,189060,1,0,0:0:0:0:
329,192,189135,1,0,0:0:0:0:
402,192,189135,1,0,0:0:0:0:
475,192,189135,1,0,0:0:0:0:
109,192,189210,1,0,0:0:0:0:
182,192,189210,1,0,0:0:0:0:
329,192,189285,1,0,0:0:0:0:
402,192,189285,1,0,0:0:0:0:
182,192,189360,1,0,0:0:0:0:
329,192,189435,128,0,190635:0:0:0:0:
256,192,189435,1,0,0:0:0:0:
402,192,189435,1,0,0:0:0:0:
475,192,189435,1,0,0:0:0:0:
109,192,189510,1,0,0:0:0:0:
182,192,189585,1,0,0:0:0:0:
256,192,189585,1,0,0:0:0:0:
36,192,189660,1,0,0:0:0:0:
109,192,189735,1,0,0:0:0:0:
402,192,189735,1,0,0:0:0:0:
475,192,189735,1,0,0:0:0:0:
256,192,189810,1,0,0:0:0:0:
182,192,189810,1,0,0:0:0:0:
109,192,189885,1,0,0:0:0:0:
36,192,189885,1,0,0:0:0:0:
256,192,189960,1,0,0:0:0:0:
182,192,190035,1,0,0:0:0:0:
402,192,190035,1,0,0:0:0:0:
475,192,190035,1,0,0:0:0:0:
36,192,190110,1,0,0:0:0:0:
256,192,190185,1,0,0:0:0:0:
109,192,190185,1,0,0:0:0:0:
182,192,190260,1,0,0:0:0:0:
36,192,190335,1,0,0:0:0:0:
402,192,190335,1,0,0:0:0:0:
475,192,190335,1,0,0:0:0:0:
256,192,190410,1,0,0:0:0:0:
109,192,190410,1,0,0:0:0:0:
36,192,190485,1,0,0:0:0:0:
182,192,190485,1,0,0:0:0:0:
109,192,190560,1,0,0:0:0:0:
182,192,190635,128,0,191835:0:0:0:0:
402,192,190635,1,0,0:0:0:0:
475,192,190635,1,0,0:0:0:0:
256,192,190635,1,0,0:0:0:0:
329,192,190710,1,0,0:0:0:0:
109,192,190785,1,0,0:0:0:0:
36,192,190785,1,0,0:0:0:0:
256,192,190860,1,0,0:0:0:0:
329,192,190935,1,0,0:0:0:0:
109,192,190935,1,0,0:0:0:0:
36,192,190935,1,0,0:0:0:0:
402,192,191010,1,0,0:0:0:0:
475,192,191010,1,0,0:0:0:0:
329,192,191085,1,0,0:0:0:0:
256,192,191085,1,0,0:0:0:0:
475,192,191160,1,0,0:0:0:0:
402,192,191235,1,0,0:0:0:0:
109,192,191235,1,0,0:0:0:0:
36,192,191235,1,0,0:0:0:0:
256,192,191310,1,0,0:0:0:0:
329,192,191385,1,0,0:0:0:0:
475,192,191385,1,0,0:0:0:0:
109,192,191460,1,0,0:0:0:0:
256,192,191535,1,0,0:0:0:0:
475,192,191535,1,0,0:0:0:0:
402,192,191535,1,0,0:0:0:0:
36,192,191610,1,0,0:0:0:0:
329,192,191610,1,0,0:0:0:0:
109,192,191685,1,0,0:0:0:0:
256,192,191685,1,0,0:0:0:0:
329,192,191760,1,0,0:0:0:0:
475,192,191835,128,0,193035:0:0:0:0:
109,192,191835,1,0,0:0:0:0:
36,192,191835,1,0,0:0:0:0:
402,192,191835,1,0,0:0:0:0:
256,192,191910,1,0,0:0:0:0:
329,192,191985,1,0,0:0:0:0:
182,192,191985,1,0,0:0:0:0:
109,192,192060,1,0,0:0:0:0:
329,192,192135,1,0,0:0:0:0:
256,192,192135,1,0,0:0:0:0:
402,192,192135,1,0,0:0:0:0:
109,192,192210,1,0,0:0:0:0:
36,192,192210,1,0,0:0:0:0:
329,192,192285,1,0,0:0:0:0:
256,192,192285,1,0,0:0:0:0:
182,192,192360,1,0,0:0:0:0:
109,192,192435,1,0,0:0:0:0:
329,192,192435,1,0,0:0:0:0:
402,192,192435,1,0,0:0:0:0:
182,192,192510,1,0,0:0:0:0:
36,192,192585,1,0,0:0:0:0:
256,192,192585,1,0,0:0:0:0:
329,192,192660,1,0,0:0:0:0:
109,192,192735,1,0,0:0:0:0:
402,192,192735,1,0,0:0:0:0:
36,192,192735,1,0,0:0:0:0:
256,192,192810,1,0,0:0:0:0:
182,192,192810,1,0,0:0:0:0:
402,192,192885,1,0,0:0:0:0:
329,192,192885,1,0,0:0:0:0:
256,192,192960,1,0,0:0:0:0:
36,192,193035,128,0,194235:0:0:0:0:
109,192,193035,1,0,0:0:0:0:
182,192,193035,1,0,0:0:0:0:
402,192,193035,1,0,0:0:0:0:
329,192,193110,1,0,0:0:0:0:
475,192,193185,1,0,0:0:0:0:
109,192,193185,1,0,0:0:0:0:
182,192,193260,1,0,0:0:0:0:
256,192,193335,1,0,0:0:0:0:
329,192,193335,1,0,0:0:0:0:
475,192,193335,1,0,0:0:0:0:
182,192,193410,1,0,0:0:0:0:
109,192,193410,1,0,0:0:0:0:
329,192,193485,1,0,0:0:0:0:
402,192,193485,1,0,0:0:0:0:
256,192,193560,1,0,0:0:0:0:
182,192,193635,1,0,0:0:0:0:
402,192,193635,1,0,0:0:0:0:
475,192,193635,1,0,0:0:0:0:
256,192,193710,1,0,0:0:0:0:
329,192,193785,1,0,0:0:0:0:
109,192,193785,1,0,0:0:0:0:
182,192,193860,1,0,0:0:0:0:
475,192,193935,1,0,0:0:0:0:
329,192,193935,1,0,0:0:0:0:
402,192,193935,1,0,0:0:0:0:
182,192,194010,1,0,0:0:0:0:
109,192,194010,1,0,0:0:0:0:
329,192,194085,1,0,0:0:0:0:
402,192,194085,1,0,0:0:0:0:
475,192,194085,1,0,0:0:0:0:
182,192,194160,1,0,0:0:0:0:
109,192,194160,1,0,0:0:0:0:
402,192,194235,128,0,195435:0:0:0:0:
256,192,194235,1,0,0:0:0:0:
329,192,194235,1,0,0:0:0:0:
475,192,194235,1,0,0:0:0:0:
36,192,194310,1,0,0:0:0:0:
182,192,194385,1,0,0:0:0:0:
329,192,194385,1,0,0:0:0:0:
109,192,194460,1,0,0:0:0:0:
256,192,194535,1,0,0:0:0:0:
329,192,194535,1,0,0:0:0:0:
475,192,194535,1,0,0:0:0:0:
182,192,194610,1,0,0:0:0:0:
36,192,194610,1,0,0:0:0:0:
256,192,194685,1,0,0:0:0:0:
329,192,194685,1,0,0:0:0:0:
109,192,194760,1,0,0:0:0:0:
475,192,194835,1,0,0:0:0:0:
329,192,194835,1,0,0:0:0:0:
36,192,194835,1,0,0:0:0:0:
182,192,194910,1,0,0:0:0:0:
329,192,194985,1,0,0:0:0:0:
109,192,194985,1,0,0:0:0:0:
256,192,195060,1,0,0:0:0:0:
329,192,195135,1,0,0:0:0:0:
475,192,195135,1,0,0:0:0:0:
36,192,195135,1,0,0:0:0:0:
109,192,195210,1,0,0:0:0:0:
182,192,195210,1,0,0:0:0:0:
256,192,195285,1,0,0:0:0:0:
329,192,195285,1,0,0:0:0:0:
182,192,195360,1,0,0:0:0:0:
256,192,195435,128,0,196635:0:0:0:0:
36,192,195435,1,0,0:0:0:0:
109,192,195435,1,0,0:0:0:0:
475,192,195435,1,0,0:0:0:0:
329,192,195510,1,0,0:0:0:0:
182,192,195585,1,0,0:0:0:0:
109,192,195585,1,0,0:0:0:0:
329,192,195660,1,0,0:0:0:0:
109,192,195735,1,0,0:0:0:0:
475,192,195735,1,0,0:0:0:0:
36,192,195735,1,0,0:0:0:0:
402,192,195810,1,0,0:0:0:0:
182,192,195810,1,0,0:0:0:0:
329,192,195885,1,0,0:0:0:0:
109,192,195885,1,0,0:0:0:0:
402,192,195960,1,0,0:0:0:0:
36,192,196035,1,0,0:0:0:0:
182,192,196035,1,0,0:0:0:0:
475,192,196035,1,0,0:0:0:0:
402,192,196110,1,0,0:0:0:0:
329,192,196185,1,0,0:0:0:0:
109,192,196185,1,0,0:0:0:0:
182,192,196260,1,0,0:0:0:0:
329,192,196335,1,0,0:0:0:0:
402,192,196335,1,0,0:0:0:0:
475,192,196335,1,0,0:0:0:0:
109,192,196410,1,0,0:0:0:0:
182,192,196410,1,0,0:0:0:0:
329,192,196485,1,0,0:0:0:0:
402,192,196485,1,0,0:0:0:0:
36,192,196560,1,0,0:0:0:0:
402,192,196635,128,0,197835:0:0:0:0:
182,192,196635,1,0,0:0:0:0:
329,192,196635,1,0,0:0:0:0:
475,192,196635,1,0,0:0:0:0:
109,192,196710,1,0,0:0:0:0:
256,192,196785,1,0,0:0:0:0:
329,192,196785,1,0,0:0:0:0:
182,192,196860,1,0,0:0:0:0:
36,192,196935,1,0,0:0:0:0:
329,192,196935,1,0,0:0:0:0:
475,192,196935,1,0,0:0:0:0:
182,192,197010,1,0,0:0:0:0:
256,192,197010,1,0,0:0:0:0:
109,192,197085,1,0,0:0:0:0:
36,192,197085,1,0,0:0:0:0:
182,192,197160,1,0,0:0:0:0:
256,192,197235,1,0,0:0:0:0:
36,192,197235,1,0,0:0:0:0:
475,192,197235,1,0,0:0:0:0:
329,192,197310,1,0,0:0:0:0:
182,192,197385,1,0,0:0:0:0:
256,192,197385,1,0,0:0:0:0:
109,192,197460,1,0,0:0:0:0:
256,192,197535,1,0,0:0:0:0:
36,192,197535,1,0,0:0:0:0:
475,192,197535,1,0,0:0:0:0:
182,192,197610,1,0,0:0:0:0:
329,192,197610,1,0,0:0:0:0:
256,192,197685,1,0,0:0:0:0:
109,192,197685,1,0,0:0:0:0:
182,192,197760,1,0,0:0:0:0:
475,192,197835,128,0,198435:0:0:0:0:
256,192,197835,1,0,0:0:0:0:
36,192,197835,1,0,0:0:0:0:
109,192,197835,1,0,0:0:0:0:
329,192,197910,1,0,0:0:0:0:
109,192,197985,1,0,0:0:0:0:
182,192,197985,1,0,0:0:0:0:
329,192,198060,1,0,0:0:0:0:
36,192,198135,1,0,0:0:0:0:
109,192,198135,1,0,0:0:0:0:
402,192,198135,1,0,0:0:0:0:
182,192,198210,1,0,0:0:0:0:
256,192,198210,1,0,0:0:0:0:
36,192,198285,1,0,0:0:0:0:
329,192,198285,1,0,0:0:0:0:
182,192,198360,1,0,0:0:0:0:
329,192,198435,128,0,199035:0:0:0:0:
256,192,198435,1,0,0:0:0:0:
402,192,198435,1,0,0:0:0:0:
36,192,198435,1,0,0:0:0:0:
109,192,198510,1,0,0:0:0:0:
182,192,198585,1,0,0:0:0:0:
256,192,198585,1,0,0:0:0:0:
402,192,198660,1,0,0:0:0:0:
36,192,198735,1,0,0:0:0:0:
109,192,198735,1,0,0:0:0:0:
182,192,198735,1,0,0:0:0:0:
402,192,198810,1,0,0:0:0:0:
475,192,198810,1,0,0:0:0:0:
36,192,198885,1,0,0:0:0:0:
109,192,198885,1,0,0:0:0:0:
182,192,198885,1,0,0:0:0:0:
402,192,198960,1,0,0:0:0:0:
475,192,198960,1,0,0:0:0:0:
182,192,199035,128,0,200835:0:0:0:0:
36,192,199035,1,0,0:0:0:0:
109,192,199035,1,0,0:0:0:0:
256,192,199035,1,0,0:0:0:0:
329,192,199110,1,0,0:0:0:0:
402,192,199185,1,0,0:0:0:0:
256,192,199185,1,0,0:0:0:0:
109,192,199260,1,0,0:0:0:0:
256,192,199335,1,0,0:0:0:0:
36,192,199335,1,0,0:0:0:0:
475,192,199335,1,0,0:0:0:0:
402,192,199410,1,0,0:0:0:0:
329,192,199410,1,0,0:0:0:0:
109,192,199485,1,0,0:0:0:0:
256,192,199485,1,0,0:0:0:0:
329,192,199560,1,0,0:0:0:0:
36,192,199635,1,0,0:0:0:0:
475,192,199635,1,0,0:0:0:0:
402,192,199635,1,0,0:0:0:0:
109,192,199710,1,0,0:0:0:0:
402,192,199785,1,0,0:0:0:0:
329,192,199785,1,0,0:0:0:0:
256,192,199860,1,0,0:0:0:0:
109,192,199935,1,0,0:0:0:0:
36,192,199935,1,0,0:0:0:0:
475,192,199935,1,0,0:0:0:0:
402,192,200010,1,0,0:0:0:0:
329,192,200010,1,0,0:0:0:0:
256,192,200085,1,0,0:0:0:0:
109,192,200085,1,0,0:0:0:0:
36,192,200160,1,0,0:0:0:0:
329,192,200235,1,0,0:0:0:0:
402,192,200235,1,0,0:0:0:0:
475,192,200235,1,0,0:0:0:0:
109,192,200310,1,0,0:0:0:0:
256,192,200385,1,0,0:0:0:0:
329,192,200385,1,0,0:0:0:0:
36,192,200460,1,0,0:0:0:0:
256,192,200535,1,0,0:0:0:0:
402,192,200535,1,0,0:0:0:0:
475,192,200535,1,0,0:0:0:0:
109,192,200610,1,0,0:0:0:0:
36,192,200610,1,0,0:0:0:0:
329,192,200685,1,0,0:0:0:0:
402,192,200685,1,0,0:0:0:0:
475,192,200760,1,0,0:0:0:0:
109,192,200835,128,0,201435:0:0:0:0:
36,192,200835,1,0,0:0:0:0:
256,192,200835,1,0,0:0:0:0:
329,192,200835,1,0,0:0:0:0:
402,192,200910,1,0,0:0:0:0:
182,192,200985,1,0,0:0:0:0:
475,192,200985,1,0,0:0:0:0:
256,192,201060,1,0,0:0:0:0:
329,192,201135,1,0,0:0:0:0:
402,192,201135,1,0,0:0:0:0:
475,192,201135,1,0,0:0:0:0:
182,192,201210,1,0,0:0:0:0:
256,192,201210,1,0,0:0:0:0:
329,192,201285,1,0,0:0:0:0:
402,192,201285,1,0,0:0:0:0:
475,192,201285,1,0,0:0:0:0:
256,192,201360,1,0,0:0:0:0:
182,192,201360,1,0,0:0:0:0:
475,192,201435,1,0,0:0:0:0:
402,192,201435,1,0,0:0:0:0:
36,192,201435,1,0,0:0:0:0:
329,192,201510,1,0,0:0:0:0:
109,192,201585,1,0,0:0:0:0:
36,192,201585,1,0,0:0:0:0:
182,192,201585,1,0,0:0:0:0:
402,192,201660,1,0,0:0:0:0:
475,192,201660,1,0,0:0:0:0:
36,192,201735,1,0,0:0:0:0:
109,192,201735,1,0,0:0:0:0:
182,192,201735,1,0,0:0:0:0:
329,192,201810,1,0,0:0:0:0:
402,192,201810,1,0,0:0:0:0:
36,192,201885,1,0,0:0:0:0:
109,192,201885,1,0,0:0:0:0:
182,192,201885,1,0,0:0:0:0:
256,192,201960,1,0,0:0:0:0:
329,192,201960,1,0,0:0:0:0:
36,192,202035,1,0,0:0:0:0:
109,192,202035,1,0,0:0:0:0:
402,192,202035,1,0,0:0:0:0:
182,192,202110,1,0,0:0:0:0:
256,192,202110,1,0,0:0:0:0:
329,192,202185,1,0,0:0:0:0:
402,192,202185,1,0,0:0:0:0:
475,192,202185,1,0,0:0:0:0:
109,192,202260,1,0,0:0:0:0:
182,192,202260,1,0,0:0:0:0:
256,192,202335,1,0,0:0:0:0:
329,192,202335,1,0,0:0:0:0:
402,192,202335,1,0,0:0:0:0:
36,192,202410,1,0,0:0:0:0:
109,192,202410,1,0,0:0:0:0:
256,192,202485,1,0,0:0:0:0:
329,192,202485,1,0,0:0:0:0:
402,192,202485,1,0,0:0:0:0:
36,192,202560,1,0,0:0:0:0:
109,192,202560,1,0,0:0:0:0:
182,192,202560,1,0,0:0:0:0:
256,192,202635,1,0,0:0:0:0:
329,192,202635,1,0,0:0:0:0:
402,192,202635,1,0,0:0:0:0:
475,192,202635,1,0,0:0:0:0:
182,192,202710,1,0,0:0:0:0:
109,192,202785,1,0,0:0:0:0:
402,192,202785,1,0,0:0:0:0:
36,192,202785,1,0,0:0:0:0:
475,192,202785,1,0,0:0:0:0:
329,192,202860,1,0,0:0:0:0:
182,192,202935,1,0,0:0:0:0:
256,192,202935,1,0,0:0:0:0:
109,192,202935,1,0,0:0:0:0:
36,192,202935,1,0,0:0:0:0:
329,192,203010,1,0,0:0:0:0:
109,192,203085,1,0,0:0:0:0:
36,192,203085,1,0,0:0:0:0:
402,192,203085,1,0,0:0:0:0:
475,192,203085,1,0,0:0:0:0:
256,192,203160,1,0,0:0:0:0:
109,192,203235,1,0,0:0:0:0:
36,192,203235,1,0,0:0:0:0:
402,192,203235,1,0,0:0:0:0:
475,192,203235,1,0,0:0:0:0:
256,192,203310,1,0,0:0:0:0:
402,192,203385,1,0,0:0:0:0:
475,192,203385,1,0,0:0:0:0:
36,192,203385,1,0,0:0:0:0:
109,192,203422,1,0,0:0:0:0:
182,192,203460,1,0,0:0:0:0:
256,192,203497,1,0,0:0:0:0:
475,192,203535,1,0,0:0:0:0:
329,192,203535,1,0,0:0:0:0:
402,192,203535,1,0,0:0:0:0:
36,192,203610,1,0,0:0:0:0:
109,192,203610,1,0,0:0:0:0:
182,192,203610,1,0,0:0:0:0:
402,192,203685,1,0,0:0:0:0:
329,192,203685,1,0,0:0:0:0:
475,192,203685,1,0,0:0:0:0:
109,192,203760,1,0,0:0:0:0:
36,192,203760,1,0,0:0:0:0:
182,192,203760,1,0,0:0:0:0:
329,192,203835,1,0,0:0:0:0:
402,192,203835,1,0,0:0:0:0:
475,192,203835,1,0,0:0:0:0:
256,192,203835,128,0,203910:0:0:0:0:
182,192,203910,128,0,203985:0:0:0:0:
329,192,203985,1,0,0:0:0:0:
109,192,203985,128,0,204060:0:0:0:0:
402,192,204060,1,0,0:0:0:0:
182,192,204060,128,0,204135:0:0:0:0:
36,192,204135,1,0,0:0:0:0:
475,192,204135,1,0,0:0:0:0:
256,192,204135,128,0,204210:0:0:0:0:
329,192,204210,128,0,204285:0:0:0:0:
402,192,204285,1,0,0:0:0:0:
182,192,204285,128,0,204360:0:0:0:0:
36,192,204360,1,0,0:0:0:0:
256,192,204360,128,0,204435:0:0:0:0:
109,192,204435,1,0,0:0:0:0:
475,192,204435,1,0,0:0:0:0:
329,192,204435,128,0,204510:0:0:0:0:
402,192,204510,128,0,204585:0:0:0:0:
36,192,204585,1,0,0:0:0:0:
256,192,204585,128,0,204660:0:0:0:0:
109,192,204660,1,0,0:0:0:0:
329,192,204660,128,0,204735:0:0:0:0:
182,192,204735,1,0,0:0:0:0:
402,192,204735,128,0,204810:0:0:0:0:
329,192,204810,128,0,204885:0:0:0:0:
475,192,204885,1,0,0:0:0:0:
256,192,204885,128,0,204960:0:0:0:0:
402,192,204960,1,0,0:0:0:0:
182,192,204960,128,0,205035:0:0:0:0:
36,192,205035,128,0,206235:0:0:0:0:
329,192,205035,1,0,0:0:0:0:
109,192,205035,128,0,205110:0:0:0:0:
182,192,205110,128,0,205185:0:0:0:0:
402,192,205185,1,0,0:0:0:0:
256,192,205185,128,0,205260:0:0:0:0:
475,192,205260,1,0,0:0:0:0:
329,192,205260,128,0,205335:0:0:0:0:
182,192,205335,1,0,0:0:0:0:
402,192,205335,128,0,205410:0:0:0:0:
475,192,205410,128,0,205485:0:0:0:0:
182,192,205485,1,0,0:0:0:0:
329,192,205485,128,0,205560:0:0:0:0:
109,192,205560,1,0,0:0:0:0:
256,192,205560,128,0,205635:0:0:0:0:
402,192,205635,1,0,0:0:0:0:
182,192,205635,128,0,205710:0:0:0:0:
329,192,205710,128,0,205785:0:0:0:0:
182,192,205785,1,0,0:0:0:0:
402,192,205785,128,0,205860:0:0:0:0:
109,192,205860,1,0,0:0:0:0:
475,192,205860,128,0,205935:0:0:0:0:
182,192,205935,1,0,0:0:0:0:
256,192,205935,128,0,206010:0:0:0:0:
402,192,206010,128,0,206085:0:0:0:0:
329,192,206085,1,0,0:0:0:0:
256,192,206085,128,0,206160:0:0:0:0:
182,192,206160,1,0,0:0:0:0:
109,192,206160,128,0,206235:0:0:0:0:
475,192,206235,128,0,207435:0:0:0:0:
329,192,206235,1,0,0:0:0:0:
402,192,206235,128,0,206310:0:0:0:0:
36,192,206310,128,0,206385:0:0:0:0:
256,192,206385,1,0,0:0:0:0:
109,192,206385,128,0,206460:0:0:0:0:
329,192,206460,1,0,0:0:0:0:
182,192,206460,128,0,206535:0:0:0:0:
36,192,206535,1,0,0:0:0:0:
256,192,206535,128,0,206610:0:0:0:0:
182,192,206610,128,0,206685:0:0:0:0:
329,192,206685,1,0,0:0:0:0:
109,192,206685,128,0,206760:0:0:0:0:
256,192,206760,1,0,0:0:0:0:
36,192,206760,128,0,206835:0:0:0:0:
182,192,206835,1,0,0:0:0:0:
402,192,206835,128,0,206910:0:0:0:0:
329,192,206910,128,0,206985:0:0:0:0:
109,192,206985,1,0,0:0:0:0:
256,192,206985,128,0,207060:0:0:0:0:
182,192,207060,1,0,0:0:0:0:
329,192,207060,128,0,207135:0:0:0:0:
36,192,207135,1,0,0:0:0:0:
402,192,207135,128,0,207210:0:0:0:0:
329,192,207210,128,0,207285:0:0:0:0:
36,192,207285,1,0,0:0:0:0:
402,192,207285,128,0,207360:0:0:0:0:
109,192,207360,1,0,0:0:0:0:
329,192,207360,128,0,207435:0:0:0:0:
182,192,207435,1,0,0:0:0:0:
256,192,207435,1,0,0:0:0:0:
402,192,207435,1,0,0:0:0:0:
36,192,207435,128,0,207510:0:0:0:0:
109,192,207510,128,0,207585:0:0:0:0:
402,192,207585,1,0,0:0:0:0:
182,192,207585,128,0,207660:0:0:0:0:
109,192,207660,128,0,207735:0:0:0:0:
329,192,207735,1,0,0:0:0:0:
36,192,207735,128,0,207810:0:0:0:0:
475,192,207735,1,0,0:0:0:0:
402,192,207810,1,0,0:0:0:0:
182,192,207810,128,0,207885:0:0:0:0:
329,192,207885,1,0,0:0:0:0:
109,192,207885,128,0,207960:0:0:0:0:
36,192,207960,128,0,208035:0:0:0:0:
182,192,208035,1,0,0:0:0:0:
329,192,208035,128,0,208110:0:0:0:0:
256,192,208035,1,0,0:0:0:0:
109,192,208110,1,0,0:0:0:0:
402,192,208110,128,0,208185:0:0:0:0:
182,192,208185,1,0,0:0:0:0:
475,192,208185,128,0,208260:0:0:0:0:
402,192,208260,128,0,208335:0:0:0:0:
36,192,208335,1,0,0:0:0:0:
329,192,208335,128,0,208410:0:0:0:0:
109,192,208335,1,0,0:0:0:0:
182,192,208410,1,0,0:0:0:0:
402,192,208410,128,0,208485:0:0:0:0:
36,192,208485,1,0,0:0:0:0:
475,192,208485,128,0,208560:0:0:0:0:
109,192,208485,1,0,0:0:0:0:
402,192,208560,128,0,208635:0:0:0:0:
109,192,208635,1,0,0:0:0:0:
256,192,208635,128,0,208710:0:0:0:0:
182,192,208635,1,0,0:0:0:0:
36,192,208710,1,0,0:0:0:0:
329,192,208710,128,0,208785:0:0:0:0:
109,192,208785,1,0,0:0:0:0:
475,192,208785,128,0,208860:0:0:0:0:
402,192,208860,128,0,208935:0:0:0:0:
182,192,208935,1,0,0:0:0:0:
329,192,208935,128,0,209010:0:0:0:0:
36,192,208935,1,0,0:0:0:0:
109,192,209010,1,0,0:0:0:0:
402,192,209010,128,0,209085:0:0:0:0:
182,192,209085,1,0,0:0:0:0:
36,192,209085,128,0,209160:0:0:0:0:
109,192,209160,128,0,209235:0:0:0:0:
256,192,209235,1,0,0:0:0:0:
475,192,209235,128,0,209310:0:0:0:0:
329,192,209235,1,0,0:0:0:0:
182,192,209310,1,0,0:0:0:0:
402,192,209310,128,0,209385:0:0:0:0:
256,192,209385,1,0,0:0:0:0:
36,192,209385,128,0,209460:0:0:0:0:
109,192,209460,128,0,209535:0:0:0:0:
329,192,209535,1,0,0:0:0:0:
256,192,209535,128,0,209610:0:0:0:0:
475,192,209535,1,0,0:0:0:0:
402,192,209610,1,0,0:0:0:0:
182,192,209610,128,0,209685:0:0:0:0:
475,192,209685,1,0,0:0:0:0:
109,192,209685,128,0,209760:0:0:0:0:
36,192,209760,128,0,209835:0:0:0:0:
475,192,209835,1,0,0:0:0:0:
182,192,209835,128,0,209910:0:0:0:0:
256,192,209835,1,0,0:0:0:0:
109,192,209910,128,0,209985:0:0:0:0:
402,192,209910,1,0,0:0:0:0:
329,192,209985,1,0,0:0:0:0:
256,192,209985,128,0,210060:0:0:0:0:
182,192,210060,128,0,210135:0:0:0:0:
475,192,210135,1,0,0:0:0:0:
109,192,210135,128,0,210210:0:0:0:0:
329,192,210135,1,0,0:0:0:0:
402,192,210210,1,0,0:0:0:0:
36,192,210210,128,0,210285:0:0:0:0:
475,192,210285,1,0,0:0:0:0:
182,192,210285,128,0,210360:0:0:0:0:
256,192,210360,128,0,210435:0:0:0:0:
109,192,210435,1,0,0:0:0:0:
329,192,210435,128,0,210510:0:0:0:0:
36,192,210435,1,0,0:0:0:0:
182,192,210510,1,0,0:0:0:0:
402,192,210510,128,0,210585:0:0:0:0:
256,192,210585,1,0,0:0:0:0:
475,192,210585,128,0,210660:0:0:0:0:
402,192,210660,128,0,210735:0:0:0:0:
182,192,210735,1,0,0:0:0:0:
329,192,210735,128,0,210810:0:0:0:0:
36,192,210735,1,0,0:0:0:0:
109,192,210810,1,0,0:0:0:0:
402,192,210810,128,0,210885:0:0:0:0:
36,192,210885,1,0,0:0:0:0:
475,192,210885,128,0,210960:0:0:0:0:
402,192,210960,128,0,211035:0:0:0:0:
109,192,211035,1,0,0:0:0:0:
329,192,211035,128,0,211110:0:0:0:0:
182,192,211035,1,0,0:0:0:0:
36,192,211110,1,0,0:0:0:0:
402,192,211110,128,0,211185:0:0:0:0:
182,192,211185,1,0,0:0:0:0:
256,192,211185,128,0,211260:0:0:0:0:
329,192,211260,128,0,211335:0:0:0:0:
402,192,211335,1,0,0:0:0:0:
36,192,211335,128,0,211410:0:0:0:0:
475,192,211335,1,0,0:0:0:0:
256,192,211410,1,0,0:0:0:0:
109,192,211410,128,0,211485:0:0:0:0:
182,192,211485,1,0,0:0:0:0:
475,192,211485,128,0,211560:0:0:0:0:
402,192,211560,128,0,211635:0:0:0:0:
256,192,211635,1,0,0:0:0:0:
36,192,211635,128,0,211710:0:0:0:0:
329,192,211635,1,0,0:0:0:0:
402,192,211710,1,0,0:0:0:0:
109,192,211710,128,0,211785:0:0:0:0:
475,192,211785,1,0,0:0:0:0:
182,192,211785,128,0,211860:0:0:0:0:
256,192,211860,128,0,211935:0:0:0:0:
402,192,211935,1,0,0:0:0:0:
36,192,211935,128,0,212010:0:0:0:0:
329,192,211935,1,0,0:0:0:0:
109,192,212010,128,0,212085:0:0:0:0:
475,192,212010,1,0,0:0:0:0:
402,192,212085,1,0,0:0:0:0:
182,192,212085,128,0,212160:0:0:0:0:
256,192,212160,128,0,212235:0:0:0:0:
109,192,212235,1,0,0:0:0:0:
475,192,212235,128,0,212310:0:0:0:0:
36,192,212235,1,0,0:0:0:0:
182,192,212310,1,0,0:0:0:0:
402,192,212310,128,0,212385:0:0:0:0:
36,192,212385,1,0,0:0:0:0:
329,192,212385,128,0,212460:0:0:0:0:
402,192,212460,128,0,212535:0:0:0:0:
109,192,212535,1,0,0:0:0:0:
475,192,212535,128,0,212610:0:0:0:0:
256,192,212535,1,0,0:0:0:0:
182,192,212610,1,0,0:0:0:0:
402,192,212610,128,0,212685:0:0:0:0:
256,192,212685,1,0,0:0:0:0:
36,192,212685,128,0,212760:0:0:0:0:
109,192,212760,128,0,212835:0:0:0:0:
402,192,212835,1,0,0:0:0:0:
182,192,212835,128,0,212910:0:0:0:0:
475,192,212835,1,0,0:0:0:0:
329,192,212910,1,0,0:0:0:0:
109,192,212910,128,0,212985:0:0:0:0:
256,192,212985,1,0,0:0:0:0:
36,192,212985,128,0,213060:0:0:0:0:
109,192,213060,128,0,213135:0:0:0:0:
402,192,213135,1,0,0:0:0:0:
256,192,213135,128,0,213210:0:0:0:0:
475,192,213135,1,0,0:0:0:0:
329,192,213210,1,0,0:0:0:0:
182,192,213210,128,0,213285:0:0:0:0:
402,192,213285,1,0,0:0:0:0:
109,192,213285,128,0,213360:0:0:0:0:
475,192,213285,1,0,0:0:0:0:
182,192,213360,128,0,213435:0:0:0:0:
329,192,213435,1,0,0:0:0:0:
36,192,213435,128,0,213510:0:0:0:0:
475,192,213435,1,0,0:0:0:0:
402,192,213510,1,0,0:0:0:0:
109,192,213510,128,0,213585:0:0:0:0:
475,192,213585,1,0,0:0:0:0:
182,192,213585,128,0,213660:0:0:0:0:
256,192,213660,128,0,213735:0:0:0:0:
36,192,213735,1,0,0:0:0:0:
329,192,213735,128,0,213810:0:0:0:0:
475,192,213735,1,0,0:0:0:0:
109,192,213810,1,0,0:0:0:0:
402,192,213810,128,0,213885:0:0:0:0:
36,192,213885,1,0,0:0:0:0:
475,192,213885,128,0,213960:0:0:0:0:
402,192,213960,128,0,214035:0:0:0:0:
109,192,214035,1,0,0:0:0:0:
329,192,214035,128,0,214110:0:0:0:0:
36,192,214035,1,0,0:0:0:0:
182,192,214110,1,0,0:0:0:0:
402,192,214110,128,0,214185:0:0:0:0:
36,192,214185,1,0,0:0:0:0:
256,192,214185,128,0,214260:0:0:0:0:
182,192,214260,128,0,214335:0:0:0:0:
36,192,214335,1,0,0:0:0:0:
329,192,214335,128,0,214410:0:0:0:0:
475,192,214335,1,0,0:0:0:0:
109,192,214410,1,0,0:0:0:0:
256,192,214410,128,0,214485:0:0:0:0:
475,192,214485,1,0,0:0:0:0:
182,192,214485,128,0,214560:0:0:0:0:
402,192,214485,1,0,0:0:0:0:
109,192,214560,128,0,214635:0:0:0:0:
329,192,214635,1,0,0:0:0:0:
36,192,214635,128,0,214710:0:0:0:0:
475,192,214635,1,0,0:0:0:0:
402,192,214710,1,0,0:0:0:0:
182,192,214710,128,0,214785:0:0:0:0:
329,192,214785,1,0,0:0:0:0:
256,192,214785,128,0,214860:0:0:0:0:
109,192,214860,128,0,214935:0:0:0:0:
36,192,214935,1,0,0:0:0:0:
182,192,214935,128,0,215010:0:0:0:0:
475,192,214935,1,0,0:0:0:0:
402,192,215010,1,0,0:0:0:0:
329,192,215010,128,0,215085:0:0:0:0:
475,192,215085,1,0,0:0:0:0:
36,192,215085,128,0,215160:0:0:0:0:
256,192,215160,128,0,215235:0:0:0:0:
402,192,215235,1,0,0:0:0:0:
109,192,215235,128,0,215310:0:0:0:0:
329,192,215235,1,0,0:0:0:0:
475,192,215310,1,0,0:0:0:0:
182,192,215310,128,0,215385:0:0:0:0:
402,192,215385,1,0,0:0:0:0:
256,192,215385,128,0,215460:0:0:0:0:
329,192,215460,128,0,215535:0:0:0:0:
109,192,215535,1,0,0:0:0:0:
475,192,215535,128,0,215610:0:0:0:0:
182,192,215535,1,0,0:0:0:0:
36,192,215610,1,0,0:0:0:0:
402,192,215610,128,0,215685:0:0:0:0:
109,192,215685,1,0,0:0:0:0:
329,192,215685,128,0,215760:0:0:0:0:
256,192,215760,128,0,215835:0:0:0:0:
475,192,215835,1,0,0:0:0:0:
36,192,215835,128,0,215910:0:0:0:0:
402,192,215835,1,0,0:0:0:0:
329,192,215910,1,0,0:0:0:0:
109,192,215910,128,0,215985:0:0:0:0:
402,192,215985,1,0,0:0:0:0:
182,192,215985,128,0,216060:0:0:0:0:
109,192,216060,128,0,216135:0:0:0:0:
329,192,216135,1,0,0:0:0:0:
36,192,216135,128,0,216210:0:0:0:0:
475,192,216135,1,0,0:0:0:0:
402,192,216210,1,0,0:0:0:0:
109,192,216210,128,0,216285:0:0:0:0:
329,192,216285,1,0,0:0:0:0:
182,192,216285,128,0,216360:0:0:0:0:
109,192,216360,128,0,216435:0:0:0:0:
475,192,216435,1,0,0:0:0:0:
36,192,216435,128,0,216510:0:0:0:0:
256,192,216435,1,0,0:0:0:0:
402,192,216510,1,0,0:0:0:0:
109,192,216510,128,0,216585:0:0:0:0:
475,192,216585,1,0,0:0:0:0:
182,192,216585,128,0,216660:0:0:0:0:
329,192,216660,128,0,216735:0:0:0:0:
109,192,216735,1,0,0:0:0:0:
475,192,216735,128,0,216810:0:0:0:0:
36,192,216735,1,0,0:0:0:0:
256,192,216810,1,0,0:0:0:0:
402,192,216810,128,0,216885:0:0:0:0:
182,192,216885,1,0,0:0:0:0:
36,192,216885,128,0,216960:0:0:0:0:
109,192,216960,128,0,217035:0:0:0:0:
475,192,217035,1,0,0:0:0:0:
182,192,217035,128,0,217110:0:0:0:0:
329,192,217035,1,0,0:0:0:0:
402,192,217110,1,0,0:0:0:0:
109,192,217110,128,0,217185:0:0:0:0:
329,192,217185,1,0,0:0:0:0:
475,192,217185,128,0,217260:0:0:0:0:
402,192,217260,128,0,217335:0:0:0:0:
109,192,217335,1,0,0:0:0:0:
329,192,217335,128,0,217410:0:0:0:0:
36,192,217335,1,0,0:0:0:0:
182,192,217410,1,0,0:0:0:0:
402,192,217410,128,0,217485:0:0:0:0:
36,192,217485,1,0,0:0:0:0:
475,192,217485,128,0,217560:0:0:0:0:
402,192,217560,128,0,217635:0:0:0:0:
329,192,217635,1,0,0:0:0:0:
36,192,217635,128,0,217710:0:0:0:0:
256,192,217635,1,0,0:0:0:0:
402,192,217710,1,0,0:0:0:0:
109,192,217710,128,0,217785:0:0:0:0:
475,192,217785,1,0,0:0:0:0:
182,192,217785,128,0,217860:0:0:0:0:
256,192,217860,128,0,217935:0:0:0:0:
109,192,217935,1,0,0:0:0:0:
329,192,217935,128,0,218010:0:0:0:0:
36,192,217935,1,0,0:0:0:0:
256,192,218010,1,0,0:0:0:0:
402,192,218010,128,0,218085:0:0:0:0:
475,192,218085,1,0,0:0:0:0:
182,192,218085,128,0,218160:0:0:0:0:
36,192,218085,1,0,0:0:0:0:
329,192,218160,128,0,218235:0:0:0:0:
475,192,218235,1,0,0:0:0:0:
109,192,218235,1,0,0:0:0:0:
402,192,218235,1,0,0:0:0:0:
36,192,218235,1,0,0:0:0:0:
256,192,218310,1,0,0:0:0:0:
402,192,218385,1,0,0:0:0:0:
36,192,218385,1,0,0:0:0:0:
109,192,218385,1,0,0:0:0:0:
475,192,218385,1,0,0:0:0:0:
329,192,218535,1,0,0:0:0:0:
182,192,218535,1,0,0:0:0:0:
402,192,218535,1,0,0:0:0:0:
109,192,218535,1,0,0:0:0:0:
256,192,218610,1,0,0:0:0:0:
109,192,218685,1,0,0:0:0:0:
182,192,218685,1,0,0:0:0:0:
402,192,218685,1,0,0:0:0:0:
329,192,218685,1,0,0:0:0:0:
109,192,218835,1,0,0:0:0:0:
36,192,218835,1,0,0:0:0:0:
475,192,218835,1,0,0:0:0:0:
402,192,218835,1,0,0:0:0:0:
256,192,218910,1,0,0:0:0:0:
109,192,218985,1,0,0:0:0:0:
402,192,218985,1,0,0:0:0:0:
475,192,218985,1,0,0:0:0:0:
36,192,218985,1,0,0:0:0:0:
402,192,219135,1,0,0:0:0:0:
36,192,219135,1,0,0:0:0:0:
475,192,219135,1,0,0:0:0:0:
109,192,219135,1,0,0:0:0:0:
256,192,219210,1,0,0:0:0:0:
402,192,219285,1,0,0:0:0:0:
475,192,219285,1,0,0:0:0:0:
36,192,219285,1,0,0:0:0:0:
109,192,219285,1,0,0:0:0:0:
182,192,219360,1,0,0:0:0:0:
329,192,219360,1,0,0:0:0:0:
256,192,219360,1,0,0:0:0:0:
475,192,219435,1,0,0:0:0:0:
402,192,219435,1,0,0:0:0:0:
36,192,219435,1,0,0:0:0:0:
109,192,219435,1,0,0:0:0:0:
256,192,219510,1,0,0:0:0:0:
182,192,219585,1,0,0:0:0:0:
329,192,219585,1,0,0:0:0:0:
475,192,219585,1,0,0:0:0:0:
36,192,219585,1,0,0:0:0:0:
402,192,219735,1,0,0:0:0:0:
475,192,219735,1,0,0:0:0:0:
36,192,219735,1,0,0:0:0:0:
109,192,219735,1,0,0:0:0:0:
256,192,219810,1,0,0:0:0:0:
402,192,219885,1,0,0:0:0:0:
329,192,219885,1,0,0:0:0:0:
182,192,219885,1,0,0:0:0:0:
109,192,219885,1,0,0:0:0:0:
36,192,220035,1,0,0:0:0:0:
329,192,220035,1,0,0:0:0:0:
475,192,220035,1,0,0:0:0:0:
182,192,220035,1,0,0:0:0:0:
256,192,220110,1,0,0:0:0:0:
109,192,220185,1,0,0:0:0:0:
402,192,220185,1,0,0:0:0:0:
475,192,220185,1,0,0:0:0:0:
36,192,220185,1,0,0:0:0:0:
36,192,220335,1,0,0:0:0:0:
329,192,220335,1,0,0:0:0:0:
475,192,220335,1,0,0:0:0:0:
182,192,220335,1,0,0:0:0:0:
256,192,220410,1,0,0:0:0:0:
36,192,220485,1,0,0:0:0:0:
402,192,220485,1,0,0:0:0:0:
475,192,220485,1,0,0:0:0:0:
109,192,220485,1,0,0:0:0:0:
329,192,220522,1,0,0:0:0:0:
256,192,220560,1,0,0:0:0:0:
182,192,220597,1,0,0:0:0:0:
402,192,220635,1,0,0:0:0:0:
475,192,220635,1,0,0:0:0:0:
109,192,220635,1,0,0:0:0:0:
36,192,220635,128,0,221235:0:0:0:0:
475,192,220785,1,0,0:0:0:0:
402,192,220785,1,0,0:0:0:0:
182,192,220785,1,0,0:0:0:0:
109,192,220785,1,0,0:0:0:0:
109,192,220935,1,0,0:0:0:0:
182,192,220935,1,0,0:0:0:0:
402,192,220935,1,0,0:0:0:0:
475,192,220935,1,0,0:0:0:0:
402,192,221085,1,0,0:0:0:0:
182,192,221085,1,0,0:0:0:0:
109,192,221085,1,0,0:0:0:0:
475,192,221085,1,0,0:0:0:0:
256,192,221160,1,0,0:0:0:0:
329,192,221160,1,0,0:0:0:0:
475,192,221235,128,0,221835:0:0:0:0:
182,192,221235,1,0,0:0:0:0:
109,192,221235,1,0,0:0:0:0:
402,192,221235,1,0,0:0:0:0:
36,192,221385,1,0,0:0:0:0:
329,192,221385,1,0,0:0:0:0:
402,192,221385,1,0,0:0:0:0:
109,192,221385,1,0,0:0:0:0:
109,192,221535,1,0,0:0:0:0:
36,192,221535,1,0,0:0:0:0:
329,192,221535,1,0,0:0:0:0:
402,192,221535,1,0,0:0:0:0:
36,192,221685,1,0,0:0:0:0:
402,192,221685,1,0,0:0:0:0:
109,192,221685,1,0,0:0:0:0:
329,192,221722,1,0,0:0:0:0:
256,192,221760,1,0,0:0:0:0:
182,192,221797,1,0,0:0:0:0:
36,192,221835,128,0,222435:0:0:0:0:
109,192,221835,1,0,0:0:0:0:
402,192,221835,1,0,0:0:0:0:
329,192,221835,1,0,0:0:0:0:
329,192,221985,1,0,0:0:0:0:
402,192,221985,1,0,0:0:0:0:
475,192,221985,1,0,0:0:0:0:
182,192,222060,1,0,0:0:0:0:
109,192,222060,1,0,0:0:0:0:
329,192,222135,1,0,0:0:0:0:
402,192,222135,1,0,0:0:0:0:
475,192,222135,1,0,0:0:0:0:
182,192,222210,1,0,0:0:0:0:
109,192,222210,1,0,0:0:0:0:
329,192,222285,1,0,0:0:0:0:
402,192,222285,1,0,0:0:0:0:
475,192,222285,1,0,0:0:0:0:
256,192,222322,1,0,0:0:0:0:
182,192,222360,1,0,0:0:0:0:
109,192,222397,1,0,0:0:0:0:
256,192,222435,128,0,223035:0:0:0:0:
329,192,222435,1,0,0:0:0:0:
402,192,222435,1,0,0:0:0:0:
475,192,222435,1,0,0:0:0:0:
182,192,222510,1,0,0:0:0:0:
109,192,222510,1,0,0:0:0:0:
36,192,222510,1,0,0:0:0:0:
329,192,222585,1,0,0:0:0:0:
402,192,222585,1,0,0:0:0:0:
475,192,222585,1,0,0:0:0:0:
182,192,222660,1,0,0:0:0:0:
109,192,222660,1,0,0:0:0:0:
36,192,222660,1,0,0:0:0:0:
402,192,222735,1,0,0:0:0:0:
475,192,222735,1,0,0:0:0:0:
329,192,222772,1,0,0:0:0:0:
182,192,222810,1,0,0:0:0:0:
109,192,222847,1,0,0:0:0:0:
36,192,222885,1,0,0:0:0:0:
402,192,222885,1,0,0:0:0:0:
475,192,222885,1,0,0:0:0:0:
182,192,222960,1,0,0:0:0:0:
329,192,222960,1,0,0:0:0:0:
36,192,223035,128,0,223522:0:0:0:0:
109,192,223035,128,0,223597:0:0:0:0:
475,192,223035,128,0,224122:0:0:0:0:
402,192,223110,128,0,223222:0:0:0:0:
329,192,223185,128,0,223297:0:0:0:0:
256,192,223260,128,0,223372:0:0:0:0:
402,192,223335,128,0,224197:0:0:0:0:
329,192,223410,128,0,224047:0:0:0:0:
256,192,223485,128,0,223747:0:0:0:0:
182,192,223560,128,0,223672:0:0:0:0:
36,192,223635,128,0,225022:0:0:0:0:
109,192,223710,128,0,223822:0:0:0:0:
182,192,223785,128,0,223897:0:0:0:0:
256,192,223860,128,0,223972:0:0:0:0:
109,192,223935,128,0,224947:0:0:0:0:
182,192,224010,128,0,224647:0:0:0:0:
256,192,224085,128,0,224347:0:0:0:0:
329,192,224160,128,0,224272:0:0:0:0:
475,192,224235,128,0,225322:0:0:0:0:
402,192,224310,128,0,224422:0:0:0:0:
329,192,224385,128,0,224497:0:0:0:0:
256,192,224460,128,0,224572:0:0:0:0:
402,192,224535,128,0,225397:0:0:0:0:
329,192,224610,128,0,224722:0:0:0:0:
256,192,224685,128,0,224797:0:0:0:0:
182,192,224760,128,0,224872:0:0:0:0:
329,192,224835,128,0,225472:0:0:0:0:
256,192,224910,128,0,225247:0:0:0:0:
182,192,224985,128,0,225172:0:0:0:0:
109,192,225060,128,0,225097:0:0:0:0:
36,192,225135,128,0,225697:0:0:0:0:
109,192,225210,128,0,225622:0:0:0:0:
182,192,225285,128,0,225547:0:0:0:0:
256,192,225360,128,0,226297:0:0:0:0:
475,192,225435,128,0,226072:0:0:0:0:
402,192,225510,128,0,225997:0:0:0:0:
329,192,225585,128,0,225922:0:0:0:0:
182,192,225660,128,0,225847:0:0:0:0:
109,192,225735,128,0,225772:0:0:0:0:
36,192,225810,128,0,226522:0:0:0:0:
109,192,225885,128,0,226447:0:0:0:0:
182,192,225960,128,0,226372:0:0:0:0:
329,192,226035,128,0,226222:0:0:0:0:
402,192,226110,128,0,226147:0:0:0:0:
475,192,226185,128,0,226522:0:0:0:0:
402,192,226260,128,0,226597:0:0:0:0:
329,192,226335,128,0,226672:0:0:0:0:
256,192,226410,128,0,226747:0:0:0:0:
182,192,226485,128,0,227047:0:0:0:0:
109,192,226560,128,0,227347:0:0:0:0:
36,192,226635,128,0,227572:0:0:0:0:
475,192,226635,128,0,227122:0:0:0:0:
402,192,226710,128,0,226822:0:0:0:0:
329,192,226785,128,0,226897:0:0:0:0:
256,192,226860,128,0,226972:0:0:0:0:
402,192,226935,128,0,227197:0:0:0:0:
329,192,227010,128,0,227422:0:0:0:0:
256,192,227085,128,0,227947:0:0:0:0:
182,192,227160,128,0,227272:0:0:0:0:
475,192,227235,128,0,227422:0:0:0:0:
402,192,227310,128,0,227422:0:0:0:0:
182,192,227385,128,0,227572:0:0:0:0:
109,192,227460,128,0,227572:0:0:0:0:
329,192,227535,128,0,227722:0:0:0:0:
402,192,227535,128,0,227722:0:0:0:0:
36,192,227685,128,0,229672:0:0:0:0:
109,192,227685,128,0,227797:0:0:0:0:
182,192,227685,128,0,227872:0:0:0:0:
329,192,227835,128,0,228097:0:0:0:0:
402,192,227835,128,0,228022:0:0:0:0:
475,192,227835,128,0,228622:0:0:0:0:
109,192,227910,128,0,228322:0:0:0:0:
182,192,227985,128,0,228247:0:0:0:0:
256,192,228060,128,0,228172:0:0:0:0:
402,192,228135,128,0,228697:0:0:0:0:
329,192,228210,128,0,228547:0:0:0:0:
256,192,228285,128,0,228472:0:0:0:0:
182,192,228360,128,0,228397:0:0:0:0:
109,192,228435,128,0,228847:0:0:0:0:
182,192,228510,128,0,228922:0:0:0:0:
256,192,228585,128,0,228997:0:0:0:0:
329,192,228660,128,0,228772:0:0:0:0:
475,192,228735,128,0,230197:0:0:0:0:
402,192,228810,128,0,229072:0:0:0:0:
329,192,228885,128,0,229147:0:0:0:0:
109,192,228960,128,0,229372:0:0:0:0:
182,192,229035,128,0,229297:0:0:0:0:
256,192,229110,128,0,229222:0:0:0:0:
402,192,229185,128,0,229447:0:0:0:0:
329,192,229260,128,0,229522:0:0:0:0:
256,192,229335,128,0,229597:0:0:0:0:
182,192,229410,128,0,229822:0:0:0:0:
109,192,229485,128,0,229747:0:0:0:0:
402,192,229560,128,0,230272:0:0:0:0:
329,192,229635,128,0,229972:0:0:0:0:
256,192,229710,128,0,229897:0:0:0:0:
36,192,229785,128,0,230422:0:0:0:0:
109,192,229860,128,0,230047:0:0:0:0:
182,192,229935,128,0,230122:0:0:0:0:
256,192,230010,128,0,230647:0:0:0:0:
329,192,230085,128,0,230347:0:0:0:0:
109,192,230160,128,0,230497:0:0:0:0:
182,192,230235,128,0,230572:0:0:0:0:
475,192,230310,128,0,231322:0:0:0:0:
402,192,230385,128,0,230722:0:0:0:0:
329,192,230460,128,0,230797:0:0:0:0:
36,192,230535,128,0,231922:0:0:0:0:
109,192,230610,128,0,231022:0:0:0:0:
182,192,230685,128,0,230947:0:0:0:0:
256,192,230760,128,0,230872:0:0:0:0:
402,192,230835,128,0,231097:0:0:0:0:
329,192,230910,128,0,231172:0:0:0:0:
256,192,230985,128,0,231247:0:0:0:0:
182,192,231060,128,0,231697:0:0:0:0:
109,192,231135,128,0,231622:0:0:0:0:
402,192,231210,128,0,231397:0:0:0:0:
329,192,231285,128,0,231472:0:0:0:0:
256,192,231360,128,0,231772:0:0:0:0:
475,192,231435,128,0,231622:0:0:0:0:
402,192,231510,128,0,231547:0:0:0:0:
329,192,231585,128,0,231847:0:0:0:0:
402,192,231660,128,0,232560:0:0:0:0:
475,192,231735,128,0,232560:0:0:0:0:
109,192,231735,128,0,231997:0:0:0:0:
182,192,231810,128,0,232072:0:0:0:0:
256,192,231885,128,0,232147:0:0:0:0:
329,192,231960,128,0,232222:0:0:0:0:
36,192,232035,128,0,232410:0:0:0:0:
109,192,232110,128,0,232410:0:0:0:0:
182,192,232185,128,0,232410:0:0:0:0:
256,192,232260,1,0,0:0:0:0:
329,192,232335,128,0,232560:0:0:0:0:
36,192,232485,1,0,0:0:0:0:
109,192,232485,1,0,0:0:0:0:
182,192,232560,1,0,0:0:0:0:
256,192,232560,1,0,0:0:0:0:
36,192,232635,128,0,233235:0:0:0:0:
109,192,232635,128,0,233235:0:0:0:0:
475,192,232635,128,0,232822:0:0:0:0:
402,192,232635,128,0,232822:0:0:0:0:
329,192,232710,128,0,232897:0:0:0:0:
256,192,232785,128,0,232972:0:0:0:0:
182,192,232860,128,0,233047:0:0:0:0:
402,192,232935,128,0,233122:0:0:0:0:
475,192,232935,128,0,233122:0:0:0:0:
329,192,233010,128,0,233122:0:0:0:0:
256,192,233085,128,0,233197:0:0:0:0:
182,192,233160,128,0,233272:0:0:0:0:
402,192,233235,128,0,234360:0:0:0:0:
475,192,233235,128,0,234360:0:0:0:0:
329,192,233235,128,0,233422:0:0:0:0:
256,192,233310,128,0,233647:0:0:0:0:
182,192,233385,128,0,233572:0:0:0:0:
109,192,233460,128,0,233497:0:0:0:0:
36,192,233535,128,0,233722:0:0:0:0:
329,192,233535,128,0,233947:0:0:0:0:
109,192,233610,128,0,233722:0:0:0:0:
182,192,233685,128,0,233797:0:0:0:0:
256,192,233760,128,0,233872:0:0:0:0:
36,192,233835,128,0,234022:0:0:0:0:
109,192,233835,128,0,234022:0:0:0:0:
182,192,233910,128,0,234097:0:0:0:0:
256,192,233985,128,0,234172:0:0:0:0:
329,192,234060,128,0,234247:0:0:0:0:
36,192,234135,128,0,234360:0:0:0:0:
109,192,234135,128,0,234360:0:0:0:0:
182,192,234210,128,0,234360:0:0:0:0:
256,192,234285,128,0,234360:0:0:0:0:
329,192,234360,1,0,0:0:0:0:
402,192,234435,128,0,234635:0:0:0:0:
475,192,234435,128,0,234635:0:0:0:0:
36,192,234435,128,0,234510:0:0:0:0:
109,192,234510,128,0,234585:0:0:0:0:
182,192,234585,128,0,234660:0:0:0:0:
329,192,234635,128,0,234835:0:0:0:0:
256,192,234635,128,0,234835:0:0:0:0:
36,192,234660,128,0,234735:0:0:0:0:
475,192,234735,128,0,234810:0:0:0:0:
402,192,234810,128,0,234885:0:0:0:0:
182,192,234835,128,0,235035:0:0:0:0:
109,192,234835,128,0,235035:0:0:0:0:
329,192,234885,128,0,234960:0:0:0:0:
256,192,234960,128,0,235035:0:0:0:0:
402,192,235035,128,0,235635:0:0:0:0:
329,192,235035,128,0,235635:0:0:0:0:
36,192,235035,128,0,235222:0:0:0:0:
475,192,235035,128,0,235222:0:0:0:0:
109,192,235110,128,0,235297:0:0:0:0:
182,192,235185,128,0,235372:0:0:0:0:
256,192,235260,128,0,235447:0:0:0:0:
475,192,235335,128,0,235522:0:0:0:0:
36,192,235335,128,0,235560:0:0:0:0:
109,192,235410,128,0,235560:0:0:0:0:
182,192,235485,128,0,235560:0:0:0:0:
256,192,235560,1,0,0:0:0:0:
182,192,235635,128,0,236760:0:0:0:0:
109,192,235635,128,0,236760:0:0:0:0:
36,192,235635,128,0,235822:0:0:0:0:
475,192,235635,128,0,235822:0:0:0:0:
402,192,235710,128,0,235897:0:0:0:0:
329,192,235785,128,0,235972:0:0:0:0:
256,192,235860,128,0,236047:0:0:0:0:
36,192,235935,128,0,236122:0:0:0:0:
475,192,235935,128,0,236122:0:0:0:0:
402,192,236010,128,0,236197:0:0:0:0:
329,192,236085,128,0,236272:0:0:0:0:
256,192,236160,128,0,236497:0:0:0:0:
36,192,236235,128,0,236422:0:0:0:0:
475,192,236235,128,0,236422:0:0:0:0:
402,192,236310,128,0,236347:0:0:0:0:
329,192,236385,128,0,236572:0:0:0:0:
402,192,236460,128,0,236647:0:0:0:0:
36,192,236535,128,0,236760:0:0:0:0:
475,192,236535,128,0,236760:0:0:0:0:
256,192,236610,128,0,236760:0:0:0:0:
329,192,236685,128,0,236760:0:0:0:0:
402,192,236760,1,0,0:0:0:0:
109,192,236835,128,0,237360:0:0:0:0:
36,192,236835,128,0,237360:0:0:0:0:
182,192,236835,128,0,237022:0:0:0:0:
256,192,236835,128,0,237022:0:0:0:0:
329,192,236910,128,0,237172:0:0:0:0:
402,192,236985,128,0,237097:0:0:0:0:
475,192,237060,128,0,237360:0:0:0:0:
182,192,237135,128,0,237360:0:0:0:0:
256,192,237135,128,0,237247:0:0:0:0:
402,192,237210,128,0,237360:0:0:0:0:
329,192,237285,128,0,237360:0:0:0:0:
256,192,237360,1,0,0:0:0:0:
402,192,237435,128,0,237510:0:0:0:0:
36,192,237435,128,0,237960:0:0:0:0:
109,192,237435,1,0,0:0:0:0:
475,192,237435,128,0,237510:0:0:0:0:
182,192,237510,1,0,0:0:0:0:
256,192,237585,1,0,0:0:0:0:
475,192,237585,128,0,237660:0:0:0:0:
402,192,237585,128,0,237660:0:0:0:0:
182,192,237660,1,0,0:0:0:0:
402,192,237735,128,0,237810:0:0:0:0:
109,192,237735,1,0,0:0:0:0:
329,192,237735,128,0,237810:0:0:0:0:
182,192,237810,1,0,0:0:0:0:
109,192,237885,1,0,0:0:0:0:
329,192,237885,128,0,237960:0:0:0:0:
402,192,237885,128,0,237960:0:0:0:0:
256,192,238035,128,0,239235:0:0:0:0:
109,192,238035,128,0,238110:0:0:0:0:
475,192,238035,1,0,0:0:0:0:
402,192,238035,1,0,0:0:0:0:
36,192,238035,128,0,238110:0:0:0:0:
329,192,238110,1,0,0:0:0:0:
109,192,238185,128,0,238260:0:0:0:0:
475,192,238185,1,0,0:0:0:0:
36,192,238185,128,0,238260:0:0:0:0:
402,192,238260,1,0,0:0:0:0:
329,192,238335,1,0,0:0:0:0:
182,192,238335,128,0,238410:0:0:0:0:
109,192,238335,128,0,238410:0:0:0:0:
402,192,238410,1,0,0:0:0:0:
475,192,238485,1,0,0:0:0:0:
109,192,238485,128,0,238560:0:0:0:0:
182,192,238485,128,0,238560:0:0:0:0:
329,192,238560,1,0,0:0:0:0:
36,192,238635,1,0,0:0:0:0:
109,192,238635,1,0,0:0:0:0:
475,192,238635,128,0,238710:0:0:0:0:
402,192,238635,128,0,238710:0:0:0:0:
182,192,238710,1,0,0:0:0:0:
329,192,238785,128,0,238860:0:0:0:0:
109,192,238785,1,0,0:0:0:0:
402,192,238785,128,0,238860:0:0:0:0:
36,192,238860,1,0,0:0:0:0:
182,192,238935,1,0,0:0:0:0:
402,192,238935,128,0,239010:0:0:0:0:
475,192,238935,128,0,239010:0:0:0:0:
109,192,239010,1,0,0:0:0:0:
329,192,239085,128,0,239160:0:0:0:0:
36,192,239085,1,0,0:0:0:0:
402,192,239085,128,0,239160:0:0:0:0:
109,192,239160,1,0,0:0:0:0:
182,192,239235,1,0,0:0:0:0:
402,192,239235,128,0,239435:0:0:0:0:
475,192,239235,128,0,239435:0:0:0:0:
329,192,239235,128,0,239310:0:0:0:0:
256,192,239310,128,0,239385:0:0:0:0:
36,192,239385,128,0,239460:0:0:0:0:
329,192,239435,128,0,239635:0:0:0:0:
182,192,239435,128,0,239635:0:0:0:0:
109,192,239460,128,0,239535:0:0:0:0:
256,192,239535,128,0,239610:0:0:0:0:
475,192,239610,128,0,239685:0:0:0:0:
109,192,239635,128,0,239735:0:0:0:0:
36,192,239635,128,0,239735:0:0:0:0:
402,192,239685,128,0,239760:0:0:0:0:
256,192,239760,1,0,0:0:0:0:
256,192,239835,128,0,240435:0:0:0:0:
109,192,239835,1,0,0:0:0:0:
36,192,239835,1,0,0:0:0:0:
402,192,239835,128,0,239910:0:0:0:0:
475,192,239835,128,0,239910:0:0:0:0:
182,192,239910,1,0,0:0:0:0:
402,192,239985,128,0,240060:0:0:0:0:
109,192,239985,1,0,0:0:0:0:
329,192,239985,128,0,240060:0:0:0:0:
36,192,240060,1,0,0:0:0:0:
402,192,240135,128,0,240210:0:0:0:0:
182,192,240135,1,0,0:0:0:0:
475,192,240135,128,0,240210:0:0:0:0:
109,192,240210,1,0,0:0:0:0:
402,192,240285,128,0,240360:0:0:0:0:
36,192,240285,1,0,0:0:0:0:
329,192,240285,128,0,240360:0:0:0:0:
109,192,240360,1,0,0:0:0:0:
182,192,240360,1,0,0:0:0:0:
475,192,240435,128,0,241260:0:0:0:0:
36,192,240435,1,0,0:0:0:0:
329,192,240435,1,0,0:0:0:0:
402,192,240435,1,0,0:0:0:0:
256,192,240510,1,0,0:0:0:0:
182,192,240585,1,0,0:0:0:0:
36,192,240660,1,0,0:0:0:0:
109,192,240660,1,0,0:0:0:0:
329,192,240660,1,0,0:0:0:0:
402,192,240660,1,0,0:0:0:0:
256,192,240735,1,0,0:0:0:0:
182,192,240810,1,0,0:0:0:0:
36,192,240885,1,0,0:0:0:0:
109,192,240885,1,0,0:0:0:0:
329,192,240885,128,0,240960:0:0:0:0:
402,192,240885,128,0,240960:0:0:0:0:
256,192,240922,128,0,240997:0:0:0:0:
182,192,240960,128,0,241035:0:0:0:0:
109,192,240997,128,0,241072:0:0:0:0:
329,192,241035,1,0,0:0:0:0:
402,192,241035,1,0,0:0:0:0:
36,192,241035,128,0,241110:0:0:0:0:
256,192,241110,1,0,0:0:0:0:
402,192,241185,1,0,0:0:0:0:
36,192,241185,1,0,0:0:0:0:
109,192,241185,128,0,241260:0:0:0:0:
182,192,241222,128,0,241297:0:0:0:0:
256,192,241260,128,0,241335:0:0:0:0:
329,192,241297,128,0,241372:0:0:0:0:
475,192,241335,1,0,0:0:0:0:
36,192,241335,128,0,241560:0:0:0:0:
402,192,241335,128,0,241410:0:0:0:0:
109,192,241335,128,0,241485:0:0:0:0:
182,192,241410,1,0,0:0:0:0:
475,192,241485,1,0,0:0:0:0:
329,192,241485,128,0,241560:0:0:0:0:
256,192,241522,128,0,241597:0:0:0:0:
182,192,241560,128,0,241635:0:0:0:0:
109,192,241597,128,0,241672:0:0:0:0:
475,192,241635,128,0,241860:0:0:0:0:
36,192,241635,128,0,241710:0:0:0:0:
402,192,241635,128,0,241785:0:0:0:0:
329,192,241710,1,0,0:0:0:0:
182,192,241785,1,0,0:0:0:0:
256,192,241785,1,0,0:0:0:0:
329,192,241860,1,0,0:0:0:0:
475,192,241935,128,0,242010:0:0:0:0:
36,192,241935,128,0,242010:0:0:0:0:
109,192,241935,1,0,0:0:0:0:
402,192,241935,1,0,0:0:0:0:
256,192,242010,1,0,0:0:0:0:
36,192,242085,128,0,242160:0:0:0:0:
475,192,242085,128,0,242160:0:0:0:0:
402,192,242085,1,0,0:0:0:0:
109,192,242085,128,0,242160:0:0:0:0:
182,192,242122,128,0,242197:0:0:0:0:
256,192,242160,128,0,242235:0:0:0:0:
329,192,242197,128,0,242272:0:0:0:0:
475,192,242235,128,0,243960:0:0:0:0:
36,192,242235,128,0,243360:0:0:0:0:
109,192,242235,128,0,243360:0:0:0:0:
402,192,242235,128,0,243360:0:0:0:0:
182,192,243435,128,0,243960:0:0:0:0:
329,192,243435,128,0,243960:0:0:0:0:
402,192,243435,128,0,243960:0:0:0:0:
256,192,243435,128,0,243960:0:0:0:0:
36,192,243435,128,0,244560:0:0:0:0:
182,192,244035,128,0,244560:0:0:0:0:
109,192,244035,128,0,244560:0:0:0:0:
256,192,244035,128,0,244560:0:0:0:0:
329,192,244035,128,0,244560:0:0:0:0:
475,192,244035,128,0,244560:0:0:0:0:
109,192,244635,128,0,245760:0:0:0:0:
36,192,244635,128,0,245760:0:0:0:0:
475,192,244635,128,0,245760:0:0:0:0:
402,192,244635,128,0,245760:0:0:0:0:
256,192,244635,128,0,245760:0:0:0:0:
109,192,245835,128,0,246960:0:0:0:0:
36,192,245835,128,0,246960:0:0:0:0:
402,192,245835,128,0,246060:0:0:0:0:
329,192,245835,128,0,246060:0:0:0:0:
475,192,245835,128,0,246060:0:0:0:0:
182,192,245835,1,0,0:0:0:0:
182,192,246135,128,0,246360:0:0:0:0:
256,192,246135,128,0,246360:0:0:0:0:
329,192,246135,128,0,246360:0:0:0:0:
182,192,246435,128,0,246535:0:0:0:0:
256,192,246435,128,0,246535:0:0:0:0:
329,192,246435,128,0,246535:0:0:0:0:
256,192,246635,128,0,246735:0:0:0:0:
329,192,246635,128,0,246735:0:0:0:0:
402,192,246635,128,0,246735:0:0:0:0:
475,192,246835,128,0,246935:0:0:0:0:
402,192,246835,128,0,246935:0:0:0:0:
329,192,246835,128,0,246935:0:0:0:0:
36,192,247035,128,0,253035:0:0:0:0:
109,192,247035,128,0,253035:0:0:0:0:
329,192,247035,128,0,247560:0:0:0:0:
475,192,247035,128,0,247560:0:0:0:0:
402,192,247035,128,0,247560:0:0:0:0:
182,192,247035,1,0,0:0:0:0:
256,192,247635,128,0,248160:0:0:0:0:
329,192,247635,128,0,248160:0:0:0:0:
182,192,247635,128,0,248160:0:0:0:0:
402,192,248235,128,0,253035:0:0:0:0:
475,192,248235,128,0,253035:0:0:0:0:
182,192,248235,128,0,253035:0:0:0:0:
329,192,248235,128,0,253035:0:0:0:0:
