osu file format v14

[General]
AudioFilename: zenith.mp3
AudioLeadIn: 0
PreviewTime: 153435
Countdown: 0
SampleSet: Soft
StackLeniency: 0.7
Mode: 3
LetterboxInBreaks: 0
SpecialStyle: 0
WidescreenStoryboard: 1

[Editor]
DistanceSpacing: 1.5
BeatDivisor: 4
GridSize: 4
TimelineZoom: 2.4

[Metadata]
Title:Blue Zenith
TitleUnicode:Blue Zenith
Artist:xi
ArtistUnicode:xi
Creator:Jinjin
Version:JINDIMENSIONS (No LN ver)
Source:
Tags:
BeatmapID:1474274
BeatmapSetID:290031

[Difficulty]
HPDrainRate:6.9
CircleSize:7
OverallDifficulty:5
ApproachRate:5
SliderMultiplier:1.4
SliderTickRate:1

[Events]
//Background and Video events
0,0,"earth_15-wallpaper-1366x768.jpg",0,0
//Break Periods
//Storyboard Layer 0 (Background)
//Storyboard Layer 1 (Fail)
//Storyboard Layer 2 (Pass)
//Storyboard Layer 3 (Foreground)
//Storyboard Sound Samples

[TimingPoints]
2235,300,4,2,0,0,1,0
69435,-125,4,2,0,0,0,0
92835,-100,4,2,0,0,0,0

[HitObjects]
256,192,1335,128,0,2235:0:0:0:0:
182,192,2235,5,0,0:0:0:0:
36,192,2235,1,0,0:0:0:0:
182,192,2535,1,0,0:0:0:0:
182,192,2835,1,0,0:0:0:0:
182,192,3135,1,0,0:0:0:0:
182,192,3435,1,0,0:0:0:0:
182,192,3735,1,0,0:0:0:0:
182,192,4035,1,0,0:0:0:0:
182,192,4335,1,0,0:0:0:0:
182,192,4635,1,0,0:0:0:0:
182,192,4935,1,0,0:0:0:0:
182,192,5235,1,0,0:0:0:0:
182,192,5535,1,0,0:0:0:0:
182,192,5835,1,0,0:0:0:0:
182,192,6135,1,0,0:0:0:0:
182,192,6435,1,0,0:0:0:0:
182,192,6735,1,0,0:0:0:0:
475,192,7035,1,0,0:0:0:0:
36,192,7035,1,0,0:0:0:0:
256,192,7035,1,0,0:0:0:0:
402,192,7110,1,0,0:0:0:0:
329,192,7185,1,0,0:0:0:0:
182,192,7260,1,0,0:0:0:0:
36,192,7335,1,0,0:0:0:0:
475,192,7335,1,0,0:0:0:0:
402,192,7410,1,0,0:0:0:0:
329,192,7485,1,0,0:0:0:0:
182,192,7560,1,0,0:0:0:0:
36,192,7635,1,0,0:0:0:0:
475,192,7635,1,0,0:0:0:0:
402,192,7710,1,0,0:0:0:0:
329,192,7785,1,0,0:0:0:0:
182,192,7860,1,0,0:0:0:0:
36,192,7935,1,0,0:0:0:0:
475,192,7935,1,0,0:0:0:0:
402,192,8010,1,0,0:0:0:0:
329,192,8085,1,0,0:0:0:0:
182,192,8160,1,0,0:0:0:0:
36,192,8235,1,0,0:0:0:0:
475,192,8235,1,0,0:0:0:0:
402,192,8310,1,0,0:0:0:0:
329,192,8385,1,0,0:0:0:0:
182,192,8460,1,0,0:0:0:0:
36,192,8535,1,0,0:0:0:0:
475,192,8535,1,0,0:0:0:0:
402,192,8610,1,0,0:0:0:0:
329,192,8685,1,0,0:0:0:0:
182,192,8760,1,0,0:0:0:0:
36,192,8835,1,0,0:0:0:0:
475,192,8835,1,0,0:0:0:0:
402,192,8910,1,0,0:0:0:0:
329,192,8985,1,0,0:0:0:0:
182,192,9060,1,0,0:0:0:0:
36,192,9135,1,0,0:0:0:0:
475,192,9135,1,0,0:0:0:0:
402,192,9210,1,0,0:0:0:0:
329,192,9285,1,0,0:0:0:0:
182,192,9360,1,0,0:0:0:0:
36,192,9435,1,0,0:0:0:0:
36,192,9735,1,0,0:0:0:0:
36,192,10035,1,0,0:0:0:0:
182,192,10335,1,0,0:0:0:0:
36,192,10335,1,0,0:0:0:0:
329,192,10410,1,0,0:0:0:0:
109,192,10485,1,0,0:0:0:0:
402,192,10560,1,0,0:0:0:0:
36,192,10635,1,0,0:0:0:0:
256,192,10635,1,0,0:0:0:0:
475,192,10710,1,0,0:0:0:0:
329,192,10710,1,0,0:0:0:0:
182,192,10785,1,0,0:0:0:0:
109,192,10785,1,0,0:0:0:0:
256,192,10860,1,0,0:0:0:0:
402,192,10860,1,0,0:0:0:0:
36,192,10935,1,0,0:0:0:0:
109,192,10935,1,0,0:0:0:0:
329,192,11010,1,0,0:0:0:0:
475,192,11010,1,0,0:0:0:0:
36,192,11085,1,0,0:0:0:0:
182,192,11085,1,0,0:0:0:0:
329,192,11160,1,0,0:0:0:0:
402,192,11160,1,0,0:0:0:0:
109,192,11235,1,0,0:0:0:0:
256,192,11235,1,0,0:0:0:0:
402,192,11310,1,0,0:0:0:0:
475,192,11310,1,0,0:0:0:0:
36,192,11385,1,0,0:0:0:0:
182,192,11385,1,0,0:0:0:0:
329,192,11460,1,0,0:0:0:0:
402,192,11460,1,0,0:0:0:0:
109,192,11535,1,0,0:0:0:0:
182,192,11535,1,0,0:0:0:0:
36,192,11535,1,0,0:0:0:0:
329,192,11610,1,0,0:0:0:0:
475,192,11610,1,0,0:0:0:0:
36,192,11685,1,0,0:0:0:0:
182,192,11685,1,0,0:0:0:0:
109,192,11685,1,0,0:0:0:0:
475,192,11835,1,0,0:0:0:0:
109,192,11835,1,0,0:0:0:0:
36,192,11835,1,0,0:0:0:0:
329,192,11835,1,0,0:0:0:0:
402,192,11835,1,0,0:0:0:0:
182,192,11910,1,0,0:0:0:0:
256,192,11985,1,0,0:0:0:0:
329,192,11985,1,0,0:0:0:0:
182,192,12060,1,0,0:0:0:0:
109,192,12135,1,0,0:0:0:0:
36,192,12135,1,0,0:0:0:0:
475,192,12135,1,0,0:0:0:0:
402,192,12210,1,0,0:0:0:0:
182,192,12285,1,0,0:0:0:0:
256,192,12285,1,0,0:0:0:0:
402,192,12360,1,0,0:0:0:0:
256,192,12435,1,0,0:0:0:0:
36,192,12435,1,0,0:0:0:0:
109,192,12435,1,0,0:0:0:0:
182,192,12510,1,0,0:0:0:0:
402,192,12585,1,0,0:0:0:0:
329,192,12585,1,0,0:0:0:0:
182,192,12660,1,0,0:0:0:0:
109,192,12735,1,0,0:0:0:0:
36,192,12735,1,0,0:0:0:0:
475,192,12735,1,0,0:0:0:0:
402,192,12810,1,0,0:0:0:0:
182,192,12885,1,0,0:0:0:0:
256,192,12885,1,0,0:0:0:0:
402,192,12960,1,0,0:0:0:0:
109,192,13035,1,0,0:0:0:0:
475,192,13035,1,0,0:0:0:0:
329,192,13035,1,0,0:0:0:0:
36,192,13035,1,0,0:0:0:0:
182,192,13110,1,0,0:0:0:0:
402,192,13185,1,0,0:0:0:0:
329,192,13185,1,0,0:0:0:0:
182,192,13260,1,0,0:0:0:0:
109,192,13335,1,0,0:0:0:0:
36,192,13335,1,0,0:0:0:0:
475,192,13335,1,0,0:0:0:0:
402,192,13410,1,0,0:0:0:0:
182,192,13485,1,0,0:0:0:0:
256,192,13485,1,0,0:0:0:0:
402,192,13560,1,0,0:0:0:0:
475,192,13635,1,0,0:0:0:0:
36,192,13635,1,0,0:0:0:0:
109,192,13635,1,0,0:0:0:0:
182,192,13710,1,0,0:0:0:0:
402,192,13785,1,0,0:0:0:0:
329,192,13785,1,0,0:0:0:0:
182,192,13860,1,0,0:0:0:0:
109,192,13935,1,0,0:0:0:0:
36,192,13935,1,0,0:0:0:0:
475,192,13935,1,0,0:0:0:0:
402,192,14010,1,0,0:0:0:0:
182,192,14085,1,0,0:0:0:0:
256,192,14085,1,0,0:0:0:0:
402,192,14160,1,0,0:0:0:0:
109,192,14235,1,0,0:0:0:0:
475,192,14235,1,0,0:0:0:0:
329,192,14235,1,0,0:0:0:0:
36,192,14235,1,0,0:0:0:0:
182,192,14310,1,0,0:0:0:0:
475,192,14385,1,0,0:0:0:0:
329,192,14385,1,0,0:0:0:0:
182,192,14460,1,0,0:0:0:0:
402,192,14535,1,0,0:0:0:0:
36,192,14535,1,0,0:0:0:0:
256,192,14535,1,0,0:0:0:0:
109,192,14610,1,0,0:0:0:0:
329,192,14685,1,0,0:0:0:0:
182,192,14685,1,0,0:0:0:0:
109,192,14760,1,0,0:0:0:0:
256,192,14835,1,0,0:0:0:0:
36,192,14835,1,0,0:0:0:0:
475,192,14835,1,0,0:0:0:0:
329,192,14910,1,0,0:0:0:0:
182,192,14985,1,0,0:0:0:0:
402,192,14985,1,0,0:0:0:0:
329,192,15060,1,0,0:0:0:0:
475,192,15135,1,0,0:0:0:0:
36,192,15135,1,0,0:0:0:0:
256,192,15135,1,0,0:0:0:0:
109,192,15210,1,0,0:0:0:0:
402,192,15285,1,0,0:0:0:0:
182,192,15285,1,0,0:0:0:0:
109,192,15360,1,0,0:0:0:0:
256,192,15435,1,0,0:0:0:0:
402,192,15435,1,0,0:0:0:0:
329,192,15435,1,0,0:0:0:0:
36,192,15435,1,0,0:0:0:0:
475,192,15510,1,0,0:0:0:0:
109,192,15585,1,0,0:0:0:0:
329,192,15585,1,0,0:0:0:0:
475,192,15660,1,0,0:0:0:0:
329,192,15735,1,0,0:0:0:0:
36,192,15735,1,0,0:0:0:0:
182,192,15735,1,0,0:0:0:0:
256,192,15810,1,0,0:0:0:0:
109,192,15885,1,0,0:0:0:0:
402,192,15885,1,0,0:0:0:0:
256,192,15960,1,0,0:0:0:0:
475,192,16035,1,0,0:0:0:0:
329,192,16035,1,0,0:0:0:0:
36,192,16035,1,0,0:0:0:0:
182,192,16110,1,0,0:0:0:0:
402,192,16185,1,0,0:0:0:0:
109,192,16185,1,0,0:0:0:0:
256,192,16260,1,0,0:0:0:0:
329,192,16335,1,0,0:0:0:0:
182,192,16335,1,0,0:0:0:0:
36,192,16335,1,0,0:0:0:0:
256,192,16410,1,0,0:0:0:0:
109,192,16485,1,0,0:0:0:0:
36,192,16485,1,0,0:0:0:0:
402,192,16485,1,0,0:0:0:0:
329,192,16560,1,0,0:0:0:0:
36,192,16635,1,0,0:0:0:0:
256,192,16635,1,0,0:0:0:0:
182,192,16635,1,0,0:0:0:0:
475,192,16635,1,0,0:0:0:0:
402,192,16710,1,0,0:0:0:0:
36,192,16785,1,0,0:0:0:0:
329,192,16785,1,0,0:0:0:0:
402,192,16860,1,0,0:0:0:0:
256,192,16935,1,0,0:0:0:0:
475,192,16935,1,0,0:0:0:0:
109,192,16935,1,0,0:0:0:0:
402,192,17010,1,0,0:0:0:0:
329,192,17085,1,0,0:0:0:0:
182,192,17085,1,0,0:0:0:0:
402,192,17160,1,0,0:0:0:0:
256,192,17235,1,0,0:0:0:0:
475,192,17235,1,0,0:0:0:0:
36,192,17235,1,0,0:0:0:0:
402,192,17310,1,0,0:0:0:0:
329,192,17385,1,0,0:0:0:0:
109,192,17385,1,0,0:0:0:0:
402,192,17460,1,0,0:0:0:0:
256,192,17535,1,0,0:0:0:0:
182,192,17535,1,0,0:0:0:0:
109,192,17535,1,0,0:0:0:0:
36,192,17535,1,0,0:0:0:0:
475,192,17535,1,0,0:0:0:0:
402,192,17610,1,0,0:0:0:0:
36,192,17685,1,0,0:0:0:0:
109,192,17685,1,0,0:0:0:0:
475,192,17685,1,0,0:0:0:0:
329,192,17685,1,0,0:0:0:0:
256,192,17835,1,0,0:0:0:0:
402,192,17835,1,0,0:0:0:0:
475,192,17835,1,0,0:0:0:0:
36,192,17835,1,0,0:0:0:0:
329,192,17910,1,0,0:0:0:0:
109,192,17910,1,0,0:0:0:0:
402,192,17985,1,0,0:0:0:0:
475,192,17985,1,0,0:0:0:0:
182,192,17985,1,0,0:0:0:0:
256,192,18060,1,0,0:0:0:0:
109,192,18060,1,0,0:0:0:0:
36,192,18135,1,0,0:0:0:0:
329,192,18135,1,0,0:0:0:0:
475,192,18135,1,0,0:0:0:0:
402,192,18210,1,0,0:0:0:0:
109,192,18210,1,0,0:0:0:0:
182,192,18285,1,0,0:0:0:0:
329,192,18285,1,0,0:0:0:0:
475,192,18285,1,0,0:0:0:0:
109,192,18360,1,0,0:0:0:0:
256,192,18360,1,0,0:0:0:0:
36,192,18435,1,0,0:0:0:0:
402,192,18435,1,0,0:0:0:0:
329,192,18435,1,0,0:0:0:0:
475,192,18510,1,0,0:0:0:0:
109,192,18510,1,0,0:0:0:0:
182,192,18585,1,0,0:0:0:0:
329,192,18585,1,0,0:0:0:0:
402,192,18585,1,0,0:0:0:0:
109,192,18660,1,0,0:0:0:0:
256,192,18660,1,0,0:0:0:0:
36,192,18735,1,0,0:0:0:0:
329,192,18735,1,0,0:0:0:0:
475,192,18735,1,0,0:0:0:0:
402,192,18810,1,0,0:0:0:0:
109,192,18810,1,0,0:0:0:0:
182,192,18885,1,0,0:0:0:0:
329,192,18885,1,0,0:0:0:0:
475,192,18885,1,0,0:0:0:0:
256,192,18960,1,0,0:0:0:0:
109,192,18960,1,0,0:0:0:0:
36,192,19035,1,0,0:0:0:0:
329,192,19035,1,0,0:0:0:0:
402,192,19035,1,0,0:0:0:0:
475,192,19035,1,0,0:0:0:0:
109,192,19110,1,0,0:0:0:0:
182,192,19185,1,0,0:0:0:0:
329,192,19185,1,0,0:0:0:0:
402,192,19185,1,0,0:0:0:0:
475,192,19185,1,0,0:0:0:0:
109,192,19260,1,0,0:0:0:0:
36,192,19335,1,0,0:0:0:0:
256,192,19335,1,0,0:0:0:0:
402,192,19335,1,0,0:0:0:0:
475,192,19335,1,0,0:0:0:0:
182,192,19410,1,0,0:0:0:0:
329,192,19485,1,0,0:0:0:0:
402,192,19485,1,0,0:0:0:0:
475,192,19485,1,0,0:0:0:0:
109,192,19485,1,0,0:0:0:0:
182,192,19560,1,0,0:0:0:0:
256,192,19635,1,0,0:0:0:0:
36,192,19635,1,0,0:0:0:0:
402,192,19635,1,0,0:0:0:0:
475,192,19635,1,0,0:0:0:0:
109,192,19710,1,0,0:0:0:0:
182,192,19785,1,0,0:0:0:0:
329,192,19785,1,0,0:0:0:0:
402,192,19785,1,0,0:0:0:0:
475,192,19785,1,0,0:0:0:0:
109,192,19860,1,0,0:0:0:0:
36,192,19935,1,0,0:0:0:0:
256,192,19935,1,0,0:0:0:0:
402,192,19935,1,0,0:0:0:0:
475,192,19935,1,0,0:0:0:0:
182,192,20010,1,0,0:0:0:0:
109,192,20085,1,0,0:0:0:0:
329,192,20085,1,0,0:0:0:0:
402,192,20085,1,0,0:0:0:0:
475,192,20085,1,0,0:0:0:0:
182,192,20160,1,0,0:0:0:0:
475,192,20235,1,0,0:0:0:0:
256,192,20235,1,0,0:0:0:0:
402,192,20235,1,0,0:0:0:0:
36,192,20235,1,0,0:0:0:0:
182,192,20310,1,0,0:0:0:0:
329,192,20310,1,0,0:0:0:0:
256,192,20385,1,0,0:0:0:0:
109,192,20385,1,0,0:0:0:0:
475,192,20422,1,0,0:0:0:0:
182,192,20460,1,0,0:0:0:0:
402,192,20460,1,0,0:0:0:0:
329,192,20497,1,0,0:0:0:0:
256,192,20535,1,0,0:0:0:0:
109,192,20535,1,0,0:0:0:0:
36,192,20535,1,0,0:0:0:0:
329,192,20610,1,0,0:0:0:0:
475,192,20610,1,0,0:0:0:0:
402,192,20685,1,0,0:0:0:0:
182,192,20685,1,0,0:0:0:0:
256,192,20722,1,0,0:0:0:0:
329,192,20760,1,0,0:0:0:0:
36,192,20760,1,0,0:0:0:0:
109,192,20797,1,0,0:0:0:0:
475,192,20835,1,0,0:0:0:0:
182,192,20835,1,0,0:0:0:0:
402,192,20835,1,0,0:0:0:0:
36,192,20910,1,0,0:0:0:0:
256,192,20910,1,0,0:0:0:0:
329,192,20985,1,0,0:0:0:0:
402,192,20985,1,0,0:0:0:0:
475,192,20985,1,0,0:0:0:0:
109,192,21060,1,0,0:0:0:0:
182,192,21060,1,0,0:0:0:0:
36,192,21060,1,0,0:0:0:0:
256,192,21135,1,0,0:0:0:0:
402,192,21135,1,0,0:0:0:0:
475,192,21135,1,0,0:0:0:0:
329,192,21210,1,0,0:0:0:0:
109,192,21210,1,0,0:0:0:0:
182,192,21210,1,0,0:0:0:0:
475,192,21285,1,0,0:0:0:0:
256,192,21285,1,0,0:0:0:0:
402,192,21285,1,0,0:0:0:0:
36,192,21322,1,0,0:0:0:0:
109,192,21360,1,0,0:0:0:0:
182,192,21397,1,0,0:0:0:0:
475,192,21435,1,0,0:0:0:0:
256,192,21435,1,0,0:0:0:0:
329,192,21435,1,0,0:0:0:0:
36,192,21510,1,0,0:0:0:0:
402,192,21510,1,0,0:0:0:0:
475,192,21547,1,0,0:0:0:0:
109,192,21585,1,0,0:0:0:0:
182,192,21585,1,0,0:0:0:0:
256,192,21635,1,0,0:0:0:0:
329,192,21660,1,0,0:0:0:0:
182,192,21735,1,0,0:0:0:0:
36,192,21735,1,0,0:0:0:0:
402,192,21735,1,0,0:0:0:0:
475,192,21810,1,0,0:0:0:0:
256,192,21835,1,0,0:0:0:0:
182,192,21885,1,0,0:0:0:0:
36,192,21885,1,0,0:0:0:0:
109,192,21935,1,0,0:0:0:0:
329,192,21960,1,0,0:0:0:0:
256,192,22035,1,0,0:0:0:0:
402,192,22035,1,0,0:0:0:0:
475,192,22035,1,0,0:0:0:0:
36,192,22035,1,0,0:0:0:0:
109,192,22110,1,0,0:0:0:0:
182,192,22135,1,0,0:0:0:0:
329,192,22185,1,0,0:0:0:0:
402,192,22185,1,0,0:0:0:0:
36,192,22235,1,0,0:0:0:0:
182,192,22260,1,0,0:0:0:0:
475,192,22335,1,0,0:0:0:0:
109,192,22335,1,0,0:0:0:0:
256,192,22335,1,0,0:0:0:0:
329,192,22335,1,0,0:0:0:0:
36,192,22410,1,0,0:0:0:0:
182,192,22435,1,0,0:0:0:0:
402,192,22485,1,0,0:0:0:0:
475,192,22485,1,0,0:0:0:0:
256,192,22535,1,0,0:0:0:0:
109,192,22560,1,0,0:0:0:0:
182,192,22635,1,0,0:0:0:0:
36,192,22635,1,0,0:0:0:0:
329,192,22635,1,0,0:0:0:0:
402,192,22710,1,0,0:0:0:0:
475,192,22735,1,0,0:0:0:0:
256,192,22785,1,0,0:0:0:0:
109,192,22785,1,0,0:0:0:0:
36,192,22835,1,0,0:0:0:0:
329,192,22860,1,0,0:0:0:0:
475,192,22935,1,0,0:0:0:0:
182,192,22935,1,0,0:0:0:0:
109,192,22935,1,0,0:0:0:0:
402,192,22935,1,0,0:0:0:0:
256,192,23010,1,0,0:0:0:0:
36,192,23035,1,0,0:0:0:0:
329,192,23085,1,0,0:0:0:0:
475,192,23085,1,0,0:0:0:0:
182,192,23135,1,0,0:0:0:0:
109,192,23160,1,0,0:0:0:0:
402,192,23235,1,0,0:0:0:0:
256,192,23235,1,0,0:0:0:0:
36,192,23235,1,0,0:0:0:0:
475,192,23235,1,0,0:0:0:0:
182,192,23310,1,0,0:0:0:0:
329,192,23335,1,0,0:0:0:0:
109,192,23385,1,0,0:0:0:0:
256,192,23385,1,0,0:0:0:0:
475,192,23435,1,0,0:0:0:0:
402,192,23460,1,0,0:0:0:0:
109,192,23535,1,0,0:0:0:0:
329,192,23535,1,0,0:0:0:0:
182,192,23535,1,0,0:0:0:0:
36,192,23535,1,0,0:0:0:0:
475,192,23610,1,0,0:0:0:0:
256,192,23635,1,0,0:0:0:0:
402,192,23685,1,0,0:0:0:0:
36,192,23685,1,0,0:0:0:0:
182,192,23735,1,0,0:0:0:0:
329,192,23760,1,0,0:0:0:0:
256,192,23835,1,0,0:0:0:0:
109,192,23835,1,0,0:0:0:0:
475,192,23835,1,0,0:0:0:0:
182,192,23885,1,0,0:0:0:0:
402,192,23910,1,0,0:0:0:0:
36,192,23935,1,0,0:0:0:0:
109,192,23985,1,0,0:0:0:0:
329,192,23985,1,0,0:0:0:0:
256,192,24035,1,0,0:0:0:0:
402,192,24060,1,0,0:0:0:0:
182,192,24085,1,0,0:0:0:0:
109,192,24135,1,0,0:0:0:0:
475,192,24135,1,0,0:0:0:0:
36,192,24185,1,0,0:0:0:0:
402,192,24210,1,0,0:0:0:0:
182,192,24235,1,0,0:0:0:0:
329,192,24285,1,0,0:0:0:0:
109,192,24285,1,0,0:0:0:0:
256,192,24335,1,0,0:0:0:0:
402,192,24360,1,0,0:0:0:0:
36,192,24385,1,0,0:0:0:0:
475,192,24435,1,0,0:0:0:0:
109,192,24435,1,0,0:0:0:0:
182,192,24485,1,0,0:0:0:0:
402,192,24510,1,0,0:0:0:0:
36,192,24535,1,0,0:0:0:0:
329,192,24585,1,0,0:0:0:0:
256,192,24585,1,0,0:0:0:0:
109,192,24635,1,0,0:0:0:0:
402,192,24660,1,0,0:0:0:0:
182,192,24685,1,0,0:0:0:0:
475,192,24735,1,0,0:0:0:0:
36,192,24735,1,0,0:0:0:0:
109,192,24785,1,0,0:0:0:0:
402,192,24810,1,0,0:0:0:0:
182,192,24835,1,0,0:0:0:0:
329,192,24885,1,0,0:0:0:0:
256,192,24885,1,0,0:0:0:0:
109,192,24935,1,0,0:0:0:0:
402,192,24960,1,0,0:0:0:0:
36,192,24985,1,0,0:0:0:0:
475,192,25035,1,0,0:0:0:0:
182,192,25035,1,0,0:0:0:0:
109,192,25085,1,0,0:0:0:0:
402,192,25110,1,0,0:0:0:0:
256,192,25135,1,0,0:0:0:0:
329,192,25185,1,0,0:0:0:0:
182,192,25185,1,0,0:0:0:0:
109,192,25235,1,0,0:0:0:0:
402,192,25260,1,0,0:0:0:0:
36,192,25285,1,0,0:0:0:0:
475,192,25335,1,0,0:0:0:0:
182,192,25335,1,0,0:0:0:0:
256,192,25385,1,0,0:0:0:0:
402,192,25410,1,0,0:0:0:0:
109,192,25435,1,0,0:0:0:0:
329,192,25485,1,0,0:0:0:0:
36,192,25485,1,0,0:0:0:0:
182,192,25535,1,0,0:0:0:0:
402,192,25560,1,0,0:0:0:0:
109,192,25585,1,0,0:0:0:0:
475,192,25635,1,0,0:0:0:0:
36,192,25635,1,0,0:0:0:0:
256,192,25635,1,0,0:0:0:0:
182,192,25710,1,0,0:0:0:0:
329,192,25710,1,0,0:0:0:0:
256,192,25785,1,0,0:0:0:0:
402,192,25785,1,0,0:0:0:0:
182,192,25860,1,0,0:0:0:0:
109,192,25860,1,0,0:0:0:0:
36,192,25935,1,0,0:0:0:0:
329,192,25935,1,0,0:0:0:0:
402,192,25935,1,0,0:0:0:0:
109,192,26010,1,0,0:0:0:0:
256,192,26010,1,0,0:0:0:0:
182,192,26085,1,0,0:0:0:0:
329,192,26085,1,0,0:0:0:0:
256,192,26160,1,0,0:0:0:0:
402,192,26160,1,0,0:0:0:0:
329,192,26235,1,0,0:0:0:0:
182,192,26235,1,0,0:0:0:0:
109,192,26235,1,0,0:0:0:0:
36,192,26235,1,0,0:0:0:0:
256,192,26310,1,0,0:0:0:0:
402,192,26310,1,0,0:0:0:0:
329,192,26385,1,0,0:0:0:0:
475,192,26385,1,0,0:0:0:0:
109,192,26460,1,0,0:0:0:0:
182,192,26460,1,0,0:0:0:0:
256,192,26535,1,0,0:0:0:0:
402,192,26535,1,0,0:0:0:0:
475,192,26535,1,0,0:0:0:0:
182,192,26610,1,0,0:0:0:0:
329,192,26610,1,0,0:0:0:0:
109,192,26685,1,0,0:0:0:0:
402,192,26685,1,0,0:0:0:0:
256,192,26760,1,0,0:0:0:0:
475,192,26760,1,0,0:0:0:0:
329,192,26835,1,0,0:0:0:0:
182,192,26835,1,0,0:0:0:0:
109,192,26835,1,0,0:0:0:0:
402,192,26910,1,0,0:0:0:0:
475,192,26910,1,0,0:0:0:0:
109,192,26985,1,0,0:0:0:0:
256,192,26985,1,0,0:0:0:0:
182,192,27060,1,0,0:0:0:0:
329,192,27060,1,0,0:0:0:0:
256,192,27135,1,0,0:0:0:0:
402,192,27135,1,0,0:0:0:0:
475,192,27135,1,0,0:0:0:0:
182,192,27210,1,0,0:0:0:0:
109,192,27210,1,0,0:0:0:0:
329,192,27285,1,0,0:0:0:0:
475,192,27285,1,0,0:0:0:0:
109,192,27360,1,0,0:0:0:0:
256,192,27360,1,0,0:0:0:0:
182,192,27435,1,0,0:0:0:0:
329,192,27435,1,0,0:0:0:0:
475,192,27435,1,0,0:0:0:0:
402,192,27510,1,0,0:0:0:0:
256,192,27510,1,0,0:0:0:0:
182,192,27585,1,0,0:0:0:0:
109,192,27585,1,0,0:0:0:0:
329,192,27660,1,0,0:0:0:0:
475,192,27660,1,0,0:0:0:0:
109,192,27735,1,0,0:0:0:0:
182,192,27735,1,0,0:0:0:0:
256,192,27735,1,0,0:0:0:0:
402,192,27810,1,0,0:0:0:0:
475,192,27810,1,0,0:0:0:0:
329,192,27885,1,0,0:0:0:0:
182,192,27885,1,0,0:0:0:0:
109,192,27960,1,0,0:0:0:0:
256,192,27960,1,0,0:0:0:0:
329,192,28035,1,0,0:0:0:0:
402,192,28035,1,0,0:0:0:0:
475,192,28035,1,0,0:0:0:0:
109,192,28110,1,0,0:0:0:0:
182,192,28110,1,0,0:0:0:0:
256,192,28185,1,0,0:0:0:0:
402,192,28185,1,0,0:0:0:0:
182,192,28260,1,0,0:0:0:0:
109,192,28260,1,0,0:0:0:0:
329,192,28335,1,0,0:0:0:0:
256,192,28335,1,0,0:0:0:0:
475,192,28335,1,0,0:0:0:0:
402,192,28410,1,0,0:0:0:0:
182,192,28410,1,0,0:0:0:0:
109,192,28485,1,0,0:0:0:0:
329,192,28485,1,0,0:0:0:0:
256,192,28560,1,0,0:0:0:0:
402,192,28560,1,0,0:0:0:0:
109,192,28635,1,0,0:0:0:0:
329,192,28635,1,0,0:0:0:0:
182,192,28635,1,0,0:0:0:0:
36,192,28635,1,0,0:0:0:0:
475,192,28635,1,0,0:0:0:0:
256,192,28710,1,0,0:0:0:0:
402,192,28710,1,0,0:0:0:0:
36,192,28785,1,0,0:0:0:0:
109,192,28785,1,0,0:0:0:0:
182,192,28860,1,0,0:0:0:0:
329,192,28860,1,0,0:0:0:0:
256,192,28935,1,0,0:0:0:0:
402,192,28935,1,0,0:0:0:0:
36,192,28935,1,0,0:0:0:0:
109,192,29010,1,0,0:0:0:0:
182,192,29010,1,0,0:0:0:0:
329,192,29085,1,0,0:0:0:0:
402,192,29085,1,0,0:0:0:0:
36,192,29160,1,0,0:0:0:0:
182,192,29160,1,0,0:0:0:0:
109,192,29235,1,0,0:0:0:0:
256,192,29235,1,0,0:0:0:0:
402,192,29235,1,0,0:0:0:0:
329,192,29310,1,0,0:0:0:0:
182,192,29310,1,0,0:0:0:0:
109,192,29385,1,0,0:0:0:0:
36,192,29385,1,0,0:0:0:0:
256,192,29460,1,0,0:0:0:0:
402,192,29460,1,0,0:0:0:0:
36,192,29535,1,0,0:0:0:0:
109,192,29535,1,0,0:0:0:0:
182,192,29535,1,0,0:0:0:0:
329,192,29610,1,0,0:0:0:0:
402,192,29610,1,0,0:0:0:0:
182,192,29685,1,0,0:0:0:0:
36,192,29685,1,0,0:0:0:0:
109,192,29760,1,0,0:0:0:0:
256,192,29760,1,0,0:0:0:0:
182,192,29835,1,0,0:0:0:0:
329,192,29835,1,0,0:0:0:0:
402,192,29835,1,0,0:0:0:0:
109,192,29910,1,0,0:0:0:0:
36,192,29910,1,0,0:0:0:0:
182,192,29985,1,0,0:0:0:0:
402,192,29985,1,0,0:0:0:0:
329,192,30022,1,0,0:0:0:0:
109,192,30060,1,0,0:0:0:0:
256,192,30060,1,0,0:0:0:0:
36,192,30097,1,0,0:0:0:0:
329,192,30135,1,0,0:0:0:0:
402,192,30135,1,0,0:0:0:0:
182,192,30135,1,0,0:0:0:0:
36,192,30210,1,0,0:0:0:0:
109,192,30210,1,0,0:0:0:0:
182,192,30285,1,0,0:0:0:0:
256,192,30285,1,0,0:0:0:0:
329,192,30322,1,0,0:0:0:0:
109,192,30360,1,0,0:0:0:0:
402,192,30360,1,0,0:0:0:0:
182,192,30397,1,0,0:0:0:0:
256,192,30435,1,0,0:0:0:0:
329,192,30435,1,0,0:0:0:0:
36,192,30435,1,0,0:0:0:0:
109,192,30510,1,0,0:0:0:0:
182,192,30510,1,0,0:0:0:0:
402,192,30510,1,0,0:0:0:0:
256,192,30585,1,0,0:0:0:0:
329,192,30585,1,0,0:0:0:0:
36,192,30585,1,0,0:0:0:0:
182,192,30660,1,0,0:0:0:0:
36,192,30735,1,0,0:0:0:0:
329,192,30735,1,0,0:0:0:0:
109,192,30735,1,0,0:0:0:0:
402,192,30735,1,0,0:0:0:0:
182,192,30810,1,0,0:0:0:0:
256,192,30810,1,0,0:0:0:0:
36,192,30885,1,0,0:0:0:0:
109,192,30885,1,0,0:0:0:0:
329,192,30885,1,0,0:0:0:0:
402,192,30885,1,0,0:0:0:0:
182,192,30922,1,0,0:0:0:0:
256,192,30960,1,0,0:0:0:0:
109,192,30997,1,0,0:0:0:0:
182,192,31035,1,0,0:0:0:0:
402,192,31035,1,0,0:0:0:0:
329,192,31035,1,0,0:0:0:0:
475,192,31035,1,0,0:0:0:0:
36,192,31035,1,0,0:0:0:0:
109,192,31110,1,0,0:0:0:0:
256,192,31110,1,0,0:0:0:0:
182,192,31185,1,0,0:0:0:0:
402,192,31185,1,0,0:0:0:0:
329,192,31260,1,0,0:0:0:0:
36,192,31260,1,0,0:0:0:0:
109,192,31335,1,0,0:0:0:0:
256,192,31335,1,0,0:0:0:0:
402,192,31335,1,0,0:0:0:0:
182,192,31410,1,0,0:0:0:0:
329,192,31410,1,0,0:0:0:0:
256,192,31485,1,0,0:0:0:0:
36,192,31485,1,0,0:0:0:0:
329,192,31560,1,0,0:0:0:0:
109,192,31560,1,0,0:0:0:0:
36,192,31635,1,0,0:0:0:0:
182,192,31635,1,0,0:0:0:0:
402,192,31635,1,0,0:0:0:0:
109,192,31710,1,0,0:0:0:0:
36,192,31785,1,0,0:0:0:0:
256,192,31785,1,0,0:0:0:0:
329,192,31860,1,0,0:0:0:0:
182,192,31860,1,0,0:0:0:0:
109,192,31935,1,0,0:0:0:0:
36,192,31935,1,0,0:0:0:0:
402,192,31935,1,0,0:0:0:0:
182,192,32010,1,0,0:0:0:0:
256,192,32085,1,0,0:0:0:0:
402,192,32085,1,0,0:0:0:0:
329,192,32160,1,0,0:0:0:0:
109,192,32160,1,0,0:0:0:0:
182,192,32235,1,0,0:0:0:0:
36,192,32235,1,0,0:0:0:0:
402,192,32235,1,0,0:0:0:0:
109,192,32310,1,0,0:0:0:0:
475,192,32310,1,0,0:0:0:0:
182,192,32385,1,0,0:0:0:0:
256,192,32385,1,0,0:0:0:0:
329,192,32460,1,0,0:0:0:0:
36,192,32460,1,0,0:0:0:0:
182,192,32535,1,0,0:0:0:0:
475,192,32535,1,0,0:0:0:0:
109,192,32610,1,0,0:0:0:0:
256,192,32610,1,0,0:0:0:0:
36,192,32685,1,0,0:0:0:0:
475,192,32685,1,0,0:0:0:0:
182,192,32760,1,0,0:0:0:0:
329,192,32760,1,0,0:0:0:0:
256,192,32835,1,0,0:0:0:0:
36,192,32835,1,0,0:0:0:0:
109,192,32910,1,0,0:0:0:0:
182,192,32910,1,0,0:0:0:0:
256,192,32985,1,0,0:0:0:0:
329,192,32985,1,0,0:0:0:0:
36,192,33060,1,0,0:0:0:0:
475,192,33060,1,0,0:0:0:0:
109,192,33135,1,0,0:0:0:0:
182,192,33135,1,0,0:0:0:0:
329,192,33135,1,0,0:0:0:0:
256,192,33210,1,0,0:0:0:0:
36,192,33210,1,0,0:0:0:0:
329,192,33285,1,0,0:0:0:0:
475,192,33285,1,0,0:0:0:0:
109,192,33360,1,0,0:0:0:0:
182,192,33360,1,0,0:0:0:0:
36,192,33435,1,0,0:0:0:0:
256,192,33435,1,0,0:0:0:0:
475,192,33435,1,0,0:0:0:0:
402,192,33435,1,0,0:0:0:0:
329,192,33472,1,0,0:0:0:0:
182,192,33510,1,0,0:0:0:0:
109,192,33547,1,0,0:0:0:0:
36,192,33585,1,0,0:0:0:0:
475,192,33585,1,0,0:0:0:0:
329,192,33622,1,0,0:0:0:0:
182,192,33660,1,0,0:0:0:0:
402,192,33660,1,0,0:0:0:0:
475,192,33697,1,0,0:0:0:0:
109,192,33735,1,0,0:0:0:0:
36,192,33735,1,0,0:0:0:0:
182,192,33772,1,0,0:0:0:0:
329,192,33810,1,0,0:0:0:0:
402,192,33847,1,0,0:0:0:0:
475,192,33885,1,0,0:0:0:0:
36,192,33885,1,0,0:0:0:0:
109,192,33922,1,0,0:0:0:0:
182,192,33960,1,0,0:0:0:0:
329,192,33960,1,0,0:0:0:0:
475,192,33997,1,0,0:0:0:0:
402,192,34035,1,0,0:0:0:0:
36,192,34035,1,0,0:0:0:0:
329,192,34072,1,0,0:0:0:0:
182,192,34110,1,0,0:0:0:0:
109,192,34147,1,0,0:0:0:0:
36,192,34185,1,0,0:0:0:0:
475,192,34185,1,0,0:0:0:0:
402,192,34222,1,0,0:0:0:0:
329,192,34260,1,0,0:0:0:0:
182,192,34297,1,0,0:0:0:0:
109,192,34335,1,0,0:0:0:0:
36,192,34335,1,0,0:0:0:0:
475,192,34372,1,0,0:0:0:0:
182,192,34410,1,0,0:0:0:0:
402,192,34410,1,0,0:0:0:0:
329,192,34447,1,0,0:0:0:0:
36,192,34485,1,0,0:0:0:0:
109,192,34485,1,0,0:0:0:0:
182,192,34522,1,0,0:0:0:0:
402,192,34560,1,0,0:0:0:0:
475,192,34597,1,0,0:0:0:0:
329,192,34635,1,0,0:0:0:0:
109,192,34635,1,0,0:0:0:0:
36,192,34635,1,0,0:0:0:0:
256,192,34710,1,0,0:0:0:0:
182,192,34710,1,0,0:0:0:0:
402,192,34785,1,0,0:0:0:0:
475,192,34785,1,0,0:0:0:0:
329,192,34860,1,0,0:0:0:0:
182,192,34860,1,0,0:0:0:0:
256,192,34935,1,0,0:0:0:0:
36,192,34935,1,0,0:0:0:0:
475,192,34935,1,0,0:0:0:0:
402,192,35010,1,0,0:0:0:0:
182,192,35010,1,0,0:0:0:0:
256,192,35085,1,0,0:0:0:0:
329,192,35085,1,0,0:0:0:0:
402,192,35160,1,0,0:0:0:0:
475,192,35160,1,0,0:0:0:0:
329,192,35235,1,0,0:0:0:0:
182,192,35235,1,0,0:0:0:0:
36,192,35235,1,0,0:0:0:0:
402,192,35310,1,0,0:0:0:0:
475,192,35310,1,0,0:0:0:0:
256,192,35385,1,0,0:0:0:0:
182,192,35385,1,0,0:0:0:0:
329,192,35460,1,0,0:0:0:0:
475,192,35460,1,0,0:0:0:0:
402,192,35535,1,0,0:0:0:0:
256,192,35535,1,0,0:0:0:0:
36,192,35535,1,0,0:0:0:0:
182,192,35610,1,0,0:0:0:0:
329,192,35610,1,0,0:0:0:0:
402,192,35685,1,0,0:0:0:0:
475,192,35685,1,0,0:0:0:0:
256,192,35760,1,0,0:0:0:0:
182,192,35760,1,0,0:0:0:0:
329,192,35835,1,0,0:0:0:0:
402,192,35835,1,0,0:0:0:0:
475,192,35835,1,0,0:0:0:0:
36,192,35835,1,0,0:0:0:0:
182,192,35910,1,0,0:0:0:0:
256,192,35910,1,0,0:0:0:0:
109,192,35985,1,0,0:0:0:0:
329,192,35985,1,0,0:0:0:0:
36,192,36060,1,0,0:0:0:0:
475,192,36060,1,0,0:0:0:0:
109,192,36135,1,0,0:0:0:0:
182,192,36135,1,0,0:0:0:0:
256,192,36210,1,0,0:0:0:0:
36,192,36210,1,0,0:0:0:0:
182,192,36285,1,0,0:0:0:0:
329,192,36285,1,0,0:0:0:0:
109,192,36360,1,0,0:0:0:0:
475,192,36360,1,0,0:0:0:0:
256,192,36435,1,0,0:0:0:0:
36,192,36435,1,0,0:0:0:0:
329,192,36510,1,0,0:0:0:0:
182,192,36510,1,0,0:0:0:0:
109,192,36585,1,0,0:0:0:0:
256,192,36585,1,0,0:0:0:0:
475,192,36660,1,0,0:0:0:0:
329,192,36735,1,0,0:0:0:0:
182,192,36735,1,0,0:0:0:0:
36,192,36735,1,0,0:0:0:0:
109,192,36810,1,0,0:0:0:0:
256,192,36810,1,0,0:0:0:0:
182,192,36885,1,0,0:0:0:0:
329,192,36885,1,0,0:0:0:0:
256,192,36960,1,0,0:0:0:0:
475,192,36960,1,0,0:0:0:0:
109,192,37035,1,0,0:0:0:0:
329,192,37035,1,0,0:0:0:0:
182,192,37110,1,0,0:0:0:0:
475,192,37110,1,0,0:0:0:0:
256,192,37185,1,0,0:0:0:0:
36,192,37185,1,0,0:0:0:0:
402,192,37260,1,0,0:0:0:0:
109,192,37260,1,0,0:0:0:0:
182,192,37335,1,0,0:0:0:0:
256,192,37335,1,0,0:0:0:0:
36,192,37410,1,0,0:0:0:0:
475,192,37410,1,0,0:0:0:0:
109,192,37485,1,0,0:0:0:0:
182,192,37485,1,0,0:0:0:0:
256,192,37560,1,0,0:0:0:0:
402,192,37560,1,0,0:0:0:0:
36,192,37635,1,0,0:0:0:0:
109,192,37635,1,0,0:0:0:0:
475,192,37635,1,0,0:0:0:0:
182,192,37710,1,0,0:0:0:0:
256,192,37710,1,0,0:0:0:0:
402,192,37785,1,0,0:0:0:0:
36,192,37785,1,0,0:0:0:0:
475,192,37860,1,0,0:0:0:0:
182,192,37860,1,0,0:0:0:0:
109,192,37935,1,0,0:0:0:0:
256,192,37935,1,0,0:0:0:0:
402,192,38010,1,0,0:0:0:0:
475,192,38010,1,0,0:0:0:0:
182,192,38085,1,0,0:0:0:0:
36,192,38085,1,0,0:0:0:0:
256,192,38160,1,0,0:0:0:0:
402,192,38160,1,0,0:0:0:0:
36,192,38235,1,0,0:0:0:0:
109,192,38235,1,0,0:0:0:0:
475,192,38235,1,0,0:0:0:0:
182,192,38272,1,0,0:0:0:0:
256,192,38310,1,0,0:0:0:0:
402,192,38347,1,0,0:0:0:0:
329,192,38385,1,0,0:0:0:0:
36,192,38385,1,0,0:0:0:0:
109,192,38422,1,0,0:0:0:0:
182,192,38460,1,0,0:0:0:0:
402,192,38460,1,0,0:0:0:0:
256,192,38497,1,0,0:0:0:0:
109,192,38535,1,0,0:0:0:0:
36,192,38535,1,0,0:0:0:0:
329,192,38572,1,0,0:0:0:0:
182,192,38610,1,0,0:0:0:0:
402,192,38610,1,0,0:0:0:0:
256,192,38647,1,0,0:0:0:0:
109,192,38685,1,0,0:0:0:0:
36,192,38685,1,0,0:0:0:0:
402,192,38722,1,0,0:0:0:0:
182,192,38760,1,0,0:0:0:0:
329,192,38760,1,0,0:0:0:0:
256,192,38797,1,0,0:0:0:0:
36,192,38835,1,0,0:0:0:0:
109,192,38835,1,0,0:0:0:0:
182,192,38872,1,0,0:0:0:0:
402,192,38910,1,0,0:0:0:0:
329,192,38910,1,0,0:0:0:0:
256,192,38947,1,0,0:0:0:0:
109,192,38985,1,0,0:0:0:0:
36,192,38985,1,0,0:0:0:0:
182,192,39022,1,0,0:0:0:0:
256,192,39060,1,0,0:0:0:0:
402,192,39060,1,0,0:0:0:0:
329,192,39097,1,0,0:0:0:0:
182,192,39135,1,0,0:0:0:0:
36,192,39135,1,0,0:0:0:0:
109,192,39172,1,0,0:0:0:0:
329,192,39210,1,0,0:0:0:0:
402,192,39210,1,0,0:0:0:0:
256,192,39247,1,0,0:0:0:0:
182,192,39285,1,0,0:0:0:0:
109,192,39285,1,0,0:0:0:0:
36,192,39322,1,0,0:0:0:0:
329,192,39360,1,0,0:0:0:0:
402,192,39360,1,0,0:0:0:0:
256,192,39397,1,0,0:0:0:0:
182,192,39435,1,0,0:0:0:0:
109,192,39435,1,0,0:0:0:0:
36,192,39435,1,0,0:0:0:0:
329,192,39510,1,0,0:0:0:0:
475,192,39510,1,0,0:0:0:0:
256,192,39585,1,0,0:0:0:0:
109,192,39585,1,0,0:0:0:0:
182,192,39660,1,0,0:0:0:0:
329,192,39660,1,0,0:0:0:0:
256,192,39735,1,0,0:0:0:0:
402,192,39735,1,0,0:0:0:0:
475,192,39735,1,0,0:0:0:0:
182,192,39810,1,0,0:0:0:0:
109,192,39810,1,0,0:0:0:0:
329,192,39885,1,0,0:0:0:0:
475,192,39885,1,0,0:0:0:0:
256,192,39960,1,0,0:0:0:0:
109,192,39960,1,0,0:0:0:0:
182,192,40035,1,0,0:0:0:0:
402,192,40035,1,0,0:0:0:0:
475,192,40035,1,0,0:0:0:0:
402,192,40110,1,0,0:0:0:0:
329,192,40110,1,0,0:0:0:0:
256,192,40110,1,0,0:0:0:0:
182,192,40185,1,0,0:0:0:0:
109,192,40185,1,0,0:0:0:0:
402,192,40260,1,0,0:0:0:0:
475,192,40260,1,0,0:0:0:0:
329,192,40335,1,0,0:0:0:0:
182,192,40335,1,0,0:0:0:0:
109,192,40335,1,0,0:0:0:0:
182,192,40410,1,0,0:0:0:0:
256,192,40410,1,0,0:0:0:0:
402,192,40410,1,0,0:0:0:0:
329,192,40485,1,0,0:0:0:0:
475,192,40485,1,0,0:0:0:0:
109,192,40560,1,0,0:0:0:0:
182,192,40560,1,0,0:0:0:0:
402,192,40635,1,0,0:0:0:0:
256,192,40635,1,0,0:0:0:0:
329,192,40635,1,0,0:0:0:0:
475,192,40635,1,0,0:0:0:0:
182,192,40710,1,0,0:0:0:0:
36,192,40710,1,0,0:0:0:0:
402,192,40785,1,0,0:0:0:0:
475,192,40785,1,0,0:0:0:0:
36,192,40860,1,0,0:0:0:0:
329,192,40860,1,0,0:0:0:0:
109,192,40860,1,0,0:0:0:0:
182,192,40935,1,0,0:0:0:0:
475,192,40935,1,0,0:0:0:0:
329,192,41010,1,0,0:0:0:0:
36,192,41010,1,0,0:0:0:0:
402,192,41085,1,0,0:0:0:0:
182,192,41085,1,0,0:0:0:0:
475,192,41160,1,0,0:0:0:0:
109,192,41160,1,0,0:0:0:0:
36,192,41235,1,0,0:0:0:0:
329,192,41235,1,0,0:0:0:0:
182,192,41310,1,0,0:0:0:0:
475,192,41310,1,0,0:0:0:0:
402,192,41385,1,0,0:0:0:0:
36,192,41385,1,0,0:0:0:0:
109,192,41460,1,0,0:0:0:0:
329,192,41460,1,0,0:0:0:0:
182,192,41535,1,0,0:0:0:0:
475,192,41535,1,0,0:0:0:0:
329,192,41610,1,0,0:0:0:0:
36,192,41610,1,0,0:0:0:0:
402,192,41685,1,0,0:0:0:0:
182,192,41685,1,0,0:0:0:0:
109,192,41760,1,0,0:0:0:0:
475,192,41760,1,0,0:0:0:0:
182,192,41835,1,0,0:0:0:0:
256,192,41835,1,0,0:0:0:0:
329,192,41835,1,0,0:0:0:0:
402,192,41835,1,0,0:0:0:0:
109,192,41910,1,0,0:0:0:0:
36,192,41910,1,0,0:0:0:0:
256,192,41985,1,0,0:0:0:0:
402,192,41985,1,0,0:0:0:0:
475,192,41985,1,0,0:0:0:0:
329,192,42060,1,0,0:0:0:0:
109,192,42060,1,0,0:0:0:0:
36,192,42135,1,0,0:0:0:0:
475,192,42135,1,0,0:0:0:0:
329,192,42210,1,0,0:0:0:0:
402,192,42210,1,0,0:0:0:0:
256,192,42210,1,0,0:0:0:0:
109,192,42285,1,0,0:0:0:0:
36,192,42285,1,0,0:0:0:0:
402,192,42360,1,0,0:0:0:0:
329,192,42360,1,0,0:0:0:0:
475,192,42360,1,0,0:0:0:0:
256,192,42435,1,0,0:0:0:0:
109,192,42435,1,0,0:0:0:0:
475,192,42510,1,0,0:0:0:0:
36,192,42510,1,0,0:0:0:0:
402,192,42510,1,0,0:0:0:0:
329,192,42585,1,0,0:0:0:0:
256,192,42585,1,0,0:0:0:0:
36,192,42660,1,0,0:0:0:0:
109,192,42660,1,0,0:0:0:0:
475,192,42660,1,0,0:0:0:0:
402,192,42735,1,0,0:0:0:0:
329,192,42735,1,0,0:0:0:0:
109,192,42810,1,0,0:0:0:0:
256,192,42810,1,0,0:0:0:0:
36,192,42810,1,0,0:0:0:0:
402,192,42885,1,0,0:0:0:0:
475,192,42885,1,0,0:0:0:0:
256,192,42960,1,0,0:0:0:0:
329,192,42960,1,0,0:0:0:0:
109,192,42960,1,0,0:0:0:0:
36,192,43035,1,0,0:0:0:0:
182,192,43035,1,0,0:0:0:0:
402,192,43035,1,0,0:0:0:0:
475,192,43035,1,0,0:0:0:0:
256,192,43072,1,0,0:0:0:0:
329,192,43110,1,0,0:0:0:0:
109,192,43110,1,0,0:0:0:0:
36,192,43147,1,0,0:0:0:0:
182,192,43185,1,0,0:0:0:0:
402,192,43185,1,0,0:0:0:0:
256,192,43222,1,0,0:0:0:0:
329,192,43260,1,0,0:0:0:0:
109,192,43260,1,0,0:0:0:0:
36,192,43297,1,0,0:0:0:0:
256,192,43335,1,0,0:0:0:0:
402,192,43335,1,0,0:0:0:0:
182,192,43372,1,0,0:0:0:0:
109,192,43410,1,0,0:0:0:0:
36,192,43410,1,0,0:0:0:0:
329,192,43447,1,0,0:0:0:0:
256,192,43485,1,0,0:0:0:0:
182,192,43485,1,0,0:0:0:0:
109,192,43522,1,0,0:0:0:0:
36,192,43560,1,0,0:0:0:0:
402,192,43560,1,0,0:0:0:0:
182,192,43597,1,0,0:0:0:0:
256,192,43635,1,0,0:0:0:0:
329,192,43635,1,0,0:0:0:0:
109,192,43672,1,0,0:0:0:0:
36,192,43710,1,0,0:0:0:0:
402,192,43710,1,0,0:0:0:0:
182,192,43747,1,0,0:0:0:0:
256,192,43785,1,0,0:0:0:0:
329,192,43785,1,0,0:0:0:0:
36,192,43822,1,0,0:0:0:0:
109,192,43860,1,0,0:0:0:0:
402,192,43860,1,0,0:0:0:0:
182,192,43897,1,0,0:0:0:0:
329,192,43935,1,0,0:0:0:0:
36,192,43935,1,0,0:0:0:0:
256,192,43972,1,0,0:0:0:0:
109,192,44010,1,0,0:0:0:0:
402,192,44010,1,0,0:0:0:0:
182,192,44047,1,0,0:0:0:0:
329,192,44085,1,0,0:0:0:0:
36,192,44085,1,0,0:0:0:0:
256,192,44122,1,0,0:0:0:0:
182,192,44160,1,0,0:0:0:0:
109,192,44160,1,0,0:0:0:0:
36,192,44197,1,0,0:0:0:0:
256,192,44235,1,0,0:0:0:0:
329,192,44235,1,0,0:0:0:0:
402,192,44235,1,0,0:0:0:0:
109,192,44310,1,0,0:0:0:0:
36,192,44310,1,0,0:0:0:0:
256,192,44385,1,0,0:0:0:0:
475,192,44385,1,0,0:0:0:0:
402,192,44460,1,0,0:0:0:0:
182,192,44460,1,0,0:0:0:0:
256,192,44535,1,0,0:0:0:0:
109,192,44535,1,0,0:0:0:0:
36,192,44535,1,0,0:0:0:0:
402,192,44610,1,0,0:0:0:0:
475,192,44610,1,0,0:0:0:0:
182,192,44685,1,0,0:0:0:0:
36,192,44685,1,0,0:0:0:0:
109,192,44760,1,0,0:0:0:0:
256,192,44760,1,0,0:0:0:0:
182,192,44835,1,0,0:0:0:0:
402,192,44835,1,0,0:0:0:0:
475,192,44835,1,0,0:0:0:0:
109,192,44910,1,0,0:0:0:0:
36,192,44910,1,0,0:0:0:0:
182,192,44985,1,0,0:0:0:0:
256,192,44985,1,0,0:0:0:0:
109,192,45060,1,0,0:0:0:0:
36,192,45060,1,0,0:0:0:0:
256,192,45135,1,0,0:0:0:0:
402,192,45135,1,0,0:0:0:0:
475,192,45135,1,0,0:0:0:0:
182,192,45210,1,0,0:0:0:0:
36,192,45210,1,0,0:0:0:0:
109,192,45285,1,0,0:0:0:0:
256,192,45285,1,0,0:0:0:0:
182,192,45360,1,0,0:0:0:0:
402,192,45360,1,0,0:0:0:0:
475,192,45435,1,0,0:0:0:0:
256,192,45435,1,0,0:0:0:0:
109,192,45435,1,0,0:0:0:0:
36,192,45435,1,0,0:0:0:0:
182,192,45510,1,0,0:0:0:0:
329,192,45510,1,0,0:0:0:0:
475,192,45585,1,0,0:0:0:0:
402,192,45585,1,0,0:0:0:0:
256,192,45585,1,0,0:0:0:0:
182,192,45660,1,0,0:0:0:0:
109,192,45660,1,0,0:0:0:0:
256,192,45697,1,0,0:0:0:0:
475,192,45735,1,0,0:0:0:0:
402,192,45735,1,0,0:0:0:0:
329,192,45735,1,0,0:0:0:0:
109,192,45810,1,0,0:0:0:0:
256,192,45810,1,0,0:0:0:0:
402,192,45885,1,0,0:0:0:0:
182,192,45885,1,0,0:0:0:0:
475,192,45885,1,0,0:0:0:0:
256,192,45960,1,0,0:0:0:0:
329,192,45960,1,0,0:0:0:0:
402,192,45997,1,0,0:0:0:0:
475,192,46035,1,0,0:0:0:0:
182,192,46035,1,0,0:0:0:0:
109,192,46035,1,0,0:0:0:0:
256,192,46110,1,0,0:0:0:0:
402,192,46110,1,0,0:0:0:0:
109,192,46185,1,0,0:0:0:0:
182,192,46185,1,0,0:0:0:0:
329,192,46185,1,0,0:0:0:0:
402,192,46260,1,0,0:0:0:0:
475,192,46260,1,0,0:0:0:0:
182,192,46297,1,0,0:0:0:0:
329,192,46335,1,0,0:0:0:0:
256,192,46335,1,0,0:0:0:0:
109,192,46335,1,0,0:0:0:0:
402,192,46410,1,0,0:0:0:0:
475,192,46410,1,0,0:0:0:0:
256,192,46485,1,0,0:0:0:0:
329,192,46485,1,0,0:0:0:0:
182,192,46485,1,0,0:0:0:0:
109,192,46560,1,0,0:0:0:0:
402,192,46560,1,0,0:0:0:0:
329,192,46597,1,0,0:0:0:0:
182,192,46635,1,0,0:0:0:0:
256,192,46635,1,0,0:0:0:0:
475,192,46635,1,0,0:0:0:0:
402,192,46710,1,0,0:0:0:0:
329,192,46710,1,0,0:0:0:0:
182,192,46785,1,0,0:0:0:0:
109,192,46785,1,0,0:0:0:0:
475,192,46785,1,0,0:0:0:0:
256,192,46860,1,0,0:0:0:0:
402,192,46860,1,0,0:0:0:0:
182,192,46897,1,0,0:0:0:0:
109,192,46935,1,0,0:0:0:0:
329,192,46935,1,0,0:0:0:0:
475,192,46935,1,0,0:0:0:0:
256,192,47010,1,0,0:0:0:0:
182,192,47010,1,0,0:0:0:0:
475,192,47085,1,0,0:0:0:0:
329,192,47085,1,0,0:0:0:0:
402,192,47085,1,0,0:0:0:0:
182,192,47160,1,0,0:0:0:0:
109,192,47160,1,0,0:0:0:0:
256,192,47197,1,0,0:0:0:0:
329,192,47235,1,0,0:0:0:0:
402,192,47235,1,0,0:0:0:0:
475,192,47235,1,0,0:0:0:0:
182,192,47310,1,0,0:0:0:0:
36,192,47310,1,0,0:0:0:0:
402,192,47385,1,0,0:0:0:0:
109,192,47385,1,0,0:0:0:0:
256,192,47385,1,0,0:0:0:0:
182,192,47460,1,0,0:0:0:0:
36,192,47460,1,0,0:0:0:0:
256,192,47497,1,0,0:0:0:0:
109,192,47535,1,0,0:0:0:0:
329,192,47535,1,0,0:0:0:0:
402,192,47535,1,0,0:0:0:0:
256,192,47610,1,0,0:0:0:0:
182,192,47610,1,0,0:0:0:0:
36,192,47685,1,0,0:0:0:0:
109,192,47685,1,0,0:0:0:0:
475,192,47685,1,0,0:0:0:0:
182,192,47760,1,0,0:0:0:0:
402,192,47760,1,0,0:0:0:0:
109,192,47797,1,0,0:0:0:0:
36,192,47835,1,0,0:0:0:0:
256,192,47835,1,0,0:0:0:0:
475,192,47835,1,0,0:0:0:0:
109,192,47910,1,0,0:0:0:0:
329,192,47910,1,0,0:0:0:0:
182,192,47985,1,0,0:0:0:0:
475,192,47985,1,0,0:0:0:0:
36,192,47985,1,0,0:0:0:0:
402,192,47985,1,0,0:0:0:0:
182,192,48060,1,0,0:0:0:0:
329,192,48060,1,0,0:0:0:0:
109,192,48135,1,0,0:0:0:0:
475,192,48135,1,0,0:0:0:0:
402,192,48135,1,0,0:0:0:0:
36,192,48135,1,0,0:0:0:0:
329,192,48210,1,0,0:0:0:0:
182,192,48210,1,0,0:0:0:0:
36,192,48285,1,0,0:0:0:0:
402,192,48285,1,0,0:0:0:0:
475,192,48285,1,0,0:0:0:0:
109,192,48285,1,0,0:0:0:0:
402,192,48360,1,0,0:0:0:0:
182,192,48360,1,0,0:0:0:0:
475,192,48435,1,0,0:0:0:0:
109,192,48435,1,0,0:0:0:0:
329,192,48435,1,0,0:0:0:0:
36,192,48510,1,0,0:0:0:0:
402,192,48510,1,0,0:0:0:0:
329,192,48585,1,0,0:0:0:0:
109,192,48585,1,0,0:0:0:0:
182,192,48585,1,0,0:0:0:0:
475,192,48585,1,0,0:0:0:0:
109,192,48660,1,0,0:0:0:0:
402,192,48660,1,0,0:0:0:0:
36,192,48735,1,0,0:0:0:0:
475,192,48735,1,0,0:0:0:0:
182,192,48735,1,0,0:0:0:0:
402,192,48810,1,0,0:0:0:0:
109,192,48810,1,0,0:0:0:0:
36,192,48885,1,0,0:0:0:0:
329,192,48885,1,0,0:0:0:0:
475,192,48885,1,0,0:0:0:0:
182,192,48885,1,0,0:0:0:0:
329,192,48960,1,0,0:0:0:0:
109,192,48960,1,0,0:0:0:0:
475,192,49035,1,0,0:0:0:0:
36,192,49035,1,0,0:0:0:0:
256,192,49035,1,0,0:0:0:0:
402,192,49035,1,0,0:0:0:0:
329,192,49110,1,0,0:0:0:0:
182,192,49110,1,0,0:0:0:0:
475,192,49185,1,0,0:0:0:0:
109,192,49185,1,0,0:0:0:0:
256,192,49185,1,0,0:0:0:0:
402,192,49222,1,0,0:0:0:0:
329,192,49260,1,0,0:0:0:0:
182,192,49260,1,0,0:0:0:0:
109,192,49297,1,0,0:0:0:0:
256,192,49335,1,0,0:0:0:0:
402,192,49335,1,0,0:0:0:0:
475,192,49335,1,0,0:0:0:0:
182,192,49410,1,0,0:0:0:0:
329,192,49410,1,0,0:0:0:0:
402,192,49485,1,0,0:0:0:0:
256,192,49485,1,0,0:0:0:0:
475,192,49485,1,0,0:0:0:0:
109,192,49522,1,0,0:0:0:0:
329,192,49560,1,0,0:0:0:0:
182,192,49560,1,0,0:0:0:0:
402,192,49597,1,0,0:0:0:0:
36,192,49635,1,0,0:0:0:0:
256,192,49635,1,0,0:0:0:0:
109,192,49635,1,0,0:0:0:0:
475,192,49635,1,0,0:0:0:0:
402,192,49710,1,0,0:0:0:0:
182,192,49710,1,0,0:0:0:0:
329,192,49710,1,0,0:0:0:0:
109,192,49785,1,0,0:0:0:0:
256,192,49785,1,0,0:0:0:0:
36,192,49785,1,0,0:0:0:0:
329,192,49860,1,0,0:0:0:0:
182,192,49860,1,0,0:0:0:0:
36,192,49935,1,0,0:0:0:0:
109,192,49935,1,0,0:0:0:0:
402,192,49935,1,0,0:0:0:0:
475,192,49935,1,0,0:0:0:0:
256,192,50010,1,0,0:0:0:0:
182,192,50010,1,0,0:0:0:0:
329,192,50010,1,0,0:0:0:0:
109,192,50085,1,0,0:0:0:0:
475,192,50085,1,0,0:0:0:0:
36,192,50085,1,0,0:0:0:0:
182,192,50122,1,0,0:0:0:0:
329,192,50160,1,0,0:0:0:0:
256,192,50160,1,0,0:0:0:0:
475,192,50197,1,0,0:0:0:0:
182,192,50235,1,0,0:0:0:0:
109,192,50235,1,0,0:0:0:0:
36,192,50235,1,0,0:0:0:0:
402,192,50235,1,0,0:0:0:0:
329,192,50310,1,0,0:0:0:0:
256,192,50310,1,0,0:0:0:0:
36,192,50385,1,0,0:0:0:0:
109,192,50385,1,0,0:0:0:0:
475,192,50385,1,0,0:0:0:0:
256,192,50460,1,0,0:0:0:0:
402,192,50460,1,0,0:0:0:0:
182,192,50497,1,0,0:0:0:0:
109,192,50535,1,0,0:0:0:0:
36,192,50535,1,0,0:0:0:0:
329,192,50535,1,0,0:0:0:0:
475,192,50535,1,0,0:0:0:0:
402,192,50610,1,0,0:0:0:0:
256,192,50610,1,0,0:0:0:0:
182,192,50685,1,0,0:0:0:0:
36,192,50685,1,0,0:0:0:0:
329,192,50685,1,0,0:0:0:0:
402,192,50760,1,0,0:0:0:0:
475,192,50760,1,0,0:0:0:0:
256,192,50797,1,0,0:0:0:0:
182,192,50835,1,0,0:0:0:0:
109,192,50835,1,0,0:0:0:0:
36,192,50835,1,0,0:0:0:0:
329,192,50835,1,0,0:0:0:0:
402,192,50910,1,0,0:0:0:0:
475,192,50910,1,0,0:0:0:0:
109,192,50985,1,0,0:0:0:0:
36,192,50985,1,0,0:0:0:0:
256,192,50985,1,0,0:0:0:0:
182,192,51060,1,0,0:0:0:0:
329,192,51060,1,0,0:0:0:0:
402,192,51097,1,0,0:0:0:0:
475,192,51135,1,0,0:0:0:0:
256,192,51135,1,0,0:0:0:0:
109,192,51135,1,0,0:0:0:0:
36,192,51135,1,0,0:0:0:0:
182,192,51210,1,0,0:0:0:0:
329,192,51210,1,0,0:0:0:0:
256,192,51285,1,0,0:0:0:0:
402,192,51285,1,0,0:0:0:0:
36,192,51285,1,0,0:0:0:0:
475,192,51360,1,0,0:0:0:0:
182,192,51360,1,0,0:0:0:0:
109,192,51397,1,0,0:0:0:0:
36,192,51435,1,0,0:0:0:0:
256,192,51435,1,0,0:0:0:0:
329,192,51435,1,0,0:0:0:0:
402,192,51435,1,0,0:0:0:0:
109,192,51510,1,0,0:0:0:0:
182,192,51510,1,0,0:0:0:0:
329,192,51585,1,0,0:0:0:0:
402,192,51585,1,0,0:0:0:0:
475,192,51585,1,0,0:0:0:0:
182,192,51660,1,0,0:0:0:0:
36,192,51660,1,0,0:0:0:0:
256,192,51697,1,0,0:0:0:0:
329,192,51735,1,0,0:0:0:0:
402,192,51735,1,0,0:0:0:0:
475,192,51735,1,0,0:0:0:0:
109,192,51735,1,0,0:0:0:0:
182,192,51810,1,0,0:0:0:0:
256,192,51810,1,0,0:0:0:0:
402,192,51885,1,0,0:0:0:0:
475,192,51885,1,0,0:0:0:0:
36,192,51885,1,0,0:0:0:0:
182,192,51960,1,0,0:0:0:0:
329,192,51960,1,0,0:0:0:0:
109,192,51997,1,0,0:0:0:0:
256,192,52035,1,0,0:0:0:0:
402,192,52035,1,0,0:0:0:0:
475,192,52035,1,0,0:0:0:0:
36,192,52035,1,0,0:0:0:0:
182,192,52110,1,0,0:0:0:0:
329,192,52110,1,0,0:0:0:0:
256,192,52185,1,0,0:0:0:0:
109,192,52185,1,0,0:0:0:0:
36,192,52185,1,0,0:0:0:0:
402,192,52260,1,0,0:0:0:0:
475,192,52260,1,0,0:0:0:0:
329,192,52297,1,0,0:0:0:0:
256,192,52335,1,0,0:0:0:0:
182,192,52335,1,0,0:0:0:0:
109,192,52335,1,0,0:0:0:0:
36,192,52335,1,0,0:0:0:0:
329,192,52410,1,0,0:0:0:0:
475,192,52410,1,0,0:0:0:0:
256,192,52485,1,0,0:0:0:0:
182,192,52485,1,0,0:0:0:0:
109,192,52485,1,0,0:0:0:0:
329,192,52560,1,0,0:0:0:0:
402,192,52560,1,0,0:0:0:0:
36,192,52597,1,0,0:0:0:0:
182,192,52635,1,0,0:0:0:0:
256,192,52635,1,0,0:0:0:0:
475,192,52635,1,0,0:0:0:0:
109,192,52635,1,0,0:0:0:0:
402,192,52672,1,0,0:0:0:0:
329,192,52710,1,0,0:0:0:0:
36,192,52710,1,0,0:0:0:0:
109,192,52747,1,0,0:0:0:0:
182,192,52785,1,0,0:0:0:0:
256,192,52785,1,0,0:0:0:0:
475,192,52785,1,0,0:0:0:0:
402,192,52822,1,0,0:0:0:0:
329,192,52860,1,0,0:0:0:0:
109,192,52860,1,0,0:0:0:0:
36,192,52897,1,0,0:0:0:0:
182,192,52935,1,0,0:0:0:0:
256,192,52935,1,0,0:0:0:0:
475,192,52935,1,0,0:0:0:0:
402,192,52972,1,0,0:0:0:0:
329,192,53010,1,0,0:0:0:0:
109,192,53010,1,0,0:0:0:0:
36,192,53047,1,0,0:0:0:0:
256,192,53085,1,0,0:0:0:0:
475,192,53085,1,0,0:0:0:0:
402,192,53085,1,0,0:0:0:0:
182,192,53122,1,0,0:0:0:0:
109,192,53160,1,0,0:0:0:0:
329,192,53160,1,0,0:0:0:0:
402,192,53197,1,0,0:0:0:0:
475,192,53235,1,0,0:0:0:0:
36,192,53235,1,0,0:0:0:0:
182,192,53235,1,0,0:0:0:0:
256,192,53272,1,0,0:0:0:0:
329,192,53310,1,0,0:0:0:0:
109,192,53310,1,0,0:0:0:0:
402,192,53347,1,0,0:0:0:0:
475,192,53385,1,0,0:0:0:0:
182,192,53385,1,0,0:0:0:0:
36,192,53385,1,0,0:0:0:0:
256,192,53422,1,0,0:0:0:0:
329,192,53460,1,0,0:0:0:0:
402,192,53460,1,0,0:0:0:0:
475,192,53497,1,0,0:0:0:0:
36,192,53535,1,0,0:0:0:0:
109,192,53535,1,0,0:0:0:0:
182,192,53535,1,0,0:0:0:0:
256,192,53572,1,0,0:0:0:0:
402,192,53610,1,0,0:0:0:0:
475,192,53610,1,0,0:0:0:0:
329,192,53647,1,0,0:0:0:0:
109,192,53685,1,0,0:0:0:0:
36,192,53685,1,0,0:0:0:0:
182,192,53685,1,0,0:0:0:0:
256,192,53722,1,0,0:0:0:0:
402,192,53760,1,0,0:0:0:0:
475,192,53760,1,0,0:0:0:0:
329,192,53797,1,0,0:0:0:0:
36,192,53835,1,0,0:0:0:0:
109,192,53835,1,0,0:0:0:0:
256,192,53835,1,0,0:0:0:0:
182,192,53835,1,0,0:0:0:0:
475,192,53910,1,0,0:0:0:0:
402,192,53910,1,0,0:0:0:0:
329,192,53985,1,0,0:0:0:0:
182,192,53985,1,0,0:0:0:0:
109,192,53985,1,0,0:0:0:0:
256,192,54060,1,0,0:0:0:0:
402,192,54060,1,0,0:0:0:0:
475,192,54097,1,0,0:0:0:0:
329,192,54135,1,0,0:0:0:0:
182,192,54135,1,0,0:0:0:0:
36,192,54135,1,0,0:0:0:0:
109,192,54135,1,0,0:0:0:0:
256,192,54210,1,0,0:0:0:0:
402,192,54210,1,0,0:0:0:0:
36,192,54285,1,0,0:0:0:0:
109,192,54285,1,0,0:0:0:0:
329,192,54285,1,0,0:0:0:0:
256,192,54360,1,0,0:0:0:0:
475,192,54360,1,0,0:0:0:0:
182,192,54397,1,0,0:0:0:0:
329,192,54435,1,0,0:0:0:0:
402,192,54435,1,0,0:0:0:0:
109,192,54435,1,0,0:0:0:0:
36,192,54435,1,0,0:0:0:0:
36,192,54510,1,0,0:0:0:0:
109,192,54510,1,0,0:0:0:0:
256,192,54510,1,0,0:0:0:0:
182,192,54510,1,0,0:0:0:0:
329,192,54585,1,0,0:0:0:0:
402,192,54585,1,0,0:0:0:0:
475,192,54585,1,0,0:0:0:0:
182,192,54660,1,0,0:0:0:0:
36,192,54660,1,0,0:0:0:0:
256,192,54697,1,0,0:0:0:0:
109,192,54735,1,0,0:0:0:0:
329,192,54735,1,0,0:0:0:0:
402,192,54735,1,0,0:0:0:0:
475,192,54735,1,0,0:0:0:0:
182,192,54810,1,0,0:0:0:0:
256,192,54810,1,0,0:0:0:0:
402,192,54810,1,0,0:0:0:0:
475,192,54810,1,0,0:0:0:0:
329,192,54885,1,0,0:0:0:0:
109,192,54885,1,0,0:0:0:0:
36,192,54885,1,0,0:0:0:0:
182,192,54960,1,0,0:0:0:0:
256,192,54960,1,0,0:0:0:0:
329,192,54997,1,0,0:0:0:0:
109,192,55035,1,0,0:0:0:0:
36,192,55035,1,0,0:0:0:0:
402,192,55035,1,0,0:0:0:0:
475,192,55035,1,0,0:0:0:0:
182,192,55110,1,0,0:0:0:0:
329,192,55110,1,0,0:0:0:0:
256,192,55185,1,0,0:0:0:0:
402,192,55185,1,0,0:0:0:0:
475,192,55185,1,0,0:0:0:0:
182,192,55260,1,0,0:0:0:0:
36,192,55260,1,0,0:0:0:0:
329,192,55297,1,0,0:0:0:0:
109,192,55335,1,0,0:0:0:0:
256,192,55335,1,0,0:0:0:0:
402,192,55335,1,0,0:0:0:0:
475,192,55335,1,0,0:0:0:0:
182,192,55410,1,0,0:0:0:0:
36,192,55410,1,0,0:0:0:0:
329,192,55485,1,0,0:0:0:0:
402,192,55485,1,0,0:0:0:0:
475,192,55485,1,0,0:0:0:0:
256,192,55560,1,0,0:0:0:0:
109,192,55560,1,0,0:0:0:0:
329,192,55597,1,0,0:0:0:0:
182,192,55635,1,0,0:0:0:0:
36,192,55635,1,0,0:0:0:0:
402,192,55635,1,0,0:0:0:0:
475,192,55635,1,0,0:0:0:0:
109,192,55710,1,0,0:0:0:0:
256,192,55710,1,0,0:0:0:0:
182,192,55785,1,0,0:0:0:0:
329,192,55785,1,0,0:0:0:0:
475,192,55785,1,0,0:0:0:0:
109,192,55860,1,0,0:0:0:0:
36,192,55860,1,0,0:0:0:0:
182,192,55897,1,0,0:0:0:0:
256,192,55935,1,0,0:0:0:0:
329,192,55935,1,0,0:0:0:0:
475,192,55935,1,0,0:0:0:0:
402,192,55935,1,0,0:0:0:0:
109,192,56010,1,0,0:0:0:0:
36,192,56010,1,0,0:0:0:0:
182,192,56085,1,0,0:0:0:0:
329,192,56085,1,0,0:0:0:0:
475,192,56085,1,0,0:0:0:0:
109,192,56160,1,0,0:0:0:0:
36,192,56160,1,0,0:0:0:0:
256,192,56197,1,0,0:0:0:0:
182,192,56235,1,0,0:0:0:0:
402,192,56235,1,0,0:0:0:0:
329,192,56235,1,0,0:0:0:0:
475,192,56235,1,0,0:0:0:0:
256,192,56310,1,0,0:0:0:0:
109,192,56310,1,0,0:0:0:0:
182,192,56385,1,0,0:0:0:0:
36,192,56385,1,0,0:0:0:0:
475,192,56385,1,0,0:0:0:0:
402,192,56460,1,0,0:0:0:0:
329,192,56460,1,0,0:0:0:0:
256,192,56497,1,0,0:0:0:0:
475,192,56535,1,0,0:0:0:0:
182,192,56535,1,0,0:0:0:0:
36,192,56535,1,0,0:0:0:0:
109,192,56535,1,0,0:0:0:0:
256,192,56610,1,0,0:0:0:0:
329,192,56610,1,0,0:0:0:0:
402,192,56685,1,0,0:0:0:0:
475,192,56685,1,0,0:0:0:0:
36,192,56685,1,0,0:0:0:0:
109,192,56760,1,0,0:0:0:0:
256,192,56760,1,0,0:0:0:0:
329,192,56797,1,0,0:0:0:0:
182,192,56835,1,0,0:0:0:0:
36,192,56835,1,0,0:0:0:0:
402,192,56835,1,0,0:0:0:0:
475,192,56835,1,0,0:0:0:0:
329,192,56910,1,0,0:0:0:0:
256,192,56910,1,0,0:0:0:0:
182,192,56985,1,0,0:0:0:0:
36,192,56985,1,0,0:0:0:0:
475,192,56985,1,0,0:0:0:0:
402,192,57060,1,0,0:0:0:0:
109,192,57060,1,0,0:0:0:0:
329,192,57097,1,0,0:0:0:0:
182,192,57135,1,0,0:0:0:0:
256,192,57135,1,0,0:0:0:0:
36,192,57135,1,0,0:0:0:0:
475,192,57135,1,0,0:0:0:0:
402,192,57210,1,0,0:0:0:0:
329,192,57210,1,0,0:0:0:0:
256,192,57285,1,0,0:0:0:0:
109,192,57285,1,0,0:0:0:0:
36,192,57285,1,0,0:0:0:0:
182,192,57360,1,0,0:0:0:0:
329,192,57360,1,0,0:0:0:0:
402,192,57397,1,0,0:0:0:0:
475,192,57435,1,0,0:0:0:0:
256,192,57435,1,0,0:0:0:0:
109,192,57435,1,0,0:0:0:0:
36,192,57435,1,0,0:0:0:0:
182,192,57472,1,0,0:0:0:0:
329,192,57510,1,0,0:0:0:0:
402,192,57510,1,0,0:0:0:0:
109,192,57547,1,0,0:0:0:0:
36,192,57585,1,0,0:0:0:0:
256,192,57585,1,0,0:0:0:0:
475,192,57585,1,0,0:0:0:0:
182,192,57622,1,0,0:0:0:0:
329,192,57660,1,0,0:0:0:0:
402,192,57660,1,0,0:0:0:0:
256,192,57697,1,0,0:0:0:0:
109,192,57735,1,0,0:0:0:0:
36,192,57735,1,0,0:0:0:0:
475,192,57735,1,0,0:0:0:0:
182,192,57772,1,0,0:0:0:0:
329,192,57810,1,0,0:0:0:0:
402,192,57810,1,0,0:0:0:0:
256,192,57847,1,0,0:0:0:0:
36,192,57885,1,0,0:0:0:0:
109,192,57885,1,0,0:0:0:0:
182,192,57885,1,0,0:0:0:0:
475,192,57922,1,0,0:0:0:0:
402,192,57960,1,0,0:0:0:0:
329,192,57960,1,0,0:0:0:0:
256,192,57997,1,0,0:0:0:0:
36,192,58035,1,0,0:0:0:0:
109,192,58035,1,0,0:0:0:0:
182,192,58035,1,0,0:0:0:0:
329,192,58072,1,0,0:0:0:0:
402,192,58110,1,0,0:0:0:0:
475,192,58110,1,0,0:0:0:0:
36,192,58147,1,0,0:0:0:0:
109,192,58185,1,0,0:0:0:0:
182,192,58185,1,0,0:0:0:0:
256,192,58185,1,0,0:0:0:0:
329,192,58222,1,0,0:0:0:0:
402,192,58260,1,0,0:0:0:0:
475,192,58260,1,0,0:0:0:0:
36,192,58297,1,0,0:0:0:0:
109,192,58335,1,0,0:0:0:0:
182,192,58335,1,0,0:0:0:0:
329,192,58335,1,0,0:0:0:0:
402,192,58372,1,0,0:0:0:0:
475,192,58410,1,0,0:0:0:0:
256,192,58410,1,0,0:0:0:0:
36,192,58447,1,0,0:0:0:0:
109,192,58485,1,0,0:0:0:0:
182,192,58485,1,0,0:0:0:0:
329,192,58485,1,0,0:0:0:0:
402,192,58522,1,0,0:0:0:0:
475,192,58560,1,0,0:0:0:0:
36,192,58560,1,0,0:0:0:0:
109,192,58597,1,0,0:0:0:0:
182,192,58635,1,0,0:0:0:0:
256,192,58635,1,0,0:0:0:0:
402,192,58635,1,0,0:0:0:0:
329,192,58635,1,0,0:0:0:0:
109,192,58710,1,0,0:0:0:0:
36,192,58710,1,0,0:0:0:0:
256,192,58785,1,0,0:0:0:0:
402,192,58785,1,0,0:0:0:0:
475,192,58785,1,0,0:0:0:0:
329,192,58860,1,0,0:0:0:0:
182,192,58860,1,0,0:0:0:0:
109,192,58897,1,0,0:0:0:0:
256,192,58935,1,0,0:0:0:0:
36,192,58935,1,0,0:0:0:0:
402,192,58935,1,0,0:0:0:0:
475,192,58935,1,0,0:0:0:0:
475,192,59010,1,0,0:0:0:0:
402,192,59010,1,0,0:0:0:0:
329,192,59010,1,0,0:0:0:0:
182,192,59010,1,0,0:0:0:0:
256,192,59085,1,0,0:0:0:0:
109,192,59085,1,0,0:0:0:0:
36,192,59085,1,0,0:0:0:0:
329,192,59160,1,0,0:0:0:0:
475,192,59160,1,0,0:0:0:0:
182,192,59197,1,0,0:0:0:0:
256,192,59235,1,0,0:0:0:0:
402,192,59235,1,0,0:0:0:0:
109,192,59235,1,0,0:0:0:0:
36,192,59235,1,0,0:0:0:0:
36,192,59310,1,0,0:0:0:0:
109,192,59310,1,0,0:0:0:0:
182,192,59310,1,0,0:0:0:0:
329,192,59310,1,0,0:0:0:0:
256,192,59385,1,0,0:0:0:0:
402,192,59385,1,0,0:0:0:0:
475,192,59385,1,0,0:0:0:0:
329,192,59460,1,0,0:0:0:0:
182,192,59460,1,0,0:0:0:0:
109,192,59497,1,0,0:0:0:0:
256,192,59535,1,0,0:0:0:0:
402,192,59535,1,0,0:0:0:0:
475,192,59535,1,0,0:0:0:0:
36,192,59535,1,0,0:0:0:0:
402,192,59610,1,0,0:0:0:0:
256,192,59610,1,0,0:0:0:0:
36,192,59685,1,0,0:0:0:0:
109,192,59685,1,0,0:0:0:0:
182,192,59685,1,0,0:0:0:0:
329,192,59685,1,0,0:0:0:0:
256,192,59760,1,0,0:0:0:0:
402,192,59760,1,0,0:0:0:0:
182,192,59797,1,0,0:0:0:0:
109,192,59835,1,0,0:0:0:0:
36,192,59835,1,0,0:0:0:0:
329,192,59835,1,0,0:0:0:0:
475,192,59835,1,0,0:0:0:0:
182,192,59910,1,0,0:0:0:0:
256,192,59910,1,0,0:0:0:0:
329,192,59985,1,0,0:0:0:0:
402,192,59985,1,0,0:0:0:0:
475,192,59985,1,0,0:0:0:0:
182,192,60060,1,0,0:0:0:0:
36,192,60060,1,0,0:0:0:0:
256,192,60097,1,0,0:0:0:0:
109,192,60135,1,0,0:0:0:0:
329,192,60135,1,0,0:0:0:0:
475,192,60135,1,0,0:0:0:0:
402,192,60135,1,0,0:0:0:0:
182,192,60210,1,0,0:0:0:0:
256,192,60210,1,0,0:0:0:0:
109,192,60285,1,0,0:0:0:0:
36,192,60285,1,0,0:0:0:0:
475,192,60285,1,0,0:0:0:0:
256,192,60360,1,0,0:0:0:0:
402,192,60360,1,0,0:0:0:0:
182,192,60397,1,0,0:0:0:0:
109,192,60435,1,0,0:0:0:0:
36,192,60435,1,0,0:0:0:0:
329,192,60435,1,0,0:0:0:0:
475,192,60435,1,0,0:0:0:0:
256,192,60510,1,0,0:0:0:0:
182,192,60510,1,0,0:0:0:0:
329,192,60585,1,0,0:0:0:0:
402,192,60585,1,0,0:0:0:0:
36,192,60585,1,0,0:0:0:0:
109,192,60660,1,0,0:0:0:0:
475,192,60660,1,0,0:0:0:0:
182,192,60697,1,0,0:0:0:0:
256,192,60735,1,0,0:0:0:0:
329,192,60735,1,0,0:0:0:0:
402,192,60735,1,0,0:0:0:0:
36,192,60735,1,0,0:0:0:0:
109,192,60810,1,0,0:0:0:0:
182,192,60810,1,0,0:0:0:0:
256,192,60885,1,0,0:0:0:0:
402,192,60885,1,0,0:0:0:0:
475,192,60885,1,0,0:0:0:0:
329,192,60960,1,0,0:0:0:0:
36,192,60960,1,0,0:0:0:0:
109,192,60997,1,0,0:0:0:0:
182,192,61035,1,0,0:0:0:0:
256,192,61035,1,0,0:0:0:0:
402,192,61035,1,0,0:0:0:0:
475,192,61035,1,0,0:0:0:0:
109,192,61110,1,0,0:0:0:0:
36,192,61110,1,0,0:0:0:0:
182,192,61185,1,0,0:0:0:0:
329,192,61185,1,0,0:0:0:0:
475,192,61185,1,0,0:0:0:0:
256,192,61260,1,0,0:0:0:0:
109,192,61260,1,0,0:0:0:0:
402,192,61297,1,0,0:0:0:0:
329,192,61335,1,0,0:0:0:0:
182,192,61335,1,0,0:0:0:0:
36,192,61335,1,0,0:0:0:0:
475,192,61335,1,0,0:0:0:0:
109,192,61410,1,0,0:0:0:0:
256,192,61410,1,0,0:0:0:0:
329,192,61485,1,0,0:0:0:0:
402,192,61485,1,0,0:0:0:0:
475,192,61485,1,0,0:0:0:0:
182,192,61560,1,0,0:0:0:0:
36,192,61560,1,0,0:0:0:0:
329,192,61597,1,0,0:0:0:0:
109,192,61635,1,0,0:0:0:0:
256,192,61635,1,0,0:0:0:0:
402,192,61635,1,0,0:0:0:0:
475,192,61635,1,0,0:0:0:0:
329,192,61710,1,0,0:0:0:0:
182,192,61710,1,0,0:0:0:0:
256,192,61785,1,0,0:0:0:0:
109,192,61785,1,0,0:0:0:0:
36,192,61785,1,0,0:0:0:0:
329,192,61860,1,0,0:0:0:0:
402,192,61860,1,0,0:0:0:0:
182,192,61897,1,0,0:0:0:0:
475,192,61935,1,0,0:0:0:0:
256,192,61935,1,0,0:0:0:0:
109,192,61935,1,0,0:0:0:0:
36,192,61935,1,0,0:0:0:0:
182,192,62010,1,0,0:0:0:0:
329,192,62010,1,0,0:0:0:0:
256,192,62085,1,0,0:0:0:0:
402,192,62085,1,0,0:0:0:0:
475,192,62085,1,0,0:0:0:0:
182,192,62160,1,0,0:0:0:0:
36,192,62160,1,0,0:0:0:0:
256,192,62197,1,0,0:0:0:0:
329,192,62235,1,0,0:0:0:0:
402,192,62235,1,0,0:0:0:0:
475,192,62235,1,0,0:0:0:0:
109,192,62235,1,0,0:0:0:0:
182,192,62272,1,0,0:0:0:0:
256,192,62310,1,0,0:0:0:0:
36,192,62310,1,0,0:0:0:0:
329,192,62347,1,0,0:0:0:0:
402,192,62385,1,0,0:0:0:0:
475,192,62385,1,0,0:0:0:0:
109,192,62385,1,0,0:0:0:0:
182,192,62422,1,0,0:0:0:0:
256,192,62460,1,0,0:0:0:0:
329,192,62460,1,0,0:0:0:0:
402,192,62497,1,0,0:0:0:0:
475,192,62535,1,0,0:0:0:0:
36,192,62535,1,0,0:0:0:0:
109,192,62535,1,0,0:0:0:0:
182,192,62572,1,0,0:0:0:0:
256,192,62610,1,0,0:0:0:0:
329,192,62610,1,0,0:0:0:0:
402,192,62647,1,0,0:0:0:0:
475,192,62685,1,0,0:0:0:0:
36,192,62685,1,0,0:0:0:0:
182,192,62685,1,0,0:0:0:0:
109,192,62722,1,0,0:0:0:0:
329,192,62760,1,0,0:0:0:0:
402,192,62760,1,0,0:0:0:0:
256,192,62797,1,0,0:0:0:0:
182,192,62835,1,0,0:0:0:0:
36,192,62835,1,0,0:0:0:0:
475,192,62835,1,0,0:0:0:0:
402,192,62872,1,0,0:0:0:0:
329,192,62910,1,0,0:0:0:0:
256,192,62910,1,0,0:0:0:0:
182,192,62947,1,0,0:0:0:0:
109,192,62985,1,0,0:0:0:0:
36,192,62985,1,0,0:0:0:0:
475,192,62985,1,0,0:0:0:0:
402,192,63022,1,0,0:0:0:0:
329,192,63060,1,0,0:0:0:0:
256,192,63060,1,0,0:0:0:0:
182,192,63097,1,0,0:0:0:0:
109,192,63135,1,0,0:0:0:0:
36,192,63135,1,0,0:0:0:0:
475,192,63135,1,0,0:0:0:0:
402,192,63172,1,0,0:0:0:0:
329,192,63210,1,0,0:0:0:0:
182,192,63210,1,0,0:0:0:0:
109,192,63247,1,0,0:0:0:0:
36,192,63285,1,0,0:0:0:0:
256,192,63285,1,0,0:0:0:0:
475,192,63285,1,0,0:0:0:0:
402,192,63322,1,0,0:0:0:0:
329,192,63360,1,0,0:0:0:0:
182,192,63360,1,0,0:0:0:0:
109,192,63397,1,0,0:0:0:0:
36,192,63435,1,0,0:0:0:0:
256,192,63435,1,0,0:0:0:0:
402,192,63435,1,0,0:0:0:0:
475,192,63435,1,0,0:0:0:0:
109,192,63510,1,0,0:0:0:0:
182,192,63510,1,0,0:0:0:0:
329,192,63585,1,0,0:0:0:0:
402,192,63585,1,0,0:0:0:0:
475,192,63585,1,0,0:0:0:0:
109,192,63660,1,0,0:0:0:0:
36,192,63660,1,0,0:0:0:0:
182,192,63697,1,0,0:0:0:0:
256,192,63735,1,0,0:0:0:0:
329,192,63735,1,0,0:0:0:0:
402,192,63735,1,0,0:0:0:0:
475,192,63735,1,0,0:0:0:0:
109,192,63810,1,0,0:0:0:0:
36,192,63810,1,0,0:0:0:0:
182,192,63885,1,0,0:0:0:0:
329,192,63885,1,0,0:0:0:0:
475,192,63885,1,0,0:0:0:0:
256,192,63960,1,0,0:0:0:0:
109,192,63960,1,0,0:0:0:0:
329,192,63997,1,0,0:0:0:0:
182,192,64035,1,0,0:0:0:0:
36,192,64035,1,0,0:0:0:0:
402,192,64035,1,0,0:0:0:0:
475,192,64035,1,0,0:0:0:0:
329,192,64110,1,0,0:0:0:0:
256,192,64110,1,0,0:0:0:0:
475,192,64110,1,0,0:0:0:0:
402,192,64110,1,0,0:0:0:0:
182,192,64185,1,0,0:0:0:0:
109,192,64185,1,0,0:0:0:0:
36,192,64185,1,0,0:0:0:0:
256,192,64260,1,0,0:0:0:0:
402,192,64260,1,0,0:0:0:0:
182,192,64297,1,0,0:0:0:0:
329,192,64335,1,0,0:0:0:0:
475,192,64335,1,0,0:0:0:0:
109,192,64335,1,0,0:0:0:0:
36,192,64335,1,0,0:0:0:0:
256,192,64410,1,0,0:0:0:0:
182,192,64410,1,0,0:0:0:0:
109,192,64410,1,0,0:0:0:0:
36,192,64410,1,0,0:0:0:0:
329,192,64485,1,0,0:0:0:0:
402,192,64485,1,0,0:0:0:0:
475,192,64485,1,0,0:0:0:0:
256,192,64560,1,0,0:0:0:0:
109,192,64560,1,0,0:0:0:0:
329,192,64597,1,0,0:0:0:0:
182,192,64635,1,0,0:0:0:0:
36,192,64635,1,0,0:0:0:0:
402,192,64635,1,0,0:0:0:0:
475,192,64635,1,0,0:0:0:0:
256,192,64710,1,0,0:0:0:0:
329,192,64710,1,0,0:0:0:0:
402,192,64785,1,0,0:0:0:0:
475,192,64785,1,0,0:0:0:0:
109,192,64785,1,0,0:0:0:0:
36,192,64785,1,0,0:0:0:0:
182,192,64860,1,0,0:0:0:0:
256,192,64860,1,0,0:0:0:0:
109,192,64935,1,0,0:0:0:0:
36,192,64935,1,0,0:0:0:0:
329,192,64935,1,0,0:0:0:0:
475,192,64935,1,0,0:0:0:0:
402,192,64935,1,0,0:0:0:0:
256,192,65010,1,0,0:0:0:0:
182,192,65085,1,0,0:0:0:0:
109,192,65085,1,0,0:0:0:0:
36,192,65085,1,0,0:0:0:0:
402,192,65085,1,0,0:0:0:0:
475,192,65085,1,0,0:0:0:0:
256,192,65160,1,0,0:0:0:0:
329,192,65160,1,0,0:0:0:0:
402,192,65235,1,0,0:0:0:0:
475,192,65235,1,0,0:0:0:0:
109,192,65235,1,0,0:0:0:0:
36,192,65235,1,0,0:0:0:0:
182,192,65310,1,0,0:0:0:0:
256,192,65310,1,0,0:0:0:0:
329,192,65385,1,0,0:0:0:0:
402,192,65385,1,0,0:0:0:0:
475,192,65385,1,0,0:0:0:0:
109,192,65385,1,0,0:0:0:0:
36,192,65385,1,0,0:0:0:0:
182,192,65460,1,0,0:0:0:0:
256,192,65460,1,0,0:0:0:0:
402,192,65535,1,0,0:0:0:0:
475,192,65535,1,0,0:0:0:0:
109,192,65535,1,0,0:0:0:0:
36,192,65535,1,0,0:0:0:0:
329,192,65610,1,0,0:0:0:0:
256,192,65610,1,0,0:0:0:0:
182,192,65685,1,0,0:0:0:0:
36,192,65685,1,0,0:0:0:0:
109,192,65685,1,0,0:0:0:0:
402,192,65685,1,0,0:0:0:0:
475,192,65685,1,0,0:0:0:0:
182,192,65760,1,0,0:0:0:0:
109,192,65760,1,0,0:0:0:0:
36,192,65760,1,0,0:0:0:0:
402,192,65760,1,0,0:0:0:0:
475,192,65760,1,0,0:0:0:0:
36,192,65835,1,0,0:0:0:0:
109,192,65835,1,0,0:0:0:0:
182,192,65835,1,0,0:0:0:0:
402,192,65835,1,0,0:0:0:0:
475,192,65835,1,0,0:0:0:0:
256,192,65910,1,0,0:0:0:0:
329,192,65910,1,0,0:0:0:0:
475,192,65985,1,0,0:0:0:0:
109,192,65985,1,0,0:0:0:0:
36,192,65985,1,0,0:0:0:0:
256,192,66060,1,0,0:0:0:0:
329,192,66060,1,0,0:0:0:0:
402,192,66060,1,0,0:0:0:0:
182,192,66135,1,0,0:0:0:0:
109,192,66135,1,0,0:0:0:0:
36,192,66135,1,0,0:0:0:0:
475,192,66135,1,0,0:0:0:0:
256,192,66210,1,0,0:0:0:0:
402,192,66210,1,0,0:0:0:0:
329,192,66210,1,0,0:0:0:0:
109,192,66285,1,0,0:0:0:0:
36,192,66285,1,0,0:0:0:0:
475,192,66285,1,0,0:0:0:0:
182,192,66360,1,0,0:0:0:0:
329,192,66360,1,0,0:0:0:0:
256,192,66360,1,0,0:0:0:0:
402,192,66435,1,0,0:0:0:0:
475,192,66435,1,0,0:0:0:0:
36,192,66435,1,0,0:0:0:0:
109,192,66510,1,0,0:0:0:0:
182,192,66510,1,0,0:0:0:0:
256,192,66510,1,0,0:0:0:0:
329,192,66585,1,0,0:0:0:0:
402,192,66585,1,0,0:0:0:0:
475,192,66585,1,0,0:0:0:0:
36,192,66585,1,0,0:0:0:0:
109,192,66660,1,0,0:0:0:0:
182,192,66660,1,0,0:0:0:0:
256,192,66660,1,0,0:0:0:0:
36,192,66735,1,0,0:0:0:0:
402,192,66735,1,0,0:0:0:0:
475,192,66735,1,0,0:0:0:0:
182,192,66810,1,0,0:0:0:0:
329,192,66810,1,0,0:0:0:0:
36,192,66885,1,0,0:0:0:0:
109,192,66885,1,0,0:0:0:0:
402,192,66885,1,0,0:0:0:0:
475,192,66885,1,0,0:0:0:0:
256,192,66885,1,0,0:0:0:0:
109,192,66960,1,0,0:0:0:0:
36,192,66960,1,0,0:0:0:0:
402,192,66960,1,0,0:0:0:0:
475,192,66960,1,0,0:0:0:0:
256,192,66960,1,0,0:0:0:0:
109,192,67035,1,0,0:0:0:0:
36,192,67035,1,0,0:0:0:0:
256,192,67035,1,0,0:0:0:0:
402,192,67035,1,0,0:0:0:0:
475,192,67035,1,0,0:0:0:0:
329,192,67110,1,0,0:0:0:0:
182,192,67110,1,0,0:0:0:0:
256,192,67185,1,0,0:0:0:0:
109,192,67185,1,0,0:0:0:0:
36,192,67185,1,0,0:0:0:0:
402,192,67185,1,0,0:0:0:0:
475,192,67185,1,0,0:0:0:0:
329,192,67260,1,0,0:0:0:0:
256,192,67260,1,0,0:0:0:0:
182,192,67335,1,0,0:0:0:0:
109,192,67335,1,0,0:0:0:0:
36,192,67335,1,0,0:0:0:0:
402,192,67335,1,0,0:0:0:0:
475,192,67335,1,0,0:0:0:0:
256,192,67410,1,0,0:0:0:0:
329,192,67410,1,0,0:0:0:0:
109,192,67485,1,0,0:0:0:0:
402,192,67485,1,0,0:0:0:0:
475,192,67485,1,0,0:0:0:0:
182,192,67485,1,0,0:0:0:0:
36,192,67485,1,0,0:0:0:0:
402,192,67560,1,0,0:0:0:0:
475,192,67560,1,0,0:0:0:0:
109,192,67560,1,0,0:0:0:0:
256,192,67560,1,0,0:0:0:0:
182,192,67635,1,0,0:0:0:0:
36,192,67635,1,0,0:0:0:0:
329,192,67635,1,0,0:0:0:0:
402,192,67635,1,0,0:0:0:0:
475,192,67635,1,0,0:0:0:0:
256,192,67710,1,0,0:0:0:0:
109,192,67710,1,0,0:0:0:0:
402,192,67785,1,0,0:0:0:0:
182,192,67785,1,0,0:0:0:0:
329,192,67785,1,0,0:0:0:0:
475,192,67785,1,0,0:0:0:0:
36,192,67785,1,0,0:0:0:0:
256,192,67860,1,0,0:0:0:0:
402,192,67860,1,0,0:0:0:0:
329,192,67935,1,0,0:0:0:0:
182,192,67935,1,0,0:0:0:0:
109,192,67935,1,0,0:0:0:0:
36,192,67935,1,0,0:0:0:0:
475,192,67935,1,0,0:0:0:0:
402,192,68010,1,0,0:0:0:0:
256,192,68010,1,0,0:0:0:0:
36,192,68085,1,0,0:0:0:0:
329,192,68085,1,0,0:0:0:0:
475,192,68085,1,0,0:0:0:0:
109,192,68122,1,0,0:0:0:0:
182,192,68160,1,0,0:0:0:0:
402,192,68160,1,0,0:0:0:0:
256,192,68197,1,0,0:0:0:0:
36,192,68235,1,0,0:0:0:0:
109,192,68235,1,0,0:0:0:0:
329,192,68235,1,0,0:0:0:0:
475,192,68235,1,0,0:0:0:0:
182,192,68310,1,0,0:0:0:0:
256,192,68310,1,0,0:0:0:0:
402,192,68310,1,0,0:0:0:0:
329,192,68385,1,0,0:0:0:0:
475,192,68385,1,0,0:0:0:0:
109,192,68385,1,0,0:0:0:0:
36,192,68385,1,0,0:0:0:0:
256,192,68422,1,0,0:0:0:0:
182,192,68460,1,0,0:0:0:0:
109,192,68497,1,0,0:0:0:0:
36,192,68535,1,0,0:0:0:0:
329,192,68535,1,0,0:0:0:0:
402,192,68535,1,0,0:0:0:0:
475,192,68535,1,0,0:0:0:0:
182,192,68610,1,0,0:0:0:0:
256,192,68610,1,0,0:0:0:0:
109,192,68610,1,0,0:0:0:0:
402,192,68685,1,0,0:0:0:0:
475,192,68685,1,0,0:0:0:0:
36,192,68685,1,0,0:0:0:0:
329,192,68722,1,0,0:0:0:0:
182,192,68760,1,0,0:0:0:0:
109,192,68760,1,0,0:0:0:0:
256,192,68797,1,0,0:0:0:0:
329,192,68835,1,0,0:0:0:0:
402,192,68835,1,0,0:0:0:0:
475,192,68835,1,0,0:0:0:0:
36,192,68835,1,0,0:0:0:0:
109,192,68910,1,0,0:0:0:0:
182,192,68910,1,0,0:0:0:0:
256,192,68910,1,0,0:0:0:0:
329,192,68947,1,0,0:0:0:0:
402,192,68985,1,0,0:0:0:0:
475,192,68985,1,0,0:0:0:0:
36,192,68985,1,0,0:0:0:0:
109,192,69022,1,0,0:0:0:0:
182,192,69060,1,0,0:0:0:0:
256,192,69060,1,0,0:0:0:0:
329,192,69060,1,0,0:0:0:0:
402,192,69097,1,0,0:0:0:0:
475,192,69135,1,0,0:0:0:0:
36,192,69135,1,0,0:0:0:0:
109,192,69135,1,0,0:0:0:0:
182,192,69210,1,0,0:0:0:0:
329,192,69210,1,0,0:0:0:0:
402,192,69247,1,0,0:0:0:0:
36,192,69285,1,0,0:0:0:0:
109,192,69285,1,0,0:0:0:0:
256,192,69285,1,0,0:0:0:0:
475,192,69285,1,0,0:0:0:0:
329,192,69322,1,0,0:0:0:0:
182,192,69360,1,0,0:0:0:0:
256,192,69397,1,0,0:0:0:0:
109,192,69435,1,0,0:0:0:0:
36,192,69435,1,0,0:0:0:0:
329,192,69435,1,0,0:0:0:0:
402,192,69435,1,0,0:0:0:0:
475,192,69435,1,0,0:0:0:0:
329,192,71835,1,0,0:0:0:0:
402,192,72135,1,0,0:0:0:0:
475,192,72435,1,0,0:0:0:0:
182,192,73035,1,0,0:0:0:0:
36,192,74235,1,0,0:0:0:0:
109,192,74235,1,0,0:0:0:0:
329,192,74235,1,0,0:0:0:0:
182,192,74235,1,0,0:0:0:0:
402,192,74235,1,0,0:0:0:0:
475,192,74235,1,0,0:0:0:0:
329,192,74835,1,0,0:0:0:0:
402,192,76035,1,0,0:0:0:0:
329,192,76235,1,0,0:0:0:0:
256,192,76435,1,0,0:0:0:0:
475,192,76635,1,0,0:0:0:0:
182,192,77235,1,0,0:0:0:0:
109,192,78435,1,0,0:0:0:0:
109,192,79035,1,0,0:0:0:0:
182,192,79635,1,0,0:0:0:0:
475,192,80835,1,0,0:0:0:0:
329,192,80835,1,0,0:0:0:0:
256,192,81035,1,0,0:0:0:0:
402,192,81035,1,0,0:0:0:0:
182,192,81235,1,0,0:0:0:0:
36,192,81235,1,0,0:0:0:0:
256,192,81435,1,0,0:0:0:0:
109,192,81435,1,0,0:0:0:0:
329,192,82035,1,0,0:0:0:0:
475,192,82035,1,0,0:0:0:0:
329,192,82935,1,0,0:0:0:0:
402,192,82935,1,0,0:0:0:0:
182,192,82935,1,0,0:0:0:0:
109,192,82935,1,0,0:0:0:0:
329,192,83235,1,0,0:0:0:0:
475,192,83235,1,0,0:0:0:0:
182,192,83235,1,0,0:0:0:0:
109,192,83235,1,0,0:0:0:0:
329,192,83535,1,0,0:0:0:0:
402,192,83535,1,0,0:0:0:0:
182,192,83535,1,0,0:0:0:0:
109,192,83535,1,0,0:0:0:0:
36,192,83835,1,0,0:0:0:0:
109,192,83835,1,0,0:0:0:0:
256,192,83835,1,0,0:0:0:0:
475,192,83835,1,0,0:0:0:0:
402,192,83835,1,0,0:0:0:0:
182,192,85035,1,0,0:0:0:0:
402,192,85035,1,0,0:0:0:0:
475,192,85035,1,0,0:0:0:0:
36,192,85635,1,0,0:0:0:0:
109,192,85635,1,0,0:0:0:0:
256,192,85635,1,0,0:0:0:0:
109,192,86235,1,0,0:0:0:0:
182,192,86235,1,0,0:0:0:0:
329,192,86235,1,0,0:0:0:0:
36,192,87435,1,0,0:0:0:0:
182,192,87435,1,0,0:0:0:0:
402,192,87435,1,0,0:0:0:0:
36,192,87735,1,0,0:0:0:0:
182,192,87735,1,0,0:0:0:0:
329,192,87735,1,0,0:0:0:0:
36,192,88035,1,0,0:0:0:0:
182,192,88035,1,0,0:0:0:0:
329,192,88035,1,0,0:0:0:0:
109,192,88235,1,0,0:0:0:0:
256,192,88235,1,0,0:0:0:0:
402,192,88235,1,0,0:0:0:0:
182,192,88435,1,0,0:0:0:0:
329,192,88435,1,0,0:0:0:0:
475,192,88435,1,0,0:0:0:0:
182,192,88635,1,0,0:0:0:0:
329,192,88635,1,0,0:0:0:0:
475,192,88635,1,0,0:0:0:0:
109,192,89235,1,0,0:0:0:0:
256,192,89235,1,0,0:0:0:0:
402,192,89235,1,0,0:0:0:0:
36,192,90135,1,0,0:0:0:0:
182,192,90135,1,0,0:0:0:0:
329,192,90135,1,0,0:0:0:0:
109,192,90435,1,0,0:0:0:0:
256,192,90435,1,0,0:0:0:0:
402,192,90435,1,0,0:0:0:0:
182,192,90735,1,0,0:0:0:0:
329,192,90735,1,0,0:0:0:0:
475,192,90735,1,0,0:0:0:0:
182,192,91035,1,0,0:0:0:0:
329,192,91035,1,0,0:0:0:0:
475,192,91035,1,0,0:0:0:0:
109,192,91635,1,0,0:0:0:0:
256,192,91635,1,0,0:0:0:0:
402,192,91635,1,0,0:0:0:0:
182,192,92235,1,0,0:0:0:0:
329,192,92235,1,0,0:0:0:0:
475,192,92235,1,0,0:0:0:0:
256,192,92835,1,0,0:0:0:0:
402,192,92835,1,0,0:0:0:0:
475,192,92835,1,0,0:0:0:0:
36,192,93435,1,0,0:0:0:0:
109,192,93435,1,0,0:0:0:0:
256,192,93435,1,0,0:0:0:0:
402,192,93435,1,0,0:0:0:0:
475,192,93435,1,0,0:0:0:0:
329,192,93660,1,0,0:0:0:0:
182,192,93735,1,0,0:0:0:0:
402,192,93810,1,0,0:0:0:0:
109,192,93885,1,0,0:0:0:0:
329,192,93960,1,0,0:0:0:0:
182,192,94035,1,0,0:0:0:0:
475,192,94035,1,0,0:0:0:0:
36,192,94035,1,0,0:0:0:0:
402,192,94110,1,0,0:0:0:0:
109,192,94185,1,0,0:0:0:0:
329,192,94260,1,0,0:0:0:0:
182,192,94335,1,0,0:0:0:0:
402,192,94410,1,0,0:0:0:0:
109,192,94485,1,0,0:0:0:0:
329,192,94560,1,0,0:0:0:0:
329,192,94710,1,0,0:0:0:0:
182,192,94785,1,0,0:0:0:0:
329,192,94860,1,0,0:0:0:0:
109,192,94935,1,0,0:0:0:0:
256,192,95010,1,0,0:0:0:0:
36,192,95085,1,0,0:0:0:0:
182,192,95160,1,0,0:0:0:0:
402,192,95235,1,0,0:0:0:0:
475,192,95235,1,0,0:0:0:0:
36,192,95235,1,0,0:0:0:0:
182,192,95310,1,0,0:0:0:0:
36,192,95385,1,0,0:0:0:0:
329,192,95435,1,0,0:0:0:0:
475,192,95435,1,0,0:0:0:0:
256,192,95460,1,0,0:0:0:0:
109,192,95535,1,0,0:0:0:0:
182,192,95610,1,0,0:0:0:0:
329,192,95635,1,0,0:0:0:0:
402,192,95635,1,0,0:0:0:0:
36,192,95685,1,0,0:0:0:0:
182,192,95760,1,0,0:0:0:0:
329,192,95835,1,0,0:0:0:0:
475,192,95835,1,0,0:0:0:0:
109,192,95835,1,0,0:0:0:0:
36,192,96435,1,0,0:0:0:0:
182,192,96435,1,0,0:0:0:0:
402,192,96435,1,0,0:0:0:0:
475,192,96510,1,0,0:0:0:0:
256,192,96585,1,0,0:0:0:0:
402,192,96660,1,0,0:0:0:0:
182,192,96735,1,0,0:0:0:0:
329,192,96810,1,0,0:0:0:0:
182,192,96885,1,0,0:0:0:0:
402,192,96960,1,0,0:0:0:0:
402,192,97110,1,0,0:0:0:0:
256,192,97185,1,0,0:0:0:0:
402,192,97260,1,0,0:0:0:0:
182,192,97335,1,0,0:0:0:0:
329,192,97410,1,0,0:0:0:0:
182,192,97485,1,0,0:0:0:0:
402,192,97560,1,0,0:0:0:0:
109,192,97635,1,0,0:0:0:0:
36,192,97635,1,0,0:0:0:0:
256,192,97635,1,0,0:0:0:0:
402,192,97710,1,0,0:0:0:0:
182,192,97785,1,0,0:0:0:0:
329,192,97860,1,0,0:0:0:0:
36,192,97935,1,0,0:0:0:0:
109,192,97935,1,0,0:0:0:0:
256,192,97935,1,0,0:0:0:0:
475,192,97935,1,0,0:0:0:0:
329,192,98010,1,0,0:0:0:0:
182,192,98085,1,0,0:0:0:0:
109,192,98085,1,0,0:0:0:0:
36,192,98085,1,0,0:0:0:0:
402,192,98085,1,0,0:0:0:0:
475,192,98085,1,0,0:0:0:0:
256,192,98160,1,0,0:0:0:0:
329,192,98235,1,0,0:0:0:0:
475,192,98235,1,0,0:0:0:0:
36,192,98235,1,0,0:0:0:0:
109,192,98235,1,0,0:0:0:0:
182,192,98310,1,0,0:0:0:0:
402,192,98385,1,0,0:0:0:0:
109,192,98460,1,0,0:0:0:0:
329,192,98535,1,0,0:0:0:0:
182,192,98610,1,0,0:0:0:0:
402,192,98685,1,0,0:0:0:0:
109,192,98760,1,0,0:0:0:0:
329,192,98835,1,0,0:0:0:0:
475,192,98835,1,0,0:0:0:0:
36,192,98835,1,0,0:0:0:0:
182,192,98910,1,0,0:0:0:0:
402,192,98985,1,0,0:0:0:0:
109,192,99060,1,0,0:0:0:0:
329,192,99135,1,0,0:0:0:0:
182,192,99210,1,0,0:0:0:0:
329,192,99285,1,0,0:0:0:0:
182,192,99360,1,0,0:0:0:0:
182,192,99510,1,0,0:0:0:0:
329,192,99585,1,0,0:0:0:0:
182,192,99660,1,0,0:0:0:0:
402,192,99735,1,0,0:0:0:0:
256,192,99810,1,0,0:0:0:0:
475,192,99885,1,0,0:0:0:0:
329,192,99960,1,0,0:0:0:0:
475,192,100035,1,0,0:0:0:0:
109,192,100035,1,0,0:0:0:0:
182,192,100035,1,0,0:0:0:0:
329,192,100110,1,0,0:0:0:0:
475,192,100185,1,0,0:0:0:0:
36,192,100235,1,0,0:0:0:0:
182,192,100235,1,0,0:0:0:0:
256,192,100260,1,0,0:0:0:0:
402,192,100335,1,0,0:0:0:0:
329,192,100410,1,0,0:0:0:0:
109,192,100435,1,0,0:0:0:0:
36,192,100435,1,0,0:0:0:0:
475,192,100485,1,0,0:0:0:0:
256,192,100560,1,0,0:0:0:0:
36,192,100635,1,0,0:0:0:0:
182,192,100635,1,0,0:0:0:0:
402,192,100635,1,0,0:0:0:0:
256,192,101235,1,0,0:0:0:0:
402,192,101235,1,0,0:0:0:0:
475,192,101235,1,0,0:0:0:0:
109,192,101310,1,0,0:0:0:0:
329,192,101385,1,0,0:0:0:0:
182,192,101460,1,0,0:0:0:0:
402,192,101535,1,0,0:0:0:0:
256,192,101610,1,0,0:0:0:0:
475,192,101685,1,0,0:0:0:0:
329,192,101760,1,0,0:0:0:0:
329,192,101910,1,0,0:0:0:0:
182,192,101985,1,0,0:0:0:0:
329,192,102060,1,0,0:0:0:0:
182,192,102135,1,0,0:0:0:0:
36,192,102135,1,0,0:0:0:0:
329,192,102210,1,0,0:0:0:0:
182,192,102285,1,0,0:0:0:0:
329,192,102360,1,0,0:0:0:0:
182,192,102435,1,0,0:0:0:0:
475,192,102435,1,0,0:0:0:0:
329,192,102510,1,0,0:0:0:0:
182,192,102585,1,0,0:0:0:0:
329,192,102660,1,0,0:0:0:0:
182,192,102735,1,0,0:0:0:0:
256,192,102735,1,0,0:0:0:0:
329,192,102810,1,0,0:0:0:0:
36,192,102885,1,0,0:0:0:0:
109,192,102885,1,0,0:0:0:0:
402,192,102885,1,0,0:0:0:0:
475,192,102885,1,0,0:0:0:0:
182,192,102960,1,0,0:0:0:0:
329,192,103035,1,0,0:0:0:0:
109,192,103035,1,0,0:0:0:0:
36,192,103035,1,0,0:0:0:0:
256,192,104235,1,0,0:0:0:0:
402,192,104235,1,0,0:0:0:0:
475,192,104235,1,0,0:0:0:0:
182,192,104835,1,0,0:0:0:0:
109,192,104835,1,0,0:0:0:0:
329,192,105285,1,0,0:0:0:0:
402,192,105285,1,0,0:0:0:0:
475,192,105285,1,0,0:0:0:0:
182,192,105360,1,0,0:0:0:0:
109,192,105360,1,0,0:0:0:0:
36,192,105360,1,0,0:0:0:0:
329,192,105435,1,0,0:0:0:0:
402,192,105435,1,0,0:0:0:0:
475,192,105435,1,0,0:0:0:0:
182,192,106485,1,0,0:0:0:0:
109,192,106485,1,0,0:0:0:0:
36,192,106485,1,0,0:0:0:0:
109,192,106635,1,0,0:0:0:0:
182,192,106635,1,0,0:0:0:0:
36,192,106635,1,0,0:0:0:0:
402,192,106635,1,0,0:0:0:0:
329,192,106635,1,0,0:0:0:0:
329,192,106935,1,0,0:0:0:0:
256,192,106935,1,0,0:0:0:0:
182,192,106935,1,0,0:0:0:0:
109,192,106935,1,0,0:0:0:0:
36,192,106935,1,0,0:0:0:0:
36,192,107235,1,0,0:0:0:0:
109,192,107235,1,0,0:0:0:0:
182,192,107235,1,0,0:0:0:0:
256,192,107235,1,0,0:0:0:0:
329,192,107235,1,0,0:0:0:0:
109,192,107435,1,0,0:0:0:0:
182,192,107435,1,0,0:0:0:0:
256,192,107435,1,0,0:0:0:0:
329,192,107435,1,0,0:0:0:0:
402,192,107435,1,0,0:0:0:0:
182,192,107635,1,0,0:0:0:0:
256,192,107635,1,0,0:0:0:0:
329,192,107635,1,0,0:0:0:0:
402,192,107635,1,0,0:0:0:0:
475,192,107635,1,0,0:0:0:0:
36,192,107685,1,0,0:0:0:0:
109,192,107685,1,0,0:0:0:0:
329,192,107760,1,0,0:0:0:0:
402,192,107760,1,0,0:0:0:0:
475,192,107760,1,0,0:0:0:0:
182,192,107835,1,0,0:0:0:0:
109,192,107835,1,0,0:0:0:0:
36,192,107835,1,0,0:0:0:0:
329,192,108435,1,0,0:0:0:0:
475,192,108435,1,0,0:0:0:0:
402,192,108435,1,0,0:0:0:0:
256,192,108810,1,0,0:0:0:0:
182,192,108885,1,0,0:0:0:0:
109,192,108885,1,0,0:0:0:0:
36,192,108885,1,0,0:0:0:0:
36,192,109035,1,0,0:0:0:0:
182,192,109035,1,0,0:0:0:0:
109,192,109035,1,0,0:0:0:0:
256,192,109035,1,0,0:0:0:0:
109,192,109335,1,0,0:0:0:0:
182,192,109335,1,0,0:0:0:0:
256,192,109335,1,0,0:0:0:0:
329,192,109335,1,0,0:0:0:0:
182,192,109635,1,0,0:0:0:0:
329,192,109635,1,0,0:0:0:0:
256,192,109635,1,0,0:0:0:0:
402,192,109635,1,0,0:0:0:0:
182,192,109935,1,0,0:0:0:0:
256,192,109935,1,0,0:0:0:0:
329,192,109935,1,0,0:0:0:0:
402,192,109935,1,0,0:0:0:0:
36,192,110085,1,0,0:0:0:0:
109,192,110085,1,0,0:0:0:0:
475,192,110160,1,0,0:0:0:0:
36,192,110235,1,0,0:0:0:0:
109,192,110235,1,0,0:0:0:0:
182,192,110235,1,0,0:0:0:0:
256,192,110235,1,0,0:0:0:0:
329,192,110235,1,0,0:0:0:0:
402,192,110235,1,0,0:0:0:0:
36,192,110385,1,0,0:0:0:0:
109,192,110385,1,0,0:0:0:0:
109,192,110685,1,0,0:0:0:0:
36,192,110685,1,0,0:0:0:0:
475,192,110760,1,0,0:0:0:0:
36,192,110835,1,0,0:0:0:0:
402,192,110835,1,0,0:0:0:0:
109,192,110835,1,0,0:0:0:0:
182,192,110835,1,0,0:0:0:0:
256,192,110835,1,0,0:0:0:0:
329,192,110835,1,0,0:0:0:0:
402,192,110985,1,0,0:0:0:0:
475,192,110985,1,0,0:0:0:0:
402,192,111285,1,0,0:0:0:0:
475,192,111285,1,0,0:0:0:0:
36,192,111360,1,0,0:0:0:0:
109,192,111435,1,0,0:0:0:0:
475,192,111435,1,0,0:0:0:0:
182,192,111435,1,0,0:0:0:0:
256,192,111435,1,0,0:0:0:0:
329,192,111435,1,0,0:0:0:0:
402,192,111435,1,0,0:0:0:0:
36,192,111660,1,0,0:0:0:0:
109,192,111735,1,0,0:0:0:0:
36,192,111810,1,0,0:0:0:0:
109,192,111885,1,0,0:0:0:0:
36,192,111960,1,0,0:0:0:0:
109,192,112035,1,0,0:0:0:0:
182,192,112035,1,0,0:0:0:0:
256,192,112035,1,0,0:0:0:0:
329,192,112035,1,0,0:0:0:0:
402,192,112035,1,0,0:0:0:0:
475,192,112035,1,0,0:0:0:0:
36,192,112110,1,0,0:0:0:0:
109,192,112185,1,0,0:0:0:0:
182,192,112185,1,0,0:0:0:0:
36,192,112260,1,0,0:0:0:0:
109,192,112335,1,0,0:0:0:0:
182,192,112335,1,0,0:0:0:0:
36,192,112410,1,0,0:0:0:0:
109,192,112485,1,0,0:0:0:0:
182,192,112485,1,0,0:0:0:0:
36,192,112560,1,0,0:0:0:0:
109,192,112635,1,0,0:0:0:0:
182,192,112635,1,0,0:0:0:0:
329,192,112710,1,0,0:0:0:0:
402,192,112710,1,0,0:0:0:0:
109,192,112785,1,0,0:0:0:0:
182,192,112785,1,0,0:0:0:0:
329,192,112860,1,0,0:0:0:0:
402,192,112860,1,0,0:0:0:0:
109,192,112935,1,0,0:0:0:0:
182,192,112935,1,0,0:0:0:0:
329,192,113010,1,0,0:0:0:0:
402,192,113010,1,0,0:0:0:0:
109,192,113085,1,0,0:0:0:0:
182,192,113085,1,0,0:0:0:0:
329,192,113160,1,0,0:0:0:0:
402,192,113160,1,0,0:0:0:0:
36,192,113235,1,0,0:0:0:0:
109,192,113235,1,0,0:0:0:0:
182,192,113235,1,0,0:0:0:0:
329,192,113310,1,0,0:0:0:0:
402,192,113310,1,0,0:0:0:0:
36,192,113385,1,0,0:0:0:0:
109,192,113385,1,0,0:0:0:0:
182,192,113385,1,0,0:0:0:0:
329,192,113460,1,0,0:0:0:0:
402,192,113460,1,0,0:0:0:0:
36,192,113535,1,0,0:0:0:0:
109,192,113535,1,0,0:0:0:0:
182,192,113535,1,0,0:0:0:0:
329,192,113610,1,0,0:0:0:0:
402,192,113610,1,0,0:0:0:0:
36,192,113685,1,0,0:0:0:0:
182,192,113685,1,0,0:0:0:0:
109,192,113685,1,0,0:0:0:0:
329,192,113760,1,0,0:0:0:0:
402,192,113760,1,0,0:0:0:0:
36,192,113835,1,0,0:0:0:0:
256,192,113835,1,0,0:0:0:0:
475,192,113835,1,0,0:0:0:0:
109,192,113835,1,0,0:0:0:0:
182,192,113835,1,0,0:0:0:0:
402,192,113910,1,0,0:0:0:0:
36,192,113985,1,0,0:0:0:0:
182,192,113985,1,0,0:0:0:0:
475,192,114060,1,0,0:0:0:0:
256,192,114060,1,0,0:0:0:0:
329,192,114060,1,0,0:0:0:0:
109,192,114135,1,0,0:0:0:0:
402,192,114210,1,0,0:0:0:0:
36,192,114285,1,0,0:0:0:0:
182,192,114285,1,0,0:0:0:0:
256,192,114285,1,0,0:0:0:0:
475,192,114360,1,0,0:0:0:0:
109,192,114435,1,0,0:0:0:0:
36,192,114435,1,0,0:0:0:0:
329,192,114435,1,0,0:0:0:0:
402,192,114435,1,0,0:0:0:0:
182,192,114510,1,0,0:0:0:0:
36,192,114585,1,0,0:0:0:0:
109,192,114585,1,0,0:0:0:0:
329,192,114585,1,0,0:0:0:0:
402,192,114585,1,0,0:0:0:0:
256,192,114660,1,0,0:0:0:0:
402,192,114735,1,0,0:0:0:0:
475,192,114735,1,0,0:0:0:0:
182,192,114735,1,0,0:0:0:0:
329,192,114810,1,0,0:0:0:0:
402,192,114885,1,0,0:0:0:0:
329,192,114960,1,0,0:0:0:0:
36,192,115035,1,0,0:0:0:0:
109,192,115035,1,0,0:0:0:0:
256,192,115035,1,0,0:0:0:0:
402,192,115035,1,0,0:0:0:0:
475,192,115035,1,0,0:0:0:0:
329,192,115085,1,0,0:0:0:0:
182,192,115135,1,0,0:0:0:0:
109,192,115135,1,0,0:0:0:0:
256,192,115185,1,0,0:0:0:0:
402,192,115185,1,0,0:0:0:0:
36,192,115235,1,0,0:0:0:0:
329,192,115285,1,0,0:0:0:0:
109,192,115285,1,0,0:0:0:0:
182,192,115335,1,0,0:0:0:0:
402,192,115335,1,0,0:0:0:0:
475,192,115335,1,0,0:0:0:0:
256,192,115385,1,0,0:0:0:0:
329,192,115435,1,0,0:0:0:0:
36,192,115435,1,0,0:0:0:0:
109,192,115485,1,0,0:0:0:0:
402,192,115485,1,0,0:0:0:0:
256,192,115535,1,0,0:0:0:0:
329,192,115585,1,0,0:0:0:0:
475,192,115585,1,0,0:0:0:0:
182,192,115635,1,0,0:0:0:0:
36,192,115635,1,0,0:0:0:0:
402,192,115635,1,0,0:0:0:0:
256,192,115685,1,0,0:0:0:0:
329,192,115735,1,0,0:0:0:0:
475,192,115735,1,0,0:0:0:0:
36,192,115785,1,0,0:0:0:0:
109,192,115785,1,0,0:0:0:0:
256,192,115835,1,0,0:0:0:0:
329,192,115885,1,0,0:0:0:0:
402,192,115885,1,0,0:0:0:0:
182,192,115935,1,0,0:0:0:0:
109,192,115935,1,0,0:0:0:0:
475,192,115935,1,0,0:0:0:0:
402,192,115985,1,0,0:0:0:0:
329,192,116035,1,0,0:0:0:0:
256,192,116035,1,0,0:0:0:0:
36,192,116085,1,0,0:0:0:0:
475,192,116085,1,0,0:0:0:0:
402,192,116135,1,0,0:0:0:0:
182,192,116185,1,0,0:0:0:0:
329,192,116185,1,0,0:0:0:0:
109,192,116235,1,0,0:0:0:0:
36,192,116235,1,0,0:0:0:0:
475,192,116235,1,0,0:0:0:0:
256,192,116235,1,0,0:0:0:0:
402,192,116285,1,0,0:0:0:0:
329,192,116335,1,0,0:0:0:0:
182,192,116335,1,0,0:0:0:0:
256,192,116385,1,0,0:0:0:0:
475,192,116385,1,0,0:0:0:0:
109,192,116435,1,0,0:0:0:0:
182,192,116485,1,0,0:0:0:0:
329,192,116485,1,0,0:0:0:0:
402,192,116535,1,0,0:0:0:0:
475,192,116535,1,0,0:0:0:0:
36,192,116535,1,0,0:0:0:0:
256,192,116585,1,0,0:0:0:0:
182,192,116635,1,0,0:0:0:0:
329,192,116635,1,0,0:0:0:0:
402,192,116685,1,0,0:0:0:0:
36,192,116685,1,0,0:0:0:0:
109,192,116735,1,0,0:0:0:0:
256,192,116785,1,0,0:0:0:0:
182,192,116835,1,0,0:0:0:0:
36,192,116835,1,0,0:0:0:0:
402,192,116835,1,0,0:0:0:0:
475,192,116885,1,0,0:0:0:0:
109,192,116935,1,0,0:0:0:0:
329,192,116935,1,0,0:0:0:0:
256,192,116985,1,0,0:0:0:0:
402,192,116985,1,0,0:0:0:0:
182,192,117035,1,0,0:0:0:0:
329,192,117085,1,0,0:0:0:0:
475,192,117085,1,0,0:0:0:0:
36,192,117135,1,0,0:0:0:0:
256,192,117135,1,0,0:0:0:0:
109,192,117135,1,0,0:0:0:0:
402,192,117185,1,0,0:0:0:0:
329,192,117235,1,0,0:0:0:0:
182,192,117235,1,0,0:0:0:0:
256,192,117285,1,0,0:0:0:0:
109,192,117285,1,0,0:0:0:0:
36,192,117335,1,0,0:0:0:0:
329,192,117385,1,0,0:0:0:0:
402,192,117385,1,0,0:0:0:0:
256,192,117435,1,0,0:0:0:0:
109,192,117435,1,0,0:0:0:0:
475,192,117435,1,0,0:0:0:0:
182,192,117435,1,0,0:0:0:0:
36,192,117485,1,0,0:0:0:0:
402,192,117535,1,0,0:0:0:0:
329,192,117535,1,0,0:0:0:0:
109,192,117585,1,0,0:0:0:0:
256,192,117585,1,0,0:0:0:0:
182,192,117635,1,0,0:0:0:0:
402,192,117685,1,0,0:0:0:0:
329,192,117685,1,0,0:0:0:0:
109,192,117735,1,0,0:0:0:0:
475,192,117735,1,0,0:0:0:0:
36,192,117735,1,0,0:0:0:0:
256,192,117785,1,0,0:0:0:0:
329,192,117835,1,0,0:0:0:0:
182,192,117835,1,0,0:0:0:0:
36,192,117885,1,0,0:0:0:0:
402,192,117885,1,0,0:0:0:0:
109,192,117935,1,0,0:0:0:0:
182,192,117985,1,0,0:0:0:0:
329,192,117985,1,0,0:0:0:0:
402,192,118035,1,0,0:0:0:0:
475,192,118035,1,0,0:0:0:0:
36,192,118035,1,0,0:0:0:0:
256,192,118085,1,0,0:0:0:0:
109,192,118135,1,0,0:0:0:0:
329,192,118135,1,0,0:0:0:0:
182,192,118185,1,0,0:0:0:0:
402,192,118185,1,0,0:0:0:0:
256,192,118235,1,0,0:0:0:0:
36,192,118285,1,0,0:0:0:0:
329,192,118285,1,0,0:0:0:0:
109,192,118335,1,0,0:0:0:0:
182,192,118335,1,0,0:0:0:0:
475,192,118335,1,0,0:0:0:0:
402,192,118385,1,0,0:0:0:0:
36,192,118435,1,0,0:0:0:0:
329,192,118435,1,0,0:0:0:0:
475,192,118485,1,0,0:0:0:0:
109,192,118485,1,0,0:0:0:0:
182,192,118535,1,0,0:0:0:0:
256,192,118585,1,0,0:0:0:0:
402,192,118585,1,0,0:0:0:0:
329,192,118635,1,0,0:0:0:0:
36,192,118635,1,0,0:0:0:0:
475,192,118635,1,0,0:0:0:0:
109,192,118635,1,0,0:0:0:0:
182,192,118685,1,0,0:0:0:0:
256,192,118735,1,0,0:0:0:0:
402,192,118735,1,0,0:0:0:0:
329,192,118785,1,0,0:0:0:0:
36,192,118785,1,0,0:0:0:0:
182,192,118835,1,0,0:0:0:0:
256,192,118885,1,0,0:0:0:0:
475,192,118885,1,0,0:0:0:0:
109,192,118935,1,0,0:0:0:0:
402,192,118935,1,0,0:0:0:0:
36,192,118935,1,0,0:0:0:0:
329,192,118985,1,0,0:0:0:0:
256,192,119035,1,0,0:0:0:0:
475,192,119035,1,0,0:0:0:0:
109,192,119085,1,0,0:0:0:0:
182,192,119085,1,0,0:0:0:0:
329,192,119135,1,0,0:0:0:0:
256,192,119185,1,0,0:0:0:0:
402,192,119185,1,0,0:0:0:0:
109,192,119235,1,0,0:0:0:0:
36,192,119235,1,0,0:0:0:0:
475,192,119235,1,0,0:0:0:0:
182,192,119285,1,0,0:0:0:0:
329,192,119335,1,0,0:0:0:0:
256,192,119335,1,0,0:0:0:0:
402,192,119385,1,0,0:0:0:0:
475,192,119385,1,0,0:0:0:0:
109,192,119435,1,0,0:0:0:0:
182,192,119485,1,0,0:0:0:0:
329,192,119485,1,0,0:0:0:0:
256,192,119535,1,0,0:0:0:0:
36,192,119535,1,0,0:0:0:0:
475,192,119535,1,0,0:0:0:0:
402,192,119585,1,0,0:0:0:0:
109,192,119635,1,0,0:0:0:0:
329,192,119635,1,0,0:0:0:0:
256,192,119685,1,0,0:0:0:0:
36,192,119685,1,0,0:0:0:0:
402,192,119735,1,0,0:0:0:0:
182,192,119785,1,0,0:0:0:0:
329,192,119785,1,0,0:0:0:0:
256,192,119835,1,0,0:0:0:0:
475,192,119835,1,0,0:0:0:0:
36,192,119835,1,0,0:0:0:0:
402,192,119835,1,0,0:0:0:0:
109,192,119885,1,0,0:0:0:0:
182,192,119935,1,0,0:0:0:0:
329,192,119935,1,0,0:0:0:0:
256,192,119985,1,0,0:0:0:0:
475,192,119985,1,0,0:0:0:0:
109,192,120035,1,0,0:0:0:0:
402,192,120085,1,0,0:0:0:0:
182,192,120085,1,0,0:0:0:0:
256,192,120135,1,0,0:0:0:0:
36,192,120135,1,0,0:0:0:0:
475,192,120135,1,0,0:0:0:0:
329,192,120185,1,0,0:0:0:0:
402,192,120235,1,0,0:0:0:0:
109,192,120235,1,0,0:0:0:0:
182,192,120285,1,0,0:0:0:0:
475,192,120285,1,0,0:0:0:0:
402,192,120335,1,0,0:0:0:0:
329,192,120385,1,0,0:0:0:0:
109,192,120385,1,0,0:0:0:0:
256,192,120435,1,0,0:0:0:0:
36,192,120435,1,0,0:0:0:0:
475,192,120435,1,0,0:0:0:0:
182,192,120485,1,0,0:0:0:0:
402,192,120535,1,0,0:0:0:0:
109,192,120535,1,0,0:0:0:0:
36,192,120585,1,0,0:0:0:0:
329,192,120585,1,0,0:0:0:0:
256,192,120635,1,0,0:0:0:0:
402,192,120685,1,0,0:0:0:0:
182,192,120685,1,0,0:0:0:0:
256,192,120735,1,0,0:0:0:0:
475,192,120735,1,0,0:0:0:0:
36,192,120735,1,0,0:0:0:0:
329,192,120785,1,0,0:0:0:0:
182,192,120835,1,0,0:0:0:0:
109,192,120835,1,0,0:0:0:0:
256,192,120885,1,0,0:0:0:0:
402,192,120885,1,0,0:0:0:0:
36,192,120935,1,0,0:0:0:0:
109,192,120985,1,0,0:0:0:0:
182,192,120985,1,0,0:0:0:0:
402,192,121035,1,0,0:0:0:0:
475,192,121035,1,0,0:0:0:0:
329,192,121035,1,0,0:0:0:0:
256,192,121035,1,0,0:0:0:0:
36,192,121085,1,0,0:0:0:0:
109,192,121135,1,0,0:0:0:0:
182,192,121135,1,0,0:0:0:0:
329,192,121185,1,0,0:0:0:0:
402,192,121185,1,0,0:0:0:0:
256,192,121235,1,0,0:0:0:0:
182,192,121285,1,0,0:0:0:0:
109,192,121285,1,0,0:0:0:0:
402,192,121335,1,0,0:0:0:0:
475,192,121335,1,0,0:0:0:0:
36,192,121335,1,0,0:0:0:0:
329,192,121385,1,0,0:0:0:0:
182,192,121435,1,0,0:0:0:0:
256,192,121435,1,0,0:0:0:0:
109,192,121485,1,0,0:0:0:0:
402,192,121485,1,0,0:0:0:0:
329,192,121535,1,0,0:0:0:0:
256,192,121585,1,0,0:0:0:0:
182,192,121585,1,0,0:0:0:0:
109,192,121635,1,0,0:0:0:0:
402,192,121635,1,0,0:0:0:0:
475,192,121635,1,0,0:0:0:0:
36,192,121685,1,0,0:0:0:0:
182,192,121735,1,0,0:0:0:0:
329,192,121735,1,0,0:0:0:0:
109,192,121785,1,0,0:0:0:0:
402,192,121785,1,0,0:0:0:0:
256,192,121835,1,0,0:0:0:0:
329,192,121885,1,0,0:0:0:0:
182,192,121885,1,0,0:0:0:0:
109,192,121935,1,0,0:0:0:0:
36,192,121935,1,0,0:0:0:0:
475,192,121935,1,0,0:0:0:0:
402,192,121985,1,0,0:0:0:0:
329,192,122035,1,0,0:0:0:0:
256,192,122035,1,0,0:0:0:0:
182,192,122085,1,0,0:0:0:0:
36,192,122085,1,0,0:0:0:0:
402,192,122135,1,0,0:0:0:0:
329,192,122185,1,0,0:0:0:0:
109,192,122185,1,0,0:0:0:0:
182,192,122235,1,0,0:0:0:0:
36,192,122235,1,0,0:0:0:0:
256,192,122235,1,0,0:0:0:0:
475,192,122235,1,0,0:0:0:0:
402,192,122285,1,0,0:0:0:0:
329,192,122335,1,0,0:0:0:0:
109,192,122335,1,0,0:0:0:0:
182,192,122385,1,0,0:0:0:0:
475,192,122385,1,0,0:0:0:0:
256,192,122435,1,0,0:0:0:0:
329,192,122485,1,0,0:0:0:0:
36,192,122485,1,0,0:0:0:0:
109,192,122535,1,0,0:0:0:0:
402,192,122535,1,0,0:0:0:0:
475,192,122535,1,0,0:0:0:0:
256,192,122585,1,0,0:0:0:0:
329,192,122635,1,0,0:0:0:0:
36,192,122635,1,0,0:0:0:0:
402,192,122685,1,0,0:0:0:0:
182,192,122685,1,0,0:0:0:0:
109,192,122735,1,0,0:0:0:0:
256,192,122785,1,0,0:0:0:0:
36,192,122785,1,0,0:0:0:0:
475,192,122835,1,0,0:0:0:0:
402,192,122835,1,0,0:0:0:0:
182,192,122835,1,0,0:0:0:0:
109,192,122885,1,0,0:0:0:0:
256,192,122935,1,0,0:0:0:0:
329,192,122935,1,0,0:0:0:0:
36,192,122985,1,0,0:0:0:0:
182,192,122985,1,0,0:0:0:0:
402,192,123035,1,0,0:0:0:0:
329,192,123085,1,0,0:0:0:0:
256,192,123085,1,0,0:0:0:0:
36,192,123135,1,0,0:0:0:0:
109,192,123135,1,0,0:0:0:0:
475,192,123135,1,0,0:0:0:0:
182,192,123185,1,0,0:0:0:0:
402,192,123235,1,0,0:0:0:0:
256,192,123235,1,0,0:0:0:0:
329,192,123285,1,0,0:0:0:0:
475,192,123285,1,0,0:0:0:0:
182,192,123335,1,0,0:0:0:0:
256,192,123385,1,0,0:0:0:0:
402,192,123385,1,0,0:0:0:0:
475,192,123435,1,0,0:0:0:0:
329,192,123435,1,0,0:0:0:0:
36,192,123435,1,0,0:0:0:0:
109,192,123435,1,0,0:0:0:0:
182,192,123485,1,0,0:0:0:0:
402,192,123535,1,0,0:0:0:0:
256,192,123535,1,0,0:0:0:0:
36,192,123585,1,0,0:0:0:0:
329,192,123585,1,0,0:0:0:0:
182,192,123635,1,0,0:0:0:0:
109,192,123685,1,0,0:0:0:0:
256,192,123685,1,0,0:0:0:0:
402,192,123735,1,0,0:0:0:0:
475,192,123735,1,0,0:0:0:0:
36,192,123735,1,0,0:0:0:0:
182,192,123785,1,0,0:0:0:0:
329,192,123835,1,0,0:0:0:0:
109,192,123835,1,0,0:0:0:0:
256,192,123885,1,0,0:0:0:0:
475,192,123885,1,0,0:0:0:0:
329,192,123935,1,0,0:0:0:0:
182,192,123985,1,0,0:0:0:0:
402,192,123985,1,0,0:0:0:0:
475,192,124035,1,0,0:0:0:0:
109,192,124035,1,0,0:0:0:0:
36,192,124035,1,0,0:0:0:0:
256,192,124085,1,0,0:0:0:0:
329,192,124135,1,0,0:0:0:0:
182,192,124135,1,0,0:0:0:0:
109,192,124185,1,0,0:0:0:0:
402,192,124185,1,0,0:0:0:0:
256,192,124235,1,0,0:0:0:0:
182,192,124285,1,0,0:0:0:0:
36,192,124285,1,0,0:0:0:0:
109,192,124335,1,0,0:0:0:0:
329,192,124335,1,0,0:0:0:0:
475,192,124335,1,0,0:0:0:0:
256,192,124385,1,0,0:0:0:0:
182,192,124435,1,0,0:0:0:0:
36,192,124435,1,0,0:0:0:0:
475,192,124485,1,0,0:0:0:0:
329,192,124485,1,0,0:0:0:0:
402,192,124485,1,0,0:0:0:0:
109,192,124535,1,0,0:0:0:0:
256,192,124585,1,0,0:0:0:0:
182,192,124585,1,0,0:0:0:0:
36,192,124635,1,0,0:0:0:0:
329,192,124635,1,0,0:0:0:0:
475,192,124635,1,0,0:0:0:0:
402,192,124635,1,0,0:0:0:0:
182,192,124685,1,0,0:0:0:0:
256,192,124710,1,0,0:0:0:0:
36,192,124735,1,0,0:0:0:0:
109,192,124785,1,0,0:0:0:0:
329,192,124785,1,0,0:0:0:0:
182,192,124835,1,0,0:0:0:0:
256,192,124860,1,0,0:0:0:0:
402,192,124885,1,0,0:0:0:0:
329,192,124935,1,0,0:0:0:0:
109,192,124935,1,0,0:0:0:0:
36,192,124935,1,0,0:0:0:0:
182,192,124985,1,0,0:0:0:0:
475,192,125010,1,0,0:0:0:0:
256,192,125035,1,0,0:0:0:0:
109,192,125085,1,0,0:0:0:0:
329,192,125085,1,0,0:0:0:0:
402,192,125135,1,0,0:0:0:0:
182,192,125160,1,0,0:0:0:0:
256,192,125185,1,0,0:0:0:0:
36,192,125235,1,0,0:0:0:0:
329,192,125235,1,0,0:0:0:0:
475,192,125235,1,0,0:0:0:0:
182,192,125285,1,0,0:0:0:0:
402,192,125310,1,0,0:0:0:0:
109,192,125335,1,0,0:0:0:0:
256,192,125385,1,0,0:0:0:0:
475,192,125385,1,0,0:0:0:0:
182,192,125435,1,0,0:0:0:0:
329,192,125460,1,0,0:0:0:0:
402,192,125485,1,0,0:0:0:0:
475,192,125535,1,0,0:0:0:0:
109,192,125535,1,0,0:0:0:0:
36,192,125535,1,0,0:0:0:0:
256,192,125585,1,0,0:0:0:0:
329,192,125610,1,0,0:0:0:0:
402,192,125635,1,0,0:0:0:0:
475,192,125685,1,0,0:0:0:0:
109,192,125685,1,0,0:0:0:0:
329,192,125735,1,0,0:0:0:0:
256,192,125760,1,0,0:0:0:0:
182,192,125785,1,0,0:0:0:0:
329,192,125835,1,0,0:0:0:0:
475,192,125835,1,0,0:0:0:0:
109,192,125835,1,0,0:0:0:0:
36,192,125835,1,0,0:0:0:0:
402,192,125885,1,0,0:0:0:0:
256,192,125910,1,0,0:0:0:0:
182,192,125935,1,0,0:0:0:0:
36,192,125985,1,0,0:0:0:0:
329,192,125985,1,0,0:0:0:0:
109,192,126035,1,0,0:0:0:0:
256,192,126060,1,0,0:0:0:0:
402,192,126085,1,0,0:0:0:0:
182,192,126135,1,0,0:0:0:0:
36,192,126135,1,0,0:0:0:0:
475,192,126135,1,0,0:0:0:0:
329,192,126185,1,0,0:0:0:0:
256,192,126210,1,0,0:0:0:0:
109,192,126235,1,0,0:0:0:0:
475,192,126285,1,0,0:0:0:0:
36,192,126285,1,0,0:0:0:0:
182,192,126335,1,0,0:0:0:0:
256,192,126360,1,0,0:0:0:0:
329,192,126385,1,0,0:0:0:0:
402,192,126435,1,0,0:0:0:0:
36,192,126435,1,0,0:0:0:0:
109,192,126435,1,0,0:0:0:0:
182,192,126485,1,0,0:0:0:0:
256,192,126510,1,0,0:0:0:0:
475,192,126535,1,0,0:0:0:0:
329,192,126585,1,0,0:0:0:0:
36,192,126585,1,0,0:0:0:0:
402,192,126635,1,0,0:0:0:0:
256,192,126660,1,0,0:0:0:0:
182,192,126685,1,0,0:0:0:0:
329,192,126735,1,0,0:0:0:0:
475,192,126735,1,0,0:0:0:0:
109,192,126735,1,0,0:0:0:0:
256,192,126785,1,0,0:0:0:0:
36,192,126810,1,0,0:0:0:0:
182,192,126835,1,0,0:0:0:0:
329,192,126885,1,0,0:0:0:0:
475,192,126885,1,0,0:0:0:0:
256,192,126935,1,0,0:0:0:0:
109,192,126960,1,0,0:0:0:0:
182,192,126985,1,0,0:0:0:0:
329,192,127035,1,0,0:0:0:0:
475,192,127035,1,0,0:0:0:0:
36,192,127035,1,0,0:0:0:0:
402,192,127035,1,0,0:0:0:0:
109,192,127085,1,0,0:0:0:0:
182,192,127110,1,0,0:0:0:0:
256,192,127135,1,0,0:0:0:0:
329,192,127185,1,0,0:0:0:0:
36,192,127185,1,0,0:0:0:0:
182,192,127235,1,0,0:0:0:0:
109,192,127260,1,0,0:0:0:0:
256,192,127285,1,0,0:0:0:0:
329,192,127335,1,0,0:0:0:0:
36,192,127335,1,0,0:0:0:0:
475,192,127335,1,0,0:0:0:0:
402,192,127385,1,0,0:0:0:0:
182,192,127410,1,0,0:0:0:0:
109,192,127435,1,0,0:0:0:0:
256,192,127485,1,0,0:0:0:0:
475,192,127485,1,0,0:0:0:0:
329,192,127535,1,0,0:0:0:0:
182,192,127560,1,0,0:0:0:0:
402,192,127585,1,0,0:0:0:0:
256,192,127635,1,0,0:0:0:0:
36,192,127635,1,0,0:0:0:0:
475,192,127635,1,0,0:0:0:0:
109,192,127685,1,0,0:0:0:0:
329,192,127710,1,0,0:0:0:0:
182,192,127735,1,0,0:0:0:0:
402,192,127785,1,0,0:0:0:0:
36,192,127785,1,0,0:0:0:0:
256,192,127835,1,0,0:0:0:0:
329,192,127860,1,0,0:0:0:0:
109,192,127885,1,0,0:0:0:0:
36,192,127935,1,0,0:0:0:0:
182,192,127935,1,0,0:0:0:0:
475,192,127935,1,0,0:0:0:0:
402,192,127985,1,0,0:0:0:0:
256,192,128010,1,0,0:0:0:0:
109,192,128035,1,0,0:0:0:0:
329,192,128085,1,0,0:0:0:0:
475,192,128085,1,0,0:0:0:0:
182,192,128135,1,0,0:0:0:0:
256,192,128160,1,0,0:0:0:0:
402,192,128185,1,0,0:0:0:0:
329,192,128235,1,0,0:0:0:0:
36,192,128235,1,0,0:0:0:0:
109,192,128235,1,0,0:0:0:0:
475,192,128235,1,0,0:0:0:0:
182,192,128285,1,0,0:0:0:0:
256,192,128310,1,0,0:0:0:0:
329,192,128335,1,0,0:0:0:0:
475,192,128385,1,0,0:0:0:0:
36,192,128385,1,0,0:0:0:0:
402,192,128435,1,0,0:0:0:0:
182,192,128460,1,0,0:0:0:0:
329,192,128485,1,0,0:0:0:0:
109,192,128535,1,0,0:0:0:0:
36,192,128535,1,0,0:0:0:0:
256,192,128535,1,0,0:0:0:0:
402,192,128585,1,0,0:0:0:0:
329,192,128610,1,0,0:0:0:0:
182,192,128635,1,0,0:0:0:0:
256,192,128685,1,0,0:0:0:0:
475,192,128685,1,0,0:0:0:0:
36,192,128735,1,0,0:0:0:0:
109,192,128760,1,0,0:0:0:0:
182,192,128785,1,0,0:0:0:0:
329,192,128835,1,0,0:0:0:0:
36,192,128835,1,0,0:0:0:0:
475,192,128835,1,0,0:0:0:0:
402,192,128835,1,0,0:0:0:0:
109,192,128885,1,0,0:0:0:0:
182,192,128910,1,0,0:0:0:0:
256,192,128935,1,0,0:0:0:0:
329,192,128985,1,0,0:0:0:0:
475,192,128985,1,0,0:0:0:0:
182,192,129035,1,0,0:0:0:0:
256,192,129060,1,0,0:0:0:0:
402,192,129085,1,0,0:0:0:0:
329,192,129135,1,0,0:0:0:0:
109,192,129135,1,0,0:0:0:0:
36,192,129135,1,0,0:0:0:0:
475,192,129185,1,0,0:0:0:0:
402,192,129210,1,0,0:0:0:0:
256,192,129235,1,0,0:0:0:0:
182,192,129285,1,0,0:0:0:0:
36,192,129285,1,0,0:0:0:0:
109,192,129285,1,0,0:0:0:0:
329,192,129335,1,0,0:0:0:0:
475,192,129360,1,0,0:0:0:0:
256,192,129385,1,0,0:0:0:0:
109,192,129435,1,0,0:0:0:0:
329,192,129435,1,0,0:0:0:0:
402,192,129435,1,0,0:0:0:0:
36,192,129435,1,0,0:0:0:0:
182,192,129485,1,0,0:0:0:0:
256,192,129510,1,0,0:0:0:0:
475,192,129535,1,0,0:0:0:0:
329,192,129585,1,0,0:0:0:0:
109,192,129585,1,0,0:0:0:0:
256,192,129635,1,0,0:0:0:0:
36,192,129660,1,0,0:0:0:0:
182,192,129685,1,0,0:0:0:0:
402,192,129735,1,0,0:0:0:0:
475,192,129735,1,0,0:0:0:0:
109,192,129735,1,0,0:0:0:0:
329,192,129785,1,0,0:0:0:0:
182,192,129810,1,0,0:0:0:0:
36,192,129835,1,0,0:0:0:0:
475,192,129885,1,0,0:0:0:0:
256,192,129885,1,0,0:0:0:0:
109,192,129935,1,0,0:0:0:0:
329,192,129960,1,0,0:0:0:0:
182,192,129985,1,0,0:0:0:0:
36,192,130035,1,0,0:0:0:0:
402,192,130035,1,0,0:0:0:0:
475,192,130035,1,0,0:0:0:0:
256,192,130085,1,0,0:0:0:0:
109,192,130110,1,0,0:0:0:0:
329,192,130135,1,0,0:0:0:0:
182,192,130185,1,0,0:0:0:0:
475,192,130185,1,0,0:0:0:0:
402,192,130235,1,0,0:0:0:0:
109,192,130260,1,0,0:0:0:0:
256,192,130285,1,0,0:0:0:0:
329,192,130335,1,0,0:0:0:0:
182,192,130335,1,0,0:0:0:0:
475,192,130335,1,0,0:0:0:0:
36,192,130385,1,0,0:0:0:0:
256,192,130410,1,0,0:0:0:0:
182,192,130435,1,0,0:0:0:0:
109,192,130485,1,0,0:0:0:0:
402,192,130485,1,0,0:0:0:0:
329,192,130535,1,0,0:0:0:0:
36,192,130560,1,0,0:0:0:0:
256,192,130585,1,0,0:0:0:0:
109,192,130635,1,0,0:0:0:0:
182,192,130635,1,0,0:0:0:0:
475,192,130635,1,0,0:0:0:0:
402,192,130685,1,0,0:0:0:0:
256,192,130710,1,0,0:0:0:0:
329,192,130735,1,0,0:0:0:0:
36,192,130785,1,0,0:0:0:0:
475,192,130785,1,0,0:0:0:0:
402,192,130835,1,0,0:0:0:0:
256,192,130860,1,0,0:0:0:0:
109,192,130885,1,0,0:0:0:0:
329,192,130935,1,0,0:0:0:0:
182,192,130935,1,0,0:0:0:0:
475,192,130935,1,0,0:0:0:0:
36,192,130985,1,0,0:0:0:0:
402,192,131010,1,0,0:0:0:0:
256,192,131035,1,0,0:0:0:0:
109,192,131085,1,0,0:0:0:0:
475,192,131085,1,0,0:0:0:0:
329,192,131135,1,0,0:0:0:0:
402,192,131160,1,0,0:0:0:0:
36,192,131185,1,0,0:0:0:0:
109,192,131235,1,0,0:0:0:0:
182,192,131235,1,0,0:0:0:0:
475,192,131235,1,0,0:0:0:0:
256,192,131235,1,0,0:0:0:0:
329,192,131272,1,0,0:0:0:0:
402,192,131310,1,0,0:0:0:0:
36,192,131310,1,0,0:0:0:0:
109,192,131347,1,0,0:0:0:0:
182,192,131385,1,0,0:0:0:0:
475,192,131385,1,0,0:0:0:0:
402,192,131422,1,0,0:0:0:0:
329,192,131460,1,0,0:0:0:0:
36,192,131460,1,0,0:0:0:0:
109,192,131497,1,0,0:0:0:0:
182,192,131535,1,0,0:0:0:0:
256,192,131535,1,0,0:0:0:0:
475,192,131535,1,0,0:0:0:0:
329,192,131572,1,0,0:0:0:0:
402,192,131610,1,0,0:0:0:0:
109,192,131610,1,0,0:0:0:0:
182,192,131647,1,0,0:0:0:0:
256,192,131685,1,0,0:0:0:0:
475,192,131685,1,0,0:0:0:0:
36,192,131685,1,0,0:0:0:0:
329,192,131722,1,0,0:0:0:0:
182,192,131760,1,0,0:0:0:0:
402,192,131760,1,0,0:0:0:0:
109,192,131797,1,0,0:0:0:0:
256,192,131835,1,0,0:0:0:0:
329,192,131835,1,0,0:0:0:0:
475,192,131835,1,0,0:0:0:0:
36,192,131835,1,0,0:0:0:0:
109,192,131910,1,0,0:0:0:0:
182,192,131910,1,0,0:0:0:0:
36,192,131985,1,0,0:0:0:0:
329,192,131985,1,0,0:0:0:0:
402,192,131985,1,0,0:0:0:0:
475,192,131985,1,0,0:0:0:0:
256,192,132060,1,0,0:0:0:0:
182,192,132060,1,0,0:0:0:0:
109,192,132135,1,0,0:0:0:0:
36,192,132135,1,0,0:0:0:0:
402,192,132135,1,0,0:0:0:0:
475,192,132135,1,0,0:0:0:0:
329,192,132210,1,0,0:0:0:0:
256,192,132210,1,0,0:0:0:0:
182,192,132285,1,0,0:0:0:0:
109,192,132285,1,0,0:0:0:0:
36,192,132285,1,0,0:0:0:0:
475,192,132285,1,0,0:0:0:0:
329,192,132360,1,0,0:0:0:0:
402,192,132360,1,0,0:0:0:0:
475,192,132435,1,0,0:0:0:0:
182,192,132435,1,0,0:0:0:0:
36,192,132435,1,0,0:0:0:0:
109,192,132435,1,0,0:0:0:0:
256,192,132510,1,0,0:0:0:0:
329,192,132510,1,0,0:0:0:0:
109,192,132585,1,0,0:0:0:0:
36,192,132585,1,0,0:0:0:0:
402,192,132585,1,0,0:0:0:0:
475,192,132585,1,0,0:0:0:0:
182,192,132660,1,0,0:0:0:0:
256,192,132660,1,0,0:0:0:0:
329,192,132735,1,0,0:0:0:0:
402,192,132735,1,0,0:0:0:0:
475,192,132735,1,0,0:0:0:0:
36,192,132735,1,0,0:0:0:0:
109,192,132810,1,0,0:0:0:0:
182,192,132810,1,0,0:0:0:0:
36,192,132885,1,0,0:0:0:0:
329,192,132885,1,0,0:0:0:0:
402,192,132885,1,0,0:0:0:0:
475,192,132885,1,0,0:0:0:0:
256,192,132960,1,0,0:0:0:0:
182,192,132960,1,0,0:0:0:0:
109,192,133035,1,0,0:0:0:0:
36,192,133035,1,0,0:0:0:0:
402,192,133035,1,0,0:0:0:0:
475,192,133035,1,0,0:0:0:0:
182,192,133110,1,0,0:0:0:0:
329,192,133110,1,0,0:0:0:0:
109,192,133185,1,0,0:0:0:0:
36,192,133185,1,0,0:0:0:0:
256,192,133185,1,0,0:0:0:0:
402,192,133185,1,0,0:0:0:0:
475,192,133185,1,0,0:0:0:0:
182,192,133260,1,0,0:0:0:0:
329,192,133260,1,0,0:0:0:0:
402,192,133335,1,0,0:0:0:0:
475,192,133335,1,0,0:0:0:0:
256,192,133335,1,0,0:0:0:0:
109,192,133335,1,0,0:0:0:0:
36,192,133335,1,0,0:0:0:0:
402,192,133410,1,0,0:0:0:0:
329,192,133410,1,0,0:0:0:0:
182,192,133485,1,0,0:0:0:0:
256,192,133485,1,0,0:0:0:0:
109,192,133485,1,0,0:0:0:0:
36,192,133485,1,0,0:0:0:0:
475,192,133485,1,0,0:0:0:0:
182,192,133560,1,0,0:0:0:0:
402,192,133560,1,0,0:0:0:0:
36,192,133635,1,0,0:0:0:0:
109,192,133635,1,0,0:0:0:0:
256,192,133635,1,0,0:0:0:0:
475,192,133635,1,0,0:0:0:0:
329,192,133635,1,0,0:0:0:0:
329,192,133710,1,0,0:0:0:0:
36,192,133710,1,0,0:0:0:0:
109,192,133710,1,0,0:0:0:0:
256,192,133710,1,0,0:0:0:0:
475,192,133710,1,0,0:0:0:0:
109,192,133785,1,0,0:0:0:0:
36,192,133785,1,0,0:0:0:0:
475,192,133785,1,0,0:0:0:0:
402,192,133822,1,0,0:0:0:0:
329,192,133860,1,0,0:0:0:0:
256,192,133897,1,0,0:0:0:0:
182,192,133935,1,0,0:0:0:0:
109,192,133935,1,0,0:0:0:0:
36,192,133935,1,0,0:0:0:0:
402,192,133935,1,0,0:0:0:0:
475,192,133935,1,0,0:0:0:0:
256,192,134010,1,0,0:0:0:0:
329,192,134010,1,0,0:0:0:0:
109,192,134085,1,0,0:0:0:0:
36,192,134085,1,0,0:0:0:0:
402,192,134085,1,0,0:0:0:0:
475,192,134085,1,0,0:0:0:0:
182,192,134160,1,0,0:0:0:0:
329,192,134160,1,0,0:0:0:0:
402,192,134235,1,0,0:0:0:0:
475,192,134235,1,0,0:0:0:0:
109,192,134235,1,0,0:0:0:0:
36,192,134235,1,0,0:0:0:0:
256,192,134235,1,0,0:0:0:0:
182,192,134310,1,0,0:0:0:0:
402,192,134310,1,0,0:0:0:0:
475,192,134310,1,0,0:0:0:0:
36,192,134385,1,0,0:0:0:0:
109,192,134385,1,0,0:0:0:0:
256,192,134385,1,0,0:0:0:0:
182,192,134460,1,0,0:0:0:0:
329,192,134460,1,0,0:0:0:0:
109,192,134535,1,0,0:0:0:0:
36,192,134535,1,0,0:0:0:0:
256,192,134535,1,0,0:0:0:0:
475,192,134535,1,0,0:0:0:0:
402,192,134610,1,0,0:0:0:0:
109,192,134610,1,0,0:0:0:0:
36,192,134610,1,0,0:0:0:0:
475,192,134685,1,0,0:0:0:0:
182,192,134685,1,0,0:0:0:0:
329,192,134685,1,0,0:0:0:0:
256,192,134760,1,0,0:0:0:0:
109,192,134760,1,0,0:0:0:0:
329,192,134835,1,0,0:0:0:0:
402,192,134835,1,0,0:0:0:0:
36,192,134835,1,0,0:0:0:0:
182,192,134835,1,0,0:0:0:0:
329,192,134910,1,0,0:0:0:0:
402,192,134910,1,0,0:0:0:0:
36,192,134985,1,0,0:0:0:0:
256,192,134985,1,0,0:0:0:0:
109,192,134985,1,0,0:0:0:0:
329,192,135060,1,0,0:0:0:0:
475,192,135060,1,0,0:0:0:0:
109,192,135135,1,0,0:0:0:0:
182,192,135135,1,0,0:0:0:0:
402,192,135135,1,0,0:0:0:0:
36,192,135135,1,0,0:0:0:0:
109,192,135210,1,0,0:0:0:0:
182,192,135210,1,0,0:0:0:0:
475,192,135285,1,0,0:0:0:0:
256,192,135285,1,0,0:0:0:0:
329,192,135285,1,0,0:0:0:0:
182,192,135360,1,0,0:0:0:0:
36,192,135360,1,0,0:0:0:0:
402,192,135435,1,0,0:0:0:0:
256,192,135435,1,0,0:0:0:0:
109,192,135435,1,0,0:0:0:0:
475,192,135435,1,0,0:0:0:0:
256,192,135510,1,0,0:0:0:0:
402,192,135510,1,0,0:0:0:0:
36,192,135585,1,0,0:0:0:0:
182,192,135585,1,0,0:0:0:0:
329,192,135585,1,0,0:0:0:0:
256,192,135660,1,0,0:0:0:0:
109,192,135660,1,0,0:0:0:0:
182,192,135735,1,0,0:0:0:0:
36,192,135735,1,0,0:0:0:0:
475,192,135735,1,0,0:0:0:0:
402,192,135735,1,0,0:0:0:0:
182,192,135810,1,0,0:0:0:0:
36,192,135810,1,0,0:0:0:0:
475,192,135885,1,0,0:0:0:0:
109,192,135885,1,0,0:0:0:0:
256,192,135885,1,0,0:0:0:0:
329,192,135960,1,0,0:0:0:0:
402,192,135960,1,0,0:0:0:0:
182,192,136035,1,0,0:0:0:0:
256,192,136035,1,0,0:0:0:0:
475,192,136035,1,0,0:0:0:0:
36,192,136035,1,0,0:0:0:0:
182,192,136110,1,0,0:0:0:0:
256,192,136110,1,0,0:0:0:0:
402,192,136185,1,0,0:0:0:0:
475,192,136185,1,0,0:0:0:0:
329,192,136260,1,0,0:0:0:0:
182,192,136260,1,0,0:0:0:0:
256,192,136335,1,0,0:0:0:0:
475,192,136335,1,0,0:0:0:0:
109,192,136335,1,0,0:0:0:0:
36,192,136335,1,0,0:0:0:0:
256,192,136410,1,0,0:0:0:0:
475,192,136410,1,0,0:0:0:0:
36,192,136485,1,0,0:0:0:0:
402,192,136485,1,0,0:0:0:0:
182,192,136485,1,0,0:0:0:0:
256,192,136560,1,0,0:0:0:0:
329,192,136560,1,0,0:0:0:0:
402,192,136635,1,0,0:0:0:0:
182,192,136635,1,0,0:0:0:0:
109,192,136635,1,0,0:0:0:0:
475,192,136635,1,0,0:0:0:0:
182,192,136710,1,0,0:0:0:0:
402,192,136710,1,0,0:0:0:0:
475,192,136785,1,0,0:0:0:0:
256,192,136785,1,0,0:0:0:0:
36,192,136785,1,0,0:0:0:0:
182,192,136860,1,0,0:0:0:0:
329,192,136860,1,0,0:0:0:0:
109,192,136935,1,0,0:0:0:0:
36,192,136935,1,0,0:0:0:0:
256,192,136935,1,0,0:0:0:0:
475,192,136935,1,0,0:0:0:0:
109,192,137010,1,0,0:0:0:0:
36,192,137010,1,0,0:0:0:0:
402,192,137085,1,0,0:0:0:0:
182,192,137085,1,0,0:0:0:0:
329,192,137085,1,0,0:0:0:0:
256,192,137160,1,0,0:0:0:0:
109,192,137160,1,0,0:0:0:0:
402,192,137235,1,0,0:0:0:0:
475,192,137235,1,0,0:0:0:0:
36,192,137235,1,0,0:0:0:0:
182,192,137235,1,0,0:0:0:0:
402,192,137310,1,0,0:0:0:0:
475,192,137310,1,0,0:0:0:0:
36,192,137385,1,0,0:0:0:0:
329,192,137385,1,0,0:0:0:0:
109,192,137385,1,0,0:0:0:0:
402,192,137460,1,0,0:0:0:0:
182,192,137460,1,0,0:0:0:0:
36,192,137535,1,0,0:0:0:0:
109,192,137535,1,0,0:0:0:0:
475,192,137535,1,0,0:0:0:0:
256,192,137535,1,0,0:0:0:0:
109,192,137610,1,0,0:0:0:0:
36,192,137610,1,0,0:0:0:0:
402,192,137685,1,0,0:0:0:0:
182,192,137685,1,0,0:0:0:0:
329,192,137685,1,0,0:0:0:0:
109,192,137760,1,0,0:0:0:0:
256,192,137760,1,0,0:0:0:0:
182,192,137835,1,0,0:0:0:0:
402,192,137835,1,0,0:0:0:0:
36,192,137835,1,0,0:0:0:0:
475,192,137835,1,0,0:0:0:0:
182,192,137910,1,0,0:0:0:0:
402,192,137910,1,0,0:0:0:0:
36,192,137985,1,0,0:0:0:0:
109,192,137985,1,0,0:0:0:0:
329,192,137985,1,0,0:0:0:0:
256,192,138060,1,0,0:0:0:0:
402,192,138060,1,0,0:0:0:0:
182,192,138135,1,0,0:0:0:0:
329,192,138135,1,0,0:0:0:0:
475,192,138135,1,0,0:0:0:0:
109,192,138135,1,0,0:0:0:0:
182,192,138210,1,0,0:0:0:0:
329,192,138210,1,0,0:0:0:0:
36,192,138285,1,0,0:0:0:0:
256,192,138285,1,0,0:0:0:0:
475,192,138285,1,0,0:0:0:0:
402,192,138360,1,0,0:0:0:0:
182,192,138360,1,0,0:0:0:0:
329,192,138435,1,0,0:0:0:0:
109,192,138435,1,0,0:0:0:0:
36,192,138435,1,0,0:0:0:0:
475,192,138435,1,0,0:0:0:0:
329,192,138510,1,0,0:0:0:0:
109,192,138510,1,0,0:0:0:0:
475,192,138585,1,0,0:0:0:0:
402,192,138585,1,0,0:0:0:0:
182,192,138585,1,0,0:0:0:0:
256,192,138660,1,0,0:0:0:0:
36,192,138660,1,0,0:0:0:0:
329,192,138735,1,0,0:0:0:0:
475,192,138735,1,0,0:0:0:0:
109,192,138735,1,0,0:0:0:0:
182,192,138735,1,0,0:0:0:0:
329,192,138810,1,0,0:0:0:0:
475,192,138810,1,0,0:0:0:0:
182,192,138885,1,0,0:0:0:0:
36,192,138885,1,0,0:0:0:0:
402,192,138885,1,0,0:0:0:0:
256,192,138885,1,0,0:0:0:0:
182,192,138960,1,0,0:0:0:0:
36,192,138960,1,0,0:0:0:0:
256,192,139035,1,0,0:0:0:0:
329,192,139035,1,0,0:0:0:0:
475,192,139035,1,0,0:0:0:0:
256,192,139110,1,0,0:0:0:0:
329,192,139110,1,0,0:0:0:0:
36,192,139185,1,0,0:0:0:0:
182,192,139185,1,0,0:0:0:0:
402,192,139185,1,0,0:0:0:0:
329,192,139260,1,0,0:0:0:0:
475,192,139260,1,0,0:0:0:0:
109,192,139335,1,0,0:0:0:0:
256,192,139335,1,0,0:0:0:0:
36,192,139335,1,0,0:0:0:0:
109,192,139410,1,0,0:0:0:0:
256,192,139410,1,0,0:0:0:0:
475,192,139485,1,0,0:0:0:0:
182,192,139485,1,0,0:0:0:0:
402,192,139485,1,0,0:0:0:0:
329,192,139560,1,0,0:0:0:0:
109,192,139560,1,0,0:0:0:0:
256,192,139635,1,0,0:0:0:0:
402,192,139635,1,0,0:0:0:0:
36,192,139635,1,0,0:0:0:0:
475,192,139635,1,0,0:0:0:0:
256,192,139710,1,0,0:0:0:0:
402,192,139710,1,0,0:0:0:0:
36,192,139785,1,0,0:0:0:0:
329,192,139785,1,0,0:0:0:0:
182,192,139785,1,0,0:0:0:0:
402,192,139860,1,0,0:0:0:0:
475,192,139860,1,0,0:0:0:0:
36,192,139935,1,0,0:0:0:0:
256,192,139935,1,0,0:0:0:0:
329,192,139935,1,0,0:0:0:0:
109,192,139935,1,0,0:0:0:0:
256,192,140010,1,0,0:0:0:0:
36,192,140010,1,0,0:0:0:0:
475,192,140085,1,0,0:0:0:0:
182,192,140085,1,0,0:0:0:0:
402,192,140085,1,0,0:0:0:0:
256,192,140160,1,0,0:0:0:0:
109,192,140160,1,0,0:0:0:0:
182,192,140235,1,0,0:0:0:0:
475,192,140235,1,0,0:0:0:0:
329,192,140235,1,0,0:0:0:0:
36,192,140235,1,0,0:0:0:0:
182,192,140310,1,0,0:0:0:0:
475,192,140310,1,0,0:0:0:0:
36,192,140385,1,0,0:0:0:0:
402,192,140385,1,0,0:0:0:0:
256,192,140385,1,0,0:0:0:0:
182,192,140460,1,0,0:0:0:0:
109,192,140460,1,0,0:0:0:0:
329,192,140535,1,0,0:0:0:0:
36,192,140535,1,0,0:0:0:0:
256,192,140535,1,0,0:0:0:0:
475,192,140535,1,0,0:0:0:0:
329,192,140610,1,0,0:0:0:0:
36,192,140610,1,0,0:0:0:0:
475,192,140685,1,0,0:0:0:0:
182,192,140685,1,0,0:0:0:0:
402,192,140685,1,0,0:0:0:0:
256,192,140760,1,0,0:0:0:0:
109,192,140760,1,0,0:0:0:0:
329,192,140835,1,0,0:0:0:0:
475,192,140835,1,0,0:0:0:0:
182,192,140835,1,0,0:0:0:0:
36,192,140835,1,0,0:0:0:0:
329,192,140910,1,0,0:0:0:0:
475,192,140910,1,0,0:0:0:0:
36,192,140985,1,0,0:0:0:0:
109,192,140985,1,0,0:0:0:0:
256,192,140985,1,0,0:0:0:0:
182,192,141060,1,0,0:0:0:0:
329,192,141060,1,0,0:0:0:0:
256,192,141135,1,0,0:0:0:0:
402,192,141135,1,0,0:0:0:0:
109,192,141135,1,0,0:0:0:0:
475,192,141135,1,0,0:0:0:0:
402,192,141210,1,0,0:0:0:0:
256,192,141210,1,0,0:0:0:0:
109,192,141285,1,0,0:0:0:0:
182,192,141285,1,0,0:0:0:0:
36,192,141285,1,0,0:0:0:0:
329,192,141360,1,0,0:0:0:0:
475,192,141360,1,0,0:0:0:0:
36,192,141435,1,0,0:0:0:0:
109,192,141435,1,0,0:0:0:0:
402,192,141435,1,0,0:0:0:0:
256,192,141435,1,0,0:0:0:0:
36,192,141510,1,0,0:0:0:0:
109,192,141510,1,0,0:0:0:0:
475,192,141585,1,0,0:0:0:0:
256,192,141585,1,0,0:0:0:0:
329,192,141585,1,0,0:0:0:0:
182,192,141660,1,0,0:0:0:0:
109,192,141660,1,0,0:0:0:0:
36,192,141735,1,0,0:0:0:0:
329,192,141735,1,0,0:0:0:0:
402,192,141735,1,0,0:0:0:0:
475,192,141735,1,0,0:0:0:0:
329,192,141810,1,0,0:0:0:0:
36,192,141810,1,0,0:0:0:0:
109,192,141885,1,0,0:0:0:0:
182,192,141885,1,0,0:0:0:0:
475,192,141885,1,0,0:0:0:0:
402,192,141960,1,0,0:0:0:0:
256,192,141960,1,0,0:0:0:0:
109,192,142035,1,0,0:0:0:0:
329,192,142035,1,0,0:0:0:0:
475,192,142035,1,0,0:0:0:0:
36,192,142035,1,0,0:0:0:0:
109,192,142110,1,0,0:0:0:0:
329,192,142110,1,0,0:0:0:0:
36,192,142185,1,0,0:0:0:0:
256,192,142185,1,0,0:0:0:0:
475,192,142185,1,0,0:0:0:0:
402,192,142260,1,0,0:0:0:0:
182,192,142260,1,0,0:0:0:0:
329,192,142335,1,0,0:0:0:0:
475,192,142335,1,0,0:0:0:0:
109,192,142335,1,0,0:0:0:0:
36,192,142335,1,0,0:0:0:0:
329,192,142410,1,0,0:0:0:0:
475,192,142410,1,0,0:0:0:0:
182,192,142485,1,0,0:0:0:0:
256,192,142485,1,0,0:0:0:0:
36,192,142485,1,0,0:0:0:0:
109,192,142560,1,0,0:0:0:0:
329,192,142560,1,0,0:0:0:0:
182,192,142635,1,0,0:0:0:0:
36,192,142635,1,0,0:0:0:0:
402,192,142635,1,0,0:0:0:0:
475,192,142635,1,0,0:0:0:0:
182,192,142710,1,0,0:0:0:0:
36,192,142710,1,0,0:0:0:0:
475,192,142785,1,0,0:0:0:0:
256,192,142785,1,0,0:0:0:0:
402,192,142785,1,0,0:0:0:0:
329,192,142860,1,0,0:0:0:0:
182,192,142860,1,0,0:0:0:0:
256,192,142935,1,0,0:0:0:0:
475,192,142935,1,0,0:0:0:0:
109,192,142935,1,0,0:0:0:0:
36,192,142935,1,0,0:0:0:0:
256,192,143010,1,0,0:0:0:0:
475,192,143010,1,0,0:0:0:0:
402,192,143085,1,0,0:0:0:0:
182,192,143085,1,0,0:0:0:0:
329,192,143085,1,0,0:0:0:0:
256,192,143160,1,0,0:0:0:0:
109,192,143160,1,0,0:0:0:0:
182,192,143235,1,0,0:0:0:0:
402,192,143235,1,0,0:0:0:0:
36,192,143235,1,0,0:0:0:0:
475,192,143235,1,0,0:0:0:0:
402,192,143310,1,0,0:0:0:0:
182,192,143310,1,0,0:0:0:0:
36,192,143385,1,0,0:0:0:0:
329,192,143385,1,0,0:0:0:0:
109,192,143385,1,0,0:0:0:0:
256,192,143460,1,0,0:0:0:0:
475,192,143460,1,0,0:0:0:0:
182,192,143535,1,0,0:0:0:0:
329,192,143535,1,0,0:0:0:0:
402,192,143535,1,0,0:0:0:0:
36,192,143535,1,0,0:0:0:0:
329,192,143610,1,0,0:0:0:0:
182,192,143610,1,0,0:0:0:0:
402,192,143685,1,0,0:0:0:0:
109,192,143685,1,0,0:0:0:0:
256,192,143685,1,0,0:0:0:0:
475,192,143685,1,0,0:0:0:0:
109,192,143760,1,0,0:0:0:0:
36,192,143760,1,0,0:0:0:0:
402,192,143835,1,0,0:0:0:0:
475,192,143835,1,0,0:0:0:0:
182,192,143835,1,0,0:0:0:0:
256,192,143835,1,0,0:0:0:0:
402,192,143910,1,0,0:0:0:0:
475,192,143910,1,0,0:0:0:0:
182,192,143985,1,0,0:0:0:0:
329,192,143985,1,0,0:0:0:0:
109,192,143985,1,0,0:0:0:0:
256,192,144060,1,0,0:0:0:0:
402,192,144060,1,0,0:0:0:0:
109,192,144135,1,0,0:0:0:0:
36,192,144135,1,0,0:0:0:0:
329,192,144135,1,0,0:0:0:0:
475,192,144135,1,0,0:0:0:0:
109,192,144210,1,0,0:0:0:0:
36,192,144210,1,0,0:0:0:0:
256,192,144285,1,0,0:0:0:0:
182,192,144285,1,0,0:0:0:0:
402,192,144285,1,0,0:0:0:0:
329,192,144360,1,0,0:0:0:0:
109,192,144360,1,0,0:0:0:0:
182,192,144435,1,0,0:0:0:0:
402,192,144435,1,0,0:0:0:0:
36,192,144435,1,0,0:0:0:0:
475,192,144435,1,0,0:0:0:0:
402,192,144510,1,0,0:0:0:0:
182,192,144510,1,0,0:0:0:0:
256,192,144585,1,0,0:0:0:0:
109,192,144585,1,0,0:0:0:0:
329,192,144585,1,0,0:0:0:0:
182,192,144660,1,0,0:0:0:0:
402,192,144660,1,0,0:0:0:0:
256,192,144735,1,0,0:0:0:0:
475,192,144735,1,0,0:0:0:0:
109,192,144735,1,0,0:0:0:0:
36,192,144735,1,0,0:0:0:0:
256,192,144810,1,0,0:0:0:0:
475,192,144810,1,0,0:0:0:0:
182,192,144885,1,0,0:0:0:0:
402,192,144885,1,0,0:0:0:0:
36,192,144885,1,0,0:0:0:0:
109,192,144960,1,0,0:0:0:0:
329,192,144960,1,0,0:0:0:0:
256,192,145035,1,0,0:0:0:0:
182,192,145035,1,0,0:0:0:0:
402,192,145035,1,0,0:0:0:0:
475,192,145035,1,0,0:0:0:0:
256,192,145110,1,0,0:0:0:0:
182,192,145110,1,0,0:0:0:0:
36,192,145185,1,0,0:0:0:0:
109,192,145185,1,0,0:0:0:0:
329,192,145185,1,0,0:0:0:0:
182,192,145260,1,0,0:0:0:0:
402,192,145260,1,0,0:0:0:0:
36,192,145335,1,0,0:0:0:0:
109,192,145335,1,0,0:0:0:0:
256,192,145335,1,0,0:0:0:0:
475,192,145335,1,0,0:0:0:0:
109,192,145410,1,0,0:0:0:0:
36,192,145410,1,0,0:0:0:0:
402,192,145485,1,0,0:0:0:0:
182,192,145485,1,0,0:0:0:0:
329,192,145485,1,0,0:0:0:0:
256,192,145560,1,0,0:0:0:0:
109,192,145560,1,0,0:0:0:0:
402,192,145635,1,0,0:0:0:0:
475,192,145635,1,0,0:0:0:0:
182,192,145635,1,0,0:0:0:0:
36,192,145635,1,0,0:0:0:0:
402,192,145710,1,0,0:0:0:0:
475,192,145710,1,0,0:0:0:0:
256,192,145785,1,0,0:0:0:0:
329,192,145785,1,0,0:0:0:0:
109,192,145785,1,0,0:0:0:0:
402,192,145860,1,0,0:0:0:0:
182,192,145860,1,0,0:0:0:0:
256,192,145935,1,0,0:0:0:0:
36,192,145935,1,0,0:0:0:0:
109,192,145935,1,0,0:0:0:0:
475,192,145935,1,0,0:0:0:0:
256,192,146010,1,0,0:0:0:0:
36,192,146010,1,0,0:0:0:0:
182,192,146085,1,0,0:0:0:0:
329,192,146085,1,0,0:0:0:0:
402,192,146085,1,0,0:0:0:0:
256,192,146160,1,0,0:0:0:0:
109,192,146160,1,0,0:0:0:0:
329,192,146235,1,0,0:0:0:0:
475,192,146235,1,0,0:0:0:0:
182,192,146235,1,0,0:0:0:0:
36,192,146235,1,0,0:0:0:0:
329,192,146310,1,0,0:0:0:0:
475,192,146310,1,0,0:0:0:0:
402,192,146385,1,0,0:0:0:0:
256,192,146385,1,0,0:0:0:0:
109,192,146385,1,0,0:0:0:0:
182,192,146460,1,0,0:0:0:0:
329,192,146460,1,0,0:0:0:0:
109,192,146535,1,0,0:0:0:0:
36,192,146535,1,0,0:0:0:0:
256,192,146535,1,0,0:0:0:0:
475,192,146535,1,0,0:0:0:0:
109,192,146610,1,0,0:0:0:0:
36,192,146610,1,0,0:0:0:0:
402,192,146685,1,0,0:0:0:0:
182,192,146685,1,0,0:0:0:0:
329,192,146685,1,0,0:0:0:0:
109,192,146760,1,0,0:0:0:0:
36,192,146760,1,0,0:0:0:0:
256,192,146835,1,0,0:0:0:0:
402,192,146835,1,0,0:0:0:0:
182,192,146835,1,0,0:0:0:0:
475,192,146835,1,0,0:0:0:0:
402,192,146910,1,0,0:0:0:0:
256,192,146910,1,0,0:0:0:0:
36,192,146985,1,0,0:0:0:0:
182,192,146985,1,0,0:0:0:0:
329,192,146985,1,0,0:0:0:0:
109,192,147060,1,0,0:0:0:0:
402,192,147060,1,0,0:0:0:0:
256,192,147135,1,0,0:0:0:0:
36,192,147135,1,0,0:0:0:0:
329,192,147135,1,0,0:0:0:0:
475,192,147135,1,0,0:0:0:0:
256,192,147210,1,0,0:0:0:0:
36,192,147210,1,0,0:0:0:0:
109,192,147285,1,0,0:0:0:0:
182,192,147285,1,0,0:0:0:0:
402,192,147285,1,0,0:0:0:0:
329,192,147360,1,0,0:0:0:0:
256,192,147360,1,0,0:0:0:0:
475,192,147435,1,0,0:0:0:0:
182,192,147435,1,0,0:0:0:0:
109,192,147435,1,0,0:0:0:0:
36,192,147435,1,0,0:0:0:0:
182,192,147510,1,0,0:0:0:0:
475,192,147510,1,0,0:0:0:0:
256,192,147585,1,0,0:0:0:0:
329,192,147585,1,0,0:0:0:0:
36,192,147585,1,0,0:0:0:0:
402,192,147660,1,0,0:0:0:0:
109,192,147660,1,0,0:0:0:0:
182,192,147735,1,0,0:0:0:0:
36,192,147735,1,0,0:0:0:0:
256,192,147735,1,0,0:0:0:0:
475,192,147735,1,0,0:0:0:0:
36,192,147810,1,0,0:0:0:0:
182,192,147810,1,0,0:0:0:0:
109,192,147885,1,0,0:0:0:0:
402,192,147885,1,0,0:0:0:0:
329,192,147885,1,0,0:0:0:0:
256,192,147960,1,0,0:0:0:0:
182,192,147960,1,0,0:0:0:0:
402,192,148035,1,0,0:0:0:0:
475,192,148035,1,0,0:0:0:0:
109,192,148035,1,0,0:0:0:0:
36,192,148035,1,0,0:0:0:0:
402,192,148110,1,0,0:0:0:0:
475,192,148110,1,0,0:0:0:0:
182,192,148185,1,0,0:0:0:0:
329,192,148185,1,0,0:0:0:0:
36,192,148185,1,0,0:0:0:0:
109,192,148260,1,0,0:0:0:0:
256,192,148260,1,0,0:0:0:0:
329,192,148335,1,0,0:0:0:0:
402,192,148335,1,0,0:0:0:0:
182,192,148335,1,0,0:0:0:0:
475,192,148335,1,0,0:0:0:0:
329,192,148410,1,0,0:0:0:0:
402,192,148410,1,0,0:0:0:0:
109,192,148485,1,0,0:0:0:0:
36,192,148485,1,0,0:0:0:0:
182,192,148485,1,0,0:0:0:0:
256,192,148485,1,0,0:0:0:0:
182,192,148560,1,0,0:0:0:0:
109,192,148560,1,0,0:0:0:0:
36,192,148635,1,0,0:0:0:0:
256,192,148635,1,0,0:0:0:0:
402,192,148635,1,0,0:0:0:0:
329,192,148635,1,0,0:0:0:0:
475,192,148635,1,0,0:0:0:0:
182,192,148710,1,0,0:0:0:0:
109,192,148710,1,0,0:0:0:0:
36,192,148785,1,0,0:0:0:0:
256,192,148785,1,0,0:0:0:0:
329,192,148785,1,0,0:0:0:0:
402,192,148785,1,0,0:0:0:0:
475,192,148785,1,0,0:0:0:0:
182,192,148860,1,0,0:0:0:0:
109,192,148935,1,0,0:0:0:0:
36,192,148935,1,0,0:0:0:0:
329,192,148935,1,0,0:0:0:0:
402,192,148935,1,0,0:0:0:0:
475,192,148935,1,0,0:0:0:0:
256,192,149010,1,0,0:0:0:0:
182,192,149010,1,0,0:0:0:0:
329,192,149085,1,0,0:0:0:0:
402,192,149085,1,0,0:0:0:0:
475,192,149085,1,0,0:0:0:0:
109,192,149085,1,0,0:0:0:0:
36,192,149085,1,0,0:0:0:0:
256,192,149160,1,0,0:0:0:0:
182,192,149235,1,0,0:0:0:0:
109,192,149235,1,0,0:0:0:0:
36,192,149235,1,0,0:0:0:0:
402,192,149235,1,0,0:0:0:0:
475,192,149235,1,0,0:0:0:0:
329,192,149310,1,0,0:0:0:0:
256,192,149310,1,0,0:0:0:0:
402,192,149385,1,0,0:0:0:0:
475,192,149385,1,0,0:0:0:0:
182,192,149385,1,0,0:0:0:0:
109,192,149385,1,0,0:0:0:0:
36,192,149385,1,0,0:0:0:0:
329,192,149460,1,0,0:0:0:0:
256,192,149535,1,0,0:0:0:0:
109,192,149535,1,0,0:0:0:0:
182,192,149535,1,0,0:0:0:0:
36,192,149535,1,0,0:0:0:0:
475,192,149535,1,0,0:0:0:0:
329,192,149610,1,0,0:0:0:0:
402,192,149610,1,0,0:0:0:0:
475,192,149685,1,0,0:0:0:0:
256,192,149685,1,0,0:0:0:0:
182,192,149685,1,0,0:0:0:0:
109,192,149685,1,0,0:0:0:0:
36,192,149685,1,0,0:0:0:0:
36,192,149760,1,0,0:0:0:0:
109,192,149760,1,0,0:0:0:0:
182,192,149760,1,0,0:0:0:0:
475,192,149760,1,0,0:0:0:0:
256,192,149760,1,0,0:0:0:0:
182,192,149835,1,0,0:0:0:0:
109,192,149835,1,0,0:0:0:0:
36,192,149835,1,0,0:0:0:0:
256,192,149835,1,0,0:0:0:0:
475,192,149835,1,0,0:0:0:0:
329,192,149910,1,0,0:0:0:0:
402,192,149910,1,0,0:0:0:0:
475,192,149985,1,0,0:0:0:0:
256,192,149985,1,0,0:0:0:0:
182,192,149985,1,0,0:0:0:0:
109,192,149985,1,0,0:0:0:0:
36,192,149985,1,0,0:0:0:0:
329,192,150060,1,0,0:0:0:0:
402,192,150135,1,0,0:0:0:0:
475,192,150135,1,0,0:0:0:0:
182,192,150135,1,0,0:0:0:0:
36,192,150135,1,0,0:0:0:0:
109,192,150135,1,0,0:0:0:0:
256,192,150210,1,0,0:0:0:0:
329,192,150210,1,0,0:0:0:0:
182,192,150285,1,0,0:0:0:0:
109,192,150285,1,0,0:0:0:0:
36,192,150285,1,0,0:0:0:0:
402,192,150285,1,0,0:0:0:0:
475,192,150285,1,0,0:0:0:0:
256,192,150360,1,0,0:0:0:0:
329,192,150435,1,0,0:0:0:0:
402,192,150435,1,0,0:0:0:0:
475,192,150435,1,0,0:0:0:0:
109,192,150435,1,0,0:0:0:0:
36,192,150435,1,0,0:0:0:0:
182,192,150510,1,0,0:0:0:0:
256,192,150510,1,0,0:0:0:0:
109,192,150585,1,0,0:0:0:0:
36,192,150585,1,0,0:0:0:0:
402,192,150585,1,0,0:0:0:0:
475,192,150585,1,0,0:0:0:0:
329,192,150585,1,0,0:0:0:0:
182,192,150660,1,0,0:0:0:0:
256,192,150735,1,0,0:0:0:0:
329,192,150735,1,0,0:0:0:0:
402,192,150735,1,0,0:0:0:0:
475,192,150735,1,0,0:0:0:0:
36,192,150735,1,0,0:0:0:0:
109,192,150810,1,0,0:0:0:0:
182,192,150810,1,0,0:0:0:0:
256,192,150885,1,0,0:0:0:0:
329,192,150885,1,0,0:0:0:0:
402,192,150885,1,0,0:0:0:0:
475,192,150885,1,0,0:0:0:0:
36,192,150885,1,0,0:0:0:0:
109,192,150922,1,0,0:0:0:0:
182,192,150960,1,0,0:0:0:0:
256,192,150997,1,0,0:0:0:0:
329,192,151035,1,0,0:0:0:0:
475,192,151035,1,0,0:0:0:0:
36,192,151035,1,0,0:0:0:0:
109,192,151110,1,0,0:0:0:0:
256,192,151110,1,0,0:0:0:0:
402,192,151110,1,0,0:0:0:0:
329,192,151185,1,0,0:0:0:0:
182,192,151185,1,0,0:0:0:0:
475,192,151185,1,0,0:0:0:0:
256,192,151260,1,0,0:0:0:0:
109,192,151260,1,0,0:0:0:0:
36,192,151260,1,0,0:0:0:0:
182,192,151335,1,0,0:0:0:0:
329,192,151335,1,0,0:0:0:0:
402,192,151335,1,0,0:0:0:0:
475,192,151335,1,0,0:0:0:0:
256,192,151410,1,0,0:0:0:0:
109,192,151410,1,0,0:0:0:0:
36,192,151410,1,0,0:0:0:0:
182,192,151485,1,0,0:0:0:0:
329,192,151485,1,0,0:0:0:0:
475,192,151485,1,0,0:0:0:0:
36,192,151560,1,0,0:0:0:0:
256,192,151560,1,0,0:0:0:0:
402,192,151560,1,0,0:0:0:0:
109,192,151635,1,0,0:0:0:0:
182,192,151635,1,0,0:0:0:0:
329,192,151635,1,0,0:0:0:0:
475,192,151635,1,0,0:0:0:0:
402,192,151710,1,0,0:0:0:0:
256,192,151710,1,0,0:0:0:0:
36,192,151710,1,0,0:0:0:0:
182,192,151785,1,0,0:0:0:0:
329,192,151785,1,0,0:0:0:0:
475,192,151785,1,0,0:0:0:0:
109,192,151860,1,0,0:0:0:0:
256,192,151860,1,0,0:0:0:0:
36,192,151860,1,0,0:0:0:0:
182,192,151935,1,0,0:0:0:0:
329,192,151935,1,0,0:0:0:0:
402,192,151935,1,0,0:0:0:0:
475,192,151935,1,0,0:0:0:0:
256,192,152010,1,0,0:0:0:0:
109,192,152010,1,0,0:0:0:0:
36,192,152010,1,0,0:0:0:0:
182,192,152085,1,0,0:0:0:0:
329,192,152085,1,0,0:0:0:0:
402,192,152085,1,0,0:0:0:0:
256,192,152160,1,0,0:0:0:0:
475,192,152160,1,0,0:0:0:0:
36,192,152160,1,0,0:0:0:0:
182,192,152235,1,0,0:0:0:0:
329,192,152235,1,0,0:0:0:0:
402,192,152235,1,0,0:0:0:0:
109,192,152235,1,0,0:0:0:0:
256,192,152310,1,0,0:0:0:0:
182,192,152310,1,0,0:0:0:0:
256,192,152385,1,0,0:0:0:0:
329,192,152385,1,0,0:0:0:0:
402,192,152460,1,0,0:0:0:0:
36,192,152535,1,0,0:0:0:0:
256,192,152535,1,0,0:0:0:0:
475,192,152535,1,0,0:0:0:0:
182,192,152535,1,0,0:0:0:0:
109,192,152610,1,0,0:0:0:0:
329,192,152610,1,0,0:0:0:0:
256,192,152610,1,0,0:0:0:0:
182,192,152685,1,0,0:0:0:0:
402,192,152685,1,0,0:0:0:0:
329,192,152685,1,0,0:0:0:0:
36,192,152722,1,0,0:0:0:0:
475,192,152760,1,0,0:0:0:0:
109,192,152760,1,0,0:0:0:0:
402,192,152760,1,0,0:0:0:0:
182,192,152797,1,0,0:0:0:0:
256,192,152835,1,0,0:0:0:0:
329,192,152835,1,0,0:0:0:0:
36,192,152835,1,0,0:0:0:0:
475,192,152835,1,0,0:0:0:0:
109,192,152910,1,0,0:0:0:0:
182,192,152910,1,0,0:0:0:0:
402,192,152910,1,0,0:0:0:0:
329,192,152985,1,0,0:0:0:0:
256,192,152985,1,0,0:0:0:0:
36,192,152985,1,0,0:0:0:0:
475,192,152985,1,0,0:0:0:0:
402,192,153060,1,0,0:0:0:0:
182,192,153060,1,0,0:0:0:0:
329,192,153060,1,0,0:0:0:0:
36,192,153135,1,0,0:0:0:0:
109,192,153135,1,0,0:0:0:0:
256,192,153135,1,0,0:0:0:0:
475,192,153135,1,0,0:0:0:0:
402,192,153172,1,0,0:0:0:0:
329,192,153210,1,0,0:0:0:0:
182,192,153210,1,0,0:0:0:0:
109,192,153247,1,0,0:0:0:0:
36,192,153285,1,0,0:0:0:0:
256,192,153285,1,0,0:0:0:0:
475,192,153285,1,0,0:0:0:0:
402,192,153285,1,0,0:0:0:0:
109,192,153360,1,0,0:0:0:0:
182,192,153360,1,0,0:0:0:0:
329,192,153360,1,0,0:0:0:0:
256,192,153435,1,0,0:0:0:0:
36,192,153435,1,0,0:0:0:0:
402,192,153435,1,0,0:0:0:0:
475,192,153435,1,0,0:0:0:0:
182,192,153510,1,0,0:0:0:0:
329,192,153510,1,0,0:0:0:0:
256,192,153585,1,0,0:0:0:0:
109,192,153585,1,0,0:0:0:0:
402,192,153660,1,0,0:0:0:0:
475,192,153660,1,0,0:0:0:0:
329,192,153735,1,0,0:0:0:0:
182,192,153735,1,0,0:0:0:0:
109,192,153735,1,0,0:0:0:0:
256,192,153810,1,0,0:0:0:0:
402,192,153810,1,0,0:0:0:0:
182,192,153885,1,0,0:0:0:0:
109,192,153885,1,0,0:0:0:0:
402,192,153960,1,0,0:0:0:0:
475,192,153960,1,0,0:0:0:0:
36,192,154035,1,0,0:0:0:0:
182,192,154035,1,0,0:0:0:0:
329,192,154035,1,0,0:0:0:0:
256,192,154035,1,0,0:0:0:0:
402,192,154110,1,0,0:0:0:0:
109,192,154110,1,0,0:0:0:0:
36,192,154185,1,0,0:0:0:0:
256,192,154185,1,0,0:0:0:0:
182,192,154260,1,0,0:0:0:0:
475,192,154260,1,0,0:0:0:0:
109,192,154335,1,0,0:0:0:0:
36,192,154335,1,0,0:0:0:0:
402,192,154335,1,0,0:0:0:0:
256,192,154410,1,0,0:0:0:0:
182,192,154410,1,0,0:0:0:0:
36,192,154485,1,0,0:0:0:0:
475,192,154485,1,0,0:0:0:0:
109,192,154560,1,0,0:0:0:0:
256,192,154560,1,0,0:0:0:0:
182,192,154635,1,0,0:0:0:0:
402,192,154635,1,0,0:0:0:0:
475,192,154635,1,0,0:0:0:0:
256,192,154710,1,0,0:0:0:0:
36,192,154710,1,0,0:0:0:0:
109,192,154785,1,0,0:0:0:0:
475,192,154785,1,0,0:0:0:0:
182,192,154860,1,0,0:0:0:0:
402,192,154860,1,0,0:0:0:0:
36,192,154935,1,0,0:0:0:0:
256,192,154935,1,0,0:0:0:0:
475,192,154935,1,0,0:0:0:0:
182,192,155010,1,0,0:0:0:0:
402,192,155010,1,0,0:0:0:0:
109,192,155085,1,0,0:0:0:0:
256,192,155085,1,0,0:0:0:0:
182,192,155160,1,0,0:0:0:0:
402,192,155160,1,0,0:0:0:0:
329,192,155235,1,0,0:0:0:0:
256,192,155235,1,0,0:0:0:0:
475,192,155235,1,0,0:0:0:0:
36,192,155235,1,0,0:0:0:0:
109,192,155310,1,0,0:0:0:0:
182,192,155310,1,0,0:0:0:0:
256,192,155385,1,0,0:0:0:0:
329,192,155385,1,0,0:0:0:0:
182,192,155460,1,0,0:0:0:0:
36,192,155460,1,0,0:0:0:0:
402,192,155460,1,0,0:0:0:0:
109,192,155535,1,0,0:0:0:0:
256,192,155535,1,0,0:0:0:0:
475,192,155535,1,0,0:0:0:0:
182,192,155610,1,0,0:0:0:0:
329,192,155610,1,0,0:0:0:0:
36,192,155610,1,0,0:0:0:0:
109,192,155685,1,0,0:0:0:0:
475,192,155685,1,0,0:0:0:0:
182,192,155760,1,0,0:0:0:0:
256,192,155760,1,0,0:0:0:0:
402,192,155835,1,0,0:0:0:0:
475,192,155835,1,0,0:0:0:0:
109,192,155835,1,0,0:0:0:0:
36,192,155835,1,0,0:0:0:0:
182,192,155910,1,0,0:0:0:0:
329,192,155910,1,0,0:0:0:0:
256,192,155985,1,0,0:0:0:0:
36,192,155985,1,0,0:0:0:0:
109,192,156060,1,0,0:0:0:0:
329,192,156060,1,0,0:0:0:0:
256,192,156135,1,0,0:0:0:0:
36,192,156135,1,0,0:0:0:0:
475,192,156135,1,0,0:0:0:0:
182,192,156210,1,0,0:0:0:0:
329,192,156210,1,0,0:0:0:0:
109,192,156285,1,0,0:0:0:0:
36,192,156285,1,0,0:0:0:0:
256,192,156360,1,0,0:0:0:0:
329,192,156360,1,0,0:0:0:0:
182,192,156435,1,0,0:0:0:0:
36,192,156435,1,0,0:0:0:0:
402,192,156435,1,0,0:0:0:0:
475,192,156435,1,0,0:0:0:0:
109,192,156510,1,0,0:0:0:0:
329,192,156510,1,0,0:0:0:0:
256,192,156585,1,0,0:0:0:0:
475,192,156585,1,0,0:0:0:0:
402,192,156660,1,0,0:0:0:0:
109,192,156660,1,0,0:0:0:0:
36,192,156735,1,0,0:0:0:0:
329,192,156735,1,0,0:0:0:0:
475,192,156735,1,0,0:0:0:0:
256,192,156810,1,0,0:0:0:0:
109,192,156810,1,0,0:0:0:0:
329,192,156885,1,0,0:0:0:0:
475,192,156885,1,0,0:0:0:0:
402,192,156960,1,0,0:0:0:0:
36,192,156960,1,0,0:0:0:0:
109,192,157035,1,0,0:0:0:0:
256,192,157035,1,0,0:0:0:0:
475,192,157035,1,0,0:0:0:0:
402,192,157110,1,0,0:0:0:0:
329,192,157110,1,0,0:0:0:0:
109,192,157185,1,0,0:0:0:0:
36,192,157185,1,0,0:0:0:0:
475,192,157185,1,0,0:0:0:0:
256,192,157260,1,0,0:0:0:0:
402,192,157260,1,0,0:0:0:0:
329,192,157335,1,0,0:0:0:0:
475,192,157335,1,0,0:0:0:0:
36,192,157335,1,0,0:0:0:0:
402,192,157410,1,0,0:0:0:0:
109,192,157410,1,0,0:0:0:0:
256,192,157485,1,0,0:0:0:0:
475,192,157485,1,0,0:0:0:0:
329,192,157560,1,0,0:0:0:0:
109,192,157560,1,0,0:0:0:0:
182,192,157635,1,0,0:0:0:0:
36,192,157635,1,0,0:0:0:0:
402,192,157635,1,0,0:0:0:0:
475,192,157635,1,0,0:0:0:0:
256,192,157710,1,0,0:0:0:0:
329,192,157710,1,0,0:0:0:0:
402,192,157785,1,0,0:0:0:0:
475,192,157785,1,0,0:0:0:0:
256,192,157860,1,0,0:0:0:0:
182,192,157860,1,0,0:0:0:0:
109,192,157935,1,0,0:0:0:0:
329,192,157935,1,0,0:0:0:0:
475,192,157935,1,0,0:0:0:0:
182,192,158010,1,0,0:0:0:0:
256,192,158085,1,0,0:0:0:0:
402,192,158085,1,0,0:0:0:0:
475,192,158085,1,0,0:0:0:0:
182,192,158160,1,0,0:0:0:0:
109,192,158160,1,0,0:0:0:0:
36,192,158235,1,0,0:0:0:0:
256,192,158235,1,0,0:0:0:0:
329,192,158235,1,0,0:0:0:0:
475,192,158235,1,0,0:0:0:0:
109,192,158310,1,0,0:0:0:0:
182,192,158310,1,0,0:0:0:0:
402,192,158385,1,0,0:0:0:0:
329,192,158385,1,0,0:0:0:0:
256,192,158460,1,0,0:0:0:0:
109,192,158460,1,0,0:0:0:0:
182,192,158535,1,0,0:0:0:0:
475,192,158535,1,0,0:0:0:0:
402,192,158535,1,0,0:0:0:0:
256,192,158610,1,0,0:0:0:0:
329,192,158610,1,0,0:0:0:0:
402,192,158685,1,0,0:0:0:0:
475,192,158685,1,0,0:0:0:0:
256,192,158760,1,0,0:0:0:0:
109,192,158760,1,0,0:0:0:0:
182,192,158835,1,0,0:0:0:0:
329,192,158835,1,0,0:0:0:0:
402,192,158835,1,0,0:0:0:0:
475,192,158835,1,0,0:0:0:0:
256,192,158910,1,0,0:0:0:0:
36,192,158910,1,0,0:0:0:0:
109,192,158985,1,0,0:0:0:0:
402,192,158985,1,0,0:0:0:0:
36,192,159060,1,0,0:0:0:0:
329,192,159060,1,0,0:0:0:0:
256,192,159135,1,0,0:0:0:0:
402,192,159135,1,0,0:0:0:0:
475,192,159135,1,0,0:0:0:0:
109,192,159210,1,0,0:0:0:0:
329,192,159210,1,0,0:0:0:0:
36,192,159285,1,0,0:0:0:0:
402,192,159285,1,0,0:0:0:0:
475,192,159360,1,0,0:0:0:0:
256,192,159360,1,0,0:0:0:0:
329,192,159435,1,0,0:0:0:0:
109,192,159435,1,0,0:0:0:0:
36,192,159435,1,0,0:0:0:0:
256,192,159510,1,0,0:0:0:0:
402,192,159510,1,0,0:0:0:0:
329,192,159585,1,0,0:0:0:0:
475,192,159585,1,0,0:0:0:0:
109,192,159660,1,0,0:0:0:0:
402,192,159660,1,0,0:0:0:0:
36,192,159735,1,0,0:0:0:0:
256,192,159735,1,0,0:0:0:0:
475,192,159735,1,0,0:0:0:0:
109,192,159810,1,0,0:0:0:0:
329,192,159810,1,0,0:0:0:0:
256,192,159885,1,0,0:0:0:0:
402,192,159885,1,0,0:0:0:0:
329,192,159960,1,0,0:0:0:0:
36,192,159960,1,0,0:0:0:0:
109,192,160035,1,0,0:0:0:0:
182,192,160035,1,0,0:0:0:0:
256,192,160035,1,0,0:0:0:0:
402,192,160035,1,0,0:0:0:0:
475,192,160035,1,0,0:0:0:0:
36,192,160110,1,0,0:0:0:0:
329,192,160110,1,0,0:0:0:0:
109,192,160185,1,0,0:0:0:0:
182,192,160235,1,0,0:0:0:0:
402,192,160235,1,0,0:0:0:0:
36,192,160260,1,0,0:0:0:0:
329,192,160260,1,0,0:0:0:0:
256,192,160335,1,0,0:0:0:0:
475,192,160410,1,0,0:0:0:0:
109,192,160435,1,0,0:0:0:0:
329,192,160435,1,0,0:0:0:0:
256,192,160485,1,0,0:0:0:0:
36,192,160485,1,0,0:0:0:0:
182,192,160560,1,0,0:0:0:0:
36,192,160635,1,0,0:0:0:0:
109,192,160635,1,0,0:0:0:0:
256,192,160635,1,0,0:0:0:0:
402,192,160635,1,0,0:0:0:0:
475,192,160635,1,0,0:0:0:0:
329,192,160710,1,0,0:0:0:0:
182,192,160710,1,0,0:0:0:0:
36,192,160785,1,0,0:0:0:0:
402,192,160785,1,0,0:0:0:0:
109,192,160860,1,0,0:0:0:0:
182,192,160860,1,0,0:0:0:0:
36,192,160935,1,0,0:0:0:0:
402,192,160935,1,0,0:0:0:0:
329,192,161010,1,0,0:0:0:0:
109,192,161028,1,0,0:0:0:0:
182,192,161085,1,0,0:0:0:0:
109,192,161160,1,0,0:0:0:0:
36,192,161160,1,0,0:0:0:0:
182,192,161235,1,0,0:0:0:0:
256,192,161235,1,0,0:0:0:0:
402,192,161235,1,0,0:0:0:0:
475,192,161235,1,0,0:0:0:0:
36,192,161310,1,0,0:0:0:0:
329,192,161310,1,0,0:0:0:0:
109,192,161385,1,0,0:0:0:0:
256,192,161460,1,0,0:0:0:0:
475,192,161460,1,0,0:0:0:0:
329,192,161535,1,0,0:0:0:0:
36,192,161535,1,0,0:0:0:0:
109,192,161610,1,0,0:0:0:0:
256,192,161685,1,0,0:0:0:0:
475,192,161685,1,0,0:0:0:0:
329,192,161760,1,0,0:0:0:0:
36,192,161760,1,0,0:0:0:0:
109,192,161835,1,0,0:0:0:0:
475,192,161835,1,0,0:0:0:0:
329,192,161910,1,0,0:0:0:0:
256,192,161985,1,0,0:0:0:0:
36,192,161985,1,0,0:0:0:0:
109,192,162060,1,0,0:0:0:0:
475,192,162060,1,0,0:0:0:0:
329,192,162135,1,0,0:0:0:0:
256,192,162210,1,0,0:0:0:0:
36,192,162210,1,0,0:0:0:0:
109,192,162285,1,0,0:0:0:0:
475,192,162285,1,0,0:0:0:0:
36,192,162360,1,0,0:0:0:0:
329,192,162360,1,0,0:0:0:0:
256,192,162435,1,0,0:0:0:0:
475,192,162435,1,0,0:0:0:0:
329,192,162510,1,0,0:0:0:0:
109,192,162510,1,0,0:0:0:0:
256,192,162585,1,0,0:0:0:0:
36,192,162585,1,0,0:0:0:0:
109,192,162660,1,0,0:0:0:0:
329,192,162735,1,0,0:0:0:0:
36,192,162735,1,0,0:0:0:0:
256,192,162810,1,0,0:0:0:0:
182,192,162885,1,0,0:0:0:0:
402,192,162885,1,0,0:0:0:0:
475,192,162885,1,0,0:0:0:0:
329,192,162960,1,0,0:0:0:0:
256,192,162960,1,0,0:0:0:0:
109,192,162960,1,0,0:0:0:0:
182,192,163035,1,0,0:0:0:0:
36,192,163035,1,0,0:0:0:0:
402,192,163035,1,0,0:0:0:0:
475,192,163035,1,0,0:0:0:0:
329,192,163110,1,0,0:0:0:0:
109,192,163110,1,0,0:0:0:0:
256,192,163185,1,0,0:0:0:0:
402,192,163185,1,0,0:0:0:0:
329,192,163260,1,0,0:0:0:0:
182,192,163260,1,0,0:0:0:0:
109,192,163335,1,0,0:0:0:0:
256,192,163335,1,0,0:0:0:0:
475,192,163335,1,0,0:0:0:0:
329,192,163410,1,0,0:0:0:0:
402,192,163410,1,0,0:0:0:0:
256,192,163485,1,0,0:0:0:0:
109,192,163485,1,0,0:0:0:0:
475,192,163560,1,0,0:0:0:0:
402,192,163560,1,0,0:0:0:0:
329,192,163635,1,0,0:0:0:0:
182,192,163635,1,0,0:0:0:0:
109,192,163635,1,0,0:0:0:0:
36,192,163635,1,0,0:0:0:0:
256,192,163710,1,0,0:0:0:0:
402,192,163710,1,0,0:0:0:0:
36,192,163785,1,0,0:0:0:0:
329,192,163785,1,0,0:0:0:0:
109,192,163860,1,0,0:0:0:0:
475,192,163860,1,0,0:0:0:0:
402,192,163935,1,0,0:0:0:0:
256,192,163935,1,0,0:0:0:0:
36,192,163935,1,0,0:0:0:0:
329,192,164010,1,0,0:0:0:0:
109,192,164010,1,0,0:0:0:0:
402,192,164085,1,0,0:0:0:0:
475,192,164085,1,0,0:0:0:0:
256,192,164160,1,0,0:0:0:0:
36,192,164160,1,0,0:0:0:0:
329,192,164235,1,0,0:0:0:0:
402,192,164235,1,0,0:0:0:0:
475,192,164235,1,0,0:0:0:0:
109,192,164310,1,0,0:0:0:0:
256,192,164310,1,0,0:0:0:0:
36,192,164385,1,0,0:0:0:0:
329,192,164385,1,0,0:0:0:0:
402,192,164460,1,0,0:0:0:0:
109,192,164460,1,0,0:0:0:0:
36,192,164535,1,0,0:0:0:0:
256,192,164535,1,0,0:0:0:0:
475,192,164535,1,0,0:0:0:0:
402,192,164610,1,0,0:0:0:0:
329,192,164610,1,0,0:0:0:0:
109,192,164685,1,0,0:0:0:0:
36,192,164685,1,0,0:0:0:0:
256,192,164760,1,0,0:0:0:0:
402,192,164760,1,0,0:0:0:0:
329,192,164835,1,0,0:0:0:0:
182,192,164835,1,0,0:0:0:0:
36,192,164835,1,0,0:0:0:0:
475,192,164835,1,0,0:0:0:0:
109,192,164910,1,0,0:0:0:0:
256,192,164910,1,0,0:0:0:0:
182,192,164985,1,0,0:0:0:0:
402,192,164985,1,0,0:0:0:0:
329,192,165035,1,0,0:0:0:0:
36,192,165060,1,0,0:0:0:0:
256,192,165060,1,0,0:0:0:0:
402,192,165135,1,0,0:0:0:0:
475,192,165135,1,0,0:0:0:0:
109,192,165135,1,0,0:0:0:0:
36,192,165210,1,0,0:0:0:0:
256,192,165210,1,0,0:0:0:0:
182,192,165235,1,0,0:0:0:0:
402,192,165285,1,0,0:0:0:0:
475,192,165285,1,0,0:0:0:0:
256,192,165360,1,0,0:0:0:0:
329,192,165360,1,0,0:0:0:0:
109,192,165435,1,0,0:0:0:0:
36,192,165435,1,0,0:0:0:0:
402,192,165435,1,0,0:0:0:0:
475,192,165435,1,0,0:0:0:0:
182,192,165510,1,0,0:0:0:0:
329,192,165510,1,0,0:0:0:0:
256,192,165585,1,0,0:0:0:0:
109,192,165585,1,0,0:0:0:0:
182,192,165660,1,0,0:0:0:0:
329,192,165660,1,0,0:0:0:0:
256,192,165735,1,0,0:0:0:0:
36,192,165735,1,0,0:0:0:0:
475,192,165735,1,0,0:0:0:0:
109,192,165810,1,0,0:0:0:0:
329,192,165810,1,0,0:0:0:0:
182,192,165885,1,0,0:0:0:0:
256,192,165885,1,0,0:0:0:0:
329,192,165960,1,0,0:0:0:0:
36,192,165960,1,0,0:0:0:0:
109,192,166035,1,0,0:0:0:0:
182,192,166035,1,0,0:0:0:0:
256,192,166035,1,0,0:0:0:0:
402,192,166035,1,0,0:0:0:0:
329,192,166110,1,0,0:0:0:0:
475,192,166110,1,0,0:0:0:0:
182,192,166185,1,0,0:0:0:0:
36,192,166185,1,0,0:0:0:0:
256,192,166260,1,0,0:0:0:0:
329,192,166260,1,0,0:0:0:0:
402,192,166335,1,0,0:0:0:0:
475,192,166335,1,0,0:0:0:0:
36,192,166335,1,0,0:0:0:0:
329,192,166410,1,0,0:0:0:0:
182,192,166410,1,0,0:0:0:0:
256,192,166485,1,0,0:0:0:0:
475,192,166485,1,0,0:0:0:0:
402,192,166560,1,0,0:0:0:0:
182,192,166560,1,0,0:0:0:0:
256,192,166635,1,0,0:0:0:0:
475,192,166635,1,0,0:0:0:0:
36,192,166635,1,0,0:0:0:0:
182,192,166710,1,0,0:0:0:0:
329,192,166710,1,0,0:0:0:0:
256,192,166785,1,0,0:0:0:0:
475,192,166785,1,0,0:0:0:0:
36,192,166860,1,0,0:0:0:0:
402,192,166860,1,0,0:0:0:0:
182,192,166935,1,0,0:0:0:0:
329,192,166935,1,0,0:0:0:0:
475,192,166935,1,0,0:0:0:0:
36,192,167010,1,0,0:0:0:0:
256,192,167010,1,0,0:0:0:0:
402,192,167085,1,0,0:0:0:0:
475,192,167085,1,0,0:0:0:0:
329,192,167160,1,0,0:0:0:0:
182,192,167160,1,0,0:0:0:0:
256,192,167235,1,0,0:0:0:0:
402,192,167235,1,0,0:0:0:0:
36,192,167235,1,0,0:0:0:0:
475,192,167235,1,0,0:0:0:0:
109,192,167310,1,0,0:0:0:0:
182,192,167310,1,0,0:0:0:0:
329,192,167385,1,0,0:0:0:0:
475,192,167385,1,0,0:0:0:0:
402,192,167460,1,0,0:0:0:0:
256,192,167460,1,0,0:0:0:0:
329,192,167535,1,0,0:0:0:0:
182,192,167535,1,0,0:0:0:0:
109,192,167535,1,0,0:0:0:0:
256,192,167610,1,0,0:0:0:0:
475,192,167610,1,0,0:0:0:0:
109,192,167685,1,0,0:0:0:0:
182,192,167685,1,0,0:0:0:0:
329,192,167685,1,0,0:0:0:0:
256,192,167760,1,0,0:0:0:0:
402,192,167760,1,0,0:0:0:0:
475,192,167760,1,0,0:0:0:0:
329,192,167835,1,0,0:0:0:0:
182,192,167835,1,0,0:0:0:0:
109,192,167835,1,0,0:0:0:0:
36,192,167835,1,0,0:0:0:0:
256,192,167910,1,0,0:0:0:0:
402,192,167910,1,0,0:0:0:0:
475,192,167910,1,0,0:0:0:0:
329,192,167985,1,0,0:0:0:0:
182,192,167985,1,0,0:0:0:0:
109,192,167985,1,0,0:0:0:0:
36,192,167985,1,0,0:0:0:0:
256,192,168060,1,0,0:0:0:0:
402,192,168060,1,0,0:0:0:0:
182,192,168135,1,0,0:0:0:0:
109,192,168135,1,0,0:0:0:0:
329,192,168135,1,0,0:0:0:0:
475,192,168135,1,0,0:0:0:0:
402,192,168210,1,0,0:0:0:0:
256,192,168210,1,0,0:0:0:0:
36,192,168210,1,0,0:0:0:0:
109,192,168285,1,0,0:0:0:0:
182,192,168285,1,0,0:0:0:0:
329,192,168285,1,0,0:0:0:0:
475,192,168285,1,0,0:0:0:0:
402,192,168360,1,0,0:0:0:0:
36,192,168360,1,0,0:0:0:0:
109,192,168435,1,0,0:0:0:0:
182,192,168435,1,0,0:0:0:0:
256,192,168435,1,0,0:0:0:0:
329,192,168435,1,0,0:0:0:0:
402,192,168510,1,0,0:0:0:0:
475,192,168510,1,0,0:0:0:0:
36,192,168510,1,0,0:0:0:0:
109,192,168585,1,0,0:0:0:0:
182,192,168585,1,0,0:0:0:0:
256,192,168585,1,0,0:0:0:0:
329,192,168585,1,0,0:0:0:0:
402,192,168660,1,0,0:0:0:0:
475,192,168660,1,0,0:0:0:0:
329,192,168735,1,0,0:0:0:0:
256,192,168735,1,0,0:0:0:0:
109,192,168735,1,0,0:0:0:0:
36,192,168735,1,0,0:0:0:0:
182,192,168810,1,0,0:0:0:0:
402,192,168810,1,0,0:0:0:0:
475,192,168810,1,0,0:0:0:0:
256,192,168885,1,0,0:0:0:0:
329,192,168885,1,0,0:0:0:0:
109,192,168885,1,0,0:0:0:0:
36,192,168885,1,0,0:0:0:0:
109,192,168960,1,0,0:0:0:0:
36,192,168960,1,0,0:0:0:0:
256,192,168960,1,0,0:0:0:0:
329,192,168960,1,0,0:0:0:0:
329,192,169035,1,0,0:0:0:0:
256,192,169035,1,0,0:0:0:0:
36,192,169035,1,0,0:0:0:0:
475,192,169035,1,0,0:0:0:0:
402,192,169110,1,0,0:0:0:0:
182,192,169110,1,0,0:0:0:0:
109,192,169110,1,0,0:0:0:0:
256,192,169185,1,0,0:0:0:0:
329,192,169185,1,0,0:0:0:0:
36,192,169185,1,0,0:0:0:0:
475,192,169185,1,0,0:0:0:0:
109,192,169260,1,0,0:0:0:0:
182,192,169335,1,0,0:0:0:0:
256,192,169335,1,0,0:0:0:0:
402,192,169335,1,0,0:0:0:0:
475,192,169335,1,0,0:0:0:0:
329,192,169410,1,0,0:0:0:0:
109,192,169410,1,0,0:0:0:0:
36,192,169410,1,0,0:0:0:0:
182,192,169485,1,0,0:0:0:0:
256,192,169485,1,0,0:0:0:0:
402,192,169485,1,0,0:0:0:0:
475,192,169485,1,0,0:0:0:0:
109,192,169560,1,0,0:0:0:0:
329,192,169560,1,0,0:0:0:0:
36,192,169635,1,0,0:0:0:0:
256,192,169635,1,0,0:0:0:0:
402,192,169635,1,0,0:0:0:0:
475,192,169635,1,0,0:0:0:0:
329,192,169710,1,0,0:0:0:0:
182,192,169710,1,0,0:0:0:0:
109,192,169710,1,0,0:0:0:0:
256,192,169785,1,0,0:0:0:0:
475,192,169785,1,0,0:0:0:0:
402,192,169785,1,0,0:0:0:0:
36,192,169785,1,0,0:0:0:0:
182,192,169860,1,0,0:0:0:0:
329,192,169860,1,0,0:0:0:0:
256,192,169935,1,0,0:0:0:0:
109,192,169935,1,0,0:0:0:0:
36,192,169935,1,0,0:0:0:0:
475,192,169935,1,0,0:0:0:0:
182,192,170010,1,0,0:0:0:0:
329,192,170010,1,0,0:0:0:0:
402,192,170010,1,0,0:0:0:0:
109,192,170085,1,0,0:0:0:0:
36,192,170085,1,0,0:0:0:0:
475,192,170085,1,0,0:0:0:0:
256,192,170085,1,0,0:0:0:0:
36,192,170160,1,0,0:0:0:0:
109,192,170160,1,0,0:0:0:0:
475,192,170160,1,0,0:0:0:0:
256,192,170160,1,0,0:0:0:0:
256,192,170235,1,0,0:0:0:0:
109,192,170235,1,0,0:0:0:0:
36,192,170235,1,0,0:0:0:0:
402,192,170235,1,0,0:0:0:0:
182,192,170310,1,0,0:0:0:0:
329,192,170310,1,0,0:0:0:0:
475,192,170310,1,0,0:0:0:0:
402,192,170385,1,0,0:0:0:0:
256,192,170385,1,0,0:0:0:0:
109,192,170385,1,0,0:0:0:0:
36,192,170385,1,0,0:0:0:0:
182,192,170460,1,0,0:0:0:0:
329,192,170460,1,0,0:0:0:0:
36,192,170535,1,0,0:0:0:0:
256,192,170535,1,0,0:0:0:0:
402,192,170535,1,0,0:0:0:0:
475,192,170535,1,0,0:0:0:0:
109,192,170610,1,0,0:0:0:0:
182,192,170610,1,0,0:0:0:0:
329,192,170610,1,0,0:0:0:0:
402,192,170685,1,0,0:0:0:0:
475,192,170685,1,0,0:0:0:0:
256,192,170685,1,0,0:0:0:0:
36,192,170685,1,0,0:0:0:0:
182,192,170760,1,0,0:0:0:0:
109,192,170760,1,0,0:0:0:0:
329,192,170760,1,0,0:0:0:0:
182,192,170835,1,0,0:0:0:0:
256,192,170835,1,0,0:0:0:0:
36,192,170835,1,0,0:0:0:0:
402,192,170835,1,0,0:0:0:0:
475,192,170835,1,0,0:0:0:0:
109,192,170885,1,0,0:0:0:0:
329,192,170935,1,0,0:0:0:0:
182,192,170985,1,0,0:0:0:0:
256,192,171035,1,0,0:0:0:0:
109,192,171060,1,0,0:0:0:0:
36,192,171060,1,0,0:0:0:0:
402,192,171060,1,0,0:0:0:0:
475,192,171060,1,0,0:0:0:0:
329,192,171085,1,0,0:0:0:0:
182,192,171135,1,0,0:0:0:0:
256,192,171185,1,0,0:0:0:0:
402,192,171235,1,0,0:0:0:0:
329,192,171285,1,0,0:0:0:0:
475,192,171285,1,0,0:0:0:0:
109,192,171285,1,0,0:0:0:0:
36,192,171285,1,0,0:0:0:0:
182,192,171322,1,0,0:0:0:0:
256,192,171360,1,0,0:0:0:0:
329,192,171397,1,0,0:0:0:0:
402,192,171435,1,0,0:0:0:0:
475,192,171435,1,0,0:0:0:0:
109,192,171435,1,0,0:0:0:0:
36,192,171435,1,0,0:0:0:0:
182,192,171510,1,0,0:0:0:0:
256,192,171510,1,0,0:0:0:0:
329,192,171585,1,0,0:0:0:0:
402,192,171585,1,0,0:0:0:0:
475,192,171585,1,0,0:0:0:0:
36,192,171585,1,0,0:0:0:0:
109,192,171622,1,0,0:0:0:0:
182,192,171660,1,0,0:0:0:0:
256,192,171697,1,0,0:0:0:0:
329,192,171735,1,0,0:0:0:0:
402,192,171735,1,0,0:0:0:0:
475,192,171735,1,0,0:0:0:0:
36,192,171735,1,0,0:0:0:0:
109,192,171810,1,0,0:0:0:0:
182,192,171810,1,0,0:0:0:0:
36,192,171885,1,0,0:0:0:0:
329,192,171885,1,0,0:0:0:0:
402,192,171885,1,0,0:0:0:0:
475,192,171885,1,0,0:0:0:0:
256,192,171922,1,0,0:0:0:0:
182,192,171960,1,0,0:0:0:0:
109,192,171997,1,0,0:0:0:0:
36,192,172035,1,0,0:0:0:0:
402,192,172035,1,0,0:0:0:0:
475,192,172035,1,0,0:0:0:0:
182,192,172110,1,0,0:0:0:0:
256,192,172110,1,0,0:0:0:0:
329,192,172110,1,0,0:0:0:0:
109,192,172185,1,0,0:0:0:0:
36,192,172185,1,0,0:0:0:0:
402,192,172185,1,0,0:0:0:0:
475,192,172185,1,0,0:0:0:0:
182,192,172260,1,0,0:0:0:0:
329,192,172260,1,0,0:0:0:0:
256,192,172260,1,0,0:0:0:0:
36,192,172335,1,0,0:0:0:0:
109,192,172335,1,0,0:0:0:0:
402,192,172335,1,0,0:0:0:0:
475,192,172335,1,0,0:0:0:0:
329,192,172410,1,0,0:0:0:0:
256,192,172410,1,0,0:0:0:0:
182,192,172410,1,0,0:0:0:0:
36,192,172485,1,0,0:0:0:0:
109,192,172485,1,0,0:0:0:0:
402,192,172485,1,0,0:0:0:0:
475,192,172485,1,0,0:0:0:0:
182,192,172522,1,0,0:0:0:0:
256,192,172522,1,0,0:0:0:0:
329,192,172522,1,0,0:0:0:0:
109,192,172560,1,0,0:0:0:0:
36,192,172560,1,0,0:0:0:0:
402,192,172560,1,0,0:0:0:0:
475,192,172560,1,0,0:0:0:0:
182,192,172597,1,0,0:0:0:0:
256,192,172597,1,0,0:0:0:0:
329,192,172597,1,0,0:0:0:0:
402,192,172635,1,0,0:0:0:0:
475,192,172635,1,0,0:0:0:0:
109,192,172635,1,0,0:0:0:0:
36,192,172635,1,0,0:0:0:0:
329,192,173835,1,0,0:0:0:0:
402,192,173835,1,0,0:0:0:0:
475,192,173835,1,0,0:0:0:0:
36,192,174435,1,0,0:0:0:0:
109,192,174435,1,0,0:0:0:0:
182,192,174435,1,0,0:0:0:0:
329,192,175035,1,0,0:0:0:0:
402,192,175035,1,0,0:0:0:0:
475,192,175035,1,0,0:0:0:0:
182,192,176235,1,0,0:0:0:0:
109,192,176235,1,0,0:0:0:0:
36,192,176235,1,0,0:0:0:0:
36,192,176535,1,0,0:0:0:0:
109,192,176535,1,0,0:0:0:0:
256,192,176535,1,0,0:0:0:0:
109,192,176835,1,0,0:0:0:0:
182,192,176835,1,0,0:0:0:0:
256,192,176835,1,0,0:0:0:0:
329,192,176835,1,0,0:0:0:0:
182,192,177035,1,0,0:0:0:0:
256,192,177035,1,0,0:0:0:0:
329,192,177035,1,0,0:0:0:0:
402,192,177035,1,0,0:0:0:0:
256,192,177235,1,0,0:0:0:0:
402,192,177235,1,0,0:0:0:0:
475,192,177235,1,0,0:0:0:0:
329,192,177235,1,0,0:0:0:0:
329,192,177435,1,0,0:0:0:0:
402,192,177435,1,0,0:0:0:0:
475,192,177435,1,0,0:0:0:0:
182,192,178035,1,0,0:0:0:0:
109,192,178035,1,0,0:0:0:0:
36,192,178035,1,0,0:0:0:0:
36,192,178935,1,0,0:0:0:0:
109,192,178935,1,0,0:0:0:0:
182,192,178935,1,0,0:0:0:0:
182,192,179235,1,0,0:0:0:0:
256,192,179235,1,0,0:0:0:0:
329,192,179235,1,0,0:0:0:0:
329,192,179535,1,0,0:0:0:0:
402,192,179535,1,0,0:0:0:0:
475,192,179535,1,0,0:0:0:0:
182,192,179835,1,0,0:0:0:0:
329,192,179835,1,0,0:0:0:0:
402,192,179835,1,0,0:0:0:0:
475,192,179835,1,0,0:0:0:0:
109,192,179910,1,0,0:0:0:0:
182,192,179985,1,0,0:0:0:0:
109,192,180060,1,0,0:0:0:0:
182,192,180135,1,0,0:0:0:0:
109,192,180210,1,0,0:0:0:0:
182,192,180285,1,0,0:0:0:0:
256,192,180360,1,0,0:0:0:0:
329,192,180435,1,0,0:0:0:0:
182,192,180435,1,0,0:0:0:0:
109,192,180435,1,0,0:0:0:0:
36,192,180435,1,0,0:0:0:0:
402,192,180510,1,0,0:0:0:0:
329,192,180585,1,0,0:0:0:0:
402,192,180660,1,0,0:0:0:0:
329,192,180735,1,0,0:0:0:0:
402,192,180810,1,0,0:0:0:0:
329,192,180885,1,0,0:0:0:0:
402,192,180960,1,0,0:0:0:0:
475,192,181035,1,0,0:0:0:0:
36,192,181035,1,0,0:0:0:0:
182,192,181035,1,0,0:0:0:0:
256,192,181035,1,0,0:0:0:0:
329,192,181035,1,0,0:0:0:0:
109,192,181110,1,0,0:0:0:0:
402,192,181110,1,0,0:0:0:0:
475,192,181185,1,0,0:0:0:0:
36,192,181185,1,0,0:0:0:0:
109,192,181260,1,0,0:0:0:0:
402,192,181260,1,0,0:0:0:0:
475,192,181335,1,0,0:0:0:0:
36,192,181335,1,0,0:0:0:0:
109,192,181410,1,0,0:0:0:0:
402,192,181410,1,0,0:0:0:0:
475,192,181485,1,0,0:0:0:0:
36,192,181485,1,0,0:0:0:0:
109,192,181560,1,0,0:0:0:0:
182,192,181635,1,0,0:0:0:0:
256,192,181635,1,0,0:0:0:0:
329,192,181635,1,0,0:0:0:0:
402,192,181635,1,0,0:0:0:0:
475,192,181635,1,0,0:0:0:0:
109,192,181710,1,0,0:0:0:0:
36,192,181710,1,0,0:0:0:0:
182,192,181785,1,0,0:0:0:0:
256,192,181785,1,0,0:0:0:0:
109,192,181860,1,0,0:0:0:0:
36,192,181860,1,0,0:0:0:0:
182,192,181935,1,0,0:0:0:0:
256,192,181935,1,0,0:0:0:0:
109,192,182010,1,0,0:0:0:0:
36,192,182010,1,0,0:0:0:0:
182,192,182085,1,0,0:0:0:0:
256,192,182085,1,0,0:0:0:0:
109,192,182160,1,0,0:0:0:0:
36,192,182160,1,0,0:0:0:0:
182,192,182235,1,0,0:0:0:0:
256,192,182235,1,0,0:0:0:0:
402,192,182235,1,0,0:0:0:0:
475,192,182235,1,0,0:0:0:0:
109,192,182310,1,0,0:0:0:0:
329,192,182385,1,0,0:0:0:0:
475,192,182385,1,0,0:0:0:0:
36,192,182460,1,0,0:0:0:0:
256,192,182535,1,0,0:0:0:0:
475,192,182535,1,0,0:0:0:0:
402,192,182535,1,0,0:0:0:0:
182,192,182610,1,0,0:0:0:0:
329,192,182685,1,0,0:0:0:0:
402,192,182685,1,0,0:0:0:0:
475,192,182685,1,0,0:0:0:0:
109,192,182760,1,0,0:0:0:0:
256,192,182835,1,0,0:0:0:0:
329,192,182835,1,0,0:0:0:0:
402,192,182835,1,0,0:0:0:0:
475,192,182835,1,0,0:0:0:0:
36,192,182910,1,0,0:0:0:0:
182,192,182985,1,0,0:0:0:0:
329,192,182985,1,0,0:0:0:0:
402,192,182985,1,0,0:0:0:0:
475,192,182985,1,0,0:0:0:0:
109,192,183060,1,0,0:0:0:0:
256,192,183135,1,0,0:0:0:0:
329,192,183135,1,0,0:0:0:0:
402,192,183135,1,0,0:0:0:0:
475,192,183135,1,0,0:0:0:0:
36,192,183210,1,0,0:0:0:0:
182,192,183285,1,0,0:0:0:0:
329,192,183285,1,0,0:0:0:0:
402,192,183285,1,0,0:0:0:0:
475,192,183285,1,0,0:0:0:0:
109,192,183360,1,0,0:0:0:0:
256,192,183435,1,0,0:0:0:0:
36,192,183435,1,0,0:0:0:0:
182,192,183435,1,0,0:0:0:0:
329,192,183435,1,0,0:0:0:0:
402,192,183435,1,0,0:0:0:0:
475,192,183435,1,0,0:0:0:0:
109,192,183510,1,0,0:0:0:0:
182,192,183585,1,0,0:0:0:0:
36,192,183660,1,0,0:0:0:0:
256,192,183660,1,0,0:0:0:0:
402,192,183660,1,0,0:0:0:0:
475,192,183735,1,0,0:0:0:0:
109,192,183735,1,0,0:0:0:0:
182,192,183810,1,0,0:0:0:0:
329,192,183885,1,0,0:0:0:0:
402,192,183885,1,0,0:0:0:0:
36,192,183885,1,0,0:0:0:0:
256,192,183960,1,0,0:0:0:0:
36,192,184035,1,0,0:0:0:0:
109,192,184035,1,0,0:0:0:0:
475,192,184035,1,0,0:0:0:0:
329,192,184110,1,0,0:0:0:0:
182,192,184185,1,0,0:0:0:0:
256,192,184185,1,0,0:0:0:0:
402,192,184185,1,0,0:0:0:0:
109,192,184260,1,0,0:0:0:0:
256,192,184335,1,0,0:0:0:0:
36,192,184335,1,0,0:0:0:0:
475,192,184335,1,0,0:0:0:0:
36,192,184635,1,0,0:0:0:0:
256,192,184635,1,0,0:0:0:0:
402,192,184635,1,0,0:0:0:0:
475,192,184635,1,0,0:0:0:0:
109,192,184672,1,0,0:0:0:0:
329,192,184710,1,0,0:0:0:0:
182,192,184747,1,0,0:0:0:0:
256,192,184785,1,0,0:0:0:0:
36,192,184785,1,0,0:0:0:0:
475,192,184822,1,0,0:0:0:0:
402,192,184860,1,0,0:0:0:0:
182,192,184897,1,0,0:0:0:0:
109,192,184935,1,0,0:0:0:0:
36,192,184935,1,0,0:0:0:0:
329,192,184935,1,0,0:0:0:0:
475,192,184972,1,0,0:0:0:0:
256,192,185010,1,0,0:0:0:0:
182,192,185047,1,0,0:0:0:0:
329,192,185085,1,0,0:0:0:0:
402,192,185085,1,0,0:0:0:0:
36,192,185122,1,0,0:0:0:0:
109,192,185160,1,0,0:0:0:0:
182,192,185197,1,0,0:0:0:0:
402,192,185235,1,0,0:0:0:0:
475,192,185235,1,0,0:0:0:0:
256,192,185235,1,0,0:0:0:0:
109,192,185272,1,0,0:0:0:0:
36,192,185310,1,0,0:0:0:0:
182,192,185347,1,0,0:0:0:0:
475,192,185385,1,0,0:0:0:0:
329,192,185385,1,0,0:0:0:0:
256,192,185422,1,0,0:0:0:0:
109,192,185460,1,0,0:0:0:0:
36,192,185497,1,0,0:0:0:0:
182,192,185535,1,0,0:0:0:0:
475,192,185535,1,0,0:0:0:0:
402,192,185535,1,0,0:0:0:0:
329,192,185572,1,0,0:0:0:0:
109,192,185610,1,0,0:0:0:0:
256,192,185647,1,0,0:0:0:0:
182,192,185685,1,0,0:0:0:0:
36,192,185685,1,0,0:0:0:0:
402,192,185685,1,0,0:0:0:0:
475,192,185685,1,0,0:0:0:0:
329,192,185760,1,0,0:0:0:0:
256,192,185760,1,0,0:0:0:0:
109,192,185760,1,0,0:0:0:0:
182,192,185835,1,0,0:0:0:0:
36,192,185835,1,0,0:0:0:0:
402,192,185835,1,0,0:0:0:0:
475,192,185835,1,0,0:0:0:0:
329,192,185872,1,0,0:0:0:0:
256,192,185910,1,0,0:0:0:0:
109,192,185947,1,0,0:0:0:0:
182,192,185985,1,0,0:0:0:0:
402,192,185985,1,0,0:0:0:0:
329,192,186022,1,0,0:0:0:0:
36,192,186060,1,0,0:0:0:0:
109,192,186097,1,0,0:0:0:0:
182,192,186135,1,0,0:0:0:0:
256,192,186135,1,0,0:0:0:0:
475,192,186135,1,0,0:0:0:0:
329,192,186172,1,0,0:0:0:0:
36,192,186210,1,0,0:0:0:0:
109,192,186247,1,0,0:0:0:0:
182,192,186285,1,0,0:0:0:0:
402,192,186285,1,0,0:0:0:0:
329,192,186322,1,0,0:0:0:0:
256,192,186360,1,0,0:0:0:0:
109,192,186397,1,0,0:0:0:0:
36,192,186435,1,0,0:0:0:0:
402,192,186435,1,0,0:0:0:0:
475,192,186435,1,0,0:0:0:0:
182,192,186472,1,0,0:0:0:0:
329,192,186510,1,0,0:0:0:0:
109,192,186547,1,0,0:0:0:0:
402,192,186585,1,0,0:0:0:0:
256,192,186585,1,0,0:0:0:0:
36,192,186622,1,0,0:0:0:0:
182,192,186660,1,0,0:0:0:0:
329,192,186697,1,0,0:0:0:0:
475,192,186735,1,0,0:0:0:0:
402,192,186735,1,0,0:0:0:0:
109,192,186735,1,0,0:0:0:0:
256,192,186772,1,0,0:0:0:0:
36,192,186810,1,0,0:0:0:0:
182,192,186847,1,0,0:0:0:0:
475,192,186885,1,0,0:0:0:0:
329,192,186885,1,0,0:0:0:0:
109,192,186922,1,0,0:0:0:0:
256,192,186960,1,0,0:0:0:0:
182,192,186997,1,0,0:0:0:0:
329,192,187035,1,0,0:0:0:0:
402,192,187035,1,0,0:0:0:0:
475,192,187035,1,0,0:0:0:0:
36,192,187035,1,0,0:0:0:0:
109,192,187072,1,0,0:0:0:0:
256,192,187110,1,0,0:0:0:0:
182,192,187147,1,0,0:0:0:0:
329,192,187185,1,0,0:0:0:0:
36,192,187185,1,0,0:0:0:0:
109,192,187222,1,0,0:0:0:0:
256,192,187260,1,0,0:0:0:0:
402,192,187297,1,0,0:0:0:0:
182,192,187335,1,0,0:0:0:0:
36,192,187335,1,0,0:0:0:0:
475,192,187335,1,0,0:0:0:0:
329,192,187372,1,0,0:0:0:0:
109,192,187410,1,0,0:0:0:0:
256,192,187447,1,0,0:0:0:0:
475,192,187485,1,0,0:0:0:0:
402,192,187485,1,0,0:0:0:0:
182,192,187522,1,0,0:0:0:0:
36,192,187560,1,0,0:0:0:0:
256,192,187597,1,0,0:0:0:0:
109,192,187635,1,0,0:0:0:0:
475,192,187635,1,0,0:0:0:0:
329,192,187635,1,0,0:0:0:0:
182,192,187672,1,0,0:0:0:0:
402,192,187710,1,0,0:0:0:0:
256,192,187747,1,0,0:0:0:0:
36,192,187785,1,0,0:0:0:0:
475,192,187785,1,0,0:0:0:0:
182,192,187822,1,0,0:0:0:0:
329,192,187860,1,0,0:0:0:0:
109,192,187897,1,0,0:0:0:0:
402,192,187935,1,0,0:0:0:0:
475,192,187935,1,0,0:0:0:0:
256,192,187935,1,0,0:0:0:0:
182,192,187972,1,0,0:0:0:0:
36,192,188010,1,0,0:0:0:0:
329,192,188047,1,0,0:0:0:0:
256,192,188085,1,0,0:0:0:0:
109,192,188085,1,0,0:0:0:0:
402,192,188122,1,0,0:0:0:0:
475,192,188160,1,0,0:0:0:0:
182,192,188197,1,0,0:0:0:0:
329,192,188235,1,0,0:0:0:0:
256,192,188235,1,0,0:0:0:0:
109,192,188235,1,0,0:0:0:0:
36,192,188235,1,0,0:0:0:0:
475,192,188272,1,0,0:0:0:0:
402,192,188310,1,0,0:0:0:0:
182,192,188347,1,0,0:0:0:0:
36,192,188385,1,0,0:0:0:0:
329,192,188385,1,0,0:0:0:0:
256,192,188422,1,0,0:0:0:0:
109,192,188460,1,0,0:0:0:0:
402,192,188497,1,0,0:0:0:0:
182,192,188535,1,0,0:0:0:0:
329,192,188535,1,0,0:0:0:0:
36,192,188535,1,0,0:0:0:0:
475,192,188572,1,0,0:0:0:0:
256,192,188610,1,0,0:0:0:0:
402,192,188647,1,0,0:0:0:0:
109,192,188685,1,0,0:0:0:0:
182,192,188685,1,0,0:0:0:0:
329,192,188722,1,0,0:0:0:0:
36,192,188760,1,0,0:0:0:0:
182,192,188797,1,0,0:0:0:0:
402,192,188835,1,0,0:0:0:0:
475,192,188835,1,0,0:0:0:0:
256,192,188835,1,0,0:0:0:0:
109,192,188872,1,0,0:0:0:0:
36,192,188910,1,0,0:0:0:0:
329,192,188947,1,0,0:0:0:0:
182,192,188985,1,0,0:0:0:0:
402,192,188985,1,0,0:0:0:0:
109,192,189022,1,0,0:0:0:0:
256,192,189060,1,0,0:0:0:0:
475,192,189097,1,0,0:0:0:0:
402,192,189135,1,0,0:0:0:0:
36,192,189135,1,0,0:0:0:0:
182,192,189135,1,0,0:0:0:0:
329,192,189172,1,0,0:0:0:0:
109,192,189210,1,0,0:0:0:0:
256,192,189247,1,0,0:0:0:0:
475,192,189285,1,0,0:0:0:0:
402,192,189285,1,0,0:0:0:0:
182,192,189322,1,0,0:0:0:0:
329,192,189360,1,0,0:0:0:0:
36,192,189397,1,0,0:0:0:0:
256,192,189435,1,0,0:0:0:0:
402,192,189435,1,0,0:0:0:0:
475,192,189435,1,0,0:0:0:0:
109,192,189435,1,0,0:0:0:0:
182,192,189472,1,0,0:0:0:0:
36,192,189510,1,0,0:0:0:0:
329,192,189547,1,0,0:0:0:0:
109,192,189585,1,0,0:0:0:0:
182,192,189585,1,0,0:0:0:0:
475,192,189622,1,0,0:0:0:0:
256,192,189660,1,0,0:0:0:0:
402,192,189697,1,0,0:0:0:0:
109,192,189735,1,0,0:0:0:0:
36,192,189735,1,0,0:0:0:0:
329,192,189735,1,0,0:0:0:0:
182,192,189772,1,0,0:0:0:0:
475,192,189810,1,0,0:0:0:0:
256,192,189847,1,0,0:0:0:0:
109,192,189885,1,0,0:0:0:0:
402,192,189885,1,0,0:0:0:0:
329,192,189922,1,0,0:0:0:0:
182,192,189960,1,0,0:0:0:0:
36,192,189997,1,0,0:0:0:0:
256,192,190035,1,0,0:0:0:0:
402,192,190035,1,0,0:0:0:0:
475,192,190035,1,0,0:0:0:0:
109,192,190072,1,0,0:0:0:0:
182,192,190110,1,0,0:0:0:0:
329,192,190147,1,0,0:0:0:0:
475,192,190185,1,0,0:0:0:0:
36,192,190185,1,0,0:0:0:0:
256,192,190222,1,0,0:0:0:0:
402,192,190260,1,0,0:0:0:0:
109,192,190297,1,0,0:0:0:0:
182,192,190335,1,0,0:0:0:0:
475,192,190335,1,0,0:0:0:0:
329,192,190335,1,0,0:0:0:0:
36,192,190372,1,0,0:0:0:0:
256,192,190410,1,0,0:0:0:0:
109,192,190447,1,0,0:0:0:0:
329,192,190485,1,0,0:0:0:0:
182,192,190485,1,0,0:0:0:0:
402,192,190522,1,0,0:0:0:0:
36,192,190560,1,0,0:0:0:0:
109,192,190597,1,0,0:0:0:0:
182,192,190635,1,0,0:0:0:0:
256,192,190635,1,0,0:0:0:0:
329,192,190635,1,0,0:0:0:0:
475,192,190635,1,0,0:0:0:0:
402,192,190672,1,0,0:0:0:0:
36,192,190710,1,0,0:0:0:0:
256,192,190747,1,0,0:0:0:0:
475,192,190785,1,0,0:0:0:0:
329,192,190785,1,0,0:0:0:0:
109,192,190822,1,0,0:0:0:0:
182,192,190860,1,0,0:0:0:0:
402,192,190897,1,0,0:0:0:0:
329,192,190935,1,0,0:0:0:0:
36,192,190935,1,0,0:0:0:0:
256,192,190935,1,0,0:0:0:0:
109,192,190972,1,0,0:0:0:0:
402,192,191010,1,0,0:0:0:0:
182,192,191047,1,0,0:0:0:0:
256,192,191085,1,0,0:0:0:0:
475,192,191085,1,0,0:0:0:0:
36,192,191122,1,0,0:0:0:0:
109,192,191160,1,0,0:0:0:0:
329,192,191197,1,0,0:0:0:0:
475,192,191235,1,0,0:0:0:0:
402,192,191235,1,0,0:0:0:0:
182,192,191235,1,0,0:0:0:0:
36,192,191272,1,0,0:0:0:0:
256,192,191310,1,0,0:0:0:0:
109,192,191347,1,0,0:0:0:0:
475,192,191385,1,0,0:0:0:0:
329,192,191385,1,0,0:0:0:0:
182,192,191422,1,0,0:0:0:0:
36,192,191460,1,0,0:0:0:0:
256,192,191497,1,0,0:0:0:0:
402,192,191535,1,0,0:0:0:0:
475,192,191535,1,0,0:0:0:0:
109,192,191535,1,0,0:0:0:0:
329,192,191572,1,0,0:0:0:0:
182,192,191610,1,0,0:0:0:0:
402,192,191647,1,0,0:0:0:0:
36,192,191685,1,0,0:0:0:0:
256,192,191685,1,0,0:0:0:0:
109,192,191722,1,0,0:0:0:0:
329,192,191760,1,0,0:0:0:0:
402,192,191797,1,0,0:0:0:0:
182,192,191835,1,0,0:0:0:0:
256,192,191835,1,0,0:0:0:0:
36,192,191835,1,0,0:0:0:0:
475,192,191835,1,0,0:0:0:0:
329,192,191872,1,0,0:0:0:0:
109,192,191910,1,0,0:0:0:0:
402,192,191947,1,0,0:0:0:0:
36,192,191985,1,0,0:0:0:0:
182,192,191985,1,0,0:0:0:0:
329,192,192022,1,0,0:0:0:0:
475,192,192060,1,0,0:0:0:0:
256,192,192097,1,0,0:0:0:0:
109,192,192135,1,0,0:0:0:0:
36,192,192135,1,0,0:0:0:0:
402,192,192135,1,0,0:0:0:0:
182,192,192172,1,0,0:0:0:0:
329,192,192210,1,0,0:0:0:0:
475,192,192247,1,0,0:0:0:0:
36,192,192285,1,0,0:0:0:0:
256,192,192285,1,0,0:0:0:0:
109,192,192322,1,0,0:0:0:0:
402,192,192360,1,0,0:0:0:0:
329,192,192397,1,0,0:0:0:0:
36,192,192435,1,0,0:0:0:0:
256,192,192435,1,0,0:0:0:0:
182,192,192435,1,0,0:0:0:0:
475,192,192472,1,0,0:0:0:0:
402,192,192510,1,0,0:0:0:0:
329,192,192547,1,0,0:0:0:0:
109,192,192585,1,0,0:0:0:0:
256,192,192585,1,0,0:0:0:0:
402,192,192622,1,0,0:0:0:0:
475,192,192660,1,0,0:0:0:0:
182,192,192697,1,0,0:0:0:0:
36,192,192735,1,0,0:0:0:0:
109,192,192735,1,0,0:0:0:0:
329,192,192735,1,0,0:0:0:0:
475,192,192772,1,0,0:0:0:0:
402,192,192810,1,0,0:0:0:0:
256,192,192847,1,0,0:0:0:0:
36,192,192885,1,0,0:0:0:0:
182,192,192885,1,0,0:0:0:0:
475,192,192922,1,0,0:0:0:0:
329,192,192960,1,0,0:0:0:0:
109,192,192997,1,0,0:0:0:0:
256,192,193035,1,0,0:0:0:0:
182,192,193035,1,0,0:0:0:0:
36,192,193035,1,0,0:0:0:0:
402,192,193035,1,0,0:0:0:0:
475,192,193072,1,0,0:0:0:0:
329,192,193110,1,0,0:0:0:0:
182,192,193147,1,0,0:0:0:0:
475,192,193185,1,0,0:0:0:0:
109,192,193185,1,0,0:0:0:0:
256,192,193222,1,0,0:0:0:0:
402,192,193260,1,0,0:0:0:0:
36,192,193297,1,0,0:0:0:0:
182,192,193335,1,0,0:0:0:0:
475,192,193335,1,0,0:0:0:0:
329,192,193335,1,0,0:0:0:0:
109,192,193372,1,0,0:0:0:0:
256,192,193410,1,0,0:0:0:0:
402,192,193447,1,0,0:0:0:0:
36,192,193485,1,0,0:0:0:0:
475,192,193485,1,0,0:0:0:0:
182,192,193522,1,0,0:0:0:0:
329,192,193560,1,0,0:0:0:0:
109,192,193597,1,0,0:0:0:0:
402,192,193635,1,0,0:0:0:0:
256,192,193635,1,0,0:0:0:0:
475,192,193672,1,0,0:0:0:0:
182,192,193710,1,0,0:0:0:0:
36,192,193747,1,0,0:0:0:0:
402,192,193785,1,0,0:0:0:0:
329,192,193785,1,0,0:0:0:0:
109,192,193822,1,0,0:0:0:0:
256,192,193860,1,0,0:0:0:0:
182,192,193897,1,0,0:0:0:0:
36,192,193935,1,0,0:0:0:0:
475,192,193935,1,0,0:0:0:0:
329,192,193935,1,0,0:0:0:0:
402,192,193935,1,0,0:0:0:0:
109,192,193972,1,0,0:0:0:0:
256,192,194010,1,0,0:0:0:0:
329,192,194047,1,0,0:0:0:0:
182,192,194085,1,0,0:0:0:0:
36,192,194085,1,0,0:0:0:0:
475,192,194085,1,0,0:0:0:0:
402,192,194085,1,0,0:0:0:0:
109,192,194122,1,0,0:0:0:0:
256,192,194160,1,0,0:0:0:0:
329,192,194197,1,0,0:0:0:0:
182,192,194235,1,0,0:0:0:0:
36,192,194235,1,0,0:0:0:0:
402,192,194235,1,0,0:0:0:0:
475,192,194235,1,0,0:0:0:0:
109,192,194272,1,0,0:0:0:0:
329,192,194310,1,0,0:0:0:0:
256,192,194347,1,0,0:0:0:0:
36,192,194385,1,0,0:0:0:0:
182,192,194385,1,0,0:0:0:0:
475,192,194422,1,0,0:0:0:0:
402,192,194460,1,0,0:0:0:0:
109,192,194497,1,0,0:0:0:0:
182,192,194535,1,0,0:0:0:0:
256,192,194535,1,0,0:0:0:0:
329,192,194535,1,0,0:0:0:0:
36,192,194572,1,0,0:0:0:0:
402,192,194610,1,0,0:0:0:0:
109,192,194647,1,0,0:0:0:0:
256,192,194685,1,0,0:0:0:0:
475,192,194685,1,0,0:0:0:0:
182,192,194722,1,0,0:0:0:0:
36,192,194760,1,0,0:0:0:0:
329,192,194797,1,0,0:0:0:0:
402,192,194835,1,0,0:0:0:0:
475,192,194835,1,0,0:0:0:0:
109,192,194835,1,0,0:0:0:0:
256,192,194872,1,0,0:0:0:0:
182,192,194910,1,0,0:0:0:0:
36,192,194947,1,0,0:0:0:0:
475,192,194985,1,0,0:0:0:0:
329,192,194985,1,0,0:0:0:0:
109,192,195022,1,0,0:0:0:0:
256,192,195060,1,0,0:0:0:0:
36,192,195097,1,0,0:0:0:0:
402,192,195135,1,0,0:0:0:0:
329,192,195135,1,0,0:0:0:0:
182,192,195135,1,0,0:0:0:0:
109,192,195172,1,0,0:0:0:0:
256,192,195210,1,0,0:0:0:0:
475,192,195247,1,0,0:0:0:0:
182,192,195285,1,0,0:0:0:0:
36,192,195285,1,0,0:0:0:0:
402,192,195322,1,0,0:0:0:0:
329,192,195360,1,0,0:0:0:0:
256,192,195397,1,0,0:0:0:0:
182,192,195435,1,0,0:0:0:0:
109,192,195435,1,0,0:0:0:0:
36,192,195435,1,0,0:0:0:0:
475,192,195435,1,0,0:0:0:0:
329,192,195472,1,0,0:0:0:0:
402,192,195510,1,0,0:0:0:0:
256,192,195547,1,0,0:0:0:0:
36,192,195585,1,0,0:0:0:0:
182,192,195585,1,0,0:0:0:0:
329,192,195622,1,0,0:0:0:0:
475,192,195660,1,0,0:0:0:0:
256,192,195697,1,0,0:0:0:0:
182,192,195735,1,0,0:0:0:0:
402,192,195735,1,0,0:0:0:0:
109,192,195735,1,0,0:0:0:0:
329,192,195772,1,0,0:0:0:0:
36,192,195810,1,0,0:0:0:0:
256,192,195847,1,0,0:0:0:0:
475,192,195885,1,0,0:0:0:0:
402,192,195885,1,0,0:0:0:0:
109,192,195922,1,0,0:0:0:0:
329,192,195960,1,0,0:0:0:0:
36,192,195997,1,0,0:0:0:0:
402,192,196035,1,0,0:0:0:0:
475,192,196035,1,0,0:0:0:0:
256,192,196035,1,0,0:0:0:0:
182,192,196035,1,0,0:0:0:0:
109,192,196072,1,0,0:0:0:0:
329,192,196110,1,0,0:0:0:0:
36,192,196147,1,0,0:0:0:0:
475,192,196185,1,0,0:0:0:0:
402,192,196185,1,0,0:0:0:0:
256,192,196222,1,0,0:0:0:0:
109,192,196260,1,0,0:0:0:0:
329,192,196297,1,0,0:0:0:0:
36,192,196335,1,0,0:0:0:0:
475,192,196335,1,0,0:0:0:0:
256,192,196372,1,0,0:0:0:0:
402,192,196410,1,0,0:0:0:0:
109,192,196447,1,0,0:0:0:0:
475,192,196485,1,0,0:0:0:0:
329,192,196485,1,0,0:0:0:0:
36,192,196522,1,0,0:0:0:0:
256,192,196560,1,0,0:0:0:0:
109,192,196597,1,0,0:0:0:0:
329,192,196635,1,0,0:0:0:0:
402,192,196635,1,0,0:0:0:0:
475,192,196635,1,0,0:0:0:0:
36,192,196635,1,0,0:0:0:0:
256,192,196672,1,0,0:0:0:0:
182,192,196710,1,0,0:0:0:0:
109,192,196747,1,0,0:0:0:0:
402,192,196785,1,0,0:0:0:0:
36,192,196785,1,0,0:0:0:0:
475,192,196822,1,0,0:0:0:0:
182,192,196860,1,0,0:0:0:0:
256,192,196897,1,0,0:0:0:0:
36,192,196935,1,0,0:0:0:0:
109,192,196935,1,0,0:0:0:0:
402,192,196972,1,0,0:0:0:0:
182,192,197010,1,0,0:0:0:0:
475,192,197047,1,0,0:0:0:0:
36,192,197085,1,0,0:0:0:0:
256,192,197085,1,0,0:0:0:0:
109,192,197122,1,0,0:0:0:0:
402,192,197160,1,0,0:0:0:0:
182,192,197197,1,0,0:0:0:0:
256,192,197235,1,0,0:0:0:0:
475,192,197235,1,0,0:0:0:0:
36,192,197272,1,0,0:0:0:0:
182,192,197310,1,0,0:0:0:0:
109,192,197347,1,0,0:0:0:0:
402,192,197385,1,0,0:0:0:0:
256,192,197385,1,0,0:0:0:0:
36,192,197422,1,0,0:0:0:0:
182,192,197460,1,0,0:0:0:0:
109,192,197497,1,0,0:0:0:0:
402,192,197535,1,0,0:0:0:0:
475,192,197535,1,0,0:0:0:0:
256,192,197572,1,0,0:0:0:0:
36,192,197610,1,0,0:0:0:0:
182,192,197647,1,0,0:0:0:0:
402,192,197685,1,0,0:0:0:0:
109,192,197685,1,0,0:0:0:0:
256,192,197722,1,0,0:0:0:0:
36,192,197760,1,0,0:0:0:0:
182,192,197797,1,0,0:0:0:0:
109,192,197835,1,0,0:0:0:0:
402,192,197835,1,0,0:0:0:0:
475,192,197835,1,0,0:0:0:0:
256,192,197872,1,0,0:0:0:0:
36,192,197910,1,0,0:0:0:0:
182,192,197947,1,0,0:0:0:0:
402,192,197985,1,0,0:0:0:0:
329,192,197985,1,0,0:0:0:0:
109,192,198022,1,0,0:0:0:0:
256,192,198060,1,0,0:0:0:0:
36,192,198097,1,0,0:0:0:0:
402,192,198135,1,0,0:0:0:0:
182,192,198135,1,0,0:0:0:0:
329,192,198172,1,0,0:0:0:0:
109,192,198210,1,0,0:0:0:0:
256,192,198247,1,0,0:0:0:0:
182,192,198285,1,0,0:0:0:0:
36,192,198285,1,0,0:0:0:0:
329,192,198322,1,0,0:0:0:0:
109,192,198360,1,0,0:0:0:0:
182,192,198397,1,0,0:0:0:0:
256,192,198435,1,0,0:0:0:0:
329,192,198435,1,0,0:0:0:0:
402,192,198435,1,0,0:0:0:0:
36,192,198472,1,0,0:0:0:0:
109,192,198510,1,0,0:0:0:0:
182,192,198547,1,0,0:0:0:0:
475,192,198585,1,0,0:0:0:0:
256,192,198585,1,0,0:0:0:0:
109,192,198622,1,0,0:0:0:0:
36,192,198660,1,0,0:0:0:0:
182,192,198697,1,0,0:0:0:0:
256,192,198735,1,0,0:0:0:0:
329,192,198735,1,0,0:0:0:0:
109,192,198772,1,0,0:0:0:0:
36,192,198810,1,0,0:0:0:0:
182,192,198847,1,0,0:0:0:0:
256,192,198885,1,0,0:0:0:0:
329,192,198885,1,0,0:0:0:0:
475,192,198885,1,0,0:0:0:0:
36,192,198922,1,0,0:0:0:0:
109,192,198960,1,0,0:0:0:0:
182,192,198997,1,0,0:0:0:0:
329,192,199035,1,0,0:0:0:0:
475,192,199035,1,0,0:0:0:0:
256,192,199035,1,0,0:0:0:0:
36,192,199035,1,0,0:0:0:0:
109,192,199072,1,0,0:0:0:0:
182,192,199110,1,0,0:0:0:0:
402,192,199147,1,0,0:0:0:0:
475,192,199185,1,0,0:0:0:0:
36,192,199185,1,0,0:0:0:0:
256,192,199222,1,0,0:0:0:0:
109,192,199260,1,0,0:0:0:0:
182,192,199297,1,0,0:0:0:0:
36,192,199335,1,0,0:0:0:0:
402,192,199335,1,0,0:0:0:0:
475,192,199372,1,0,0:0:0:0:
256,192,199410,1,0,0:0:0:0:
109,192,199447,1,0,0:0:0:0:
36,192,199485,1,0,0:0:0:0:
182,192,199485,1,0,0:0:0:0:
402,192,199522,1,0,0:0:0:0:
256,192,199560,1,0,0:0:0:0:
109,192,199597,1,0,0:0:0:0:
182,192,199635,1,0,0:0:0:0:
475,192,199635,1,0,0:0:0:0:
256,192,199672,1,0,0:0:0:0:
36,192,199710,1,0,0:0:0:0:
109,192,199747,1,0,0:0:0:0:
402,192,199785,1,0,0:0:0:0:
182,192,199785,1,0,0:0:0:0:
475,192,199822,1,0,0:0:0:0:
256,192,199860,1,0,0:0:0:0:
109,192,199897,1,0,0:0:0:0:
182,192,199935,1,0,0:0:0:0:
36,192,199935,1,0,0:0:0:0:
475,192,199972,1,0,0:0:0:0:
256,192,200010,1,0,0:0:0:0:
109,192,200047,1,0,0:0:0:0:
182,192,200085,1,0,0:0:0:0:
402,192,200085,1,0,0:0:0:0:
475,192,200122,1,0,0:0:0:0:
36,192,200160,1,0,0:0:0:0:
256,192,200197,1,0,0:0:0:0:
402,192,200235,1,0,0:0:0:0:
109,192,200235,1,0,0:0:0:0:
182,192,200272,1,0,0:0:0:0:
36,192,200310,1,0,0:0:0:0:
256,192,200347,1,0,0:0:0:0:
475,192,200385,1,0,0:0:0:0:
109,192,200385,1,0,0:0:0:0:
402,192,200422,1,0,0:0:0:0:
182,192,200460,1,0,0:0:0:0:
36,192,200497,1,0,0:0:0:0:
109,192,200535,1,0,0:0:0:0:
475,192,200535,1,0,0:0:0:0:
256,192,200572,1,0,0:0:0:0:
182,192,200610,1,0,0:0:0:0:
36,192,200647,1,0,0:0:0:0:
475,192,200685,1,0,0:0:0:0:
402,192,200685,1,0,0:0:0:0:
109,192,200722,1,0,0:0:0:0:
182,192,200760,1,0,0:0:0:0:
36,192,200797,1,0,0:0:0:0:
256,192,200835,1,0,0:0:0:0:
402,192,200835,1,0,0:0:0:0:
475,192,200835,1,0,0:0:0:0:
109,192,200872,1,0,0:0:0:0:
182,192,200910,1,0,0:0:0:0:
329,192,200947,1,0,0:0:0:0:
36,192,200985,1,0,0:0:0:0:
475,192,200985,1,0,0:0:0:0:
402,192,201022,1,0,0:0:0:0:
109,192,201060,1,0,0:0:0:0:
36,192,201097,1,0,0:0:0:0:
402,192,201135,1,0,0:0:0:0:
475,192,201135,1,0,0:0:0:0:
329,192,201135,1,0,0:0:0:0:
182,192,201172,1,0,0:0:0:0:
109,192,201210,1,0,0:0:0:0:
36,192,201247,1,0,0:0:0:0:
475,192,201285,1,0,0:0:0:0:
402,192,201285,1,0,0:0:0:0:
329,192,201285,1,0,0:0:0:0:
182,192,201322,1,0,0:0:0:0:
109,192,201360,1,0,0:0:0:0:
36,192,201397,1,0,0:0:0:0:
256,192,201435,1,0,0:0:0:0:
329,192,201435,1,0,0:0:0:0:
402,192,201435,1,0,0:0:0:0:
475,192,201435,1,0,0:0:0:0:
182,192,201472,1,0,0:0:0:0:
109,192,201510,1,0,0:0:0:0:
36,192,201510,1,0,0:0:0:0:
182,192,201585,1,0,0:0:0:0:
256,192,201585,1,0,0:0:0:0:
329,192,201585,1,0,0:0:0:0:
402,192,201585,1,0,0:0:0:0:
109,192,201622,1,0,0:0:0:0:
36,192,201660,1,0,0:0:0:0:
475,192,201660,1,0,0:0:0:0:
329,192,201735,1,0,0:0:0:0:
256,192,201735,1,0,0:0:0:0:
182,192,201735,1,0,0:0:0:0:
109,192,201735,1,0,0:0:0:0:
36,192,201772,1,0,0:0:0:0:
402,192,201810,1,0,0:0:0:0:
475,192,201810,1,0,0:0:0:0:
256,192,201885,1,0,0:0:0:0:
182,192,201885,1,0,0:0:0:0:
109,192,201885,1,0,0:0:0:0:
36,192,201885,1,0,0:0:0:0:
475,192,201922,1,0,0:0:0:0:
402,192,201960,1,0,0:0:0:0:
329,192,201997,1,0,0:0:0:0:
256,192,202035,1,0,0:0:0:0:
182,192,202035,1,0,0:0:0:0:
36,192,202035,1,0,0:0:0:0:
109,192,202035,1,0,0:0:0:0:
329,192,202072,1,0,0:0:0:0:
402,192,202110,1,0,0:0:0:0:
475,192,202110,1,0,0:0:0:0:
109,192,202185,1,0,0:0:0:0:
182,192,202185,1,0,0:0:0:0:
256,192,202185,1,0,0:0:0:0:
329,192,202185,1,0,0:0:0:0:
402,192,202222,1,0,0:0:0:0:
475,192,202260,1,0,0:0:0:0:
36,192,202260,1,0,0:0:0:0:
182,192,202335,1,0,0:0:0:0:
256,192,202335,1,0,0:0:0:0:
402,192,202335,1,0,0:0:0:0:
329,192,202335,1,0,0:0:0:0:
475,192,202372,1,0,0:0:0:0:
36,192,202410,1,0,0:0:0:0:
109,192,202410,1,0,0:0:0:0:
256,192,202485,1,0,0:0:0:0:
329,192,202485,1,0,0:0:0:0:
402,192,202485,1,0,0:0:0:0:
475,192,202485,1,0,0:0:0:0:
182,192,202485,1,0,0:0:0:0:
182,192,202560,1,0,0:0:0:0:
256,192,202560,1,0,0:0:0:0:
329,192,202560,1,0,0:0:0:0:
402,192,202560,1,0,0:0:0:0:
475,192,202560,1,0,0:0:0:0:
256,192,202635,1,0,0:0:0:0:
329,192,202635,1,0,0:0:0:0:
475,192,202635,1,0,0:0:0:0:
402,192,202635,1,0,0:0:0:0:
182,192,202672,1,0,0:0:0:0:
109,192,202710,1,0,0:0:0:0:
36,192,202710,1,0,0:0:0:0:
182,192,202785,1,0,0:0:0:0:
256,192,202785,1,0,0:0:0:0:
329,192,202785,1,0,0:0:0:0:
402,192,202785,1,0,0:0:0:0:
109,192,202822,1,0,0:0:0:0:
36,192,202860,1,0,0:0:0:0:
475,192,202860,1,0,0:0:0:0:
109,192,202935,1,0,0:0:0:0:
182,192,202935,1,0,0:0:0:0:
329,192,202935,1,0,0:0:0:0:
256,192,202935,1,0,0:0:0:0:
36,192,202972,1,0,0:0:0:0:
402,192,203010,1,0,0:0:0:0:
475,192,203010,1,0,0:0:0:0:
109,192,203085,1,0,0:0:0:0:
36,192,203085,1,0,0:0:0:0:
256,192,203085,1,0,0:0:0:0:
182,192,203160,1,0,0:0:0:0:
329,192,203160,1,0,0:0:0:0:
109,192,203235,1,0,0:0:0:0:
402,192,203235,1,0,0:0:0:0:
256,192,203235,1,0,0:0:0:0:
36,192,203235,1,0,0:0:0:0:
475,192,203235,1,0,0:0:0:0:
109,192,203310,1,0,0:0:0:0:
402,192,203310,1,0,0:0:0:0:
256,192,203310,1,0,0:0:0:0:
36,192,203310,1,0,0:0:0:0:
475,192,203310,1,0,0:0:0:0:
109,192,203385,1,0,0:0:0:0:
36,192,203385,1,0,0:0:0:0:
402,192,203385,1,0,0:0:0:0:
475,192,203385,1,0,0:0:0:0:
329,192,203422,1,0,0:0:0:0:
256,192,203460,1,0,0:0:0:0:
182,192,203497,1,0,0:0:0:0:
109,192,203535,1,0,0:0:0:0:
36,192,203535,1,0,0:0:0:0:
402,192,203535,1,0,0:0:0:0:
475,192,203535,1,0,0:0:0:0:
182,192,203610,1,0,0:0:0:0:
256,192,203610,1,0,0:0:0:0:
329,192,203610,1,0,0:0:0:0:
109,192,203685,1,0,0:0:0:0:
36,192,203685,1,0,0:0:0:0:
402,192,203685,1,0,0:0:0:0:
475,192,203685,1,0,0:0:0:0:
182,192,203760,1,0,0:0:0:0:
256,192,203760,1,0,0:0:0:0:
329,192,203760,1,0,0:0:0:0:
36,192,203835,1,0,0:0:0:0:
402,192,203835,1,0,0:0:0:0:
475,192,203835,1,0,0:0:0:0:
109,192,203835,1,0,0:0:0:0:
329,192,203872,1,0,0:0:0:0:
182,192,203910,1,0,0:0:0:0:
256,192,203910,1,0,0:0:0:0:
402,192,203985,1,0,0:0:0:0:
475,192,203985,1,0,0:0:0:0:
36,192,203985,1,0,0:0:0:0:
329,192,203985,1,0,0:0:0:0:
109,192,204060,1,0,0:0:0:0:
182,192,204060,1,0,0:0:0:0:
256,192,204097,1,0,0:0:0:0:
402,192,204135,1,0,0:0:0:0:
475,192,204135,1,0,0:0:0:0:
36,192,204135,1,0,0:0:0:0:
182,192,204210,1,0,0:0:0:0:
256,192,204210,1,0,0:0:0:0:
329,192,204247,1,0,0:0:0:0:
109,192,204285,1,0,0:0:0:0:
402,192,204285,1,0,0:0:0:0:
475,192,204285,1,0,0:0:0:0:
256,192,204360,1,0,0:0:0:0:
329,192,204360,1,0,0:0:0:0:
36,192,204397,1,0,0:0:0:0:
109,192,204435,1,0,0:0:0:0:
402,192,204435,1,0,0:0:0:0:
182,192,204435,1,0,0:0:0:0:
256,192,204510,1,0,0:0:0:0:
36,192,204510,1,0,0:0:0:0:
329,192,204547,1,0,0:0:0:0:
475,192,204585,1,0,0:0:0:0:
109,192,204585,1,0,0:0:0:0:
402,192,204585,1,0,0:0:0:0:
182,192,204660,1,0,0:0:0:0:
256,192,204660,1,0,0:0:0:0:
36,192,204735,1,0,0:0:0:0:
475,192,204735,1,0,0:0:0:0:
109,192,204735,1,0,0:0:0:0:
402,192,204772,1,0,0:0:0:0:
182,192,204810,1,0,0:0:0:0:
329,192,204810,1,0,0:0:0:0:
256,192,204885,1,0,0:0:0:0:
36,192,204885,1,0,0:0:0:0:
475,192,204885,1,0,0:0:0:0:
402,192,204960,1,0,0:0:0:0:
182,192,204960,1,0,0:0:0:0:
329,192,204997,1,0,0:0:0:0:
109,192,205035,1,0,0:0:0:0:
256,192,205035,1,0,0:0:0:0:
36,192,205035,1,0,0:0:0:0:
182,192,205110,1,0,0:0:0:0:
329,192,205110,1,0,0:0:0:0:
475,192,205185,1,0,0:0:0:0:
402,192,205185,1,0,0:0:0:0:
256,192,205185,1,0,0:0:0:0:
329,192,205260,1,0,0:0:0:0:
109,192,205260,1,0,0:0:0:0:
402,192,205297,1,0,0:0:0:0:
36,192,205335,1,0,0:0:0:0:
182,192,205335,1,0,0:0:0:0:
475,192,205335,1,0,0:0:0:0:
109,192,205410,1,0,0:0:0:0:
329,192,205410,1,0,0:0:0:0:
402,192,205485,1,0,0:0:0:0:
256,192,205485,1,0,0:0:0:0:
182,192,205485,1,0,0:0:0:0:
109,192,205522,1,0,0:0:0:0:
329,192,205560,1,0,0:0:0:0:
36,192,205560,1,0,0:0:0:0:
109,192,205635,1,0,0:0:0:0:
475,192,205635,1,0,0:0:0:0:
402,192,205635,1,0,0:0:0:0:
329,192,205672,1,0,0:0:0:0:
182,192,205710,1,0,0:0:0:0:
256,192,205710,1,0,0:0:0:0:
36,192,205785,1,0,0:0:0:0:
475,192,205785,1,0,0:0:0:0:
109,192,205785,1,0,0:0:0:0:
256,192,205860,1,0,0:0:0:0:
329,192,205860,1,0,0:0:0:0:
182,192,205897,1,0,0:0:0:0:
36,192,205935,1,0,0:0:0:0:
402,192,205935,1,0,0:0:0:0:
475,192,205935,1,0,0:0:0:0:
329,192,206010,1,0,0:0:0:0:
182,192,206010,1,0,0:0:0:0:
109,192,206047,1,0,0:0:0:0:
256,192,206085,1,0,0:0:0:0:
402,192,206085,1,0,0:0:0:0:
36,192,206085,1,0,0:0:0:0:
182,192,206160,1,0,0:0:0:0:
329,192,206160,1,0,0:0:0:0:
402,192,206235,1,0,0:0:0:0:
475,192,206235,1,0,0:0:0:0:
256,192,206235,1,0,0:0:0:0:
182,192,206310,1,0,0:0:0:0:
109,192,206310,1,0,0:0:0:0:
329,192,206347,1,0,0:0:0:0:
402,192,206385,1,0,0:0:0:0:
36,192,206385,1,0,0:0:0:0:
475,192,206385,1,0,0:0:0:0:
109,192,206460,1,0,0:0:0:0:
329,192,206460,1,0,0:0:0:0:
256,192,206535,1,0,0:0:0:0:
402,192,206535,1,0,0:0:0:0:
182,192,206535,1,0,0:0:0:0:
329,192,206610,1,0,0:0:0:0:
36,192,206610,1,0,0:0:0:0:
256,192,206647,1,0,0:0:0:0:
109,192,206685,1,0,0:0:0:0:
475,192,206685,1,0,0:0:0:0:
402,192,206685,1,0,0:0:0:0:
182,192,206760,1,0,0:0:0:0:
256,192,206760,1,0,0:0:0:0:
329,192,206797,1,0,0:0:0:0:
36,192,206835,1,0,0:0:0:0:
475,192,206835,1,0,0:0:0:0:
109,192,206835,1,0,0:0:0:0:
256,192,206910,1,0,0:0:0:0:
329,192,206910,1,0,0:0:0:0:
182,192,206947,1,0,0:0:0:0:
36,192,206985,1,0,0:0:0:0:
402,192,206985,1,0,0:0:0:0:
475,192,206985,1,0,0:0:0:0:
329,192,207060,1,0,0:0:0:0:
182,192,207060,1,0,0:0:0:0:
256,192,207097,1,0,0:0:0:0:
109,192,207135,1,0,0:0:0:0:
402,192,207135,1,0,0:0:0:0:
36,192,207135,1,0,0:0:0:0:
475,192,207210,1,0,0:0:0:0:
256,192,207210,1,0,0:0:0:0:
402,192,207247,1,0,0:0:0:0:
329,192,207285,1,0,0:0:0:0:
182,192,207285,1,0,0:0:0:0:
109,192,207285,1,0,0:0:0:0:
256,192,207360,1,0,0:0:0:0:
475,192,207360,1,0,0:0:0:0:
36,192,207435,1,0,0:0:0:0:
402,192,207435,1,0,0:0:0:0:
329,192,207435,1,0,0:0:0:0:
109,192,207510,1,0,0:0:0:0:
256,192,207510,1,0,0:0:0:0:
182,192,207510,1,0,0:0:0:0:
475,192,207585,1,0,0:0:0:0:
329,192,207585,1,0,0:0:0:0:
36,192,207585,1,0,0:0:0:0:
256,192,207660,1,0,0:0:0:0:
109,192,207660,1,0,0:0:0:0:
475,192,207660,1,0,0:0:0:0:
182,192,207735,1,0,0:0:0:0:
329,192,207735,1,0,0:0:0:0:
402,192,207735,1,0,0:0:0:0:
256,192,207810,1,0,0:0:0:0:
475,192,207810,1,0,0:0:0:0:
109,192,207810,1,0,0:0:0:0:
36,192,207885,1,0,0:0:0:0:
402,192,207885,1,0,0:0:0:0:
182,192,207885,1,0,0:0:0:0:
256,192,207960,1,0,0:0:0:0:
475,192,207960,1,0,0:0:0:0:
329,192,207960,1,0,0:0:0:0:
402,192,208035,1,0,0:0:0:0:
109,192,208035,1,0,0:0:0:0:
36,192,208035,1,0,0:0:0:0:
256,192,208110,1,0,0:0:0:0:
182,192,208110,1,0,0:0:0:0:
475,192,208110,1,0,0:0:0:0:
109,192,208185,1,0,0:0:0:0:
402,192,208185,1,0,0:0:0:0:
329,192,208185,1,0,0:0:0:0:
182,192,208260,1,0,0:0:0:0:
256,192,208260,1,0,0:0:0:0:
36,192,208260,1,0,0:0:0:0:
109,192,208335,1,0,0:0:0:0:
402,192,208335,1,0,0:0:0:0:
475,192,208335,1,0,0:0:0:0:
256,192,208410,1,0,0:0:0:0:
182,192,208410,1,0,0:0:0:0:
329,192,208410,1,0,0:0:0:0:
109,192,208485,1,0,0:0:0:0:
182,192,208485,1,0,0:0:0:0:
475,192,208485,1,0,0:0:0:0:
36,192,208485,1,0,0:0:0:0:
329,192,208560,1,0,0:0:0:0:
402,192,208560,1,0,0:0:0:0:
256,192,208560,1,0,0:0:0:0:
475,192,208635,1,0,0:0:0:0:
182,192,208635,1,0,0:0:0:0:
109,192,208635,1,0,0:0:0:0:
402,192,208710,1,0,0:0:0:0:
256,192,208710,1,0,0:0:0:0:
329,192,208710,1,0,0:0:0:0:
36,192,208785,1,0,0:0:0:0:
182,192,208785,1,0,0:0:0:0:
475,192,208785,1,0,0:0:0:0:
109,192,208860,1,0,0:0:0:0:
329,192,208860,1,0,0:0:0:0:
256,192,208860,1,0,0:0:0:0:
36,192,208935,1,0,0:0:0:0:
402,192,208935,1,0,0:0:0:0:
182,192,208935,1,0,0:0:0:0:
329,192,209010,1,0,0:0:0:0:
256,192,209010,1,0,0:0:0:0:
109,192,209010,1,0,0:0:0:0:
475,192,209085,1,0,0:0:0:0:
182,192,209085,1,0,0:0:0:0:
36,192,209085,1,0,0:0:0:0:
256,192,209160,1,0,0:0:0:0:
402,192,209160,1,0,0:0:0:0:
109,192,209160,1,0,0:0:0:0:
475,192,209235,1,0,0:0:0:0:
182,192,209235,1,0,0:0:0:0:
329,192,209235,1,0,0:0:0:0:
36,192,209310,1,0,0:0:0:0:
256,192,209310,1,0,0:0:0:0:
109,192,209310,1,0,0:0:0:0:
402,192,209385,1,0,0:0:0:0:
182,192,209385,1,0,0:0:0:0:
475,192,209385,1,0,0:0:0:0:
109,192,209460,1,0,0:0:0:0:
329,192,209460,1,0,0:0:0:0:
256,192,209460,1,0,0:0:0:0:
182,192,209535,1,0,0:0:0:0:
402,192,209535,1,0,0:0:0:0:
36,192,209535,1,0,0:0:0:0:
256,192,209610,1,0,0:0:0:0:
329,192,209610,1,0,0:0:0:0:
475,192,209610,1,0,0:0:0:0:
109,192,209685,1,0,0:0:0:0:
402,192,209685,1,0,0:0:0:0:
182,192,209685,1,0,0:0:0:0:
36,192,209760,1,0,0:0:0:0:
475,192,209760,1,0,0:0:0:0:
256,192,209760,1,0,0:0:0:0:
402,192,209835,1,0,0:0:0:0:
329,192,209835,1,0,0:0:0:0:
109,192,209835,1,0,0:0:0:0:
36,192,209910,1,0,0:0:0:0:
182,192,209910,1,0,0:0:0:0:
475,192,209910,1,0,0:0:0:0:
402,192,209985,1,0,0:0:0:0:
256,192,209985,1,0,0:0:0:0:
109,192,209985,1,0,0:0:0:0:
182,192,210060,1,0,0:0:0:0:
36,192,210060,1,0,0:0:0:0:
329,192,210060,1,0,0:0:0:0:
109,192,210135,1,0,0:0:0:0:
402,192,210135,1,0,0:0:0:0:
475,192,210135,1,0,0:0:0:0:
182,192,210210,1,0,0:0:0:0:
329,192,210210,1,0,0:0:0:0:
36,192,210210,1,0,0:0:0:0:
109,192,210285,1,0,0:0:0:0:
256,192,210285,1,0,0:0:0:0:
402,192,210285,1,0,0:0:0:0:
329,192,210360,1,0,0:0:0:0:
475,192,210360,1,0,0:0:0:0:
182,192,210360,1,0,0:0:0:0:
109,192,210435,1,0,0:0:0:0:
402,192,210435,1,0,0:0:0:0:
36,192,210435,1,0,0:0:0:0:
256,192,210510,1,0,0:0:0:0:
329,192,210510,1,0,0:0:0:0:
475,192,210510,1,0,0:0:0:0:
109,192,210585,1,0,0:0:0:0:
402,192,210585,1,0,0:0:0:0:
182,192,210585,1,0,0:0:0:0:
256,192,210660,1,0,0:0:0:0:
329,192,210660,1,0,0:0:0:0:
475,192,210660,1,0,0:0:0:0:
402,192,210735,1,0,0:0:0:0:
109,192,210735,1,0,0:0:0:0:
36,192,210735,1,0,0:0:0:0:
475,192,210810,1,0,0:0:0:0:
182,192,210810,1,0,0:0:0:0:
329,192,210810,1,0,0:0:0:0:
402,192,210885,1,0,0:0:0:0:
256,192,210885,1,0,0:0:0:0:
109,192,210885,1,0,0:0:0:0:
36,192,210960,1,0,0:0:0:0:
329,192,210960,1,0,0:0:0:0:
182,192,210960,1,0,0:0:0:0:
109,192,211035,1,0,0:0:0:0:
402,192,211035,1,0,0:0:0:0:
475,192,211035,1,0,0:0:0:0:
36,192,211110,1,0,0:0:0:0:
256,192,211110,1,0,0:0:0:0:
329,192,211110,1,0,0:0:0:0:
109,192,211185,1,0,0:0:0:0:
182,192,211185,1,0,0:0:0:0:
402,192,211185,1,0,0:0:0:0:
256,192,211260,1,0,0:0:0:0:
475,192,211260,1,0,0:0:0:0:
329,192,211260,1,0,0:0:0:0:
402,192,211335,1,0,0:0:0:0:
109,192,211335,1,0,0:0:0:0:
36,192,211335,1,0,0:0:0:0:
329,192,211410,1,0,0:0:0:0:
182,192,211410,1,0,0:0:0:0:
256,192,211410,1,0,0:0:0:0:
402,192,211485,1,0,0:0:0:0:
109,192,211485,1,0,0:0:0:0:
475,192,211485,1,0,0:0:0:0:
36,192,211560,1,0,0:0:0:0:
256,192,211560,1,0,0:0:0:0:
182,192,211560,1,0,0:0:0:0:
109,192,211635,1,0,0:0:0:0:
329,192,211635,1,0,0:0:0:0:
402,192,211635,1,0,0:0:0:0:
256,192,211710,1,0,0:0:0:0:
182,192,211710,1,0,0:0:0:0:
475,192,211710,1,0,0:0:0:0:
109,192,211785,1,0,0:0:0:0:
36,192,211785,1,0,0:0:0:0:
402,192,211785,1,0,0:0:0:0:
182,192,211860,1,0,0:0:0:0:
475,192,211860,1,0,0:0:0:0:
329,192,211860,1,0,0:0:0:0:
402,192,211935,1,0,0:0:0:0:
109,192,211935,1,0,0:0:0:0:
256,192,211935,1,0,0:0:0:0:
329,192,212010,1,0,0:0:0:0:
182,192,212010,1,0,0:0:0:0:
36,192,212010,1,0,0:0:0:0:
402,192,212085,1,0,0:0:0:0:
109,192,212085,1,0,0:0:0:0:
475,192,212085,1,0,0:0:0:0:
182,192,212160,1,0,0:0:0:0:
256,192,212160,1,0,0:0:0:0:
329,192,212160,1,0,0:0:0:0:
402,192,212235,1,0,0:0:0:0:
109,192,212235,1,0,0:0:0:0:
36,192,212235,1,0,0:0:0:0:
329,192,212310,1,0,0:0:0:0:
182,192,212310,1,0,0:0:0:0:
256,192,212310,1,0,0:0:0:0:
475,192,212385,1,0,0:0:0:0:
109,192,212385,1,0,0:0:0:0:
402,192,212385,1,0,0:0:0:0:
182,192,212460,1,0,0:0:0:0:
36,192,212460,1,0,0:0:0:0:
256,192,212460,1,0,0:0:0:0:
475,192,212535,1,0,0:0:0:0:
329,192,212535,1,0,0:0:0:0:
109,192,212535,1,0,0:0:0:0:
36,192,212610,1,0,0:0:0:0:
256,192,212610,1,0,0:0:0:0:
402,192,212610,1,0,0:0:0:0:
475,192,212685,1,0,0:0:0:0:
329,192,212685,1,0,0:0:0:0:
182,192,212685,1,0,0:0:0:0:
402,192,212760,1,0,0:0:0:0:
109,192,212760,1,0,0:0:0:0:
256,192,212760,1,0,0:0:0:0:
329,192,212835,1,0,0:0:0:0:
36,192,212835,1,0,0:0:0:0:
475,192,212835,1,0,0:0:0:0:
182,192,212910,1,0,0:0:0:0:
256,192,212910,1,0,0:0:0:0:
402,192,212910,1,0,0:0:0:0:
109,192,212985,1,0,0:0:0:0:
475,192,212985,1,0,0:0:0:0:
329,192,212985,1,0,0:0:0:0:
36,192,213060,1,0,0:0:0:0:
182,192,213060,1,0,0:0:0:0:
256,192,213060,1,0,0:0:0:0:
475,192,213135,1,0,0:0:0:0:
109,192,213135,1,0,0:0:0:0:
402,192,213135,1,0,0:0:0:0:
329,192,213210,1,0,0:0:0:0:
182,192,213210,1,0,0:0:0:0:
256,192,213210,1,0,0:0:0:0:
36,192,213285,1,0,0:0:0:0:
329,192,213285,1,0,0:0:0:0:
475,192,213285,1,0,0:0:0:0:
109,192,213285,1,0,0:0:0:0:
256,192,213360,1,0,0:0:0:0:
402,192,213360,1,0,0:0:0:0:
182,192,213360,1,0,0:0:0:0:
36,192,213435,1,0,0:0:0:0:
402,192,213435,1,0,0:0:0:0:
109,192,213435,1,0,0:0:0:0:
329,192,213435,1,0,0:0:0:0:
475,192,213510,1,0,0:0:0:0:
256,192,213510,1,0,0:0:0:0:
182,192,213510,1,0,0:0:0:0:
36,192,213585,1,0,0:0:0:0:
109,192,213585,1,0,0:0:0:0:
402,192,213585,1,0,0:0:0:0:
182,192,213660,1,0,0:0:0:0:
329,192,213660,1,0,0:0:0:0:
256,192,213660,1,0,0:0:0:0:
109,192,213735,1,0,0:0:0:0:
475,192,213735,1,0,0:0:0:0:
36,192,213735,1,0,0:0:0:0:
256,192,213810,1,0,0:0:0:0:
402,192,213810,1,0,0:0:0:0:
182,192,213810,1,0,0:0:0:0:
109,192,213885,1,0,0:0:0:0:
329,192,213885,1,0,0:0:0:0:
475,192,213885,1,0,0:0:0:0:
182,192,213960,1,0,0:0:0:0:
256,192,213960,1,0,0:0:0:0:
402,192,213960,1,0,0:0:0:0:
329,192,214035,1,0,0:0:0:0:
109,192,214035,1,0,0:0:0:0:
36,192,214035,1,0,0:0:0:0:
475,192,214110,1,0,0:0:0:0:
182,192,214110,1,0,0:0:0:0:
256,192,214110,1,0,0:0:0:0:
329,192,214185,1,0,0:0:0:0:
36,192,214185,1,0,0:0:0:0:
402,192,214185,1,0,0:0:0:0:
109,192,214260,1,0,0:0:0:0:
256,192,214260,1,0,0:0:0:0:
475,192,214260,1,0,0:0:0:0:
36,192,214335,1,0,0:0:0:0:
329,192,214335,1,0,0:0:0:0:
182,192,214335,1,0,0:0:0:0:
475,192,214410,1,0,0:0:0:0:
256,192,214410,1,0,0:0:0:0:
402,192,214410,1,0,0:0:0:0:
109,192,214485,1,0,0:0:0:0:
329,192,214485,1,0,0:0:0:0:
36,192,214485,1,0,0:0:0:0:
402,192,214560,1,0,0:0:0:0:
475,192,214560,1,0,0:0:0:0:
256,192,214560,1,0,0:0:0:0:
182,192,214635,1,0,0:0:0:0:
109,192,214635,1,0,0:0:0:0:
329,192,214635,1,0,0:0:0:0:
475,192,214710,1,0,0:0:0:0:
36,192,214710,1,0,0:0:0:0:
256,192,214710,1,0,0:0:0:0:
109,192,214785,1,0,0:0:0:0:
182,192,214785,1,0,0:0:0:0:
402,192,214785,1,0,0:0:0:0:
329,192,214860,1,0,0:0:0:0:
475,192,214860,1,0,0:0:0:0:
256,192,214860,1,0,0:0:0:0:
109,192,214935,1,0,0:0:0:0:
182,192,214935,1,0,0:0:0:0:
36,192,214935,1,0,0:0:0:0:
402,192,215010,1,0,0:0:0:0:
329,192,215010,1,0,0:0:0:0:
475,192,215010,1,0,0:0:0:0:
109,192,215085,1,0,0:0:0:0:
256,192,215085,1,0,0:0:0:0:
182,192,215085,1,0,0:0:0:0:
475,192,215160,1,0,0:0:0:0:
36,192,215160,1,0,0:0:0:0:
329,192,215160,1,0,0:0:0:0:
182,192,215235,1,0,0:0:0:0:
402,192,215235,1,0,0:0:0:0:
109,192,215235,1,0,0:0:0:0:
256,192,215310,1,0,0:0:0:0:
329,192,215310,1,0,0:0:0:0:
475,192,215310,1,0,0:0:0:0:
182,192,215385,1,0,0:0:0:0:
109,192,215385,1,0,0:0:0:0:
36,192,215385,1,0,0:0:0:0:
256,192,215460,1,0,0:0:0:0:
402,192,215460,1,0,0:0:0:0:
329,192,215460,1,0,0:0:0:0:
109,192,215535,1,0,0:0:0:0:
182,192,215535,1,0,0:0:0:0:
475,192,215535,1,0,0:0:0:0:
402,192,215610,1,0,0:0:0:0:
256,192,215610,1,0,0:0:0:0:
329,192,215610,1,0,0:0:0:0:
36,192,215685,1,0,0:0:0:0:
182,192,215685,1,0,0:0:0:0:
109,192,215685,1,0,0:0:0:0:
256,192,215760,1,0,0:0:0:0:
475,192,215760,1,0,0:0:0:0:
402,192,215760,1,0,0:0:0:0:
329,192,215835,1,0,0:0:0:0:
182,192,215835,1,0,0:0:0:0:
36,192,215835,1,0,0:0:0:0:
402,192,215910,1,0,0:0:0:0:
109,192,215910,1,0,0:0:0:0:
256,192,215910,1,0,0:0:0:0:
475,192,215985,1,0,0:0:0:0:
182,192,215985,1,0,0:0:0:0:
36,192,215985,1,0,0:0:0:0:
329,192,216060,1,0,0:0:0:0:
109,192,216060,1,0,0:0:0:0:
402,192,216060,1,0,0:0:0:0:
475,192,216135,1,0,0:0:0:0:
256,192,216135,1,0,0:0:0:0:
182,192,216135,1,0,0:0:0:0:
402,192,216210,1,0,0:0:0:0:
329,192,216210,1,0,0:0:0:0:
109,192,216210,1,0,0:0:0:0:
36,192,216285,1,0,0:0:0:0:
182,192,216285,1,0,0:0:0:0:
475,192,216285,1,0,0:0:0:0:
109,192,216360,1,0,0:0:0:0:
256,192,216360,1,0,0:0:0:0:
329,192,216360,1,0,0:0:0:0:
182,192,216435,1,0,0:0:0:0:
36,192,216435,1,0,0:0:0:0:
402,192,216435,1,0,0:0:0:0:
256,192,216510,1,0,0:0:0:0:
109,192,216510,1,0,0:0:0:0:
329,192,216510,1,0,0:0:0:0:
182,192,216585,1,0,0:0:0:0:
402,192,216585,1,0,0:0:0:0:
475,192,216585,1,0,0:0:0:0:
36,192,216660,1,0,0:0:0:0:
329,192,216660,1,0,0:0:0:0:
256,192,216660,1,0,0:0:0:0:
475,192,216735,1,0,0:0:0:0:
182,192,216735,1,0,0:0:0:0:
109,192,216735,1,0,0:0:0:0:
402,192,216810,1,0,0:0:0:0:
256,192,216810,1,0,0:0:0:0:
329,192,216810,1,0,0:0:0:0:
36,192,216885,1,0,0:0:0:0:
182,192,216885,1,0,0:0:0:0:
475,192,216885,1,0,0:0:0:0:
109,192,216960,1,0,0:0:0:0:
329,192,216960,1,0,0:0:0:0:
256,192,216960,1,0,0:0:0:0:
182,192,217035,1,0,0:0:0:0:
402,192,217035,1,0,0:0:0:0:
36,192,217035,1,0,0:0:0:0:
475,192,217110,1,0,0:0:0:0:
109,192,217110,1,0,0:0:0:0:
182,192,217110,1,0,0:0:0:0:
256,192,217185,1,0,0:0:0:0:
36,192,217185,1,0,0:0:0:0:
329,192,217185,1,0,0:0:0:0:
402,192,217260,1,0,0:0:0:0:
475,192,217260,1,0,0:0:0:0:
109,192,217260,1,0,0:0:0:0:
36,192,217335,1,0,0:0:0:0:
182,192,217335,1,0,0:0:0:0:
256,192,217335,1,0,0:0:0:0:
475,192,217410,1,0,0:0:0:0:
402,192,217410,1,0,0:0:0:0:
36,192,217410,1,0,0:0:0:0:
329,192,217485,1,0,0:0:0:0:
109,192,217485,1,0,0:0:0:0:
182,192,217485,1,0,0:0:0:0:
256,192,217560,1,0,0:0:0:0:
402,192,217560,1,0,0:0:0:0:
475,192,217560,1,0,0:0:0:0:
36,192,217635,1,0,0:0:0:0:
329,192,217635,1,0,0:0:0:0:
109,192,217635,1,0,0:0:0:0:
256,192,217710,1,0,0:0:0:0:
182,192,217710,1,0,0:0:0:0:
402,192,217710,1,0,0:0:0:0:
256,192,217785,1,0,0:0:0:0:
475,192,217785,1,0,0:0:0:0:
36,192,217785,1,0,0:0:0:0:
109,192,217860,1,0,0:0:0:0:
182,192,217860,1,0,0:0:0:0:
329,192,217860,1,0,0:0:0:0:
475,192,217935,1,0,0:0:0:0:
256,192,217935,1,0,0:0:0:0:
402,192,217935,1,0,0:0:0:0:
36,192,218010,1,0,0:0:0:0:
182,192,218010,1,0,0:0:0:0:
109,192,218010,1,0,0:0:0:0:
475,192,218085,1,0,0:0:0:0:
329,192,218085,1,0,0:0:0:0:
402,192,218085,1,0,0:0:0:0:
109,192,218160,1,0,0:0:0:0:
36,192,218160,1,0,0:0:0:0:
182,192,218160,1,0,0:0:0:0:
109,192,218235,1,0,0:0:0:0:
36,192,218235,1,0,0:0:0:0:
256,192,218235,1,0,0:0:0:0:
402,192,218235,1,0,0:0:0:0:
475,192,218235,1,0,0:0:0:0:
182,192,218310,1,0,0:0:0:0:
329,192,218310,1,0,0:0:0:0:
402,192,218385,1,0,0:0:0:0:
256,192,218385,1,0,0:0:0:0:
109,192,218385,1,0,0:0:0:0:
36,192,218385,1,0,0:0:0:0:
475,192,218385,1,0,0:0:0:0:
329,192,218460,1,0,0:0:0:0:
402,192,218460,1,0,0:0:0:0:
475,192,218535,1,0,0:0:0:0:
182,192,218535,1,0,0:0:0:0:
256,192,218535,1,0,0:0:0:0:
109,192,218535,1,0,0:0:0:0:
36,192,218535,1,0,0:0:0:0:
329,192,218610,1,0,0:0:0:0:
402,192,218610,1,0,0:0:0:0:
182,192,218685,1,0,0:0:0:0:
109,192,218685,1,0,0:0:0:0:
256,192,218685,1,0,0:0:0:0:
36,192,218685,1,0,0:0:0:0:
475,192,218703,1,0,0:0:0:0:
109,192,218760,1,0,0:0:0:0:
182,192,218760,1,0,0:0:0:0:
256,192,218835,1,0,0:0:0:0:
329,192,218835,1,0,0:0:0:0:
402,192,218835,1,0,0:0:0:0:
475,192,218835,1,0,0:0:0:0:
36,192,218835,1,0,0:0:0:0:
109,192,218910,1,0,0:0:0:0:
182,192,218910,1,0,0:0:0:0:
329,192,218985,1,0,0:0:0:0:
256,192,218985,1,0,0:0:0:0:
36,192,218985,1,0,0:0:0:0:
402,192,218985,1,0,0:0:0:0:
475,192,218985,1,0,0:0:0:0:
329,192,219060,1,0,0:0:0:0:
182,192,219060,1,0,0:0:0:0:
256,192,219135,1,0,0:0:0:0:
109,192,219135,1,0,0:0:0:0:
36,192,219135,1,0,0:0:0:0:
402,192,219135,1,0,0:0:0:0:
475,192,219135,1,0,0:0:0:0:
182,192,219210,1,0,0:0:0:0:
329,192,219210,1,0,0:0:0:0:
256,192,219285,1,0,0:0:0:0:
36,192,219285,1,0,0:0:0:0:
402,192,219285,1,0,0:0:0:0:
475,192,219285,1,0,0:0:0:0:
109,192,219285,1,0,0:0:0:0:
36,192,219360,1,0,0:0:0:0:
109,192,219360,1,0,0:0:0:0:
256,192,219360,1,0,0:0:0:0:
402,192,219360,1,0,0:0:0:0:
475,192,219360,1,0,0:0:0:0:
256,192,219435,1,0,0:0:0:0:
109,192,219435,1,0,0:0:0:0:
36,192,219435,1,0,0:0:0:0:
402,192,219435,1,0,0:0:0:0:
475,192,219435,1,0,0:0:0:0:
329,192,219510,1,0,0:0:0:0:
182,192,219510,1,0,0:0:0:0:
475,192,219585,1,0,0:0:0:0:
256,192,219585,1,0,0:0:0:0:
109,192,219585,1,0,0:0:0:0:
36,192,219585,1,0,0:0:0:0:
402,192,219585,1,0,0:0:0:0:
329,192,219660,1,0,0:0:0:0:
475,192,219660,1,0,0:0:0:0:
402,192,219735,1,0,0:0:0:0:
256,192,219735,1,0,0:0:0:0:
182,192,219735,1,0,0:0:0:0:
109,192,219735,1,0,0:0:0:0:
36,192,219735,1,0,0:0:0:0:
329,192,219810,1,0,0:0:0:0:
475,192,219810,1,0,0:0:0:0:
109,192,219885,1,0,0:0:0:0:
402,192,219885,1,0,0:0:0:0:
256,192,219885,1,0,0:0:0:0:
182,192,219885,1,0,0:0:0:0:
36,192,219885,1,0,0:0:0:0:
109,192,219960,1,0,0:0:0:0:
329,192,219960,1,0,0:0:0:0:
182,192,220035,1,0,0:0:0:0:
36,192,220035,1,0,0:0:0:0:
256,192,220035,1,0,0:0:0:0:
402,192,220035,1,0,0:0:0:0:
475,192,220035,1,0,0:0:0:0:
109,192,220110,1,0,0:0:0:0:
329,192,220110,1,0,0:0:0:0:
256,192,220185,1,0,0:0:0:0:
402,192,220185,1,0,0:0:0:0:
475,192,220185,1,0,0:0:0:0:
182,192,220185,1,0,0:0:0:0:
36,192,220185,1,0,0:0:0:0:
256,192,220260,1,0,0:0:0:0:
109,192,220260,1,0,0:0:0:0:
182,192,220335,1,0,0:0:0:0:
329,192,220335,1,0,0:0:0:0:
36,192,220335,1,0,0:0:0:0:
402,192,220335,1,0,0:0:0:0:
475,192,220335,1,0,0:0:0:0:
256,192,220410,1,0,0:0:0:0:
36,192,220447,1,0,0:0:0:0:
109,192,220466,1,0,0:0:0:0:
182,192,220485,1,0,0:0:0:0:
256,192,220503,1,0,0:0:0:0:
329,192,220522,1,0,0:0:0:0:
402,192,220541,1,0,0:0:0:0:
475,192,220560,1,0,0:0:0:0:
36,192,220635,1,0,0:0:0:0:
109,192,220635,1,0,0:0:0:0:
256,192,220635,1,0,0:0:0:0:
402,192,220635,1,0,0:0:0:0:
475,192,220635,1,0,0:0:0:0:
329,192,220710,1,0,0:0:0:0:
182,192,220710,1,0,0:0:0:0:
256,192,220785,1,0,0:0:0:0:
402,192,220785,1,0,0:0:0:0:
475,192,220785,1,0,0:0:0:0:
36,192,220785,1,0,0:0:0:0:
109,192,220860,1,0,0:0:0:0:
182,192,220860,1,0,0:0:0:0:
329,192,220860,1,0,0:0:0:0:
256,192,220935,1,0,0:0:0:0:
109,192,220935,1,0,0:0:0:0:
36,192,220935,1,0,0:0:0:0:
402,192,220935,1,0,0:0:0:0:
475,192,220935,1,0,0:0:0:0:
182,192,221010,1,0,0:0:0:0:
329,192,221010,1,0,0:0:0:0:
475,192,221047,1,0,0:0:0:0:
402,192,221066,1,0,0:0:0:0:
329,192,221085,1,0,0:0:0:0:
256,192,221103,1,0,0:0:0:0:
182,192,221122,1,0,0:0:0:0:
109,192,221141,1,0,0:0:0:0:
36,192,221160,1,0,0:0:0:0:
36,192,221235,1,0,0:0:0:0:
109,192,221235,1,0,0:0:0:0:
256,192,221235,1,0,0:0:0:0:
402,192,221235,1,0,0:0:0:0:
475,192,221235,1,0,0:0:0:0:
182,192,221310,1,0,0:0:0:0:
329,192,221310,1,0,0:0:0:0:
256,192,221385,1,0,0:0:0:0:
109,192,221385,1,0,0:0:0:0:
36,192,221385,1,0,0:0:0:0:
182,192,221460,1,0,0:0:0:0:
402,192,221460,1,0,0:0:0:0:
475,192,221460,1,0,0:0:0:0:
109,192,221535,1,0,0:0:0:0:
36,192,221535,1,0,0:0:0:0:
256,192,221535,1,0,0:0:0:0:
329,192,221535,1,0,0:0:0:0:
182,192,221610,1,0,0:0:0:0:
402,192,221610,1,0,0:0:0:0:
475,192,221610,1,0,0:0:0:0:
329,192,221685,1,0,0:0:0:0:
36,192,221685,1,0,0:0:0:0:
256,192,221685,1,0,0:0:0:0:
182,192,221722,1,0,0:0:0:0:
475,192,221760,1,0,0:0:0:0:
109,192,221760,1,0,0:0:0:0:
402,192,221760,1,0,0:0:0:0:
329,192,221797,1,0,0:0:0:0:
256,192,221835,1,0,0:0:0:0:
182,192,221835,1,0,0:0:0:0:
36,192,221835,1,0,0:0:0:0:
475,192,221835,1,0,0:0:0:0:
402,192,221835,1,0,0:0:0:0:
109,192,221910,1,0,0:0:0:0:
329,192,221910,1,0,0:0:0:0:
256,192,221985,1,0,0:0:0:0:
182,192,221985,1,0,0:0:0:0:
475,192,221985,1,0,0:0:0:0:
109,192,222022,1,0,0:0:0:0:
36,192,222060,1,0,0:0:0:0:
402,192,222060,1,0,0:0:0:0:
329,192,222060,1,0,0:0:0:0:
256,192,222097,1,0,0:0:0:0:
182,192,222135,1,0,0:0:0:0:
109,192,222135,1,0,0:0:0:0:
36,192,222135,1,0,0:0:0:0:
475,192,222135,1,0,0:0:0:0:
402,192,222210,1,0,0:0:0:0:
256,192,222228,1,0,0:0:0:0:
182,192,222247,1,0,0:0:0:0:
109,192,222266,1,0,0:0:0:0:
36,192,222285,1,0,0:0:0:0:
475,192,222303,1,0,0:0:0:0:
402,192,222322,1,0,0:0:0:0:
329,192,222341,1,0,0:0:0:0:
256,192,222360,1,0,0:0:0:0:
182,192,222378,1,0,0:0:0:0:
109,192,222435,1,0,0:0:0:0:
36,192,222435,1,0,0:0:0:0:
402,192,222435,1,0,0:0:0:0:
475,192,222435,1,0,0:0:0:0:
182,192,222510,1,0,0:0:0:0:
256,192,222510,1,0,0:0:0:0:
329,192,222510,1,0,0:0:0:0:
402,192,222585,1,0,0:0:0:0:
475,192,222585,1,0,0:0:0:0:
109,192,222585,1,0,0:0:0:0:
36,192,222585,1,0,0:0:0:0:
256,192,222660,1,0,0:0:0:0:
182,192,222660,1,0,0:0:0:0:
329,192,222660,1,0,0:0:0:0:
402,192,222735,1,0,0:0:0:0:
475,192,222735,1,0,0:0:0:0:
36,192,222735,1,0,0:0:0:0:
109,192,222753,1,0,0:0:0:0:
182,192,222772,1,0,0:0:0:0:
256,192,222791,1,0,0:0:0:0:
329,192,222810,1,0,0:0:0:0:
402,192,222828,1,0,0:0:0:0:
36,192,222828,1,0,0:0:0:0:
475,192,222847,1,0,0:0:0:0:
109,192,222847,1,0,0:0:0:0:
182,192,222866,1,0,0:0:0:0:
256,192,222885,1,0,0:0:0:0:
329,192,222903,1,0,0:0:0:0:
402,192,222922,1,0,0:0:0:0:
36,192,222922,1,0,0:0:0:0:
475,192,222941,1,0,0:0:0:0:
109,192,222941,1,0,0:0:0:0:
182,192,222960,1,0,0:0:0:0:
256,192,222978,1,0,0:0:0:0:
329,192,222997,1,0,0:0:0:0:
402,192,223016,1,0,0:0:0:0:
475,192,223035,1,0,0:0:0:0:
109,192,223035,1,0,0:0:0:0:
36,192,223035,1,0,0:0:0:0:
182,192,223072,1,0,0:0:0:0:
256,192,223110,1,0,0:0:0:0:
329,192,223147,1,0,0:0:0:0:
402,192,223185,1,0,0:0:0:0:
475,192,223222,1,0,0:0:0:0:
256,192,223260,1,0,0:0:0:0:
182,192,223297,1,0,0:0:0:0:
109,192,223335,1,0,0:0:0:0:
475,192,223335,1,0,0:0:0:0:
402,192,223372,1,0,0:0:0:0:
329,192,223410,1,0,0:0:0:0:
256,192,223447,1,0,0:0:0:0:
182,192,223485,1,0,0:0:0:0:
109,192,223522,1,0,0:0:0:0:
475,192,223560,1,0,0:0:0:0:
402,192,223597,1,0,0:0:0:0:
329,192,223635,1,0,0:0:0:0:
256,192,223635,1,0,0:0:0:0:
182,192,223635,1,0,0:0:0:0:
109,192,223710,1,0,0:0:0:0:
402,192,223710,1,0,0:0:0:0:
475,192,223710,1,0,0:0:0:0:
36,192,223785,1,0,0:0:0:0:
256,192,223785,1,0,0:0:0:0:
329,192,223785,1,0,0:0:0:0:
402,192,223860,1,0,0:0:0:0:
109,192,223860,1,0,0:0:0:0:
36,192,223935,1,0,0:0:0:0:
329,192,223935,1,0,0:0:0:0:
475,192,223935,1,0,0:0:0:0:
109,192,224010,1,0,0:0:0:0:
256,192,224010,1,0,0:0:0:0:
402,192,224010,1,0,0:0:0:0:
475,192,224085,1,0,0:0:0:0:
329,192,224085,1,0,0:0:0:0:
36,192,224085,1,0,0:0:0:0:
109,192,224160,1,0,0:0:0:0:
256,192,224160,1,0,0:0:0:0:
329,192,224235,1,0,0:0:0:0:
402,192,224235,1,0,0:0:0:0:
475,192,224235,1,0,0:0:0:0:
109,192,224310,1,0,0:0:0:0:
36,192,224310,1,0,0:0:0:0:
256,192,224310,1,0,0:0:0:0:
329,192,224385,1,0,0:0:0:0:
402,192,224385,1,0,0:0:0:0:
475,192,224385,1,0,0:0:0:0:
109,192,224460,1,0,0:0:0:0:
36,192,224460,1,0,0:0:0:0:
256,192,224535,1,0,0:0:0:0:
329,192,224535,1,0,0:0:0:0:
402,192,224535,1,0,0:0:0:0:
475,192,224610,1,0,0:0:0:0:
109,192,224610,1,0,0:0:0:0:
36,192,224610,1,0,0:0:0:0:
256,192,224685,1,0,0:0:0:0:
402,192,224685,1,0,0:0:0:0:
329,192,224760,1,0,0:0:0:0:
109,192,224760,1,0,0:0:0:0:
36,192,224835,1,0,0:0:0:0:
256,192,224835,1,0,0:0:0:0:
402,192,224835,1,0,0:0:0:0:
475,192,224835,1,0,0:0:0:0:
109,192,224910,1,0,0:0:0:0:
182,192,224910,1,0,0:0:0:0:
329,192,224910,1,0,0:0:0:0:
256,192,224985,1,0,0:0:0:0:
36,192,224985,1,0,0:0:0:0:
402,192,225035,1,0,0:0:0:0:
109,192,225060,1,0,0:0:0:0:
182,192,225060,1,0,0:0:0:0:
329,192,225060,1,0,0:0:0:0:
256,192,225135,1,0,0:0:0:0:
36,192,225135,1,0,0:0:0:0:
475,192,225135,1,0,0:0:0:0:
109,192,225210,1,0,0:0:0:0:
329,192,225235,1,0,0:0:0:0:
475,192,225285,1,0,0:0:0:0:
256,192,225285,1,0,0:0:0:0:
182,192,225285,1,0,0:0:0:0:
109,192,225360,1,0,0:0:0:0:
36,192,225360,1,0,0:0:0:0:
256,192,225435,1,0,0:0:0:0:
402,192,225435,1,0,0:0:0:0:
475,192,225435,1,0,0:0:0:0:
36,192,225472,1,0,0:0:0:0:
109,192,225510,1,0,0:0:0:0:
182,192,225547,1,0,0:0:0:0:
256,192,225585,1,0,0:0:0:0:
329,192,225622,1,0,0:0:0:0:
475,192,225660,1,0,0:0:0:0:
182,192,225697,1,0,0:0:0:0:
109,192,225735,1,0,0:0:0:0:
36,192,225772,1,0,0:0:0:0:
329,192,225810,1,0,0:0:0:0:
256,192,225847,1,0,0:0:0:0:
182,192,225885,1,0,0:0:0:0:
109,192,225922,1,0,0:0:0:0:
475,192,225960,1,0,0:0:0:0:
329,192,225997,1,0,0:0:0:0:
256,192,226035,1,0,0:0:0:0:
182,192,226035,1,0,0:0:0:0:
109,192,226035,1,0,0:0:0:0:
36,192,226035,1,0,0:0:0:0:
329,192,226110,1,0,0:0:0:0:
402,192,226110,1,0,0:0:0:0:
475,192,226110,1,0,0:0:0:0:
256,192,226185,1,0,0:0:0:0:
36,192,226185,1,0,0:0:0:0:
329,192,226260,1,0,0:0:0:0:
475,192,226260,1,0,0:0:0:0:
402,192,226335,1,0,0:0:0:0:
256,192,226335,1,0,0:0:0:0:
109,192,226335,1,0,0:0:0:0:
36,192,226335,1,0,0:0:0:0:
329,192,226410,1,0,0:0:0:0:
475,192,226410,1,0,0:0:0:0:
402,192,226485,1,0,0:0:0:0:
256,192,226485,1,0,0:0:0:0:
36,192,226485,1,0,0:0:0:0:
109,192,226560,1,0,0:0:0:0:
329,192,226560,1,0,0:0:0:0:
256,192,226635,1,0,0:0:0:0:
402,192,226635,1,0,0:0:0:0:
475,192,226635,1,0,0:0:0:0:
36,192,226635,1,0,0:0:0:0:
109,192,226710,1,0,0:0:0:0:
329,192,226710,1,0,0:0:0:0:
36,192,226785,1,0,0:0:0:0:
256,192,226785,1,0,0:0:0:0:
475,192,226785,1,0,0:0:0:0:
329,192,226860,1,0,0:0:0:0:
402,192,226860,1,0,0:0:0:0:
475,192,226935,1,0,0:0:0:0:
256,192,226935,1,0,0:0:0:0:
109,192,226935,1,0,0:0:0:0:
36,192,226935,1,0,0:0:0:0:
329,192,227010,1,0,0:0:0:0:
402,192,227010,1,0,0:0:0:0:
475,192,227085,1,0,0:0:0:0:
109,192,227085,1,0,0:0:0:0:
36,192,227085,1,0,0:0:0:0:
256,192,227160,1,0,0:0:0:0:
329,192,227160,1,0,0:0:0:0:
402,192,227235,1,0,0:0:0:0:
475,192,227235,1,0,0:0:0:0:
109,192,227235,1,0,0:0:0:0:
36,192,227235,1,0,0:0:0:0:
182,192,227310,1,0,0:0:0:0:
256,192,227310,1,0,0:0:0:0:
329,192,227310,1,0,0:0:0:0:
402,192,227385,1,0,0:0:0:0:
475,192,227385,1,0,0:0:0:0:
36,192,227385,1,0,0:0:0:0:
182,192,227460,1,0,0:0:0:0:
329,192,227460,1,0,0:0:0:0:
256,192,227535,1,0,0:0:0:0:
402,192,227535,1,0,0:0:0:0:
475,192,227535,1,0,0:0:0:0:
182,192,227610,1,0,0:0:0:0:
36,192,227610,1,0,0:0:0:0:
329,192,227685,1,0,0:0:0:0:
402,192,227685,1,0,0:0:0:0:
475,192,227685,1,0,0:0:0:0:
256,192,227760,1,0,0:0:0:0:
182,192,227760,1,0,0:0:0:0:
109,192,227835,1,0,0:0:0:0:
36,192,227835,1,0,0:0:0:0:
402,192,227835,1,0,0:0:0:0:
475,192,227835,1,0,0:0:0:0:
329,192,227872,1,0,0:0:0:0:
256,192,227910,1,0,0:0:0:0:
182,192,227947,1,0,0:0:0:0:
475,192,227985,1,0,0:0:0:0:
402,192,228022,1,0,0:0:0:0:
329,192,228060,1,0,0:0:0:0:
256,192,228097,1,0,0:0:0:0:
182,192,228135,1,0,0:0:0:0:
475,192,228135,1,0,0:0:0:0:
402,192,228172,1,0,0:0:0:0:
329,192,228210,1,0,0:0:0:0:
36,192,228247,1,0,0:0:0:0:
182,192,228285,1,0,0:0:0:0:
256,192,228322,1,0,0:0:0:0:
329,192,228360,1,0,0:0:0:0:
402,192,228397,1,0,0:0:0:0:
475,192,228435,1,0,0:0:0:0:
182,192,228435,1,0,0:0:0:0:
36,192,228435,1,0,0:0:0:0:
109,192,228510,1,0,0:0:0:0:
256,192,228510,1,0,0:0:0:0:
329,192,228510,1,0,0:0:0:0:
402,192,228585,1,0,0:0:0:0:
475,192,228585,1,0,0:0:0:0:
36,192,228585,1,0,0:0:0:0:
109,192,228660,1,0,0:0:0:0:
256,192,228660,1,0,0:0:0:0:
329,192,228735,1,0,0:0:0:0:
402,192,228735,1,0,0:0:0:0:
475,192,228735,1,0,0:0:0:0:
109,192,228810,1,0,0:0:0:0:
36,192,228810,1,0,0:0:0:0:
256,192,228885,1,0,0:0:0:0:
329,192,228885,1,0,0:0:0:0:
475,192,228885,1,0,0:0:0:0:
109,192,228960,1,0,0:0:0:0:
36,192,228960,1,0,0:0:0:0:
256,192,229035,1,0,0:0:0:0:
402,192,229035,1,0,0:0:0:0:
475,192,229035,1,0,0:0:0:0:
109,192,229110,1,0,0:0:0:0:
36,192,229110,1,0,0:0:0:0:
256,192,229185,1,0,0:0:0:0:
329,192,229185,1,0,0:0:0:0:
475,192,229185,1,0,0:0:0:0:
109,192,229260,1,0,0:0:0:0:
36,192,229260,1,0,0:0:0:0:
329,192,229335,1,0,0:0:0:0:
402,192,229335,1,0,0:0:0:0:
475,192,229335,1,0,0:0:0:0:
36,192,229410,1,0,0:0:0:0:
256,192,229410,1,0,0:0:0:0:
109,192,229485,1,0,0:0:0:0:
329,192,229485,1,0,0:0:0:0:
475,192,229485,1,0,0:0:0:0:
402,192,229560,1,0,0:0:0:0:
256,192,229560,1,0,0:0:0:0:
329,192,229635,1,0,0:0:0:0:
182,192,229635,1,0,0:0:0:0:
109,192,229635,1,0,0:0:0:0:
36,192,229635,1,0,0:0:0:0:
475,192,229635,1,0,0:0:0:0:
256,192,229710,1,0,0:0:0:0:
402,192,229710,1,0,0:0:0:0:
329,192,229785,1,0,0:0:0:0:
36,192,229785,1,0,0:0:0:0:
109,192,229835,1,0,0:0:0:0:
402,192,229860,1,0,0:0:0:0:
256,192,229860,1,0,0:0:0:0:
182,192,229935,1,0,0:0:0:0:
475,192,229935,1,0,0:0:0:0:
256,192,230010,1,0,0:0:0:0:
36,192,230035,1,0,0:0:0:0:
329,192,230035,1,0,0:0:0:0:
182,192,230085,1,0,0:0:0:0:
475,192,230085,1,0,0:0:0:0:
402,192,230160,1,0,0:0:0:0:
256,192,230160,1,0,0:0:0:0:
109,192,230235,1,0,0:0:0:0:
182,192,230235,1,0,0:0:0:0:
475,192,230235,1,0,0:0:0:0:
256,192,230310,1,0,0:0:0:0:
402,192,230310,1,0,0:0:0:0:
109,192,230385,1,0,0:0:0:0:
36,192,230385,1,0,0:0:0:0:
329,192,230460,1,0,0:0:0:0:
402,192,230460,1,0,0:0:0:0:
256,192,230535,1,0,0:0:0:0:
109,192,230535,1,0,0:0:0:0:
329,192,230610,1,0,0:0:0:0:
402,192,230610,1,0,0:0:0:0:
109,192,230685,1,0,0:0:0:0:
36,192,230685,1,0,0:0:0:0:
256,192,230760,1,0,0:0:0:0:
182,192,230835,1,0,0:0:0:0:
109,192,230835,1,0,0:0:0:0:
36,192,230835,1,0,0:0:0:0:
329,192,230835,1,0,0:0:0:0:
402,192,230835,1,0,0:0:0:0:
256,192,230910,1,0,0:0:0:0:
475,192,230910,1,0,0:0:0:0:
329,192,230985,1,0,0:0:0:0:
182,192,230985,1,0,0:0:0:0:
36,192,231060,1,0,0:0:0:0:
256,192,231060,1,0,0:0:0:0:
182,192,231135,1,0,0:0:0:0:
329,192,231135,1,0,0:0:0:0:
475,192,231153,1,0,0:0:0:0:
36,192,231210,1,0,0:0:0:0:
256,192,231285,1,0,0:0:0:0:
329,192,231285,1,0,0:0:0:0:
475,192,231285,1,0,0:0:0:0:
182,192,231360,1,0,0:0:0:0:
36,192,231360,1,0,0:0:0:0:
256,192,231435,1,0,0:0:0:0:
329,192,231435,1,0,0:0:0:0:
475,192,231435,1,0,0:0:0:0:
182,192,231472,1,0,0:0:0:0:
36,192,231510,1,0,0:0:0:0:
329,192,231547,1,0,0:0:0:0:
256,192,231585,1,0,0:0:0:0:
182,192,231622,1,0,0:0:0:0:
475,192,231660,1,0,0:0:0:0:
329,192,231697,1,0,0:0:0:0:
256,192,231735,1,0,0:0:0:0:
36,192,231772,1,0,0:0:0:0:
182,192,231810,1,0,0:0:0:0:
329,192,231847,1,0,0:0:0:0:
475,192,231885,1,0,0:0:0:0:
182,192,231922,1,0,0:0:0:0:
256,192,231960,1,0,0:0:0:0:
329,192,231997,1,0,0:0:0:0:
475,192,232035,1,0,0:0:0:0:
36,192,232072,1,0,0:0:0:0:
182,192,232110,1,0,0:0:0:0:
256,192,232147,1,0,0:0:0:0:
329,192,232185,1,0,0:0:0:0:
475,192,232222,1,0,0:0:0:0:
182,192,232260,1,0,0:0:0:0:
256,192,232297,1,0,0:0:0:0:
329,192,232335,1,0,0:0:0:0:
402,192,232335,1,0,0:0:0:0:
475,192,232335,1,0,0:0:0:0:
109,192,232335,1,0,0:0:0:0:
36,192,232335,1,0,0:0:0:0:
182,192,232410,1,0,0:0:0:0:
256,192,232410,1,0,0:0:0:0:
402,192,232485,1,0,0:0:0:0:
475,192,232485,1,0,0:0:0:0:
329,192,232485,1,0,0:0:0:0:
109,192,232503,1,0,0:0:0:0:
329,192,232560,1,0,0:0:0:0:
402,192,232560,1,0,0:0:0:0:
475,192,232560,1,0,0:0:0:0:
182,192,232560,1,0,0:0:0:0:
109,192,232635,1,0,0:0:0:0:
36,192,232635,1,0,0:0:0:0:
329,192,232635,1,0,0:0:0:0:
402,192,232635,1,0,0:0:0:0:
475,192,232635,1,0,0:0:0:0:
256,192,232672,1,0,0:0:0:0:
182,192,232710,1,0,0:0:0:0:
109,192,232747,1,0,0:0:0:0:
402,192,232785,1,0,0:0:0:0:
329,192,232822,1,0,0:0:0:0:
256,192,232860,1,0,0:0:0:0:
182,192,232897,1,0,0:0:0:0:
475,192,232935,1,0,0:0:0:0:
402,192,232972,1,0,0:0:0:0:
329,192,233010,1,0,0:0:0:0:
256,192,233047,1,0,0:0:0:0:
329,192,233085,1,0,0:0:0:0:
402,192,233122,1,0,0:0:0:0:
475,192,233160,1,0,0:0:0:0:
109,192,233160,1,0,0:0:0:0:
256,192,233197,1,0,0:0:0:0:
402,192,233235,1,0,0:0:0:0:
182,192,233235,1,0,0:0:0:0:
329,192,233235,1,0,0:0:0:0:
109,192,233310,1,0,0:0:0:0:
36,192,233310,1,0,0:0:0:0:
256,192,233385,1,0,0:0:0:0:
402,192,233385,1,0,0:0:0:0:
475,192,233385,1,0,0:0:0:0:
329,192,233460,1,0,0:0:0:0:
109,192,233460,1,0,0:0:0:0:
36,192,233535,1,0,0:0:0:0:
256,192,233535,1,0,0:0:0:0:
402,192,233535,1,0,0:0:0:0:
475,192,233535,1,0,0:0:0:0:
329,192,233610,1,0,0:0:0:0:
109,192,233610,1,0,0:0:0:0:
36,192,233685,1,0,0:0:0:0:
256,192,233685,1,0,0:0:0:0:
475,192,233685,1,0,0:0:0:0:
329,192,233760,1,0,0:0:0:0:
402,192,233760,1,0,0:0:0:0:
109,192,233835,1,0,0:0:0:0:
36,192,233835,1,0,0:0:0:0:
256,192,233835,1,0,0:0:0:0:
475,192,233835,1,0,0:0:0:0:
329,192,233910,1,0,0:0:0:0:
402,192,233910,1,0,0:0:0:0:
475,192,233985,1,0,0:0:0:0:
109,192,233985,1,0,0:0:0:0:
36,192,233985,1,0,0:0:0:0:
329,192,234060,1,0,0:0:0:0:
256,192,234060,1,0,0:0:0:0:
36,192,234135,1,0,0:0:0:0:
109,192,234135,1,0,0:0:0:0:
402,192,234135,1,0,0:0:0:0:
475,192,234135,1,0,0:0:0:0:
256,192,234210,1,0,0:0:0:0:
329,192,234210,1,0,0:0:0:0:
402,192,234285,1,0,0:0:0:0:
475,192,234285,1,0,0:0:0:0:
36,192,234285,1,0,0:0:0:0:
109,192,234360,1,0,0:0:0:0:
256,192,234360,1,0,0:0:0:0:
329,192,234435,1,0,0:0:0:0:
402,192,234435,1,0,0:0:0:0:
475,192,234435,1,0,0:0:0:0:
36,192,234435,1,0,0:0:0:0:
109,192,234510,1,0,0:0:0:0:
256,192,234510,1,0,0:0:0:0:
182,192,234585,1,0,0:0:0:0:
36,192,234585,1,0,0:0:0:0:
475,192,234585,1,0,0:0:0:0:
256,192,234635,1,0,0:0:0:0:
109,192,234660,1,0,0:0:0:0:
329,192,234660,1,0,0:0:0:0:
182,192,234735,1,0,0:0:0:0:
402,192,234735,1,0,0:0:0:0:
475,192,234735,1,0,0:0:0:0:
329,192,234810,1,0,0:0:0:0:
36,192,234810,1,0,0:0:0:0:
109,192,234835,1,0,0:0:0:0:
182,192,234885,1,0,0:0:0:0:
402,192,234885,1,0,0:0:0:0:
475,192,234885,1,0,0:0:0:0:
256,192,234960,1,0,0:0:0:0:
36,192,234960,1,0,0:0:0:0:
329,192,235035,1,0,0:0:0:0:
402,192,235035,1,0,0:0:0:0:
475,192,235035,1,0,0:0:0:0:
182,192,235072,1,0,0:0:0:0:
109,192,235110,1,0,0:0:0:0:
36,192,235147,1,0,0:0:0:0:
256,192,235185,1,0,0:0:0:0:
182,192,235222,1,0,0:0:0:0:
109,192,235260,1,0,0:0:0:0:
402,192,235297,1,0,0:0:0:0:
256,192,235335,1,0,0:0:0:0:
182,192,235372,1,0,0:0:0:0:
475,192,235410,1,0,0:0:0:0:
402,192,235447,1,0,0:0:0:0:
256,192,235485,1,0,0:0:0:0:
182,192,235522,1,0,0:0:0:0:
109,192,235560,1,0,0:0:0:0:
36,192,235597,1,0,0:0:0:0:
182,192,235635,1,0,0:0:0:0:
256,192,235635,1,0,0:0:0:0:
402,192,235635,1,0,0:0:0:0:
475,192,235635,1,0,0:0:0:0:
329,192,235710,1,0,0:0:0:0:
109,192,235710,1,0,0:0:0:0:
402,192,235785,1,0,0:0:0:0:
475,192,235785,1,0,0:0:0:0:
256,192,235860,1,0,0:0:0:0:
36,192,235860,1,0,0:0:0:0:
109,192,235935,1,0,0:0:0:0:
329,192,235935,1,0,0:0:0:0:
402,192,235935,1,0,0:0:0:0:
475,192,235935,1,0,0:0:0:0:
36,192,236010,1,0,0:0:0:0:
256,192,236010,1,0,0:0:0:0:
329,192,236085,1,0,0:0:0:0:
475,192,236085,1,0,0:0:0:0:
256,192,236160,1,0,0:0:0:0:
109,192,236160,1,0,0:0:0:0:
36,192,236235,1,0,0:0:0:0:
329,192,236235,1,0,0:0:0:0:
402,192,236235,1,0,0:0:0:0:
475,192,236235,1,0,0:0:0:0:
109,192,236310,1,0,0:0:0:0:
256,192,236310,1,0,0:0:0:0:
402,192,236385,1,0,0:0:0:0:
475,192,236385,1,0,0:0:0:0:
109,192,236460,1,0,0:0:0:0:
36,192,236460,1,0,0:0:0:0:
256,192,236535,1,0,0:0:0:0:
329,192,236535,1,0,0:0:0:0:
475,192,236535,1,0,0:0:0:0:
402,192,236610,1,0,0:0:0:0:
109,192,236610,1,0,0:0:0:0:
36,192,236610,1,0,0:0:0:0:
329,192,236685,1,0,0:0:0:0:
475,192,236685,1,0,0:0:0:0:
402,192,236760,1,0,0:0:0:0:
256,192,236760,1,0,0:0:0:0:
182,192,236835,1,0,0:0:0:0:
109,192,236835,1,0,0:0:0:0:
36,192,236835,1,0,0:0:0:0:
329,192,236835,1,0,0:0:0:0:
475,192,236835,1,0,0:0:0:0:
402,192,236910,1,0,0:0:0:0:
256,192,236910,1,0,0:0:0:0:
329,192,236985,1,0,0:0:0:0:
36,192,237003,1,0,0:0:0:0:
182,192,237060,1,0,0:0:0:0:
109,192,237060,1,0,0:0:0:0:
36,192,237135,1,0,0:0:0:0:
256,192,237135,1,0,0:0:0:0:
402,192,237135,1,0,0:0:0:0:
475,192,237135,1,0,0:0:0:0:
329,192,237153,1,0,0:0:0:0:
182,192,237210,1,0,0:0:0:0:
109,192,237210,1,0,0:0:0:0:
256,192,237285,1,0,0:0:0:0:
329,192,237285,1,0,0:0:0:0:
402,192,237285,1,0,0:0:0:0:
475,192,237285,1,0,0:0:0:0:
36,192,237285,1,0,0:0:0:0:
182,192,237360,1,0,0:0:0:0:
109,192,237435,1,0,0:0:0:0:
36,192,237435,1,0,0:0:0:0:
329,192,237435,1,0,0:0:0:0:
256,192,237435,1,0,0:0:0:0:
402,192,237435,1,0,0:0:0:0:
475,192,237435,1,0,0:0:0:0:
182,192,237510,1,0,0:0:0:0:
475,192,237585,1,0,0:0:0:0:
402,192,237585,1,0,0:0:0:0:
329,192,237585,1,0,0:0:0:0:
256,192,237585,1,0,0:0:0:0:
36,192,237585,1,0,0:0:0:0:
109,192,237585,1,0,0:0:0:0:
182,192,237660,1,0,0:0:0:0:
256,192,237735,1,0,0:0:0:0:
329,192,237735,1,0,0:0:0:0:
475,192,237735,1,0,0:0:0:0:
402,192,237735,1,0,0:0:0:0:
36,192,237735,1,0,0:0:0:0:
109,192,237735,1,0,0:0:0:0:
182,192,237810,1,0,0:0:0:0:
329,192,237885,1,0,0:0:0:0:
402,192,237885,1,0,0:0:0:0:
475,192,237885,1,0,0:0:0:0:
36,192,237885,1,0,0:0:0:0:
109,192,237885,1,0,0:0:0:0:
256,192,237960,1,0,0:0:0:0:
182,192,237960,1,0,0:0:0:0:
36,192,238035,1,0,0:0:0:0:
329,192,238035,1,0,0:0:0:0:
402,192,238035,1,0,0:0:0:0:
475,192,238035,1,0,0:0:0:0:
109,192,238035,1,0,0:0:0:0:
256,192,238110,1,0,0:0:0:0:
182,192,238110,1,0,0:0:0:0:
329,192,238185,1,0,0:0:0:0:
402,192,238185,1,0,0:0:0:0:
475,192,238185,1,0,0:0:0:0:
36,192,238185,1,0,0:0:0:0:
109,192,238185,1,0,0:0:0:0:
256,192,238260,1,0,0:0:0:0:
182,192,238260,1,0,0:0:0:0:
329,192,238335,1,0,0:0:0:0:
402,192,238335,1,0,0:0:0:0:
475,192,238335,1,0,0:0:0:0:
109,192,238335,1,0,0:0:0:0:
36,192,238335,1,0,0:0:0:0:
256,192,238410,1,0,0:0:0:0:
182,192,238410,1,0,0:0:0:0:
109,192,238485,1,0,0:0:0:0:
36,192,238485,1,0,0:0:0:0:
329,192,238485,1,0,0:0:0:0:
402,192,238485,1,0,0:0:0:0:
475,192,238485,1,0,0:0:0:0:
109,192,238560,1,0,0:0:0:0:
36,192,238560,1,0,0:0:0:0:
329,192,238560,1,0,0:0:0:0:
402,192,238560,1,0,0:0:0:0:
475,192,238560,1,0,0:0:0:0:
109,192,238635,1,0,0:0:0:0:
36,192,238635,1,0,0:0:0:0:
329,192,238635,1,0,0:0:0:0:
402,192,238635,1,0,0:0:0:0:
475,192,238635,1,0,0:0:0:0:
256,192,238710,1,0,0:0:0:0:
182,192,238710,1,0,0:0:0:0:
402,192,238785,1,0,0:0:0:0:
475,192,238785,1,0,0:0:0:0:
329,192,238785,1,0,0:0:0:0:
109,192,238785,1,0,0:0:0:0:
36,192,238785,1,0,0:0:0:0:
256,192,238860,1,0,0:0:0:0:
182,192,238860,1,0,0:0:0:0:
109,192,238935,1,0,0:0:0:0:
36,192,238935,1,0,0:0:0:0:
402,192,238935,1,0,0:0:0:0:
475,192,238935,1,0,0:0:0:0:
329,192,239010,1,0,0:0:0:0:
182,192,239010,1,0,0:0:0:0:
402,192,239085,1,0,0:0:0:0:
475,192,239085,1,0,0:0:0:0:
256,192,239085,1,0,0:0:0:0:
109,192,239085,1,0,0:0:0:0:
36,192,239085,1,0,0:0:0:0:
329,192,239160,1,0,0:0:0:0:
182,192,239160,1,0,0:0:0:0:
256,192,239235,1,0,0:0:0:0:
109,192,239235,1,0,0:0:0:0:
36,192,239235,1,0,0:0:0:0:
402,192,239235,1,0,0:0:0:0:
475,192,239235,1,0,0:0:0:0:
182,192,239310,1,0,0:0:0:0:
329,192,239310,1,0,0:0:0:0:
402,192,239385,1,0,0:0:0:0:
256,192,239385,1,0,0:0:0:0:
109,192,239385,1,0,0:0:0:0:
36,192,239385,1,0,0:0:0:0:
475,192,239385,1,0,0:0:0:0:
329,192,239435,1,0,0:0:0:0:
182,192,239460,1,0,0:0:0:0:
36,192,239535,1,0,0:0:0:0:
109,192,239535,1,0,0:0:0:0:
402,192,239535,1,0,0:0:0:0:
475,192,239535,1,0,0:0:0:0:
329,192,239535,1,0,0:0:0:0:
256,192,239610,1,0,0:0:0:0:
182,192,239635,1,0,0:0:0:0:
109,192,239685,1,0,0:0:0:0:
36,192,239685,1,0,0:0:0:0:
402,192,239685,1,0,0:0:0:0:
475,192,239685,1,0,0:0:0:0:
329,192,239760,1,0,0:0:0:0:
182,192,239760,1,0,0:0:0:0:
402,192,239835,1,0,0:0:0:0:
475,192,239835,1,0,0:0:0:0:
256,192,239835,1,0,0:0:0:0:
109,192,239835,1,0,0:0:0:0:
36,192,239835,1,0,0:0:0:0:
182,192,239910,1,0,0:0:0:0:
329,192,239985,1,0,0:0:0:0:
402,192,239985,1,0,0:0:0:0:
475,192,239985,1,0,0:0:0:0:
109,192,239985,1,0,0:0:0:0:
36,192,239985,1,0,0:0:0:0:
256,192,239985,1,0,0:0:0:0:
182,192,240060,1,0,0:0:0:0:
109,192,240135,1,0,0:0:0:0:
36,192,240135,1,0,0:0:0:0:
402,192,240135,1,0,0:0:0:0:
475,192,240135,1,0,0:0:0:0:
256,192,240135,1,0,0:0:0:0:
329,192,240210,1,0,0:0:0:0:
182,192,240285,1,0,0:0:0:0:
109,192,240285,1,0,0:0:0:0:
36,192,240285,1,0,0:0:0:0:
402,192,240285,1,0,0:0:0:0:
475,192,240285,1,0,0:0:0:0:
256,192,240285,1,0,0:0:0:0:
402,192,240360,1,0,0:0:0:0:
475,192,240360,1,0,0:0:0:0:
182,192,240360,1,0,0:0:0:0:
109,192,240360,1,0,0:0:0:0:
36,192,240360,1,0,0:0:0:0:
36,192,240435,1,0,0:0:0:0:
109,192,240435,1,0,0:0:0:0:
182,192,240435,1,0,0:0:0:0:
402,192,240435,1,0,0:0:0:0:
475,192,240435,1,0,0:0:0:0:
329,192,240472,1,0,0:0:0:0:
256,192,240510,1,0,0:0:0:0:
182,192,240585,1,0,0:0:0:0:
475,192,240585,1,0,0:0:0:0:
256,192,240660,1,0,0:0:0:0:
402,192,240660,1,0,0:0:0:0:
109,192,240660,1,0,0:0:0:0:
36,192,240660,1,0,0:0:0:0:
329,192,240678,1,0,0:0:0:0:
182,192,240735,1,0,0:0:0:0:
475,192,240735,1,0,0:0:0:0:
36,192,240772,1,0,0:0:0:0:
256,192,240810,1,0,0:0:0:0:
402,192,240810,1,0,0:0:0:0:
109,192,240810,1,0,0:0:0:0:
329,192,240847,1,0,0:0:0:0:
36,192,240885,1,0,0:0:0:0:
475,192,240885,1,0,0:0:0:0:
109,192,240903,1,0,0:0:0:0:
182,192,240922,1,0,0:0:0:0:
256,192,240941,1,0,0:0:0:0:
329,192,240960,1,0,0:0:0:0:
402,192,240978,1,0,0:0:0:0:
475,192,241035,1,0,0:0:0:0:
109,192,241035,1,0,0:0:0:0:
36,192,241035,1,0,0:0:0:0:
182,192,241072,1,0,0:0:0:0:
256,192,241110,1,0,0:0:0:0:
329,192,241110,1,0,0:0:0:0:
402,192,241110,1,0,0:0:0:0:
475,192,241147,1,0,0:0:0:0:
109,192,241185,1,0,0:0:0:0:
36,192,241185,1,0,0:0:0:0:
182,192,241185,1,0,0:0:0:0:
256,192,241222,1,0,0:0:0:0:
402,192,241260,1,0,0:0:0:0:
475,192,241260,1,0,0:0:0:0:
329,192,241260,1,0,0:0:0:0:
36,192,241297,1,0,0:0:0:0:
109,192,241297,1,0,0:0:0:0:
182,192,241297,1,0,0:0:0:0:
329,192,241335,1,0,0:0:0:0:
402,192,241335,1,0,0:0:0:0:
475,192,241335,1,0,0:0:0:0:
256,192,241372,1,0,0:0:0:0:
182,192,241410,1,0,0:0:0:0:
109,192,241410,1,0,0:0:0:0:
36,192,241410,1,0,0:0:0:0:
475,192,241447,1,0,0:0:0:0:
402,192,241485,1,0,0:0:0:0:
329,192,241485,1,0,0:0:0:0:
256,192,241485,1,0,0:0:0:0:
182,192,241522,1,0,0:0:0:0:
109,192,241560,1,0,0:0:0:0:
36,192,241560,1,0,0:0:0:0:
475,192,241560,1,0,0:0:0:0:
402,192,241597,1,0,0:0:0:0:
329,192,241635,1,0,0:0:0:0:
182,192,241635,1,0,0:0:0:0:
256,192,241660,1,0,0:0:0:0:
475,192,241691,1,0,0:0:0:0:
36,192,241710,1,0,0:0:0:0:
402,192,241728,1,0,0:0:0:0:
109,192,241735,1,0,0:0:0:0:
329,192,241747,1,0,0:0:0:0:
182,192,241760,1,0,0:0:0:0:
256,192,241785,1,0,0:0:0:0:
36,192,241803,1,0,0:0:0:0:
475,192,241810,1,0,0:0:0:0:
109,192,241822,1,0,0:0:0:0:
402,192,241835,1,0,0:0:0:0:
329,192,241841,1,0,0:0:0:0:
182,192,241860,1,0,0:0:0:0:
256,192,241885,1,0,0:0:0:0:
475,192,241897,1,0,0:0:0:0:
36,192,241916,1,0,0:0:0:0:
402,192,241935,1,0,0:0:0:0:
109,192,241935,1,0,0:0:0:0:
329,192,241953,1,0,0:0:0:0:
182,192,241960,1,0,0:0:0:0:
256,192,241985,1,0,0:0:0:0:
475,192,242010,1,0,0:0:0:0:
36,192,242010,1,0,0:0:0:0:
109,192,242028,1,0,0:0:0:0:
402,192,242035,1,0,0:0:0:0:
329,192,242060,1,0,0:0:0:0:
182,192,242066,1,0,0:0:0:0:
256,192,242085,1,0,0:0:0:0:
475,192,242103,1,0,0:0:0:0:
36,192,242110,1,0,0:0:0:0:
109,192,242135,1,0,0:0:0:0:
402,192,242141,1,0,0:0:0:0:
329,192,242160,1,0,0:0:0:0:
182,192,242178,1,0,0:0:0:0:
256,192,242185,1,0,0:0:0:0:
36,192,242235,1,0,0:0:0:0:
109,192,242235,1,0,0:0:0:0:
402,192,242235,1,0,0:0:0:0:
475,192,242235,1,0,0:0:0:0:
182,192,242235,1,0,0:0:0:0:
329,192,242235,1,0,0:0:0:0:
329,192,243435,1,0,0:0:0:0:
402,192,243435,1,0,0:0:0:0:
475,192,243435,1,0,0:0:0:0:
182,192,244035,1,0,0:0:0:0:
329,192,244035,1,0,0:0:0:0:
109,192,244635,1,0,0:0:0:0:
36,192,244635,1,0,0:0:0:0:
256,192,244635,1,0,0:0:0:0:
402,192,244635,1,0,0:0:0:0:
475,192,244635,1,0,0:0:0:0:
182,192,245835,1,0,0:0:0:0:
256,192,245835,1,0,0:0:0:0:
402,192,245835,1,0,0:0:0:0:
329,192,245835,1,0,0:0:0:0:
475,192,245835,1,0,0:0:0:0:
329,192,246135,1,0,0:0:0:0:
256,192,246135,1,0,0:0:0:0:
182,192,246135,1,0,0:0:0:0:
109,192,246135,1,0,0:0:0:0:
36,192,246135,1,0,0:0:0:0:
36,192,246435,1,0,0:0:0:0:
109,192,246435,1,0,0:0:0:0:
256,192,246435,1,0,0:0:0:0:
182,192,246435,1,0,0:0:0:0:
329,192,246435,1,0,0:0:0:0:
109,192,246635,1,0,0:0:0:0:
182,192,246635,1,0,0:0:0:0:
256,192,246635,1,0,0:0:0:0:
329,192,246635,1,0,0:0:0:0:
402,192,246635,1,0,0:0:0:0:
182,192,246835,1,0,0:0:0:0:
256,192,246835,1,0,0:0:0:0:
402,192,246835,1,0,0:0:0:0:
475,192,246835,1,0,0:0:0:0:
329,192,246835,1,0,0:0:0:0:
182,192,247035,1,0,0:0:0:0:
329,192,247035,1,0,0:0:0:0:
402,192,247035,1,0,0:0:0:0:
256,192,247035,1,0,0:0:0:0:
475,192,247035,1,0,0:0:0:0:
109,192,247635,1,0,0:0:0:0:
182,192,247635,1,0,0:0:0:0:
256,192,247635,1,0,0:0:0:0:
329,192,247635,1,0,0:0:0:0:
402,192,247635,1,0,0:0:0:0:
109,192,248216,1,0,0:0:0:0:
402,192,248216,1,0,0:0:0:0:
36,192,248235,1,0,0:0:0:0:
182,192,248235,1,0,0:0:0:0:
329,192,248235,1,0,0:0:0:0:
475,192,248235,1,0,0:0:0:0:
