osu file format v14

[General]
AudioFilename: audio.mp3
AudioLeadIn: 0
PreviewTime: 153359
Countdown: 0
SampleSet: Normal
StackLeniency: 0.7
Mode: 1
LetterboxInBreaks: 0
WidescreenStoryboard: 1

[Editor]
DistanceSpacing: 1.1
BeatDivisor: 6
GridSize: 4
TimelineZoom: 3.099998

[Metadata]
Title:Blue Zenith
TitleUnicode:Blue Zenith
Artist:xi
ArtistUnicode:xi
Creator:Faputa
Version:Raytoly's Ura Oni
Source:
Tags:osu! featured artist fa mappers' guild mg mpg BlackBq BlackBn Cynp-zy Cynplytholowazy -GN Junior -GN Jr. -GN_Jr. -GN_Junior raytoly rhytoly Parousia 727 electronic instrumental
BeatmapID:2133889
BeatmapSetID:1008969

[Difficulty]
HPDrainRate:5.5
CircleSize:7
OverallDifficulty:6.5
ApproachRate:10
SliderMultiplier:1.4
SliderTickRate:1

[Events]
//Background and Video events
0,0,"70549737_p0.jpg",0,-100
//Break Periods
//Storyboard Layer 0 (Background)
//Storyboard Layer 1 (Fail)
//Storyboard Layer 2 (Pass)
//Storyboard Layer 3 (Foreground)
//Storyboard Layer 4 (Overlay)
//Storyboard Sound Samples

[TimingPoints]
2234,300,4,1,0,100,1,0
2534,-111.111111111111,4,1,0,100,0,0
7034,-100,4,1,0,100,0,0
9734,-105.263157894737,4,1,0,100,0,0
10034,-111.111111111111,4,1,0,100,0,0
10334,-100,4,1,0,100,0,0
11834,-97.5609756097561,4,1,0,100,0,0
30884,-96.6183574879227,4,1,0,100,0,0
30934,-96.1538461538461,4,1,0,100,0,0
30984,-95.6937799043062,4,1,0,100,0,0
31034,-95.2380952380952,4,1,0,100,0,0
50084,-94.3396226415094,4,1,0,100,0,0
50134,-93.8967136150235,4,1,0,100,0,0
50184,-93.4579439252336,4,1,0,100,0,0
50234,-93.0232558139535,4,1,0,100,0,0
64334,-92.5925925925926,4,1,0,100,0,0
64409,-92.1658986175115,4,1,0,100,0,0
64484,-91.743119266055,4,1,0,100,0,0
64559,-91.324200913242,4,1,0,100,0,0
64634,-90.9090909090909,4,1,0,100,0,0
68084,-90.0900900900901,4,1,0,100,0,0
68384,-89.2857142857143,4,1,0,100,0,0
68684,-88.4955752212389,4,1,0,100,0,0
68984,-87.719298245614,4,1,0,100,0,0
69284,-86.9565217391304,4,1,0,100,0,0
70634,-95.2380952380952,4,1,0,100,0,0
71834,-105.263157894737,4,1,0,100,0,0
73034,-117.647058823529,4,1,0,100,0,0
74234,-100,4,1,0,100,0,0
74834,-133.333333333333,4,1,0,100,0,0
82934,-129.032258064516,4,1,0,100,0,0
83234,-125,4,1,0,100,0,0
83534,-121.212121212121,4,1,0,100,0,0
83834,-100,4,1,0,100,0,0
85034,-117.647058823529,4,1,0,100,0,0
93434,-100,4,1,0,100,0,0
95434,-102.564102564103,4,1,0,100,0,0
95634,-105.263157894737,4,1,0,100,0,0
95834,-108.108108108108,4,1,0,100,0,0
96434,-100,4,1,0,100,0,0
100234,-102.564102564103,4,1,0,100,0,0
100434,-105.263157894737,4,1,0,100,0,0
100634,-108.108108108108,4,1,0,100,0,0
101234,-100,4,1,0,100,0,0
102434,-95.2380952380952,4,1,0,100,0,0
102734,-90.9090909090909,4,1,0,100,0,0
102884,-88.8888888888889,4,1,0,100,0,0
103034,-83.3333333333333,4,1,0,100,0,0
110684,-90.9090909090909,4,1,0,100,0,0
111284,-100,4,1,0,100,0,0
114134,-97.5609756097561,4,1,0,100,0,0
114434,-95.2380952380952,4,1,0,100,0,0
114734,-93.0232558139535,4,1,0,100,0,0
115034,-90.9090909090909,4,1,0,100,0,0
134084,-90.0900900900901,4,1,0,100,0,0
134134,-89.6860986547085,4,1,0,100,0,0
134184,-89.2857142857143,4,1,0,100,0,0
134234,-88.8888888888889,4,1,0,100,0,0
148334,-88.4955752212389,4,1,0,100,0,0
148409,-88.1057268722467,4,1,0,100,0,0
148484,-87.719298245614,4,1,0,100,0,0
148559,-87.3362445414847,4,1,0,100,0,0
148634,-86.9565217391304,4,1,0,100,0,0
152084,-86.2068965517241,4,1,0,100,0,0
152134,-85.8369098712446,4,1,0,100,0,0
152184,-85.4700854700855,4,1,0,100,0,0
152234,-85.1063829787234,4,1,0,100,0,0
153284,-84.3881856540084,4,1,0,100,0,0
153334,-84.0336134453781,4,1,0,100,0,0
153384,-83.6820083682008,4,1,0,100,0,0
153434,-83.3333333333333,4,1,0,100,0,1
173834,-111.111111111111,4,1,0,100,0,1
180284,-108.108108108108,4,1,0,100,0,1
180884,-105.263157894737,4,1,0,100,0,1
181484,-102.564102564103,4,1,0,100,0,1
182084,-100,4,1,0,100,0,1
182234,-100,4,1,0,100,0,0
183734,-97.5609756097561,4,1,0,100,0,0
184034,-95.2380952380952,4,1,0,100,0,0
184334,-93.0232558139535,4,1,0,100,0,0
184634,-90.9090909090909,4,1,0,100,0,0
203684,-90.0900900900901,4,1,0,100,0,0
203734,-89.6860986547085,4,1,0,100,0,0
203784,-89.2857142857143,4,1,0,100,0,0
203834,-88.8888888888889,4,1,0,100,0,0
217934,-88.4955752212389,4,1,0,100,0,0
218009,-88.1057268722467,4,1,0,100,0,0
218084,-87.719298245614,4,1,0,100,0,0
218159,-87.3362445414847,4,1,0,100,0,0
218234,-86.9565217391304,4,1,0,100,0,0
221684,-86.2068965517241,4,1,0,100,0,0
221734,-85.8369098712446,4,1,0,100,0,0
221784,-85.4700854700855,4,1,0,100,0,0
221834,-85.1063829787234,4,1,0,100,0,0
222884,-84.3881856540084,4,1,0,100,0,0
222934,-84.0336134453781,4,1,0,100,0,0
222984,-83.6820083682008,4,1,0,100,0,0
223034,-83.3333333333333,4,1,0,100,0,1
243434,-111.111111111111,4,1,0,100,0,1
247634,-117.647058823529,4,1,0,100,0,1
248234,-133.333333333333,4,1,0,100,0,1
253034,-133.333333333333,4,1,0,100,0,0

[HitObjects]
365,169,2234,5,12,0:0:0:0:
365,169,2534,1,0,0:0:0:0:
365,169,2834,1,0,0:0:0:0:
365,169,3134,1,0,0:0:0:0:
365,169,3434,1,0,0:0:0:0:
365,169,3734,1,0,0:0:0:0:
365,169,4034,1,0,0:0:0:0:
365,169,4334,1,0,0:0:0:0:
365,169,4634,1,0,0:0:0:0:
365,169,4934,1,0,0:0:0:0:
365,169,5234,1,0,0:0:0:0:
365,169,5534,1,0,0:0:0:0:
365,169,5834,1,0,0:0:0:0:
365,169,6134,1,0,0:0:0:0:
365,169,6434,1,0,0:0:0:0:
365,169,6734,1,0,0:0:0:0:
261,153,7034,1,12,0:0:0:0:
212,122,7184,1,0,0:0:0:0:
221,120,7259,1,0,0:0:0:0:
221,120,7334,1,8,0:0:0:0:
376,178,7484,1,0,0:0:0:0:
376,178,7634,1,8,0:0:0:0:
373,189,7709,1,0,0:0:0:0:
414,164,7859,1,0,0:0:0:0:
414,164,7934,1,8,0:0:0:0:
414,164,8084,1,0,0:0:0:0:
357,169,8234,1,8,0:0:0:0:
357,169,8309,1,0,0:0:0:0:
356,160,8459,1,0,0:0:0:0:
356,160,8534,1,8,0:0:0:0:
356,160,8684,1,0,0:0:0:0:
356,160,8834,1,8,0:0:0:0:
332,89,8984,1,0,0:0:0:0:
332,89,9059,1,0,0:0:0:0:
332,89,9134,1,8,0:0:0:0:
361,131,9284,1,0,0:0:0:0:
361,131,9434,1,0,0:0:0:0:
415,164,9734,1,0,0:0:0:0:
415,164,10034,1,0,0:0:0:0:
415,164,10334,1,0,0:0:0:0:
415,164,10484,1,0,0:0:0:0:
415,164,10559,1,0,0:0:0:0:
415,164,10634,1,8,0:0:0:0:
141,137,10784,1,0,0:0:0:0:
182,93,10859,1,8,0:0:0:0:
286,35,11009,5,8,0:0:0:0:
286,35,11084,1,8,0:0:0:0:
370,164,11234,1,0,0:0:0:0:
370,164,11384,1,8,0:0:0:0:
370,164,11459,1,8,0:0:0:0:
370,164,11534,1,0,0:0:0:0:
391,173,11609,1,0,0:0:0:0:
391,173,11684,1,8,0:0:0:0:
391,173,11834,1,4,0:0:0:0:
336,139,11984,1,0,0:0:0:0:
336,139,12059,1,8,0:0:0:0:
336,139,12209,1,8,0:0:0:0:
336,139,12284,1,0,0:0:0:0:
411,129,12434,1,8,0:0:0:0:
429,189,12584,1,0,0:0:0:0:
170,131,12659,1,8,0:0:0:0:
429,189,12734,1,0,0:0:0:0:
429,189,12809,1,0,0:0:0:0:
429,189,12884,1,8,0:0:0:0:
386,193,13034,1,0,0:0:0:0:
386,193,13184,1,8,0:0:0:0:
388,182,13259,1,8,0:0:0:0:
378,204,13334,1,0,0:0:0:0:
378,204,13484,1,8,0:0:0:0:
230,86,13559,1,0,0:0:0:0:
384,182,13634,1,0,0:0:0:0:
354,160,13709,1,8,0:0:0:0:
233,124,13859,1,0,0:0:0:0:
293,93,13934,1,8,0:0:0:0:
96,104,14084,1,8,0:0:0:0:
116,101,14234,1,0,0:0:0:0:
141,100,14384,1,0,0:0:0:0:
141,100,14459,1,8,0:0:0:0:
141,100,14609,1,0,0:0:0:0:
423,246,14684,1,8,0:0:0:0:
19,120,14834,1,0,0:0:0:0:
362,191,14984,1,8,0:0:0:0:
362,191,15059,1,8,0:0:0:0:
125,135,15134,1,0,0:0:0:0:
277,139,15284,1,8,0:0:0:0:
181,137,15434,1,0,0:0:0:0:
63,157,15584,1,0,0:0:0:0:
181,137,15659,1,0,0:0:0:0:
82,158,15809,1,8,0:0:0:0:
417,257,15884,1,0,0:0:0:0:
417,257,16034,1,8,0:0:0:0:
417,257,16184,1,0,0:0:0:0:
241,68,16259,1,0,0:0:0:0:
417,257,16334,1,8,0:0:0:0:
417,257,16484,1,0,0:0:0:0:
417,257,16634,1,12,0:0:0:0:
408,96,16784,1,0,0:0:0:0:
408,96,16859,1,0,0:0:0:0:
408,96,16934,1,8,0:0:0:0:
408,96,17084,1,0,0:0:0:0:
408,96,17159,1,0,0:0:0:0:
408,96,17234,1,8,0:0:0:0:
408,96,17309,1,8,0:0:0:0:
128,124,17384,1,0,0:0:0:0:
408,96,17534,1,8,0:0:0:0:
416,200,17684,1,0,0:0:0:0:
368,124,17834,1,12,0:0:0:0:
228,124,17984,1,0,0:0:0:0:
368,120,18059,1,0,0:0:0:0:
368,120,18134,1,8,0:0:0:0:
368,120,18209,1,0,0:0:0:0:
368,120,18284,1,8,0:0:0:0:
368,120,18434,1,0,0:0:0:0:
148,84,18509,1,8,0:0:0:0:
148,84,18584,1,0,0:0:0:0:
148,84,18659,1,0,0:0:0:0:
148,84,18734,1,8,0:0:0:0:
176,112,18884,1,8,0:0:0:0:
156,64,19034,1,4,0:0:0:0:
392,76,19184,1,4,0:0:0:0:
216,80,19334,1,4,0:0:0:0:
392,76,19484,1,4,0:0:0:0:
216,80,19634,1,12,0:0:0:0:
392,76,19784,1,12,0:0:0:0:
216,80,19934,1,12,0:0:0:0:
364,140,20084,1,12,0:0:0:0:
188,96,20234,1,12,0:0:0:0:
224,128,20384,1,0,0:0:0:0:
96,130,20434,1,0,0:0:0:0:
228,124,20484,1,0,0:0:0:0:
228,124,20534,1,8,0:0:0:0:
428,208,20684,1,8,0:0:0:0:
188,172,20734,1,8,0:0:0:0:
428,208,20784,1,8,0:0:0:0:
428,208,20834,1,0,0:0:0:0:
384,120,20984,1,8,0:0:0:0:
384,120,21134,1,0,0:0:0:0:
205,142,21209,1,0,0:0:0:0:
432,184,21284,1,8,0:0:0:0:
91,153,21334,1,8,0:0:0:0:
432,184,21384,1,8,0:0:0:0:
432,184,21434,1,0,0:0:0:0:
324,176,21584,1,0,0:0:0:0:
324,176,21659,1,8,0:0:0:0:
324,176,21809,1,0,0:0:0:0:
324,176,21884,1,8,0:0:0:0:
452,244,21959,1,8,0:0:0:0:
452,244,22034,1,0,0:0:0:0:
404,168,22184,1,8,0:0:0:0:
404,168,22334,1,0,0:0:0:0:
404,168,22409,1,0,0:0:0:0:
404,168,22484,1,8,0:0:0:0:
424,236,22634,1,0,0:0:0:0:
396,192,22784,1,8,0:0:0:0:
340,136,22859,1,0,0:0:0:0:
340,136,23009,1,0,0:0:0:0:
340,136,23084,1,8,0:0:0:0:
408,176,23159,1,8,0:0:0:0:
408,176,23234,1,0,0:0:0:0:
404,184,23384,1,0,0:0:0:0:
396,192,23534,1,8,0:0:0:0:
396,192,23609,1,8,0:0:0:0:
396,192,23684,1,0,0:0:0:0:
396,192,23834,1,8,0:0:0:0:
372,216,23984,1,0,0:0:0:0:
372,216,24059,1,0,0:0:0:0:
372,216,24134,1,8,0:0:0:0:
336,168,24284,1,0,0:0:0:0:
400,212,24359,1,0,0:0:0:0:
400,212,24434,1,8,0:0:0:0:
400,212,24509,1,8,0:0:0:0:
400,212,24584,1,0,0:0:0:0:
400,212,24734,1,8,0:0:0:0:
416,248,24884,1,0,0:0:0:0:
364,80,25034,1,8,0:0:0:0:
416,172,25184,1,0,0:0:0:0:
416,172,25259,1,0,0:0:0:0:
416,172,25334,1,8,0:0:0:0:
400,176,25484,1,0,0:0:0:0:
96,124,25634,1,8,0:0:0:0:
192,88,25709,1,8,0:0:0:0:
400,176,25784,1,8,0:0:0:0:
192,88,25859,1,8,0:0:0:0:
400,176,25934,1,0,0:0:0:0:
120,136,26009,1,0,0:0:0:0:
128,136,26084,1,0,0:0:0:0:
160,136,26234,1,12,0:0:0:0:
392,200,26384,1,0,0:0:0:0:
392,200,26459,1,8,0:0:0:0:
210,125,26609,1,0,0:0:0:0:
392,200,26684,1,8,0:0:0:0:
392,200,26834,1,0,0:0:0:0:
404,216,26984,1,8,0:0:0:0:
404,216,27059,1,8,0:0:0:0:
384,212,27134,1,0,0:0:0:0:
416,232,27209,1,0,0:0:0:0:
416,232,27284,1,8,0:0:0:0:
416,232,27434,1,0,0:0:0:0:
376,224,27584,1,8,0:0:0:0:
376,224,27659,1,0,0:0:0:0:
376,224,27809,1,8,0:0:0:0:
416,236,27884,1,0,0:0:0:0:
420,224,28034,1,8,0:0:0:0:
420,224,28184,1,0,0:0:0:0:
420,224,28259,1,0,0:0:0:0:
420,224,28334,1,8,0:0:0:0:
70,128,28409,1,8,0:0:0:0:
296,96,28484,1,0,0:0:0:0:
444,236,28634,1,8,0:0:0:0:
436,200,28784,1,0,0:0:0:0:
436,200,28859,1,0,0:0:0:0:
436,200,28934,1,8,0:0:0:0:
436,200,29084,1,0,0:0:0:0:
436,200,29159,1,0,0:0:0:0:
436,200,29234,1,8,0:0:0:0:
436,200,29309,1,8,0:0:0:0:
436,200,29384,1,0,0:0:0:0:
436,200,29534,1,8,0:0:0:0:
415,227,29684,1,8,0:0:0:0:
395,170,29834,1,0,0:0:0:0:
52,130,29984,1,8,0:0:0:0:
175,111,30034,1,8,0:0:0:0:
52,130,30084,1,8,0:0:0:0:
154,106,30134,1,0,0:0:0:0:
254,75,30284,1,8,0:0:0:0:
200,93,30334,1,8,0:0:0:0:
183,28,30384,1,8,0:0:0:0:
254,75,30434,1,8,0:0:0:0:
463,110,30509,1,8,0:0:0:0:
463,110,30584,1,0,0:0:0:0:
176,159,30734,1,8,0:0:0:0:
180,159,30884,1,0,0:0:0:0:
446,174,30934,1,0,0:0:0:0:
446,174,30984,1,0,0:0:0:0:
446,174,31034,1,8,0:0:0:0:
164,122,31184,1,0,0:0:0:0:
164,122,31259,1,8,0:0:0:0:
361,140,31409,1,0,0:0:0:0:
361,140,31484,1,8,0:0:0:0:
435,222,31634,1,8,0:0:0:0:
409,145,31784,1,0,0:0:0:0:
280,51,31859,1,8,0:0:0:0:
77,108,31934,1,0,0:0:0:0:
77,108,32009,1,0,0:0:0:0:
77,108,32084,1,8,0:0:0:0:
425,184,32234,1,8,0:0:0:0:
221,106,32384,1,0,0:0:0:0:
386,180,32459,1,8,0:0:0:0:
386,180,32609,1,8,0:0:0:0:
386,160,32684,1,0,0:0:0:0:
386,160,32834,1,8,0:0:0:0:
248,42,32984,1,0,0:0:0:0:
386,160,33059,1,0,0:0:0:0:
248,42,33134,1,8,0:0:0:0:
278,155,33209,1,8,0:0:0:0:
287,154,33284,1,0,0:0:0:0:
286,154,33434,1,8,0:0:0:0:
413,166,33584,1,0,0:0:0:0:
413,166,33659,1,0,0:0:0:0:
413,166,33734,1,8,0:0:0:0:
413,166,33884,1,0,0:0:0:0:
393,189,33959,1,0,0:0:0:0:
393,189,34034,1,8,0:0:0:0:
393,189,34109,1,8,0:0:0:0:
392,185,34184,1,0,0:0:0:0:
392,185,34334,1,8,0:0:0:0:
392,185,34484,1,8,0:0:0:0:
406,178,34634,1,0,0:0:0:0:
406,178,34784,1,8,0:0:0:0:
406,178,34859,1,8,0:0:0:0:
406,178,34934,1,0,0:0:0:0:
421,267,35084,1,8,0:0:0:0:
295,73,35159,5,8,0:0:0:0:
295,73,35234,1,0,0:0:0:0:
295,73,35309,1,8,0:0:0:0:
410,228,35459,1,8,0:0:0:0:
410,228,35534,1,0,0:0:0:0:
394,213,35684,1,0,0:0:0:0:
437,288,35834,1,8,0:0:0:0:
393,189,35984,1,0,0:0:0:0:
393,189,36059,1,8,0:0:0:0:
383,137,36209,1,0,0:0:0:0:
383,137,36284,1,8,0:0:0:0:
411,242,36434,1,0,0:0:0:0:
411,242,36509,1,8,0:0:0:0:
221,103,36584,1,8,0:0:0:0:
411,242,36659,1,8,0:0:0:0:
214,81,36734,1,0,0:0:0:0:
13,135,36884,1,8,0:0:0:0:
13,135,37034,1,0,0:0:0:0:
434,277,37184,1,0,0:0:0:0:
434,277,37259,1,8,0:0:0:0:
434,277,37409,1,0,0:0:0:0:
434,277,37484,1,0,0:0:0:0:
139,110,37634,1,8,0:0:0:0:
125,78,37709,1,8,0:0:0:0:
125,78,37784,1,0,0:0:0:0:
450,217,37859,1,0,0:0:0:0:
450,217,37934,1,8,0:0:0:0:
231,151,38084,1,0,0:0:0:0:
450,217,38234,1,8,0:0:0:0:
206,128,38384,1,0,0:0:0:0:
206,128,38459,1,0,0:0:0:0:
206,128,38534,1,8,0:0:0:0:
206,128,38684,1,0,0:0:0:0:
206,128,38759,1,0,0:0:0:0:
206,128,38834,1,8,0:0:0:0:
206,128,38909,1,8,0:0:0:0:
206,128,38984,1,0,0:0:0:0:
206,128,39134,1,8,0:0:0:0:
200,170,39284,1,8,0:0:0:0:
285,158,39434,1,0,0:0:0:0:
285,158,39584,1,8,0:0:0:0:
290,156,39659,1,8,0:0:0:0:
290,156,39734,1,0,0:0:0:0:
291,156,39884,1,0,0:0:0:0:
265,113,40034,1,8,0:0:0:0:
265,113,40109,1,8,0:0:0:0:
265,113,40184,1,8,0:0:0:0:
265,113,40259,1,8,0:0:0:0:
265,113,40334,1,0,0:0:0:0:
181,151,40409,1,0,0:0:0:0:
265,113,40484,1,0,0:0:0:0:
261,113,40634,1,8,0:0:0:0:
411,211,40784,1,0,0:0:0:0:
411,211,40859,1,0,0:0:0:0:
411,211,40934,1,8,0:0:0:0:
411,211,41084,1,0,0:0:0:0:
411,211,41159,1,8,0:0:0:0:
411,211,41309,1,0,0:0:0:0:
411,211,41384,1,8,0:0:0:0:
411,211,41534,1,0,0:0:0:0:
411,211,41609,1,0,0:0:0:0:
411,211,41684,1,8,0:0:0:0:
231,52,41834,1,0,0:0:0:0:
367,224,41984,1,8,0:0:0:0:
367,224,42059,1,8,0:0:0:0:
367,224,42134,1,0,0:0:0:0:
306,157,42284,1,8,0:0:0:0:
306,157,42359,1,0,0:0:0:0:
306,157,42509,1,8,0:0:0:0:
306,157,42584,1,0,0:0:0:0:
306,157,42734,1,8,0:0:0:0:
151,125,42809,1,8,0:0:0:0:
306,157,42884,1,0,0:0:0:0:
306,157,43034,1,8,0:0:0:0:
376,178,43184,1,0,0:0:0:0:
376,178,43259,1,0,0:0:0:0:
376,178,43334,1,8,0:0:0:0:
376,178,43484,1,0,0:0:0:0:
376,178,43559,1,0,0:0:0:0:
376,178,43634,1,8,0:0:0:0:
376,178,43709,1,8,0:0:0:0:
376,178,43784,1,0,0:0:0:0:
376,178,43934,1,8,0:0:0:0:
376,178,44084,1,8,0:0:0:0:
376,178,44234,1,0,0:0:0:0:
376,178,44384,1,8,0:0:0:0:
376,178,44459,1,8,0:0:0:0:
376,178,44534,1,0,0:0:0:0:
376,178,44684,1,8,0:0:0:0:
376,178,44759,1,8,0:0:0:0:
376,178,44834,1,0,0:0:0:0:
376,178,44909,1,8,0:0:0:0:
376,178,45059,1,8,0:0:0:0:
213,138,45134,1,0,0:0:0:0:
279,134,45284,1,0,0:0:0:0:
376,169,45359,1,0,0:0:0:0:
265,158,45434,1,8,0:0:0:0:
373,167,45584,1,0,0:0:0:0:
373,167,45659,1,8,0:0:0:0:
373,167,45809,1,0,0:0:0:0:
373,167,45884,1,8,0:0:0:0:
373,167,45959,1,8,0:0:0:0:
373,167,46034,1,0,0:0:0:0:
376,169,46184,1,8,0:0:0:0:
376,169,46334,1,0,0:0:0:0:
373,167,46409,1,8,0:0:0:0:
373,167,46484,1,0,0:0:0:0:
373,167,46634,1,0,0:0:0:0:
373,167,46784,1,8,0:0:0:0:
373,167,46859,1,0,0:0:0:0:
373,167,46934,1,8,0:0:0:0:
376,169,47084,1,0,0:0:0:0:
376,169,47234,1,8,0:0:0:0:
381,172,47309,1,8,0:0:0:0:
381,172,47384,1,8,0:0:0:0:
381,172,47459,1,8,0:0:0:0:
381,172,47534,1,0,0:0:0:0:
381,172,47609,1,0,0:0:0:0:
381,172,47684,1,0,0:0:0:0:
381,172,47834,1,8,0:0:0:0:
76,152,47984,1,0,0:0:0:0:
383,182,48059,1,0,0:0:0:0:
82,135,48134,1,8,0:0:0:0:
380,175,48284,1,8,0:0:0:0:
380,175,48359,1,8,0:0:0:0:
386,170,48434,1,0,0:0:0:0:
386,170,48509,1,8,0:0:0:0:
386,170,48584,1,0,0:0:0:0:
386,170,48659,1,0,0:0:0:0:
386,170,48734,1,8,0:0:0:0:
438,243,48809,1,8,0:0:0:0:
438,243,48884,1,0,0:0:0:0:
438,243,48959,1,0,0:0:0:0:
438,243,49034,1,8,0:0:0:0:
464,112,49184,1,0,0:0:0:0:
464,112,49234,1,0,0:0:0:0:
464,112,49284,1,0,0:0:0:0:
464,112,49334,1,8,0:0:0:0:
435,106,49484,1,8,0:0:0:0:
435,106,49534,1,8,0:0:0:0:
435,106,49584,1,8,0:0:0:0:
435,106,49634,1,0,0:0:0:0:
418,119,49784,1,8,0:0:0:0:
418,119,49934,1,0,0:0:0:0:
418,119,50009,1,0,0:0:0:0:
246,103,50084,1,8,0:0:0:0:
246,103,50134,1,8,0:0:0:0:
246,103,50184,1,8,0:0:0:0:
246,103,50234,1,0,0:0:0:0:
267,134,50384,1,0,0:0:0:0:
267,134,50459,1,0,0:0:0:0:
267,134,50534,1,8,0:0:0:0:
391,227,50684,1,0,0:0:0:0:
391,227,50834,1,8,0:0:0:0:
391,227,50909,1,8,0:0:0:0:
391,227,50984,1,0,0:0:0:0:
391,227,51134,1,8,0:0:0:0:
391,227,51209,1,8,0:0:0:0:
391,227,51359,1,0,0:0:0:0:
391,227,51434,1,8,0:0:0:0:
335,160,51584,1,0,0:0:0:0:
335,160,51659,1,0,0:0:0:0:
335,160,51734,1,8,0:0:0:0:
335,160,51884,1,0,0:0:0:0:
335,160,52034,1,8,0:0:0:0:
335,160,52109,1,0,0:0:0:0:
335,160,52184,1,0,0:0:0:0:
129,129,52334,1,8,0:0:0:0:
129,129,52409,1,0,0:0:0:0:
137,94,52559,1,0,0:0:0:0:
137,94,52634,1,8,0:0:0:0:
316,145,52784,1,0,0:0:0:0:
316,145,52859,1,0,0:0:0:0:
316,145,52934,1,8,0:0:0:0:
316,145,53084,1,0,0:0:0:0:
316,145,53159,1,0,0:0:0:0:
316,145,53234,1,8,0:0:0:0:
271,84,53309,1,8,0:0:0:0:
271,84,53384,1,0,0:0:0:0:
261,83,53534,1,8,0:0:0:0:
261,83,53684,1,8,0:0:0:0:
261,83,53834,1,0,0:0:0:0:
328,140,53984,1,8,0:0:0:0:
328,140,54059,1,8,0:0:0:0:
328,140,54134,1,0,0:0:0:0:
328,140,54284,1,0,0:0:0:0:
328,140,54434,1,8,0:0:0:0:
260,69,54509,1,8,0:0:0:0:
328,140,54584,1,8,0:0:0:0:
328,140,54659,1,8,0:0:0:0:
328,140,54734,1,0,0:0:0:0:
338,191,54809,1,0,0:0:0:0:
328,140,54884,1,0,0:0:0:0:
328,140,55034,1,8,0:0:0:0:
119,135,55184,1,0,0:0:0:0:
136,135,55334,1,8,0:0:0:0:
136,135,55409,1,8,0:0:0:0:
136,135,55484,1,0,0:0:0:0:
136,135,55634,1,8,0:0:0:0:
136,135,55709,1,0,0:0:0:0:
136,135,55859,1,0,0:0:0:0:
136,135,55934,1,8,0:0:0:0:
136,135,56084,1,0,0:0:0:0:
136,135,56159,1,0,0:0:0:0:
136,135,56234,1,8,0:0:0:0:
136,135,56384,1,0,0:0:0:0:
136,135,56534,1,8,0:0:0:0:
136,135,56609,1,8,0:0:0:0:
136,135,56684,1,0,0:0:0:0:
136,135,56834,1,8,0:0:0:0:
136,135,56909,1,8,0:0:0:0:
136,135,57059,1,0,0:0:0:0:
136,135,57134,1,8,0:0:0:0:
136,135,57284,1,0,0:0:0:0:
136,135,57359,1,0,0:0:0:0:
136,135,57434,1,8,0:0:0:0:
97,127,57584,1,0,0:0:0:0:
97,127,57659,1,0,0:0:0:0:
97,127,57734,1,8,0:0:0:0:
203,70,57884,1,0,0:0:0:0:
203,70,57959,1,0,0:0:0:0:
203,70,58034,1,8,0:0:0:0:
203,70,58109,1,8,0:0:0:0:
203,70,58184,1,0,0:0:0:0:
203,70,58334,1,8,0:0:0:0:
415,232,58484,1,0,0:0:0:0:
366,184,58634,1,8,0:0:0:0:
362,177,58709,1,8,0:0:0:0:
362,177,58784,1,0,0:0:0:0:
414,222,58934,1,8,0:0:0:0:
414,222,59009,1,8,0:0:0:0:
362,177,59084,1,0,0:0:0:0:
362,177,59159,1,0,0:0:0:0:
414,222,59234,1,8,0:0:0:0:
414,222,59309,1,8,0:0:0:0:
414,222,59384,1,8,0:0:0:0:
414,222,59459,1,8,0:0:0:0:
414,222,59534,1,0,0:0:0:0:
360,176,59609,1,0,0:0:0:0:
418,235,59684,1,0,0:0:0:0:
418,235,59834,1,8,0:0:0:0:
373,153,59984,1,0,0:0:0:0:
373,153,60059,1,8,0:0:0:0:
373,153,60134,1,8,0:0:0:0:
373,153,60209,1,0,0:0:0:0:
373,153,60359,1,0,0:0:0:0:
373,153,60434,1,8,0:0:0:0:
391,202,60584,1,0,0:0:0:0:
391,202,60734,1,8,0:0:0:0:
391,202,60809,1,0,0:0:0:0:
391,202,60884,1,0,0:0:0:0:
391,202,60959,1,8,0:0:0:0:
391,202,61034,1,8,0:0:0:0:
298,108,61184,1,0,0:0:0:0:
298,108,61259,1,8,0:0:0:0:
298,108,61334,1,8,0:0:0:0:
298,108,61409,1,0,0:0:0:0:
298,108,61559,1,0,0:0:0:0:
298,108,61634,1,8,0:0:0:0:
298,108,61784,1,0,0:0:0:0:
298,108,61934,1,8,0:0:0:0:
298,108,62009,1,8,0:0:0:0:
298,108,62084,1,0,0:0:0:0:
298,108,62159,1,0,0:0:0:0:
301,110,62234,1,8,0:0:0:0:
317,187,62384,1,0,0:0:0:0:
317,187,62459,1,0,0:0:0:0:
317,187,62534,1,8,0:0:0:0:
317,182,62684,1,0,0:0:0:0:
317,182,62759,1,0,0:0:0:0:
317,182,62834,1,8,0:0:0:0:
317,182,62909,1,8,0:0:0:0:
317,182,62984,1,0,0:0:0:0:
317,182,63134,1,8,0:0:0:0:
317,182,63284,1,0,0:0:0:0:
317,182,63434,1,8,0:0:0:0:
323,164,63584,1,0,0:0:0:0:
323,164,63659,1,0,0:0:0:0:
323,164,63734,1,0,0:0:0:0:
323,164,63884,1,0,0:0:0:0:
323,164,64034,1,8,0:0:0:0:
295,112,64109,1,8,0:0:0:0:
351,111,64184,1,0,0:0:0:0:
351,111,64259,1,0,0:0:0:0:
351,111,64334,1,8,0:0:0:0:
85,158,64409,1,0,0:0:0:0:
351,111,64484,1,8,0:0:0:0:
208,144,64559,1,0,0:0:0:0:
351,111,64634,1,8,0:0:0:0:
106,117,64784,1,0,0:0:0:0:
158,91,64859,1,0,0:0:0:0:
106,117,64934,1,8,0:0:0:0:
158,91,65084,1,0,0:0:0:0:
158,91,65159,1,0,0:0:0:0:
108,126,65234,1,8,0:0:0:0:
135,97,65384,1,0,0:0:0:0:
135,97,65459,1,0,0:0:0:0:
135,97,65534,1,8,0:0:0:0:
138,86,65684,1,0,0:0:0:0:
138,86,65759,1,0,0:0:0:0:
138,85,65834,1,8,0:0:0:0:
364,160,65984,1,0,0:0:0:0:
406,227,66134,1,8,0:0:0:0:
340,108,66284,1,0,0:0:0:0:
340,108,66359,1,0,0:0:0:0:
340,108,66434,1,8,0:0:0:0:
340,108,66584,1,0,0:0:0:0:
340,108,66659,1,0,0:0:0:0:
340,108,66734,1,8,0:0:0:0:
340,108,66809,1,0,0:0:0:0:
340,108,66884,1,8,0:0:0:0:
138,171,66959,1,8,0:0:0:0:
340,108,67034,1,0,0:0:0:0:
129,131,67184,1,0,0:0:0:0:
134,126,67334,1,8,0:0:0:0:
406,180,67484,1,8,0:0:0:0:
406,180,67559,1,8,0:0:0:0:
406,180,67634,1,0,0:0:0:0:
406,180,67784,1,0,0:0:0:0:
406,180,67934,1,8,0:0:0:0:
229,132,68084,1,8,0:0:0:0:
229,132,68134,1,8,0:0:0:0:
209,133,68184,1,8,0:0:0:0:
406,180,68234,1,0,0:0:0:0:
401,206,68384,1,8,0:0:0:0:
401,206,68434,1,0,0:0:0:0:
401,206,68484,1,0,0:0:0:0:
401,206,68534,1,8,0:0:0:0:
411,198,68684,1,0,0:0:0:0:
411,198,68734,1,8,0:0:0:0:
411,198,68784,1,8,0:0:0:0:
411,198,68834,1,0,0:0:0:0:
409,246,68984,1,0,0:0:0:0:
409,246,69034,1,0,0:0:0:0:
409,246,69084,1,0,0:0:0:0:
409,246,69134,1,8,0:0:0:0:
409,207,69284,1,8,0:0:0:0:
409,207,69334,1,8,0:0:0:0:
409,207,69384,1,8,0:0:0:0:
409,207,69434,1,0,0:0:0:0:
337,112,71834,1,8,0:0:0:0:
256,192,72134,12,0,72734,0:0:0:0:
257,165,74234,5,4,0:0:0:0:
331,200,74834,1,8,0:0:0:0:
418,162,76034,1,8,0:0:0:0:
418,162,76234,1,0,0:0:0:0:
418,162,76434,1,0,0:0:0:0:
423,156,76634,1,8,0:0:0:0:
369,190,77234,1,0,0:0:0:0:
409,207,78434,1,0,0:0:0:0:
409,207,79034,1,0,0:0:0:0:
410,249,79634,1,8,0:0:0:0:
405,138,80834,1,8,0:0:0:0:
405,138,81034,1,0,0:0:0:0:
405,138,81234,1,0,0:0:0:0:
410,145,81434,1,8,0:0:0:0:
93,164,82034,1,8,0:0:0:0:
390,158,82934,1,0,0:0:0:0:
390,158,83234,1,8,0:0:0:0:
390,158,83534,1,0,0:0:0:0:
390,158,83834,1,4,0:0:0:0:
349,169,85034,1,8,0:0:0:0:
349,169,85634,1,0,0:0:0:0:
349,169,86234,1,8,0:0:0:0:
419,140,87434,1,8,0:0:0:0:
419,140,87734,1,0,0:0:0:0:
419,140,88034,1,0,0:0:0:0:
419,140,88234,1,0,0:0:0:0:
425,155,88434,1,8,0:0:0:0:
431,172,88634,1,8,0:0:0:0:
363,168,89234,1,0,0:0:0:0:
426,150,90134,1,0,0:0:0:0:
426,150,90434,1,0,0:0:0:0:
426,150,90734,1,8,0:0:0:0:
426,150,91034,1,8,0:0:0:0:
341,132,91634,1,0,0:0:0:0:
341,132,92234,1,8,0:0:0:0:
341,132,92834,1,8,0:0:0:0:
341,132,93434,1,4,0:0:0:0:
318,195,93584,1,8,0:0:0:0:
319,186,93734,1,0,0:0:0:0:
319,186,93809,1,0,0:0:0:0:
319,186,93884,1,0,0:0:0:0:
319,186,93959,1,0,0:0:0:0:
319,186,94034,1,8,0:0:0:0:
111,96,94184,1,0,0:0:0:0:
117,96,94334,1,8,0:0:0:0:
361,172,94409,1,8,0:0:0:0:
395,198,94484,1,0,0:0:0:0:
124,148,94634,1,8,0:0:0:0:
129,115,94709,1,0,0:0:0:0:
342,177,94859,1,0,0:0:0:0:
226,57,94934,1,8,0:0:0:0:
374,164,95084,1,0,0:0:0:0:
389,164,95234,1,8,0:0:0:0:
389,165,95434,1,0,0:0:0:0:
428,232,95634,1,0,0:0:0:0:
444,267,95834,1,8,0:0:0:0:
343,205,96434,1,0,0:0:0:0:
379,58,96584,1,0,0:0:0:0:
398,80,96734,1,8,0:0:0:0:
357,168,96884,1,0,0:0:0:0:
357,168,96959,1,0,0:0:0:0:
386,197,97034,1,8,0:0:0:0:
386,197,97184,1,0,0:0:0:0:
377,168,97259,1,8,0:0:0:0:
377,168,97409,1,8,0:0:0:0:
340,186,97484,1,0,0:0:0:0:
423,268,97559,1,0,0:0:0:0:
423,268,97634,1,8,0:0:0:0:
357,157,97709,1,8,0:0:0:0:
357,157,97784,1,0,0:0:0:0:
301,113,97934,1,12,0:0:0:0:
301,113,98084,1,12,0:0:0:0:
299,136,98234,1,4,0:0:0:0:
365,171,98384,1,8,0:0:0:0:
364,159,98534,1,0,0:0:0:0:
364,159,98609,1,8,0:0:0:0:
364,159,98684,1,0,0:0:0:0:
364,159,98759,1,0,0:0:0:0:
364,159,98834,1,8,0:0:0:0:
364,159,98984,1,0,0:0:0:0:
364,159,99059,1,8,0:0:0:0:
364,158,99209,1,8,0:0:0:0:
364,158,99284,1,0,0:0:0:0:
364,159,99434,1,8,0:0:0:0:
166,122,99584,1,0,0:0:0:0:
166,122,99659,1,0,0:0:0:0:
391,176,99734,1,8,0:0:0:0:
302,159,99884,1,0,0:0:0:0:
286,109,100034,1,8,0:0:0:0:
286,109,100234,1,0,0:0:0:0:
286,109,100434,1,0,0:0:0:0:
286,109,100634,1,8,0:0:0:0:
281,110,101234,1,8,0:0:0:0:
41,137,101384,1,0,0:0:0:0:
474,158,101534,1,8,0:0:0:0:
474,158,101609,1,8,0:0:0:0:
474,158,101684,1,0,0:0:0:0:
420,253,101834,1,8,0:0:0:0:
430,256,101984,1,0,0:0:0:0:
430,256,102059,1,0,0:0:0:0:
430,256,102134,1,8,0:0:0:0:
368,139,102434,1,8,0:0:0:0:
368,139,102734,1,8,0:0:0:0:
171,175,102884,1,8,0:0:0:0:
400,176,103034,1,4,0:0:0:0:
285,99,104234,1,8,0:0:0:0:
282,99,104834,1,0,0:0:0:0:
226,101,105284,1,0,0:0:0:0:
171,128,105434,1,12,0:0:0:0:
410,216,106484,1,0,0:0:0:0:
410,216,106634,1,12,0:0:0:0:
369,144,106934,1,0,0:0:0:0:
369,144,107234,1,0,0:0:0:0:
369,144,107434,1,8,0:0:0:0:
478,68,107634,1,8,0:0:0:0:
251,140,107834,1,12,0:0:0:0:
234,132,108434,1,0,0:0:0:0:
226,133,108884,1,0,0:0:0:0:
226,133,109034,1,12,0:0:0:0:
242,146,109334,1,0,0:0:0:0:
242,146,109634,1,8,0:0:0:0:
242,146,109934,1,8,0:0:0:0:
156,112,110084,1,0,0:0:0:0:
179,159,110234,1,12,0:0:0:0:
163,148,110384,1,0,0:0:0:0:
419,261,110684,1,0,0:0:0:0:
419,261,110834,1,12,0:0:0:0:
411,272,110984,1,0,0:0:0:0:
423,218,111284,1,0,0:0:0:0:
423,218,111434,1,12,0:0:0:0:
401,254,111584,1,0,0:0:0:0:
263,77,111734,1,8,0:0:0:0:
263,77,111884,1,8,0:0:0:0:
263,77,112034,1,0,0:0:0:0:
263,77,112109,1,0,0:0:0:0:
263,77,112184,1,0,0:0:0:0:
263,77,112259,1,0,0:0:0:0:
263,77,112334,1,8,0:0:0:0:
239,108,112484,1,8,0:0:0:0:
195,164,112634,1,4,0:0:0:0:
338,160,112784,1,0,0:0:0:0:
338,160,112934,1,0,0:0:0:0:
338,160,113084,1,0,0:0:0:0:
338,160,113234,1,8,0:0:0:0:
338,160,113384,1,8,0:0:0:0:
338,160,113534,1,8,0:0:0:0:
338,160,113684,1,8,0:0:0:0:
338,160,113834,1,12,0:0:0:0:
312,116,114134,1,4,0:0:0:0:
312,116,114434,1,12,0:0:0:0:
312,116,114734,1,12,0:0:0:0:
216,136,115034,1,4,0:0:0:0:
322,93,115184,1,0,0:0:0:0:
322,93,115259,1,0,0:0:0:0:
322,93,115334,1,8,0:0:0:0:
322,93,115484,1,8,0:0:0:0:
322,93,115559,1,0,0:0:0:0:
322,93,115709,1,8,0:0:0:0:
322,93,115784,1,0,0:0:0:0:
322,93,115934,1,8,0:0:0:0:
322,93,116009,1,8,0:0:0:0:
322,93,116084,1,0,0:0:0:0:
322,93,116234,1,8,0:0:0:0:
322,93,116384,1,0,0:0:0:0:
322,93,116459,1,0,0:0:0:0:
322,93,116534,1,8,0:0:0:0:
322,93,116684,1,0,0:0:0:0:
322,93,116759,1,8,0:0:0:0:
322,93,116909,1,8,0:0:0:0:
322,93,116984,1,0,0:0:0:0:
322,93,117134,1,8,0:0:0:0:
322,93,117209,1,0,0:0:0:0:
322,93,117284,1,0,0:0:0:0:
322,93,117359,1,8,0:0:0:0:
322,93,117434,1,0,0:0:0:0:
380,132,117584,1,8,0:0:0:0:
303,53,117734,1,0,0:0:0:0:
303,53,117809,1,8,0:0:0:0:
303,53,117884,1,8,0:0:0:0:
303,53,118034,1,0,0:0:0:0:
303,53,118109,1,0,0:0:0:0:
303,53,118259,1,8,0:0:0:0:
303,53,118334,1,0,0:0:0:0:
303,53,118484,1,8,0:0:0:0:
303,53,118634,1,0,0:0:0:0:
120,122,118784,1,8,0:0:0:0:
120,122,118859,1,8,0:0:0:0:
120,122,118934,1,0,0:0:0:0:
131,116,119084,1,8,0:0:0:0:
131,116,119159,1,0,0:0:0:0:
131,116,119309,1,0,0:0:0:0:
236,102,119384,1,8,0:0:0:0:
233,83,119534,1,0,0:0:0:0:
233,83,119609,1,8,0:0:0:0:
233,83,119684,1,0,0:0:0:0:
256,118,119759,1,0,0:0:0:0:
233,83,119834,1,8,0:0:0:0:
390,151,119984,1,0,0:0:0:0:
390,151,120059,1,0,0:0:0:0:
390,151,120134,1,8,0:0:0:0:
355,149,120284,1,0,0:0:0:0:
355,149,120359,1,8,0:0:0:0:
355,149,120509,1,0,0:0:0:0:
355,149,120584,1,8,0:0:0:0:
355,149,120659,1,8,0:0:0:0:
355,149,120734,1,0,0:0:0:0:
380,192,120884,1,8,0:0:0:0:
269,93,121034,1,0,0:0:0:0:
72,118,121184,1,0,0:0:0:0:
72,118,121259,1,0,0:0:0:0:
72,118,121334,1,8,0:0:0:0:
102,110,121484,1,8,0:0:0:0:
102,110,121559,1,0,0:0:0:0:
102,110,121709,1,8,0:0:0:0:
102,110,121784,1,0,0:0:0:0:
102,110,121859,1,0,0:0:0:0:
102,110,121934,1,8,0:0:0:0:
102,110,122009,1,8,0:0:0:0:
102,110,122084,1,0,0:0:0:0:
102,110,122234,1,8,0:0:0:0:
361,169,122384,1,0,0:0:0:0:
361,169,122459,1,0,0:0:0:0:
361,169,122534,1,8,0:0:0:0:
356,144,122684,1,0,0:0:0:0:
356,144,122759,1,8,0:0:0:0:
356,144,122834,1,8,0:0:0:0:
356,144,122909,1,0,0:0:0:0:
356,144,123059,1,8,0:0:0:0:
346,140,123134,1,0,0:0:0:0:
346,140,123284,1,8,0:0:0:0:
346,140,123434,1,0,0:0:0:0:
366,167,123584,1,8,0:0:0:0:
366,167,123659,1,8,0:0:0:0:
366,167,123734,1,0,0:0:0:0:
192,92,123884,1,8,0:0:0:0:
421,230,123959,1,0,0:0:0:0:
421,230,124034,1,0,0:0:0:0:
421,230,124109,1,8,0:0:0:0:
264,92,124259,1,8,0:0:0:0:
421,230,124334,1,0,0:0:0:0:
421,230,124409,1,0,0:0:0:0:
174,112,124484,1,8,0:0:0:0:
421,230,124559,1,0,0:0:0:0:
421,230,124634,1,8,0:0:0:0:
404,221,124784,1,0,0:0:0:0:
404,221,124934,1,8,0:0:0:0:
404,221,125009,1,8,0:0:0:0:
404,221,125084,1,0,0:0:0:0:
376,172,125234,1,0,0:0:0:0:
376,172,125309,1,8,0:0:0:0:
376,172,125384,1,8,0:0:0:0:
376,172,125459,1,0,0:0:0:0:
376,172,125609,1,0,0:0:0:0:
376,172,125684,1,8,0:0:0:0:
118,114,125834,1,0,0:0:0:0:
175,139,125984,1,0,0:0:0:0:
175,139,126059,1,0,0:0:0:0:
175,139,126134,1,8,0:0:0:0:
175,139,126284,1,8,0:0:0:0:
175,139,126359,1,0,0:0:0:0:
175,139,126434,1,0,0:0:0:0:
175,139,126509,1,8,0:0:0:0:
175,139,126659,1,8,0:0:0:0:
175,139,126734,1,0,0:0:0:0:
175,139,126884,1,8,0:0:0:0:
175,139,127034,1,8,0:0:0:0:
327,141,127184,1,0,0:0:0:0:
327,141,127259,1,8,0:0:0:0:
327,141,127334,1,8,0:0:0:0:
327,141,127484,1,0,0:0:0:0:
322,136,127559,1,8,0:0:0:0:
322,136,127634,1,8,0:0:0:0:
322,136,127709,1,8,0:0:0:0:
322,136,127859,1,0,0:0:0:0:
322,136,127934,1,8,0:0:0:0:
35,137,128084,1,0,0:0:0:0:
43,137,128159,1,0,0:0:0:0:
43,137,128234,1,8,0:0:0:0:
403,248,128384,1,0,0:0:0:0:
403,248,128459,1,0,0:0:0:0:
403,248,128534,1,8,0:0:0:0:
163,175,128609,1,8,0:0:0:0:
403,248,128684,1,0,0:0:0:0:
403,248,128834,1,8,0:0:0:0:
355,167,128984,1,0,0:0:0:0:
355,167,129059,1,0,0:0:0:0:
355,167,129134,1,8,0:0:0:0:
355,167,129209,1,8,0:0:0:0:
355,167,129284,1,8,0:0:0:0:
159,55,129359,1,8,0:0:0:0:
355,167,129434,1,0,0:0:0:0:
355,144,129584,1,8,0:0:0:0:
355,144,129659,1,8,0:0:0:0:
398,190,129734,1,0,0:0:0:0:
371,190,129884,1,8,0:0:0:0:
371,190,129959,1,8,0:0:0:0:
371,190,130034,1,0,0:0:0:0:
371,190,130109,1,8,0:0:0:0:
229,41,130259,1,8,0:0:0:0:
229,41,130334,1,0,0:0:0:0:
394,178,130484,1,8,0:0:0:0:
375,188,130634,1,0,0:0:0:0:
375,188,130784,1,8,0:0:0:0:
375,188,130859,1,8,0:0:0:0:
375,188,130934,1,0,0:0:0:0:
375,188,131084,1,0,0:0:0:0:
375,188,131159,1,0,0:0:0:0:
375,188,131234,1,8,0:0:0:0:
375,188,131309,1,8,0:0:0:0:
258,71,131459,1,0,0:0:0:0:
258,71,131534,1,8,0:0:0:0:
402,215,131684,1,0,0:0:0:0:
402,215,131759,1,0,0:0:0:0:
402,215,131834,1,8,0:0:0:0:
385,194,131984,1,0,0:0:0:0:
385,194,132134,1,8,0:0:0:0:
385,194,132284,1,0,0:0:0:0:
385,194,132359,1,0,0:0:0:0:
385,194,132434,1,8,0:0:0:0:
260,124,132584,1,0,0:0:0:0:
260,124,132734,1,8,0:0:0:0:
224,98,132809,1,8,0:0:0:0:
253,138,132884,1,0,0:0:0:0:
253,138,132959,1,0,0:0:0:0:
222,138,133034,1,8,0:0:0:0:
441,199,133184,1,0,0:0:0:0:
441,199,133334,1,8,0:0:0:0:
441,199,133484,1,8,0:0:0:0:
441,199,133559,1,8,0:0:0:0:
441,199,133634,1,0,0:0:0:0:
399,163,133784,1,8,0:0:0:0:
399,163,133834,1,8,0:0:0:0:
399,163,133884,1,8,0:0:0:0:
399,163,133934,1,0,0:0:0:0:
407,185,134084,1,0,0:0:0:0:
407,185,134134,1,0,0:0:0:0:
407,185,134184,1,0,0:0:0:0:
407,185,134234,1,8,0:0:0:0:
393,221,134384,1,0,0:0:0:0:
393,221,134459,1,8,0:0:0:0:
393,221,134534,1,8,0:0:0:0:
393,221,134684,1,0,0:0:0:0:
393,221,134759,1,8,0:0:0:0:
393,221,134834,1,8,0:0:0:0:
393,221,134984,1,0,0:0:0:0:
393,212,135134,1,8,0:0:0:0:
393,212,135209,1,8,0:0:0:0:
393,212,135284,1,0,0:0:0:0:
393,212,135359,1,0,0:0:0:0:
393,212,135434,1,8,0:0:0:0:
367,197,135584,1,0,0:0:0:0:
355,159,135734,1,8,0:0:0:0:
355,159,135809,1,8,0:0:0:0:
355,159,135884,1,0,0:0:0:0:
350,144,136034,1,8,0:0:0:0:
350,144,136109,1,8,0:0:0:0:
196,78,136184,1,0,0:0:0:0:
189,124,136334,1,8,0:0:0:0:
183,108,136409,1,0,0:0:0:0:
235,118,136484,1,8,0:0:0:0:
235,118,136559,1,8,0:0:0:0:
235,118,136634,1,0,0:0:0:0:
398,243,136784,1,0,0:0:0:0:
398,243,136934,1,8,0:0:0:0:
326,98,137009,1,0,0:0:0:0:
326,98,137084,1,8,0:0:0:0:
325,142,137234,1,0,0:0:0:0:
325,142,137309,1,8,0:0:0:0:
325,142,137384,1,0,0:0:0:0:
325,142,137459,1,0,0:0:0:0:
325,142,137534,1,8,0:0:0:0:
325,142,137609,1,8,0:0:0:0:
325,142,137684,1,0,0:0:0:0:
325,142,137834,1,8,0:0:0:0:
198,110,137984,1,0,0:0:0:0:
198,110,138134,1,8,0:0:0:0:
431,264,138209,1,8,0:0:0:0:
431,264,138284,1,0,0:0:0:0:
431,264,138359,1,0,0:0:0:0:
431,264,138434,1,8,0:0:0:0:
219,115,138584,1,8,0:0:0:0:
219,115,138734,1,0,0:0:0:0:
219,115,138809,1,0,0:0:0:0:
219,115,138884,1,8,0:0:0:0:
219,115,138959,1,0,0:0:0:0:
215,115,139034,1,8,0:0:0:0:
408,241,139184,1,0,0:0:0:0:
408,241,139259,1,0,0:0:0:0:
408,241,139334,1,8,0:0:0:0:
405,230,139484,1,0,0:0:0:0:
256,60,139559,1,8,0:0:0:0:
400,202,139634,1,8,0:0:0:0:
400,202,139709,1,0,0:0:0:0:
400,202,139859,1,8,0:0:0:0:
404,222,139934,1,8,0:0:0:0:
404,222,140084,1,0,0:0:0:0:
404,222,140234,1,8,0:0:0:0:
196,125,140384,1,0,0:0:0:0:
179,150,140459,1,0,0:0:0:0:
179,150,140534,1,8,0:0:0:0:
272,65,140684,1,0,0:0:0:0:
272,65,140759,1,0,0:0:0:0:
272,65,140834,1,8,0:0:0:0:
272,65,140909,1,0,0:0:0:0:
300,78,141059,5,8,0:0:0:0:
300,78,141134,1,0,0:0:0:0:
300,78,141284,1,8,0:0:0:0:
300,78,141434,1,0,0:0:0:0:
101,157,141584,1,8,0:0:0:0:
121,161,141659,1,8,0:0:0:0:
121,161,141734,1,0,0:0:0:0:
132,146,141884,1,8,0:0:0:0:
234,88,142034,1,0,0:0:0:0:
234,88,142109,1,0,0:0:0:0:
234,88,142184,1,8,0:0:0:0:
232,81,142334,1,0,0:0:0:0:
232,81,142409,1,8,0:0:0:0:
232,81,142484,1,8,0:0:0:0:
232,81,142559,1,0,0:0:0:0:
232,81,142634,1,8,0:0:0:0:
132,131,142784,1,0,0:0:0:0:
132,131,142859,1,8,0:0:0:0:
132,131,142934,1,8,0:0:0:0:
132,131,143084,1,0,0:0:0:0:
135,110,143234,1,8,0:0:0:0:
135,110,143309,1,0,0:0:0:0:
135,110,143384,1,0,0:0:0:0:
135,110,143459,1,8,0:0:0:0:
135,110,143534,1,8,0:0:0:0:
135,110,143684,1,0,0:0:0:0:
310,158,143759,1,0,0:0:0:0:
135,110,143834,1,8,0:0:0:0:
376,122,143984,1,0,0:0:0:0:
376,122,144059,1,0,0:0:0:0:
376,122,144134,1,0,0:0:0:0:
426,236,144284,1,0,0:0:0:0:
389,171,144434,1,8,0:0:0:0:
389,171,144584,1,0,0:0:0:0:
389,171,144659,1,8,0:0:0:0:
389,171,144734,1,0,0:0:0:0:
389,171,144884,1,0,0:0:0:0:
389,171,145034,1,8,0:0:0:0:
172,143,145184,1,0,0:0:0:0:
197,142,145259,1,0,0:0:0:0:
197,142,145334,1,8,0:0:0:0:
197,142,145409,1,0,0:0:0:0:
197,142,145484,1,8,0:0:0:0:
197,142,145634,1,0,0:0:0:0:
202,112,145784,1,8,0:0:0:0:
202,112,145859,1,8,0:0:0:0:
202,112,145934,1,0,0:0:0:0:
202,112,146009,1,8,0:0:0:0:
202,112,146084,1,0,0:0:0:0:
202,112,146159,1,0,0:0:0:0:
202,112,146234,1,8,0:0:0:0:
275,138,146384,1,0,0:0:0:0:
275,138,146459,1,0,0:0:0:0:
275,138,146534,1,8,0:0:0:0:
275,138,146609,1,0,0:0:0:0:
275,138,146684,1,8,0:0:0:0:
275,138,146834,1,0,0:0:0:0:
200,125,146984,1,8,0:0:0:0:
200,125,147059,1,8,0:0:0:0:
200,125,147134,1,0,0:0:0:0:
193,105,147209,1,0,0:0:0:0:
200,125,147284,1,8,0:0:0:0:
193,105,147434,1,8,0:0:0:0:
251,136,147509,1,0,0:0:0:0:
251,136,147584,1,8,0:0:0:0:
440,263,147734,1,0,0:0:0:0:
366,196,147884,1,8,0:0:0:0:
275,132,147959,1,8,0:0:0:0:
275,132,148034,1,0,0:0:0:0:
231,139,148184,1,8,0:0:0:0:
231,139,148334,1,0,0:0:0:0:
315,78,148409,1,0,0:0:0:0:
231,139,148484,1,8,0:0:0:0:
231,139,148559,1,8,0:0:0:0:
231,139,148634,1,0,0:0:0:0:
360,179,148784,1,0,0:0:0:0:
231,36,148859,1,0,0:0:0:0:
346,146,148934,1,8,0:0:0:0:
346,146,149084,1,8,0:0:0:0:
346,146,149234,1,0,0:0:0:0:
346,146,149384,1,8,0:0:0:0:
294,53,149534,1,0,0:0:0:0:
346,146,149684,1,8,0:0:0:0:
387,183,149759,1,8,0:0:0:0:
346,146,149834,1,0,0:0:0:0:
142,75,149984,1,0,0:0:0:0:
213,63,150134,1,8,0:0:0:0:
213,63,150284,1,8,0:0:0:0:
213,63,150359,1,0,0:0:0:0:
213,63,150434,1,0,0:0:0:0:
315,138,150509,1,0,0:0:0:0:
315,138,150584,1,8,0:0:0:0:
213,63,150734,1,0,0:0:0:0:
213,63,150884,1,8,0:0:0:0:
147,154,150934,1,8,0:0:0:0:
213,63,150984,1,8,0:0:0:0:
213,63,151034,1,0,0:0:0:0:
327,187,151184,1,0,0:0:0:0:
374,169,151334,1,8,0:0:0:0:
268,113,151484,1,0,0:0:0:0:
268,113,151534,1,0,0:0:0:0:
268,113,151584,1,0,0:0:0:0:
268,113,151634,1,8,0:0:0:0:
386,209,151784,1,8,0:0:0:0:
386,209,151934,1,0,0:0:0:0:
311,71,152084,5,8,0:0:0:0:
223,127,152134,1,8,0:0:0:0:
311,71,152184,1,0,0:0:0:0:
311,71,152234,1,0,0:0:0:0:
417,112,152384,1,8,0:0:0:0:
167,105,152434,1,8,0:0:0:0:
417,112,152484,1,8,0:0:0:0:
417,112,152534,1,0,0:0:0:0:
121,74,152684,1,8,0:0:0:0:
190,42,152734,1,8,0:0:0:0:
417,112,152784,1,8,0:0:0:0:
417,112,152834,1,8,0:0:0:0:
386,88,152984,1,8,0:0:0:0:
417,112,153134,1,0,0:0:0:0:
417,112,153209,1,0,0:0:0:0:
417,112,153284,1,8,0:0:0:0:
56,149,153334,1,8,0:0:0:0:
417,112,153384,1,8,0:0:0:0:
417,112,153434,1,0,0:0:0:0:
253,81,153584,1,8,0:0:0:0:
253,81,153659,1,8,0:0:0:0:
253,81,153734,1,0,0:0:0:0:
345,141,153884,1,8,0:0:0:0:
345,141,153959,1,0,0:0:0:0:
345,141,154034,1,8,0:0:0:0:
345,141,154109,1,8,0:0:0:0:
168,137,154184,1,0,0:0:0:0:
62,104,154259,1,0,0:0:0:0:
299,157,154334,1,8,0:0:0:0:
371,140,154409,1,0,0:0:0:0:
241,144,154484,5,8,0:0:0:0:
371,140,154634,1,8,0:0:0:0:
206,131,154709,1,8,0:0:0:0:
129,142,154784,1,8,0:0:0:0:
411,222,154859,1,0,0:0:0:0:
411,222,154934,1,0,0:0:0:0:
411,222,155009,1,8,0:0:0:0:
163,103,155084,1,0,0:0:0:0:
310,29,155234,1,8,0:0:0:0:
310,29,155309,1,0,0:0:0:0:
310,29,155384,1,0,0:0:0:0:
310,29,155459,1,8,0:0:0:0:
254,179,155534,1,0,0:0:0:0:
310,29,155609,1,0,0:0:0:0:
310,29,155684,1,8,0:0:0:0:
258,179,155759,1,0,0:0:0:0:
310,29,155834,1,8,0:0:0:0:
235,126,155909,1,8,0:0:0:0:
311,106,155984,1,8,0:0:0:0:
316,106,156059,1,8,0:0:0:0:
247,124,156134,1,0,0:0:0:0:
399,124,156284,5,8,0:0:0:0:
200,110,156359,1,0,0:0:0:0:
399,124,156434,1,8,0:0:0:0:
407,198,156509,1,0,0:0:0:0:
125,142,156584,1,0,0:0:0:0:
395,185,156659,1,8,0:0:0:0:
395,185,156734,1,0,0:0:0:0:
395,185,156884,1,8,0:0:0:0:
225,166,156959,1,0,0:0:0:0:
395,185,157034,1,8,0:0:0:0:
411,204,157109,1,8,0:0:0:0:
411,204,157184,1,0,0:0:0:0:
411,204,157259,1,8,0:0:0:0:
410,181,157334,1,0,0:0:0:0:
310,147,157409,1,0,0:0:0:0:
410,181,157484,1,8,0:0:0:0:
49,124,157559,1,8,0:0:0:0:
395,146,157634,1,0,0:0:0:0:
308,121,157709,1,0,0:0:0:0:
395,146,157784,1,0,0:0:0:0:
322,122,157859,1,0,0:0:0:0:
425,114,157934,1,8,0:0:0:0:
425,114,158084,1,0,0:0:0:0:
425,114,158159,1,0,0:0:0:0:
425,114,158234,1,8,0:0:0:0:
199,93,158384,1,0,0:0:0:0:
416,172,158459,1,0,0:0:0:0:
226,24,158534,1,8,0:0:0:0:
416,172,158609,1,0,0:0:0:0:
416,172,158684,1,0,0:0:0:0:
416,172,158834,1,8,0:0:0:0:
410,169,158909,1,0,0:0:0:0:
158,104,158984,1,0,0:0:0:0:
410,169,159059,1,8,0:0:0:0:
410,169,159134,1,0,0:0:0:0:
410,169,159209,1,0,0:0:0:0:
410,169,159284,1,8,0:0:0:0:
382,130,159434,1,0,0:0:0:0:
168,142,159509,1,0,0:0:0:0:
382,130,159584,1,0,0:0:0:0:
382,130,159659,1,8,0:0:0:0:
124,125,159734,1,8,0:0:0:0:
157,114,159809,1,8,0:0:0:0:
191,123,159884,1,0,0:0:0:0:
157,114,160034,1,8,0:0:0:0:
121,161,160109,1,8,0:0:0:0:
121,161,160184,1,0,0:0:0:0:
373,145,160259,1,8,0:0:0:0:
373,145,160334,1,0,0:0:0:0:
121,161,160409,1,0,0:0:0:0:
402,137,160484,1,8,0:0:0:0:
286,147,160559,1,0,0:0:0:0:
408,241,160634,1,8,0:0:0:0:
408,241,160709,1,8,0:0:0:0:
299,146,160784,1,8,0:0:0:0:
389,162,160859,1,0,0:0:0:0:
389,162,160934,1,8,0:0:0:0:
435,270,161084,1,0,0:0:0:0:
435,270,161159,1,0,0:0:0:0:
437,249,161234,1,8,0:0:0:0:
417,133,161309,1,8,0:0:0:0:
417,133,161384,1,8,0:0:0:0:
417,133,161459,1,8,0:0:0:0:
417,133,161534,1,0,0:0:0:0:
102,108,161684,1,8,0:0:0:0:
474,266,161759,1,0,0:0:0:0:
121,96,161834,1,8,0:0:0:0:
361,142,161909,1,8,0:0:0:0:
361,142,161984,1,0,0:0:0:0:
361,142,162059,1,0,0:0:0:0:
361,142,162134,1,8,0:0:0:0:
416,201,162209,1,8,0:0:0:0:
257,86,162284,1,0,0:0:0:0:
416,201,162359,1,8,0:0:0:0:
416,201,162434,1,0,0:0:0:0:
186,104,162509,1,0,0:0:0:0:
188,162,162584,1,8,0:0:0:0:
425,195,162734,1,0,0:0:0:0:
425,195,162809,1,0,0:0:0:0:
425,195,162884,1,0,0:0:0:0:
425,195,162959,1,0,0:0:0:0:
425,195,163034,1,12,0:0:0:0:
370,156,163184,1,0,0:0:0:0:
370,156,163259,1,0,0:0:0:0:
370,156,163334,1,8,0:0:0:0:
214,103,163484,1,0,0:0:0:0:
427,274,163559,1,8,0:0:0:0:
423,230,163634,1,8,0:0:0:0:
393,244,163709,1,0,0:0:0:0:
179,151,163784,1,8,0:0:0:0:
423,230,163859,1,8,0:0:0:0:
393,244,163934,1,0,0:0:0:0:
393,244,164009,1,0,0:0:0:0:
393,244,164084,1,8,0:0:0:0:
353,141,164234,1,0,0:0:0:0:
353,141,164309,1,8,0:0:0:0:
353,141,164384,1,8,0:0:0:0:
353,141,164459,1,8,0:0:0:0:
242,131,164534,1,0,0:0:0:0:
205,142,164684,1,0,0:0:0:0:
274,85,164759,1,0,0:0:0:0:
430,253,164834,1,8,0:0:0:0:
498,77,164909,1,0,0:0:0:0:
430,253,164984,1,0,0:0:0:0:
416,297,165059,1,8,0:0:0:0:
405,197,165134,1,0,0:0:0:0:
299,176,165209,1,0,0:0:0:0:
174,137,165284,1,8,0:0:0:0:
184,138,165359,1,0,0:0:0:0:
184,138,165434,1,8,0:0:0:0:
403,181,165509,1,8,0:0:0:0:
347,173,165584,1,0,0:0:0:0:
355,184,165659,1,0,0:0:0:0:
251,102,165734,1,8,0:0:0:0:
164,149,165884,1,0,0:0:0:0:
164,149,165959,1,0,0:0:0:0:
381,158,166034,1,8,0:0:0:0:
381,158,166109,1,8,0:0:0:0:
381,158,166184,1,8,0:0:0:0:
169,122,166259,1,0,0:0:0:0:
256,123,166334,1,0,0:0:0:0:
192,121,166484,1,8,0:0:0:0:
409,202,166559,1,0,0:0:0:0:
192,121,166634,1,8,0:0:0:0:
386,192,166709,1,8,0:0:0:0:
386,192,166784,1,0,0:0:0:0:
386,192,166859,1,0,0:0:0:0:
311,141,166934,1,8,0:0:0:0:
386,192,167009,1,0,0:0:0:0:
386,192,167084,1,8,0:0:0:0:
189,155,167159,1,8,0:0:0:0:
386,192,167234,1,0,0:0:0:0:
188,148,167309,1,0,0:0:0:0:
169,148,167384,1,8,0:0:0:0:
426,238,167534,1,0,0:0:0:0:
426,238,167609,1,0,0:0:0:0:
426,238,167684,1,0,0:0:0:0:
426,238,167759,1,0,0:0:0:0:
426,238,167834,1,12,0:0:0:0:
383,200,167984,1,0,0:0:0:0:
383,200,168059,1,0,0:0:0:0:
383,200,168134,1,8,0:0:0:0:
383,200,168284,1,0,0:0:0:0:
433,214,168359,1,0,0:0:0:0:
433,214,168434,1,8,0:0:0:0:
433,214,168584,1,0,0:0:0:0:
414,214,168659,1,0,0:0:0:0:
414,214,168734,1,8,0:0:0:0:
173,160,168809,1,8,0:0:0:0:
449,259,168884,1,0,0:0:0:0:
449,259,169034,1,12,0:0:0:0:
404,241,169184,1,0,0:0:0:0:
404,241,169259,1,0,0:0:0:0:
404,241,169334,1,8,0:0:0:0:
404,241,169484,1,0,0:0:0:0:
384,187,169559,1,0,0:0:0:0:
384,187,169634,1,8,0:0:0:0:
274,149,169709,1,0,0:0:0:0:
274,152,169784,1,0,0:0:0:0:
413,182,169859,1,8,0:0:0:0:
413,182,169934,1,0,0:0:0:0:
274,149,170009,1,0,0:0:0:0:
144,152,170084,1,8,0:0:0:0:
171,152,170234,1,12,0:0:0:0:
238,126,170384,1,0,0:0:0:0:
238,126,170459,1,8,0:0:0:0:
271,169,170534,1,0,0:0:0:0:
238,126,170609,1,0,0:0:0:0:
444,194,170684,1,8,0:0:0:0:
444,194,170759,1,0,0:0:0:0:
444,194,170834,1,8,0:0:0:0:
169,157,170909,1,0,0:0:0:0:
338,253,170984,1,0,0:0:0:0:
427,235,171059,1,8,0:0:0:0:
427,235,171134,1,0,0:0:0:0:
285,120,171284,1,8,0:0:0:0:
217,152,171334,1,8,0:0:0:0:
285,120,171384,1,8,0:0:0:0:
285,120,171434,1,0,0:0:0:0:
398,187,171584,1,8,0:0:0:0:
163,136,171634,1,8,0:0:0:0:
398,187,171684,1,8,0:0:0:0:
398,187,171734,1,8,0:0:0:0:
364,97,171884,1,0,0:0:0:0:
301,120,171934,1,0,0:0:0:0:
364,97,171984,1,0,0:0:0:0:
506,81,172034,1,8,0:0:0:0:
506,81,172184,1,8,0:0:0:0:
506,81,172334,1,0,0:0:0:0:
177,158,172384,1,0,0:0:0:0:
274,137,172434,1,0,0:0:0:0:
274,137,172484,1,0,0:0:0:0:
152,167,172534,1,8,0:0:0:0:
274,137,172584,1,8,0:0:0:0:
265,137,172634,1,0,0:0:0:0:
479,63,173834,1,8,0:0:0:0:
481,48,174434,1,0,0:0:0:0:
394,171,175034,1,8,0:0:0:0:
424,187,176234,1,8,0:0:0:0:
436,240,176534,1,0,0:0:0:0:
424,187,176834,1,0,0:0:0:0:
388,144,177034,1,0,0:0:0:0:
388,144,177234,1,8,0:0:0:0:
415,189,177434,1,8,0:0:0:0:
409,124,178034,1,0,0:0:0:0:
409,124,178634,1,0,0:0:0:0:
409,124,178934,1,0,0:0:0:0:
409,124,179234,1,8,0:0:0:0:
409,124,179534,1,8,0:0:0:0:
409,124,179834,1,8,0:0:0:0:
428,328,179984,1,0,0:0:0:0:
291,88,180284,1,0,0:0:0:0:
291,88,180434,1,8,0:0:0:0:
291,88,180584,1,0,0:0:0:0:
395,118,180884,1,0,0:0:0:0:
395,118,181034,1,8,0:0:0:0:
237,41,181184,1,0,0:0:0:0:
248,48,181484,1,0,0:0:0:0:
248,48,181634,1,8,0:0:0:0:
248,48,181784,1,8,0:0:0:0:
425,143,182084,1,8,0:0:0:0:
425,143,182234,1,4,0:0:0:0:
348,84,182384,1,0,0:0:0:0:
348,84,182534,1,0,0:0:0:0:
348,84,182684,1,0,0:0:0:0:
348,84,182834,1,8,0:0:0:0:
348,84,182984,1,8,0:0:0:0:
348,84,183134,1,8,0:0:0:0:
328,116,183284,1,8,0:0:0:0:
356,170,183434,1,12,0:0:0:0:
205,103,183734,1,4,0:0:0:0:
205,103,184034,1,12,0:0:0:0:
205,103,184334,1,12,0:0:0:0:
205,103,184634,1,4,0:0:0:0:
322,93,184784,1,0,0:0:0:0:
322,93,184859,1,0,0:0:0:0:
322,93,184934,1,8,0:0:0:0:
322,93,185084,1,8,0:0:0:0:
322,93,185159,1,0,0:0:0:0:
322,93,185309,1,0,0:0:0:0:
322,93,185384,1,8,0:0:0:0:
322,93,185534,1,0,0:0:0:0:
322,93,185609,1,8,0:0:0:0:
322,93,185684,1,8,0:0:0:0:
322,93,185834,1,8,0:0:0:0:
322,93,185984,1,0,0:0:0:0:
322,93,186059,1,0,0:0:0:0:
322,93,186134,1,8,0:0:0:0:
322,93,186284,1,0,0:0:0:0:
322,93,186359,1,8,0:0:0:0:
322,93,186434,1,8,0:0:0:0:
322,93,186509,1,8,0:0:0:0:
322,93,186584,1,0,0:0:0:0:
322,93,186734,1,0,0:0:0:0:
322,93,186884,1,8,0:0:0:0:
322,93,186959,1,8,0:0:0:0:
322,93,187034,1,0,0:0:0:0:
380,132,187184,1,8,0:0:0:0:
303,53,187334,1,0,0:0:0:0:
303,53,187409,1,8,0:0:0:0:
303,53,187559,1,8,0:0:0:0:
303,53,187634,1,0,0:0:0:0:
303,53,187784,1,8,0:0:0:0:
303,53,187859,1,8,0:0:0:0:
303,53,187934,1,0,0:0:0:0:
303,53,188084,1,8,0:0:0:0:
303,53,188234,1,0,0:0:0:0:
120,122,188384,1,8,0:0:0:0:
120,122,188459,1,8,0:0:0:0:
120,122,188534,1,0,0:0:0:0:
131,116,188609,1,0,0:0:0:0:
131,116,188684,1,8,0:0:0:0:
131,116,188834,1,0,0:0:0:0:
236,102,188984,1,8,0:0:0:0:
233,83,189059,1,8,0:0:0:0:
233,83,189134,1,0,0:0:0:0:
233,83,189284,1,0,0:0:0:0:
256,118,189359,1,0,0:0:0:0:
233,83,189434,1,8,0:0:0:0:
390,151,189584,1,0,0:0:0:0:
390,151,189734,1,8,0:0:0:0:
390,151,189809,1,8,0:0:0:0:
355,149,189884,1,0,0:0:0:0:
355,149,189959,1,8,0:0:0:0:
355,149,190109,1,0,0:0:0:0:
355,149,190184,1,8,0:0:0:0:
355,149,190334,1,0,0:0:0:0:
355,149,190409,1,0,0:0:0:0:
380,192,190484,1,8,0:0:0:0:
269,93,190634,1,0,0:0:0:0:
72,118,190784,1,8,0:0:0:0:
72,118,190934,1,0,0:0:0:0:
72,118,191009,1,0,0:0:0:0:
102,110,191084,1,8,0:0:0:0:
102,110,191159,1,0,0:0:0:0:
102,110,191309,1,8,0:0:0:0:
102,110,191384,1,0,0:0:0:0:
102,110,191534,1,8,0:0:0:0:
102,110,191609,1,8,0:0:0:0:
102,110,191684,1,0,0:0:0:0:
102,110,191759,1,0,0:0:0:0:
102,110,191834,1,8,0:0:0:0:
361,169,191984,1,0,0:0:0:0:
361,169,192059,1,0,0:0:0:0:
361,169,192134,1,8,0:0:0:0:
356,144,192284,1,0,0:0:0:0:
356,144,192359,1,8,0:0:0:0:
356,144,192509,1,8,0:0:0:0:
356,144,192584,1,0,0:0:0:0:
346,140,192734,1,8,0:0:0:0:
346,140,192809,1,0,0:0:0:0:
346,140,192884,1,8,0:0:0:0:
346,140,193034,1,0,0:0:0:0:
366,167,193184,1,8,0:0:0:0:
366,167,193259,1,8,0:0:0:0:
366,167,193334,1,0,0:0:0:0:
192,92,193484,1,8,0:0:0:0:
421,230,193559,1,0,0:0:0:0:
421,230,193709,1,0,0:0:0:0:
421,230,193784,1,8,0:0:0:0:
421,230,193934,1,0,0:0:0:0:
421,230,194009,1,0,0:0:0:0:
174,112,194084,1,8,0:0:0:0:
421,230,194159,1,0,0:0:0:0:
421,230,194234,1,8,0:0:0:0:
404,221,194384,1,0,0:0:0:0:
404,221,194534,1,8,0:0:0:0:
404,221,194609,1,0,0:0:0:0:
404,221,194684,1,8,0:0:0:0:
376,172,194834,1,0,0:0:0:0:
376,172,194909,1,8,0:0:0:0:
376,172,194984,1,8,0:0:0:0:
376,172,195059,1,8,0:0:0:0:
376,172,195209,1,0,0:0:0:0:
376,172,195284,1,8,0:0:0:0:
118,114,195434,1,0,0:0:0:0:
175,139,195584,1,8,0:0:0:0:
175,139,195659,1,8,0:0:0:0:
175,139,195734,1,0,0:0:0:0:
175,139,195884,1,8,0:0:0:0:
175,139,195959,1,0,0:0:0:0:
175,139,196034,1,0,0:0:0:0:
175,139,196109,1,0,0:0:0:0:
175,139,196259,1,8,0:0:0:0:
175,139,196334,1,0,0:0:0:0:
175,139,196484,1,8,0:0:0:0:
175,139,196634,1,8,0:0:0:0:
327,141,196784,1,0,0:0:0:0:
327,141,196859,1,8,0:0:0:0:
327,141,196934,1,0,0:0:0:0:
322,136,197009,1,0,0:0:0:0:
327,141,197084,1,8,0:0:0:0:
322,136,197234,1,8,0:0:0:0:
322,136,197309,1,0,0:0:0:0:
322,136,197459,1,8,0:0:0:0:
322,136,197534,1,8,0:0:0:0:
35,137,197684,1,0,0:0:0:0:
43,137,197759,1,0,0:0:0:0:
43,137,197834,1,8,0:0:0:0:
403,248,197984,1,0,0:0:0:0:
403,248,198059,1,0,0:0:0:0:
403,248,198134,1,8,0:0:0:0:
163,175,198209,1,8,0:0:0:0:
403,248,198284,1,0,0:0:0:0:
403,248,198434,1,8,0:0:0:0:
355,167,198584,1,0,0:0:0:0:
355,167,198659,1,0,0:0:0:0:
355,167,198734,1,8,0:0:0:0:
355,167,198809,1,0,0:0:0:0:
355,167,198884,1,8,0:0:0:0:
159,55,198959,1,8,0:0:0:0:
355,167,199034,1,0,0:0:0:0:
355,144,199184,1,8,0:0:0:0:
355,144,199259,1,8,0:0:0:0:
398,190,199334,1,0,0:0:0:0:
371,190,199484,1,8,0:0:0:0:
371,190,199634,1,0,0:0:0:0:
371,190,199709,1,0,0:0:0:0:
371,190,199784,1,8,0:0:0:0:
229,41,199859,1,8,0:0:0:0:
229,41,200009,1,0,0:0:0:0:
394,178,200084,1,8,0:0:0:0:
375,188,200234,1,0,0:0:0:0:
375,188,200384,1,8,0:0:0:0:
375,188,200459,1,8,0:0:0:0:
375,188,200534,1,0,0:0:0:0:
375,188,200684,1,0,0:0:0:0:
375,188,200834,1,8,0:0:0:0:
375,188,200909,1,8,0:0:0:0:
208,180,200984,1,0,0:0:0:0:
258,71,201059,1,8,0:0:0:0:
258,71,201209,1,8,0:0:0:0:
402,215,201284,1,0,0:0:0:0:
402,215,201434,1,8,0:0:0:0:
385,194,201584,1,0,0:0:0:0:
385,194,201734,1,8,0:0:0:0:
385,194,201884,1,0,0:0:0:0:
385,194,201959,1,0,0:0:0:0:
385,194,202034,1,8,0:0:0:0:
260,124,202184,1,0,0:0:0:0:
260,124,202334,1,8,0:0:0:0:
224,98,202409,1,8,0:0:0:0:
253,138,202484,1,0,0:0:0:0:
253,138,202559,1,0,0:0:0:0:
222,138,202634,1,8,0:0:0:0:
441,199,202784,1,0,0:0:0:0:
441,199,202934,1,8,0:0:0:0:
441,199,203084,1,8,0:0:0:0:
441,199,203159,1,8,0:0:0:0:
441,199,203234,1,0,0:0:0:0:
399,163,203384,1,8,0:0:0:0:
399,163,203434,1,8,0:0:0:0:
399,163,203484,1,8,0:0:0:0:
399,163,203534,1,0,0:0:0:0:
407,185,203684,1,0,0:0:0:0:
407,185,203734,1,0,0:0:0:0:
407,185,203784,1,0,0:0:0:0:
407,185,203834,1,8,0:0:0:0:
393,221,203984,1,0,0:0:0:0:
393,221,204059,1,8,0:0:0:0:
393,221,204134,1,8,0:0:0:0:
393,221,204284,1,0,0:0:0:0:
393,221,204434,1,8,0:0:0:0:
393,221,204509,1,8,0:0:0:0:
393,221,204584,1,0,0:0:0:0:
393,212,204734,1,8,0:0:0:0:
393,212,204809,1,8,0:0:0:0:
393,212,204884,1,0,0:0:0:0:
393,212,204959,1,0,0:0:0:0:
393,212,205034,1,8,0:0:0:0:
367,197,205184,1,0,0:0:0:0:
355,159,205259,1,0,0:0:0:0:
355,159,205334,1,8,0:0:0:0:
355,159,205484,1,0,0:0:0:0:
350,144,205634,1,8,0:0:0:0:
350,144,205709,1,0,0:0:0:0:
196,78,205784,1,0,0:0:0:0:
189,124,205934,1,8,0:0:0:0:
183,108,206009,1,0,0:0:0:0:
235,118,206084,1,0,0:0:0:0:
235,118,206159,1,8,0:0:0:0:
235,118,206234,1,0,0:0:0:0:
398,243,206384,1,8,0:0:0:0:
326,98,206459,1,0,0:0:0:0:
398,243,206534,1,8,0:0:0:0:
325,142,206684,1,0,0:0:0:0:
326,98,206759,1,0,0:0:0:0:
325,142,206834,1,8,0:0:0:0:
325,142,206909,1,8,0:0:0:0:
325,142,206984,1,0,0:0:0:0:
325,142,207134,1,8,0:0:0:0:
325,142,207209,1,8,0:0:0:0:
325,142,207284,1,0,0:0:0:0:
325,142,207434,1,8,0:0:0:0:
198,110,207584,1,0,0:0:0:0:
200,156,207659,1,0,0:0:0:0:
198,110,207734,1,8,0:0:0:0:
431,264,207884,1,0,0:0:0:0:
431,264,208034,1,8,0:0:0:0:
224,72,208109,1,0,0:0:0:0:
219,115,208184,1,8,0:0:0:0:
219,115,208334,1,0,0:0:0:0:
219,115,208409,1,0,0:0:0:0:
219,115,208484,1,8,0:0:0:0:
219,115,208559,1,0,0:0:0:0:
215,115,208634,1,8,0:0:0:0:
408,241,208784,1,0,0:0:0:0:
408,241,208859,1,0,0:0:0:0:
408,241,208934,1,8,0:0:0:0:
405,230,209084,1,0,0:0:0:0:
400,202,209234,1,8,0:0:0:0:
400,202,209309,1,0,0:0:0:0:
400,202,209459,1,8,0:0:0:0:
404,222,209534,1,8,0:0:0:0:
256,60,209609,1,0,0:0:0:0:
404,222,209684,1,0,0:0:0:0:
404,222,209834,1,8,0:0:0:0:
196,125,209984,1,0,0:0:0:0:
179,150,210059,1,0,0:0:0:0:
179,150,210134,1,8,0:0:0:0:
272,65,210284,1,0,0:0:0:0:
272,65,210434,1,8,0:0:0:0:
272,65,210509,1,0,0:0:0:0:
300,78,210659,5,8,0:0:0:0:
300,78,210734,1,0,0:0:0:0:
272,65,210809,1,0,0:0:0:0:
300,78,210884,1,8,0:0:0:0:
300,78,211034,1,0,0:0:0:0:
101,157,211184,1,8,0:0:0:0:
121,161,211259,1,0,0:0:0:0:
121,161,211334,1,0,0:0:0:0:
132,146,211484,1,8,0:0:0:0:
234,88,211559,1,8,0:0:0:0:
234,88,211634,1,0,0:0:0:0:
234,88,211784,1,8,0:0:0:0:
232,81,211934,1,0,0:0:0:0:
232,81,212009,1,8,0:0:0:0:
232,81,212084,1,8,0:0:0:0:
232,81,212159,1,0,0:0:0:0:
232,81,212234,1,8,0:0:0:0:
132,131,212384,1,0,0:0:0:0:
132,131,212459,1,8,0:0:0:0:
132,131,212534,1,8,0:0:0:0:
132,131,212684,1,0,0:0:0:0:
135,110,212759,1,0,0:0:0:0:
135,110,212834,1,8,0:0:0:0:
135,110,212984,1,8,0:0:0:0:
135,110,213134,1,0,0:0:0:0:
135,110,213209,1,0,0:0:0:0:
135,110,213284,1,0,0:0:0:0:
310,158,213359,1,0,0:0:0:0:
135,110,213434,1,8,0:0:0:0:
376,122,213584,1,0,0:0:0:0:
376,122,213659,1,0,0:0:0:0:
376,122,213734,1,0,0:0:0:0:
426,236,213884,1,0,0:0:0:0:
389,171,214034,1,8,0:0:0:0:
389,171,214184,1,0,0:0:0:0:
389,171,214259,1,8,0:0:0:0:
389,171,214334,1,0,0:0:0:0:
389,171,214484,1,0,0:0:0:0:
389,171,214634,1,8,0:0:0:0:
172,143,214784,1,0,0:0:0:0:
197,142,214859,1,0,0:0:0:0:
197,142,214934,1,8,0:0:0:0:
197,142,215009,1,8,0:0:0:0:
197,142,215084,1,0,0:0:0:0:
197,142,215234,1,0,0:0:0:0:
202,112,215384,1,8,0:0:0:0:
202,112,215459,1,0,0:0:0:0:
202,112,215534,1,8,0:0:0:0:
202,112,215609,1,8,0:0:0:0:
202,112,215684,1,0,0:0:0:0:
202,112,215759,1,0,0:0:0:0:
202,112,215834,1,8,0:0:0:0:
275,138,215984,1,0,0:0:0:0:
275,138,216059,1,0,0:0:0:0:
275,138,216134,1,8,0:0:0:0:
275,138,216209,1,0,0:0:0:0:
275,138,216284,1,8,0:0:0:0:
275,138,216434,1,0,0:0:0:0:
200,125,216584,1,8,0:0:0:0:
200,125,216659,1,8,0:0:0:0:
200,125,216734,1,0,0:0:0:0:
193,105,216809,1,0,0:0:0:0:
200,125,216884,1,8,0:0:0:0:
193,105,217034,1,0,0:0:0:0:
251,136,217109,1,8,0:0:0:0:
251,136,217184,1,8,0:0:0:0:
440,263,217334,1,0,0:0:0:0:
366,196,217484,1,8,0:0:0:0:
275,132,217559,1,8,0:0:0:0:
275,132,217634,1,0,0:0:0:0:
231,139,217784,1,8,0:0:0:0:
231,139,217934,1,0,0:0:0:0:
315,78,218009,1,0,0:0:0:0:
231,139,218084,1,8,0:0:0:0:
231,139,218159,1,8,0:0:0:0:
231,139,218234,1,0,0:0:0:0:
360,179,218384,1,0,0:0:0:0:
231,36,218459,1,0,0:0:0:0:
346,146,218534,1,8,0:0:0:0:
346,146,218684,1,8,0:0:0:0:
346,146,218834,1,0,0:0:0:0:
346,146,218984,1,8,0:0:0:0:
294,53,219134,1,0,0:0:0:0:
346,146,219284,1,8,0:0:0:0:
387,183,219359,1,8,0:0:0:0:
346,146,219434,1,0,0:0:0:0:
142,75,219584,1,0,0:0:0:0:
213,63,219734,1,8,0:0:0:0:
213,63,219884,1,8,0:0:0:0:
213,63,219959,1,0,0:0:0:0:
213,63,220034,1,0,0:0:0:0:
315,138,220109,1,0,0:0:0:0:
315,138,220184,1,8,0:0:0:0:
213,63,220334,1,0,0:0:0:0:
213,63,220484,1,8,0:0:0:0:
147,154,220534,1,8,0:0:0:0:
213,63,220584,1,8,0:0:0:0:
213,63,220634,1,0,0:0:0:0:
327,187,220784,1,0,0:0:0:0:
374,169,220934,1,8,0:0:0:0:
268,113,221084,1,0,0:0:0:0:
268,113,221134,1,0,0:0:0:0:
268,113,221184,1,0,0:0:0:0:
268,113,221234,1,8,0:0:0:0:
386,209,221384,1,8,0:0:0:0:
386,209,221534,1,0,0:0:0:0:
311,71,221684,5,8,0:0:0:0:
223,127,221734,1,8,0:0:0:0:
311,71,221784,1,0,0:0:0:0:
311,71,221834,1,0,0:0:0:0:
417,112,221984,1,8,0:0:0:0:
167,105,222034,1,8,0:0:0:0:
417,112,222084,1,8,0:0:0:0:
417,112,222134,1,0,0:0:0:0:
121,74,222284,1,8,0:0:0:0:
190,42,222334,1,8,0:0:0:0:
417,112,222384,1,8,0:0:0:0:
417,112,222434,1,8,0:0:0:0:
386,88,222584,1,8,0:0:0:0:
417,112,222734,1,0,0:0:0:0:
417,112,222809,1,0,0:0:0:0:
417,112,222884,1,8,0:0:0:0:
56,149,222934,1,8,0:0:0:0:
417,112,222984,1,8,0:0:0:0:
417,112,223034,1,0,0:0:0:0:
253,81,223184,1,0,0:0:0:0:
253,81,223259,1,0,0:0:0:0:
253,81,223334,1,8,0:0:0:0:
216,128,223484,1,0,0:0:0:0:
345,141,223559,1,0,0:0:0:0:
345,141,223634,1,8,0:0:0:0:
345,141,223709,1,0,0:0:0:0:
221,146,223784,1,8,0:0:0:0:
62,104,223859,1,8,0:0:0:0:
299,157,223934,1,0,0:0:0:0:
241,144,224084,5,8,0:0:0:0:
299,157,224159,1,0,0:0:0:0:
371,140,224234,1,8,0:0:0:0:
206,131,224309,1,8,0:0:0:0:
129,142,224384,1,0,0:0:0:0:
411,222,224459,1,8,0:0:0:0:
411,222,224534,1,8,0:0:0:0:
411,222,224609,1,8,0:0:0:0:
163,103,224684,1,0,0:0:0:0:
136,163,224834,1,8,0:0:0:0:
310,29,224909,1,8,0:0:0:0:
310,29,224984,1,0,0:0:0:0:
310,29,225059,1,8,0:0:0:0:
168,163,225134,1,0,0:0:0:0:
310,29,225209,1,0,0:0:0:0:
310,29,225284,1,8,0:0:0:0:
270,202,225359,1,0,0:0:0:0:
310,29,225434,1,8,0:0:0:0:
235,126,225509,1,8,0:0:0:0:
311,106,225584,1,8,0:0:0:0:
316,106,225659,1,8,0:0:0:0:
247,124,225734,1,0,0:0:0:0:
220,152,225809,1,0,0:0:0:0:
200,110,225884,1,8,0:0:0:0:
399,124,226034,1,0,0:0:0:0:
407,198,226109,1,0,0:0:0:0:
125,142,226184,1,8,0:0:0:0:
395,185,226259,1,0,0:0:0:0:
276,155,226334,1,8,0:0:0:0:
395,185,226484,1,8,0:0:0:0:
395,185,226559,1,8,0:0:0:0:
395,185,226634,1,0,0:0:0:0:
411,204,226709,1,8,0:0:0:0:
411,204,226784,1,0,0:0:0:0:
411,204,226859,1,0,0:0:0:0:
410,181,226934,1,8,0:0:0:0:
252,205,227009,1,0,0:0:0:0:
410,181,227084,1,8,0:0:0:0:
49,124,227159,1,8,0:0:0:0:
395,146,227234,1,0,0:0:0:0:
171,161,227309,1,0,0:0:0:0:
232,142,227384,1,0,0:0:0:0:
221,158,227459,1,0,0:0:0:0:
425,114,227534,1,8,0:0:0:0:
425,114,227609,1,8,0:0:0:0:
425,114,227684,1,0,0:0:0:0:
425,114,227759,1,0,0:0:0:0:
425,114,227834,1,8,0:0:0:0:
199,93,227984,1,0,0:0:0:0:
416,172,228059,1,8,0:0:0:0:
226,24,228134,1,8,0:0:0:0:
416,172,228209,1,8,0:0:0:0:
256,144,228284,1,0,0:0:0:0:
416,172,228434,1,8,0:0:0:0:
416,172,228509,1,0,0:0:0:0:
158,104,228584,1,0,0:0:0:0:
410,169,228659,1,8,0:0:0:0:
410,169,228734,1,0,0:0:0:0:
410,169,228809,1,0,0:0:0:0:
192,122,228884,1,8,0:0:0:0:
382,130,229034,1,8,0:0:0:0:
168,142,229109,1,8,0:0:0:0:
382,130,229184,1,0,0:0:0:0:
382,130,229259,1,8,0:0:0:0:
199,69,229334,5,0,0:0:0:0:
157,114,229484,1,8,0:0:0:0:
40,160,229559,1,0,0:0:0:0:
157,114,229634,1,8,0:0:0:0:
167,169,229709,1,8,0:0:0:0:
121,161,229784,1,0,0:0:0:0:
373,145,229859,1,8,0:0:0:0:
373,145,229934,1,0,0:0:0:0:
121,161,230009,1,0,0:0:0:0:
402,137,230084,1,8,0:0:0:0:
348,144,230159,5,0,0:0:0:0:
408,241,230234,1,8,0:0:0:0:
331,157,230309,1,8,0:0:0:0:
408,241,230384,1,8,0:0:0:0:
389,162,230459,1,8,0:0:0:0:
253,146,230534,1,0,0:0:0:0:
435,270,230684,1,0,0:0:0:0:
435,270,230759,1,0,0:0:0:0:
437,249,230834,1,8,0:0:0:0:
417,133,230909,1,0,0:0:0:0:
417,133,230984,1,0,0:0:0:0:
417,133,231059,1,8,0:0:0:0:
474,266,231134,1,0,0:0:0:0:
102,108,231284,1,8,0:0:0:0:
417,133,231359,1,0,0:0:0:0:
121,96,231434,1,8,0:0:0:0:
361,142,231509,1,8,0:0:0:0:
361,142,231584,1,0,0:0:0:0:
361,142,231659,1,0,0:0:0:0:
361,142,231734,1,8,0:0:0:0:
77,154,231809,1,0,0:0:0:0:
152,124,231884,1,8,0:0:0:0:
416,201,231959,1,8,0:0:0:0:
416,201,232034,1,8,0:0:0:0:
152,136,232109,1,0,0:0:0:0:
186,104,232184,1,8,0:0:0:0:
425,195,232334,1,0,0:0:0:0:
425,195,232409,1,0,0:0:0:0:
425,195,232484,1,0,0:0:0:0:
425,195,232559,1,0,0:0:0:0:
425,195,232634,1,12,0:0:0:0:
370,156,232784,1,0,0:0:0:0:
370,156,232859,1,0,0:0:0:0:
370,156,232934,1,8,0:0:0:0:
368,208,233009,1,0,0:0:0:0:
317,198,233084,1,0,0:0:0:0:
423,230,233234,1,8,0:0:0:0:
427,274,233309,1,8,0:0:0:0:
393,244,233384,1,0,0:0:0:0:
423,230,233459,1,8,0:0:0:0:
393,244,233534,1,0,0:0:0:0:
393,244,233609,1,0,0:0:0:0:
393,244,233684,1,8,0:0:0:0:
353,141,233834,1,0,0:0:0:0:
208,141,233909,1,8,0:0:0:0:
353,141,233984,1,8,0:0:0:0:
353,141,234059,1,0,0:0:0:0:
242,131,234134,1,8,0:0:0:0:
205,142,234209,1,8,0:0:0:0:
274,85,234284,1,0,0:0:0:0:
430,253,234434,1,8,0:0:0:0:
168,136,234509,1,8,0:0:0:0:
430,253,234584,1,0,0:0:0:0:
416,297,234659,1,8,0:0:0:0:
144,157,234734,1,8,0:0:0:0:
405,197,234809,1,0,0:0:0:0:
174,137,234884,1,8,0:0:0:0:
166,155,234959,1,0,0:0:0:0:
166,155,235034,1,8,0:0:0:0:
403,181,235109,1,8,0:0:0:0:
347,173,235184,1,8,0:0:0:0:
204,156,235259,1,8,0:0:0:0:
355,184,235334,1,0,0:0:0:0:
146,149,235409,1,0,0:0:0:0:
164,149,235484,1,8,0:0:0:0:
381,158,235559,1,0,0:0:0:0:
381,158,235634,1,8,0:0:0:0:
204,156,235709,1,8,0:0:0:0:
381,158,235784,1,8,0:0:0:0:
169,122,235859,1,0,0:0:0:0:
256,123,235934,1,8,0:0:0:0:
229,145,236084,1,0,0:0:0:0:
409,202,236159,1,8,0:0:0:0:
192,121,236234,1,8,0:0:0:0:
386,192,236309,1,8,0:0:0:0:
386,192,236384,1,0,0:0:0:0:
386,192,236459,1,0,0:0:0:0:
386,192,236534,1,8,0:0:0:0:
208,157,236609,1,8,0:0:0:0:
186,158,236684,1,0,0:0:0:0:
296,140,236834,1,0,0:0:0:0:
296,140,236909,1,0,0:0:0:0:
296,140,236984,1,0,0:0:0:0:
169,148,237059,1,0,0:0:0:0:
426,238,237134,1,8,0:0:0:0:
426,238,237209,1,8,0:0:0:0:
426,238,237284,1,0,0:0:0:0:
426,238,237359,1,0,0:0:0:0:
426,238,237434,1,12,0:0:0:0:
383,200,237584,1,0,0:0:0:0:
383,200,237659,1,0,0:0:0:0:
383,200,237734,1,8,0:0:0:0:
383,200,237884,1,0,0:0:0:0:
433,214,237959,1,0,0:0:0:0:
433,214,238034,1,8,0:0:0:0:
433,214,238184,1,0,0:0:0:0:
414,214,238259,1,0,0:0:0:0:
414,214,238334,1,8,0:0:0:0:
256,124,238409,1,8,0:0:0:0:
449,259,238484,1,0,0:0:0:0:
449,259,238634,1,12,0:0:0:0:
404,241,238784,1,0,0:0:0:0:
404,241,238859,1,0,0:0:0:0:
404,241,238934,1,8,0:0:0:0:
404,241,239084,1,0,0:0:0:0:
384,187,239159,1,0,0:0:0:0:
384,187,239234,1,8,0:0:0:0:
436,244,239309,1,0,0:0:0:0:
238,197,239384,1,0,0:0:0:0:
254,173,239459,1,8,0:0:0:0:
413,182,239534,1,0,0:0:0:0:
352,200,239609,1,0,0:0:0:0:
144,152,239684,1,8,0:0:0:0:
171,152,239834,1,12,0:0:0:0:
238,126,239984,1,0,0:0:0:0:
238,126,240059,1,8,0:0:0:0:
192,160,240134,1,0,0:0:0:0:
238,126,240209,1,0,0:0:0:0:
444,194,240284,1,8,0:0:0:0:
444,194,240359,1,0,0:0:0:0:
444,194,240434,1,8,0:0:0:0:
169,157,240509,1,8,0:0:0:0:
192,140,240584,1,0,0:0:0:0:
427,235,240659,1,8,0:0:0:0:
427,235,240734,1,0,0:0:0:0:
285,120,240884,1,8,0:0:0:0:
217,152,240934,1,8,0:0:0:0:
285,120,240984,1,8,0:0:0:0:
285,120,241034,1,0,0:0:0:0:
398,187,241184,1,8,0:0:0:0:
163,136,241234,1,8,0:0:0:0:
398,187,241284,1,8,0:0:0:0:
398,187,241334,1,8,0:0:0:0:
364,97,241484,1,0,0:0:0:0:
301,120,241534,1,0,0:0:0:0:
364,97,241584,1,0,0:0:0:0:
506,81,241634,1,8,0:0:0:0:
506,81,241784,1,8,0:0:0:0:
506,81,241934,1,0,0:0:0:0:
177,158,241984,1,0,0:0:0:0:
274,137,242034,1,0,0:0:0:0:
274,137,242084,1,0,0:0:0:0:
152,167,242134,1,8,0:0:0:0:
274,137,242184,1,8,0:0:0:0:
265,137,242234,1,0,0:0:0:0:
479,63,243434,1,8,0:0:0:0:
481,48,244034,1,0,0:0:0:0:
394,171,244634,1,8,0:0:0:0:
424,187,245834,1,8,0:0:0:0:
436,240,246134,1,0,0:0:0:0:
424,187,246434,1,0,0:0:0:0:
388,144,246634,1,0,0:0:0:0:
388,144,246834,1,8,0:0:0:0:
415,189,247034,1,8,0:0:0:0:
409,124,247634,1,0,0:0:0:0:
409,124,248234,1,4,0:0:0:0:
256,192,248384,12,0,253034,0:0:0:0:
