osu file format v14

[General]
AudioFilename: audio.mp3
AudioLeadIn: 0
PreviewTime: 153359
Countdown: 0
SampleSet: Normal
StackLeniency: 0.7
Mode: 1
LetterboxInBreaks: 0
WidescreenStoryboard: 0

[Editor]
DistanceSpacing: 1.1
BeatDivisor: 4
GridSize: 4
TimelineZoom: 2.4

[Metadata]
Title:Blue Zenith
TitleUnicode:Blue Zenith
Artist:xi
ArtistUnicode:xi
Creator:Faputa
Version:Hell Oni
Source:
Tags:osu! featured artist fa mappers' guild mg mpg BlackBq BlackBn Cynp-zy Cynplytholowazy -GN Junior -GN Jr. -GN_Jr. -GN_Junior raytoly rhytoly Parousia 727 electronic instrumental
BeatmapID:2121583
BeatmapSetID:1008969

[Difficulty]
HPDrainRate:6
CircleSize:2
OverallDifficulty:6.9
ApproachRate:10
SliderMultiplier:1.4
SliderTickRate:1

[Events]
//Background and Video events
0,0,"70549737_p0.jpg",0,-100
//Break Periods
//Storyboard Layer 0 (Background)
//Storyboard Layer 1 (Fail)
//Storyboard Layer 2 (Pass)
//Storyboard Layer 3 (Foreground)
//Storyboard Layer 4 (Overlay)
//Storyboard Sound Samples

[TimingPoints]
2234,300,4,1,0,100,1,0
2384,-105.263157894737,4,1,0,100,0,0
2684,-111.111111111111,4,1,0,100,0,0
2984,-117.647058823529,4,1,0,100,0,0
3284,-125,4,1,0,100,0,0
3584,-133.333333333333,4,1,0,100,0,0
7034,-100,4,1,0,100,0,0
7184,-101.583070571791,4,1,0,100,0,0
7259,-102.393656508192,4,1,0,100,0,0
7334,-103.217176163851,4,1,0,100,0,0
7484,-104.904604997446,4,1,0,100,0,0
7559,-105.769179918663,4,1,0,100,0,0
7634,-106.648237851166,4,1,0,100,0,0
7784,-108.450695060505,4,1,0,100,0,0
7859,-109.374965820323,4,1,0,100,0,0
7934,-110.315126189473,4,1,0,100,0,0
8084,-112.244909412746,4,1,0,100,0,0
8234,-114.243281067032,4,1,0,100,0,0
8309,-115.269523199144,4,1,0,100,0,0
8384,-116.314234536023,4,1,0,100,0,0
8534,-118.46151659172,4,1,0,100,0,0
8609,-119.56516540645,4,1,0,100,0,0
8684,-120.68971759813,4,1,0,100,0,0
8834,-123.003196853086,4,1,0,100,0,0
8909,-124.193518340278,4,1,0,100,0,0
8984,-125.407102807489,4,1,0,100,0,0
9134,-127.907006490002,4,1,0,100,0,0
9284,-130.508434760139,4,1,0,100,0,0
9434,-133.218055309472,4,1,0,100,0,0
10334,-131.258055963185,4,1,0,100,0,0
10409,-129.246557194833,4,1,0,100,0,0
10484,-127.295617339191,4,1,0,100,0,0
10559,-125.402699418508,4,1,0,100,0,0
10634,-123.565252956608,4,1,0,100,0,0
10784,-120.047442749375,4,1,0,100,0,0
10859,-118.362525477534,4,1,0,100,0,0
10934,-116.724386875977,4,1,0,100,0,0
11009,-115.130840443622,4,1,0,100,0,0
11084,-113.580218869082,4,1,0,100,0,0
11159,-112.070936419916,4,1,0,100,0,0
11234,-110.601117071282,4,1,0,100,0,0
11384,-107.774182910032,4,1,0,100,0,0
11459,-106.414336990794,4,1,0,100,0,0
11534,-105.088268891455,4,1,0,100,0,0
11609,-103.794843264597,4,1,0,100,0,0
11684,-102.532974604633,4,1,0,100,0,0
11834,-100.098897710938,4,1,0,100,0,0
20234,-100,4,1,0,100,0,0
20384,-98.1688563230069,4,1,0,100,0,0
20434,-97.5733507664387,4,1,0,100,0,0
20484,-96.9849324208991,4,1,0,100,0,0
20534,-96.4035684744906,4,1,0,100,0,0
20684,-94.7006465213138,4,1,0,100,0,0
20734,-94.1463561594312,4,1,0,100,0,0
20784,-93.5984290439669,4,1,0,100,0,0
20834,-93.0569294377221,4,1,0,100,0,0
20984,-91.4692151209589,4,1,0,100,0,0
21059,-90.6954618711743,4,1,0,100,0,0
21134,-89.9347703110934,4,1,0,100,0,0
21209,-89.1866533956926,4,1,0,100,0,0
21284,-88.4509583661339,4,1,0,100,0,0
21334,-87.9671495476729,4,1,0,100,0,0
21384,-87.488681151876,4,1,0,100,0,0
21434,-87.0153138250801,4,1,0,100,0,0
21509,-89.2857142857143,4,1,0,100,0,0
21659,-91.743119266055,4,1,0,100,0,0
21734,-94.3396226415094,4,1,0,100,0,0
21809,-97.0873786407767,4,1,0,100,0,0
21884,-100,4,1,0,100,0,0
29834,-100,4,1,0,100,0,0
29984,-98.1688563230069,4,1,0,100,0,0
30034,-97.5733507664387,4,1,0,100,0,0
30084,-96.9849324208991,4,1,0,100,0,0
30134,-96.4035684744906,4,1,0,100,0,0
30284,-94.7006465213138,4,1,0,100,0,0
30334,-94.1463561594312,4,1,0,100,0,0
30384,-93.5984290439669,4,1,0,100,0,0
30434,-93.0569294377221,4,1,0,100,0,0
30584,-91.4692151209589,4,1,0,100,0,0
30659,-90.6954618711743,4,1,0,100,0,0
30734,-89.9347703110934,4,1,0,100,0,0
30809,-89.1866533956926,4,1,0,100,0,0
30884,-88.4509583661339,4,1,0,100,0,0
30934,-87.9671495476729,4,1,0,100,0,0
30984,-87.488681151876,4,1,0,100,0,0
31034,-87.0153138250801,4,1,0,100,0,0
31109,-89.2857142857143,4,1,0,100,0,0
31259,-91.743119266055,4,1,0,100,0,0
31334,-94.3396226415094,4,1,0,100,0,0
31409,-97.0873786407767,4,1,0,100,0,0
31484,-100,4,1,0,100,0,0
47984,-100,4,1,0,100,0,0
48059,-99.5038736858026,4,1,0,100,0,0
48134,-99.0126458951337,4,1,0,100,0,0
48209,-98.5262444357303,4,1,0,100,0,0
48284,-98.0445023996392,4,1,0,100,0,0
48359,-97.5675435712258,4,1,0,100,0,0
48434,-97.0952028173144,4,1,0,100,0,0
48509,-96.6274133904337,4,1,0,100,0,0
48584,-96.16410982326,4,1,0,100,0,0
48659,-95.7052278980739,4,1,0,100,0,0
48734,-95.2507046170874,4,1,0,100,0,0
48809,-94.8003883023905,4,1,0,100,0,0
48884,-94.354398896431,4,1,0,100,0,0
48959,-93.9125861647978,4,1,0,100,0,0
49034,-93.474891709338,4,1,0,100,0,0
49184,-92.6116294275305,4,1,0,100,0,0
49234,-92.3274077603033,4,1,0,100,0,0
49284,-92.0448405645294,4,1,0,100,0,0
49334,-91.7640818865961,4,1,0,100,0,0
49484,-90.9319892372898,4,1,0,100,0,0
49534,-90.657968336798,4,1,0,100,0,0
49584,-90.3855939824887,4,1,0,100,0,0
49634,-90.1148513780814,4,1,0,100,0,0
49784,-89.3121889703019,4,1,0,100,0,0
49859,-88.9162355711179,4,1,0,100,0,0
49934,-88.5237774866329,4,1,0,100,0,0
50009,-88.1347686374189,4,1,0,100,0,0
50084,-87.7491637504695,4,1,0,100,0,0
50134,-87.4939629165588,4,1,0,100,0,0
50184,-87.2402421789123,4,1,0,100,0,0
50234,-86.9879886985205,4,1,0,100,0,0
50384,-88.4955752212389,4,1,0,100,0,0
50459,-90.0900900900901,4,1,0,100,0,0
50534,-91.743119266055,4,1,0,100,0,0
50609,-93.4579439252336,4,1,0,100,0,0
50684,-95.2380952380952,4,1,0,100,0,0
50759,-97.0873786407767,4,1,0,100,0,0
50834,-99.009900990099,4,1,0,100,0,0
50984,-100,4,1,0,100,0,0
64634,-100,4,1,0,100,0,0
64709,-99.5340809669935,4,1,0,100,0,0
64784,-99.0723852568402,4,1,0,100,0,0
64859,-98.6150502345066,4,1,0,100,0,0
64934,-98.1618217263523,4,1,0,100,0,0
65009,-97.7128356558046,4,1,0,100,0,0
65084,-97.2679381531542,4,1,0,100,0,0
65159,-96.8269798696709,4,1,0,100,0,0
65234,-96.3900945683218,4,1,0,100,0,0
65309,-95.9570419514592,4,1,0,100,0,0
65384,-95.5279543452801,4,1,0,100,0,0
65459,-95.1026871264248,4,1,0,100,0,0
65534,-94.6810998535284,4,1,0,100,0,0
65609,-94.2633227067147,4,1,0,100,0,0
65684,-93.8491281415996,4,1,0,100,0,0
65759,-93.438644915396,4,1,0,100,0,0
65834,-93.0317368467079,4,1,0,100,0,0
65909,-92.628271630554,4,1,0,100,0,0
65984,-92.2283759044145,4,1,0,100,0,0
66059,-91.8318338725392,4,1,0,100,0,0
66134,-91.4387707703168,4,1,0,100,0,0
66209,-91.049058143018,4,1,0,100,0,0
66284,-90.6625711361199,4,1,0,100,0,0
66359,-90.2794329007143,4,1,0,100,0,0
66434,-89.8994384881072,4,1,0,100,0,0
66509,-89.5227096733764,4,1,0,100,0,0
66584,-89.1490456148922,4,1,0,100,0,0
66659,-88.7785667233074,4,1,0,100,0,0
66734,-88.4111543048717,4,1,0,100,0,0
66809,-88.0466929221905,4,1,0,100,0,0
66884,-87.6853009622585,4,1,0,100,0,0
67034,-86.9712690412722,4,1,0,100,0,0
67109,-86.6186337469662,4,1,0,100,0,0
67184,-86.2687720848057,4,1,0,100,0,0
67259,-85.9217991337364,4,1,0,100,0,0
67334,-85.5775328168444,4,1,0,100,0,0
67409,-85.2360869135331,4,1,0,100,0,0
67484,-84.8973548531148,4,1,0,100,0,0
67559,-84.5612329027757,4,1,0,100,0,0
67634,-84.2278329189324,4,1,0,100,0,0
67709,-83.8969812188218,4,1,0,100,0,0
67784,-83.5687883946352,4,1,0,100,0,0
67859,-83.2431532506451,4,1,0,100,0,0
67934,-82.9199772467582,4,1,0,100,0,0
68009,-82.5993691060188,4,1,0,100,0,0
68084,-82.2811629619573,4,1,0,100,0,0
68134,-82.07040656038,4,1,0,100,0,0
68184,-81.8607940824469,4,1,0,100,0,0
68234,-81.6521829302846,4,1,0,100,0,0
68384,-81.0326804800376,4,1,0,100,0,0
68434,-80.8282633805128,4,1,0,100,0,0
68484,-80.6248750314437,4,1,0,100,0,0
68534,-80.4225076863812,4,1,0,100,0,0
68684,-79.8214553686314,4,1,0,100,0,0
68734,-79.6230961122431,4,1,0,100,0,0
68784,-79.4257202721443,4,1,0,100,0,0
68834,-79.2293205531157,4,1,0,100,0,0
68984,-78.6459680964766,4,1,0,100,0,0
69034,-78.4534010333882,4,1,0,100,0,0
69084,-78.261774679655,4,1,0,100,0,0
69134,-78.071082158884,4,1,0,100,0,0
69209,-77.7867491828502,4,1,0,100,0,0
69284,-77.5045398284204,4,1,0,100,0,0
69334,-77.3175152006235,4,1,0,100,0,0
69384,-77.1313910106449,4,1,0,100,0,0
69434,-76.9461607713083,4,1,0,100,0,0
69584,-33.3333333333333,4,1,0,100,0,0
74234,-200,4,1,0,100,0,0
82934,-166.666666666667,4,1,0,100,0,0
83234,-142.857142857143,4,1,0,100,0,0
83534,-117.647058823529,4,1,0,100,0,0
83834,-100,4,1,0,100,0,0
84134,-200,4,1,0,100,0,0
91634,-166.666666666667,4,1,0,100,0,0
92234,-142.857142857143,4,1,0,100,0,0
92834,-117.647058823529,4,1,0,100,0,0
93434,-100,4,1,0,100,0,0
93584,-102.120115722515,4,1,0,100,0,0
93659,-103.214299721941,4,1,0,100,0,0
93734,-104.332076479585,4,1,0,100,0,0
93884,-106.642096327673,4,1,0,100,0,0
93959,-107.835779048802,4,1,0,100,0,0
94034,-109.056605831257,4,1,0,100,0,0
94184,-111.582983148738,4,1,0,100,0,0
94259,-112.8906439621,4,1,0,100,0,0
94334,-114.229187156527,4,1,0,100,0,0
94409,-115.599987052801,4,1,0,100,0,0
94484,-117.004086952757,4,1,0,100,0,0
94634,-119.917017423943,4,1,0,100,0,0
94709,-121.428632142888,4,1,0,100,0,0
94784,-122.978691482127,4,1,0,100,0,0
94934,-126.200800617879,4,1,0,100,0,0
95084,-129.596462534959,4,1,0,100,0,0
95234,-133.179732708276,4,1,0,100,0,0
96434,-133.333333333333,4,1,0,100,0,0
96509,-131.156485425891,4,1,0,100,0,0
96584,-129.049575684995,4,1,0,100,0,0
96659,-127.00928691906,4,1,0,100,0,0
96734,-125.032352121111,4,1,0,100,0,0
96809,-123.116168723322,4,1,0,100,0,0
96884,-121.257831740208,4,1,0,100,0,0
96959,-119.454760690305,4,1,0,100,0,0
97034,-117.70452632756,4,1,0,100,0,0
97184,-114.353542272502,4,1,0,100,0,0
97259,-112.748596561844,4,1,0,100,0,0
97334,-111.187954341778,4,1,0,100,0,0
97409,-109.670046697506,4,1,0,100,0,0
97484,-108.193025012064,4,1,0,100,0,0
97634,-105.355205073907,4,1,0,100,0,0
97709,-103.991397831571,4,1,0,100,0,0
97784,-102.662447924473,4,1,0,100,0,0
97934,-100.103807648532,4,1,0,100,0,0
98084,-95.2380952380952,4,1,0,100,0,0
98234,-90.9090909090909,4,1,0,100,0,0
98384,-92.6578820817261,4,1,0,100,0,0
98459,-93.5577972003765,4,1,0,100,0,0
98534,-94.4752748758122,4,1,0,100,0,0
98609,-95.4110163467694,4,1,0,100,0,0
98684,-96.3654795724456,4,1,0,100,0,0
98834,-98.3327679199178,4,1,0,100,0,0
98909,-99.3468935219865,4,1,0,100,0,0
98984,-100.382054097897,4,1,0,100,0,0
99134,-102.518573802609,4,1,0,100,0,0
99209,-103.621359263542,4,1,0,100,0,0
99284,-104.748127889084,4,1,0,100,0,0
99359,-105.899558504741,4,1,0,100,0,0
99434,-107.076699039522,4,1,0,100,0,0
99509,-108.280303054912,4,1,0,100,0,0
99584,-109.511153163394,4,1,0,100,0,0
99659,-110.770430498201,4,1,0,100,0,0
99734,-112.058880218022,4,1,0,100,0,0
99884,-114.728105861918,4,1,0,100,0,0
100034,-117.527457352224,4,1,0,100,0,0
101234,-117.647058823529,4,1,0,100,0,0
101384,-115.615223287681,4,1,0,100,0,0
101459,-114.625398466541,4,1,0,100,0,0
101534,-113.652378289668,4,1,0,100,0,0
101609,-112.69586541409,4,1,0,100,0,0
101684,-111.755193543232,4,1,0,100,0,0
101834,-109.920186952254,4,1,0,100,0,0
101984,-108.144468031955,4,1,0,100,0,0
102134,-106.425209152142,4,1,0,100,0,0
102434,-103.145738740095,4,1,0,100,0,0
102734,-100.062238712479,4,1,0,100,0,0
102884,-86.9565217391304,4,1,0,100,0,0
103034,-76.9230769230769,4,1,0,100,0,0
104234,-100,4,1,0,100,0,0
105284,-86.9565217391304,4,1,0,100,0,0
105434,-76.9230769230769,4,1,0,100,0,0
106484,-86.9565217391304,4,1,0,100,0,0
106634,-76.9230769230769,4,1,0,100,0,0
106784,-100,4,1,0,100,0,0
107309,-90.9090909090909,4,1,0,100,0,0
107534,-83.3333333333333,4,1,0,100,0,0
107759,-76.9230769230769,4,1,0,100,0,0
108134,-100,4,1,0,100,0,0
108734,-86.9565217391304,4,1,0,100,0,0
109034,-76.9230769230769,4,1,0,100,0,0
109184,-100,4,1,0,100,0,0
109484,-95.2380952380952,4,1,0,100,0,0
109784,-90.9090909090909,4,1,0,100,0,0
110009,-86.2068965517241,4,1,0,100,0,0
110159,-81.3008130081301,4,1,0,100,0,0
110309,-76.9230769230769,4,1,0,100,0,0
110684,-86.9565217391304,4,1,0,100,0,0
110759,-83.3333333333333,4,1,0,100,0,0
110834,-80,4,1,0,100,0,0
110984,-76.9230769230769,4,1,0,100,0,0
111284,-86.9565217391304,4,1,0,100,0,0
111359,-86.3337923413293,4,1,0,100,0,0
111434,-85.719918737517,4,1,0,100,0,0
111584,-84.5179938808973,4,1,0,100,0,0
111659,-83.929583079796,4,1,0,100,0,0
111734,-83.349308617485,4,1,0,100,0,0
111809,-82.7770028930562,4,1,0,100,0,0
111884,-82.2125704664495,4,1,0,100,0,0
111959,-81.6557166350659,4,1,0,100,0,0
112034,-81.1063555751292,4,1,0,100,0,0
112184,-80.0295148850896,4,1,0,100,0,0
112259,-79.501746653374,4,1,0,100,0,0
112334,-78.9808937319973,4,1,0,100,0,0
112409,-78.4668210893706,4,1,0,100,0,0
112484,-77.9593971867572,4,1,0,100,0,0
112559,-77.4584938660619,4,1,0,100,0,0
112634,-76.9639862419178,4,1,0,100,0,0
112784,-79.1957513063339,4,1,0,100,0,0
112934,-81.6067387580597,4,1,0,100,0,0
113084,-84.1692036667472,4,1,0,100,0,0
113234,-86.8978090455405,4,1,0,100,0,0
113384,-89.8091734682147,4,1,0,100,0,0
113534,-92.9224673516911,4,1,0,100,0,0
113684,-96.2593612228789,4,1,0,100,0,0
113834,-99.8448411169043,4,1,0,100,0,0
113984,-98.1688563230069,4,1,0,100,0,0
114059,-97.2782517930814,4,1,0,100,0,0
114209,-95.5445658072751,4,1,0,100,0,0
114284,-94.7006465213138,4,1,0,100,0,0
114359,-93.8715930478698,4,1,0,100,0,0
114434,-93.0569294377221,4,1,0,100,0,0
114584,-91.4692151209589,4,1,0,100,0,0
114734,-89.9347703110934,4,1,0,100,0,0
115034,-87.0153138250801,4,1,0,100,0,0
115109,-95.2380952380952,4,1,0,100,0,0
131834,-95.2380952380952,4,1,0,100,0,0
131909,-94.8159385592718,4,1,0,100,0,0
131984,-94.3974187969804,4,1,0,100,0,0
132059,-93.982665837113,4,1,0,100,0,0
132134,-93.5715415256466,4,1,0,100,0,0
132209,-93.1639116545258,4,1,0,100,0,0
132284,-92.7599039749474,4,1,0,100,0,0
132359,-92.3593851451012,4,1,0,100,0,0
132434,-91.9622255962141,4,1,0,100,0,0
132509,-91.5685509643084,4,1,0,100,0,0
132584,-91.1782324734922,4,1,0,100,0,0
132659,-90.79114495805,4,1,0,100,0,0
132734,-90.4074119612622,4,1,0,100,0,0
132809,-90.026909043113,4,1,0,100,0,0
132884,-89.6495152202464,4,1,0,100,0,0
132959,-89.2753519680751,4,1,0,100,0,0
133034,-88.9042989673766,4,1,0,100,0,0
133109,-88.5362392107526,4,1,0,100,0,0
133184,-88.171292132652,4,1,0,100,0,0
133259,-87.8093413333497,4,1,0,100,0,0
133334,-87.4503500637513,4,1,0,100,0,0
133409,-87.0942063192072,4,1,0,100,0,0
133484,-86.7410268576241,4,1,0,100,0,0
133559,-86.3907002139034,4,1,0,100,0,0
133634,-86.0431179272557,4,1,0,100,0,0
133709,-85.6983947833673,4,1,0,100,0,0
133784,-85.3564228147475,4,1,0,100,0,0
133834,-85.1299295549833,4,1,0,100,0,0
133884,-84.9046351138401,4,1,0,100,0,0
133934,-84.6805299985012,4,1,0,100,0,0
134009,-84.3466173632573,4,1,0,100,0,0
134084,-84.0152571707022,4,1,0,100,0,0
134234,-83.3604254716116,4,1,0,100,0,0
134384,-95.2380952380952,4,1,0,100,0,0
143984,-96.1538461538461,4,1,0,100,0,0
144584,-97.0873786407767,4,1,0,100,0,0
145184,-98.0392156862745,4,1,0,100,0,0
145784,-99.009900990099,4,1,0,100,0,0
146384,-100,4,1,0,100,0,0
148634,-100,4,1,0,100,0,0
148709,-99.5340809669935,4,1,0,100,0,0
148784,-99.0723852568402,4,1,0,100,0,0
148859,-98.6150502345066,4,1,0,100,0,0
148934,-98.1618217263523,4,1,0,100,0,0
149009,-97.7128356558046,4,1,0,100,0,0
149084,-97.2679381531542,4,1,0,100,0,0
149159,-96.8269798696709,4,1,0,100,0,0
149234,-96.3900945683218,4,1,0,100,0,0
149309,-95.9570419514592,4,1,0,100,0,0
149384,-95.5279543452801,4,1,0,100,0,0
149459,-95.1026871264248,4,1,0,100,0,0
149534,-94.6810998535284,4,1,0,100,0,0
149609,-94.2633227067147,4,1,0,100,0,0
149684,-93.8491281415996,4,1,0,100,0,0
149834,-93.0317368467079,4,1,0,100,0,0
149909,-92.628271630554,4,1,0,100,0,0
149984,-92.2283759044145,4,1,0,100,0,0
150059,-91.8318338725392,4,1,0,100,0,0
150134,-91.4387707703168,4,1,0,100,0,0
150209,-91.049058143018,4,1,0,100,0,0
150284,-90.6625711361199,4,1,0,100,0,0
150359,-90.2794329007143,4,1,0,100,0,0
150434,-89.8994384881072,4,1,0,100,0,0
150509,-89.5227096733764,4,1,0,100,0,0
150584,-89.1490456148922,4,1,0,100,0,0
150659,-88.7785667233074,4,1,0,100,0,0
150734,-88.4111543048717,4,1,0,100,0,0
150809,-88.0466929221905,4,1,0,100,0,0
150884,-87.6853009622585,4,1,0,100,0,0
150959,-87.3362445414847,4,1,0,100,0,0
151034,-86.9712690412722,4,1,0,100,0,0
151184,-86.2687720848057,4,1,0,100,0,0
151259,-85.9217991337364,4,1,0,100,0,0
151334,-85.5775328168444,4,1,0,100,0,0
151409,-85.2360869135331,4,1,0,100,0,0
151484,-84.8973548531148,4,1,0,100,0,0
151559,-84.5612329027757,4,1,0,100,0,0
151634,-84.2278329189324,4,1,0,100,0,0
151709,-83.8969812188218,4,1,0,100,0,0
151784,-83.5687883946352,4,1,0,100,0,0
151859,-83.2431532506451,4,1,0,100,0,0
151934,-82.9199772467582,4,1,0,100,0,0
152009,-82.5993691060188,4,1,0,100,0,0
152084,-82.2811629619573,4,1,0,100,0,0
152134,-82.07040656038,4,1,0,100,0,0
152184,-81.8607940824469,4,1,0,100,0,0
152234,-81.6521829302846,4,1,0,100,0,0
152384,-81.0326804800376,4,1,0,100,0,0
152434,-80.8282633805128,4,1,0,100,0,0
152484,-80.6248750314437,4,1,0,100,0,0
152534,-80.4225076863812,4,1,0,100,0,0
152684,-79.8214553686314,4,1,0,100,0,0
152734,-79.6230961122431,4,1,0,100,0,0
152784,-79.4257202721443,4,1,0,100,0,0
152834,-79.2293205531157,4,1,0,100,0,0
152909,-78.9365665751003,4,1,0,100,0,0
152984,-78.6459680964766,4,1,0,100,0,0
153059,-78.3574399997493,4,1,0,100,0,0
153134,-78.071082158884,4,1,0,100,0,0
153184,-77.8813166615395,4,1,0,100,0,0
153284,-77.5045398284204,4,1,0,100,0,0
153334,-77.3175152006235,4,1,0,100,0,0
153384,-77.1313910106449,4,1,0,100,0,0
153434,-76.9461607713083,4,1,0,100,0,1
153509,-95.2380952380952,4,1,0,100,0,1
170234,-95.2380952380952,4,1,0,100,0,1
170309,-94.5365440464666,4,1,0,100,0,1
170384,-93.8452529317257,4,1,0,100,0,1
170459,-93.1639116545258,4,1,0,100,0,1
170534,-92.4924780492226,4,1,0,100,0,1
170609,-91.8306532557181,4,1,0,100,0,1
170684,-91.1782324734922,4,1,0,100,0,1
170759,-90.5350166810768,4,1,0,100,0,1
170834,-89.9007316121539,4,1,0,100,0,1
170909,-89.2753519680751,4,1,0,100,0,1
170984,-88.6586129182692,4,1,0,100,0,1
171059,-88.0503366164369,4,1,0,100,0,1
171134,-87.4503500637513,4,1,0,100,0,1
171209,-86.8584095009203,4,1,0,100,0,1
171284,-86.2745030372939,4,1,0,100,0,1
171334,-85.8895494749572,4,1,0,100,0,1
171384,-85.5080159489551,4,1,0,100,0,1
171434,-85.1299295549833,4,1,0,100,0,1
171584,-84.0152571707022,4,1,0,100,0,1
171634,-83.6501583079246,4,1,0,100,0,1
171684,-83.288288250771,4,1,0,100,0,1
171734,-82.9294668298719,4,1,0,100,0,1
171884,-81.8713163024621,4,1,0,100,0,1
171934,-81.5246412304351,4,1,0,100,0,1
171984,-81.1808237905275,4,1,0,100,0,1
172034,-80.8398941644106,4,1,0,100,0,1
172109,-80.3338675535526,4,1,0,100,0,1
172184,-79.8341365978044,4,1,0,100,0,1
172259,-79.3405215845889,4,1,0,100,0,1
172334,-78.8530352898874,4,1,0,100,0,1
172409,-78.3715028676133,4,1,0,100,0,1
172484,-77.8958159041445,4,1,0,100,0,1
172534,-77.5818663248927,4,1,0,100,0,1
172584,-77.2704372579503,4,1,0,100,0,1
172634,-76.9614984711598,4,1,0,100,0,1
173834,-79.6427544605916,4,1,0,100,0,1
174434,-81.0760412190594,4,1,0,100,0,1
175034,-82.561793374251,4,1,0,100,0,1
176234,-85.7029484385351,4,1,0,100,0,1
176534,-86.52592359934,4,1,0,100,0,1
176834,-87.3649338123261,4,1,0,100,0,1
177034,-87.9333465233353,4,1,0,100,0,1
177234,-88.5091257334088,4,1,0,100,0,1
177434,-89.0925743121162,4,1,0,100,0,1
178034,-90.8900040082492,4,1,0,100,0,1
178634,-125,4,1,0,100,0,1
178784,-121.8328039698,4,1,0,100,0,1
178934,-118.822139891682,4,1,0,100,0,1
179084,-115.956548762048,4,1,0,100,0,1
179234,-113.226047878767,4,1,0,100,0,1
179384,-110.62118218645,4,1,0,100,0,1
179534,-108.133475636987,4,1,0,100,0,1
179684,-105.755086026475,4,1,0,100,0,1
179834,-103.479176885235,4,1,0,100,0,1
179984,-101.299161749437,4,1,0,100,0,1
180059,-100.243189978889,4,1,0,100,0,1
180134,-99.2091050148218,4,1,0,100,0,1
180284,-97.2035510401266,4,1,0,100,0,1
180434,-95.2773858171989,4,1,0,100,0,1
180584,-93.4261615674668,4,1,0,100,0,1
180659,-92.5272238224292,4,1,0,100,0,1
180734,-91.6455041923236,4,1,0,100,0,1
180884,-89.931454245574,4,1,0,100,0,1
181034,-88.2802651232922,4,1,0,100,0,1
181109,-87.4772777770974,4,1,0,100,0,1
181184,-86.6886913735216,4,1,0,100,0,1
181259,-85.91426958695,4,1,0,100,0,1
181334,-85.1534891642185,4,1,0,100,0,1
181409,-84.406064069267,4,1,0,100,0,1
181484,-83.6717156968975,4,1,0,100,0,1
181559,-82.9499662393637,4,1,0,100,0,1
181634,-82.2405618675187,4,1,0,100,0,1
181709,-81.5432550273455,4,1,0,100,0,1
181784,-80.8576081349222,4,1,0,100,0,1
181859,-80.1834597559216,4,1,0,100,0,1
181934,-79.5203965841218,4,1,0,100,0,1
182009,-78.8682096443201,4,1,0,100,0,1
182084,-78.226694703114,4,1,0,100,0,1
182159,-77.5954715282816,4,1,0,100,0,1
182234,-76.9230769230769,4,1,0,100,0,0
182384,-79.1957513063339,4,1,0,100,0,0
182534,-81.6067387580597,4,1,0,100,0,0
182684,-84.1692036667472,4,1,0,100,0,0
182834,-86.8978090455405,4,1,0,100,0,0
182984,-89.8091734682147,4,1,0,100,0,0
183134,-92.9224673516911,4,1,0,100,0,0
183284,-96.2593612228789,4,1,0,100,0,0
183434,-99.8448411169043,4,1,0,100,0,0
183584,-98.1688563230069,4,1,0,100,0,0
183659,-97.2782517930814,4,1,0,100,0,0
183809,-95.5445658072751,4,1,0,100,0,0
183884,-94.7006465213138,4,1,0,100,0,0
183959,-93.8715930478698,4,1,0,100,0,0
184034,-93.0569294377221,4,1,0,100,0,0
184184,-91.4692151209589,4,1,0,100,0,0
184334,-89.9347703110934,4,1,0,100,0,0
184634,-87.0153138250801,4,1,0,100,0,0
184709,-95.2380952380952,4,1,0,100,0,0
201434,-95.2380952380952,4,1,0,100,0,0
201509,-94.8159385592718,4,1,0,100,0,0
201584,-94.3974187969804,4,1,0,100,0,0
201659,-93.982665837113,4,1,0,100,0,0
201734,-93.5715415256466,4,1,0,100,0,0
201809,-93.1639116545258,4,1,0,100,0,0
201884,-92.7599039749474,4,1,0,100,0,0
201959,-92.3593851451012,4,1,0,100,0,0
202034,-91.9622255962141,4,1,0,100,0,0
202109,-91.5685509643084,4,1,0,100,0,0
202184,-91.1782324734922,4,1,0,100,0,0
202259,-90.79114495805,4,1,0,100,0,0
202334,-90.4074119612622,4,1,0,100,0,0
202409,-90.026909043113,4,1,0,100,0,0
202484,-89.6495152202464,4,1,0,100,0,0
202559,-89.2753519680751,4,1,0,100,0,0
202634,-88.9042989673766,4,1,0,100,0,0
202709,-88.5362392107526,4,1,0,100,0,0
202784,-88.171292132652,4,1,0,100,0,0
202859,-87.8093413333497,4,1,0,100,0,0
202934,-87.4503500637513,4,1,0,100,0,0
203009,-87.0942063192072,4,1,0,100,0,0
203084,-86.7410268576241,4,1,0,100,0,0
203159,-86.3907002139034,4,1,0,100,0,0
203234,-86.0431179272557,4,1,0,100,0,0
203309,-85.6983947833673,4,1,0,100,0,0
203384,-85.3564228147475,4,1,0,100,0,0
203434,-85.1299295549833,4,1,0,100,0,0
203484,-84.9046351138401,4,1,0,100,0,0
203534,-84.6805299985012,4,1,0,100,0,0
203609,-84.3466173632573,4,1,0,100,0,0
203684,-84.0152571707022,4,1,0,100,0,0
203834,-83.3604254716116,4,1,0,100,0,0
203984,-95.2380952380952,4,1,0,100,0,0
213584,-96.1538461538461,4,1,0,100,0,0
214184,-97.0873786407767,4,1,0,100,0,0
214784,-98.0392156862745,4,1,0,100,0,0
215384,-99.009900990099,4,1,0,100,0,0
215984,-100,4,1,0,100,0,0
218234,-100,4,1,0,100,0,0
218309,-99.5340809669935,4,1,0,100,0,0
218384,-99.0723852568402,4,1,0,100,0,0
218459,-98.6150502345066,4,1,0,100,0,0
218534,-98.1618217263523,4,1,0,100,0,0
218609,-97.7128356558046,4,1,0,100,0,0
218684,-97.2679381531542,4,1,0,100,0,0
218759,-96.8269798696709,4,1,0,100,0,0
218834,-96.3900945683218,4,1,0,100,0,0
218909,-95.9570419514592,4,1,0,100,0,0
218984,-95.5279543452801,4,1,0,100,0,0
219059,-95.1026871264248,4,1,0,100,0,0
219134,-94.6810998535284,4,1,0,100,0,0
219209,-94.2633227067147,4,1,0,100,0,0
219284,-93.8491281415996,4,1,0,100,0,0
219359,-93.438644915396,4,1,0,100,0,0
219434,-93.0317368467079,4,1,0,100,0,0
219584,-92.2283759044145,4,1,0,100,0,0
219659,-91.8318338725392,4,1,0,100,0,0
219734,-91.4387707703168,4,1,0,100,0,0
219809,-91.049058143018,4,1,0,100,0,0
219884,-90.6625711361199,4,1,0,100,0,0
219959,-90.2794329007143,4,1,0,100,0,0
220034,-89.8994384881072,4,1,0,100,0,0
220109,-89.5227096733764,4,1,0,100,0,0
220184,-89.1490456148922,4,1,0,100,0,0
220259,-88.7785667233074,4,1,0,100,0,0
220334,-88.4111543048717,4,1,0,100,0,0
220409,-88.0466929221905,4,1,0,100,0,0
220484,-87.6853009622585,4,1,0,100,0,0
220534,-87.4459911697038,4,1,0,100,0,0
220584,-87.2079840653572,4,1,0,100,0,0
220634,-86.9712690412722,4,1,0,100,0,0
220784,-86.2687720848057,4,1,0,100,0,0
220859,-85.9217991337364,4,1,0,100,0,0
220934,-85.5775328168444,4,1,0,100,0,0
221009,-85.2360869135331,4,1,0,100,0,0
221084,-84.8973548531148,4,1,0,100,0,0
221159,-84.5612329027757,4,1,0,100,0,0
221234,-84.2278329189324,4,1,0,100,0,0
221309,-83.8969812188218,4,1,0,100,0,0
221384,-83.5687883946352,4,1,0,100,0,0
221459,-83.2431532506451,4,1,0,100,0,0
221534,-82.9199772467582,4,1,0,100,0,0
221609,-82.5993691060188,4,1,0,100,0,0
221684,-82.2811629619573,4,1,0,100,0,0
221734,-82.07040656038,4,1,0,100,0,0
221784,-81.8607940824469,4,1,0,100,0,0
221834,-81.6521829302846,4,1,0,100,0,0
221984,-81.0326804800376,4,1,0,100,0,0
222034,-80.8282633805128,4,1,0,100,0,0
222084,-80.6248750314437,4,1,0,100,0,0
222134,-80.4225076863812,4,1,0,100,0,0
222284,-79.8214553686314,4,1,0,100,0,0
222334,-79.6230961122431,4,1,0,100,0,0
222384,-79.4257202721443,4,1,0,100,0,0
222434,-79.2293205531157,4,1,0,100,0,0
222509,-78.9365665751003,4,1,0,100,0,0
222584,-78.6459680964766,4,1,0,100,0,0
222659,-78.3574399997493,4,1,0,100,0,0
222734,-78.071082158884,4,1,0,100,0,0
222784,-77.8813166615395,4,1,0,100,0,0
222884,-77.5045398284204,4,1,0,100,0,0
222934,-77.3175152006235,4,1,0,100,0,0
222984,-77.1313910106449,4,1,0,100,0,0
223034,-76.9230769230769,4,1,0,100,0,1
223109,-95.2380952380952,4,1,0,100,0,1
239834,-95.2380952380952,4,1,0,100,0,1
239909,-94.5365440464666,4,1,0,100,0,1
239984,-93.8452529317257,4,1,0,100,0,1
240059,-93.1639116545258,4,1,0,100,0,1
240134,-92.4924780492226,4,1,0,100,0,1
240209,-91.8306532557181,4,1,0,100,0,1
240284,-91.1782324734922,4,1,0,100,0,1
240359,-90.5350166810768,4,1,0,100,0,1
240434,-89.9007316121539,4,1,0,100,0,1
240509,-89.2753519680751,4,1,0,100,0,1
240584,-88.6586129182692,4,1,0,100,0,1
240659,-88.0503366164369,4,1,0,100,0,1
240734,-87.4503500637513,4,1,0,100,0,1
240809,-86.8584095009203,4,1,0,100,0,1
240884,-86.2745030372939,4,1,0,100,0,1
240934,-85.8895494749572,4,1,0,100,0,1
240984,-85.5080159489551,4,1,0,100,0,1
241034,-85.1299295549833,4,1,0,100,0,1
241184,-84.0152571707022,4,1,0,100,0,1
241234,-83.6501583079246,4,1,0,100,0,1
241284,-83.288288250771,4,1,0,100,0,1
241334,-82.9294668298719,4,1,0,100,0,1
241484,-81.8713163024621,4,1,0,100,0,1
241534,-81.5246412304351,4,1,0,100,0,1
241584,-81.1808237905275,4,1,0,100,0,1
241634,-80.8398941644106,4,1,0,100,0,1
241709,-80.3338675535526,4,1,0,100,0,1
241784,-79.8341365978044,4,1,0,100,0,1
241859,-79.3405215845889,4,1,0,100,0,1
241934,-78.8530352898874,4,1,0,100,0,1
242009,-78.3715028676133,4,1,0,100,0,1
242084,-77.8958159041445,4,1,0,100,0,1
242134,-77.5818663248927,4,1,0,100,0,1
242184,-77.2704372579503,4,1,0,100,0,1
242234,-76.9614984711598,4,1,0,100,0,1
249434,-81.3008130081301,4,1,0,100,0,1
250634,-86.2068965517241,4,1,0,100,0,1
251834,-92.5925925925926,4,1,0,100,0,1
253034,-100,4,1,0,100,0,0

[HitObjects]
256,192,2234,5,12,0:0:0:0:
256,192,2534,1,0,0:0:0:0:
256,192,2834,1,0,0:0:0:0:
256,192,3134,1,0,0:0:0:0:
256,192,3434,1,0,0:0:0:0:
256,192,3734,1,0,0:0:0:0:
256,192,4034,1,0,0:0:0:0:
256,192,4334,1,0,0:0:0:0:
256,192,4634,1,0,0:0:0:0:
256,192,4934,1,0,0:0:0:0:
256,192,5234,1,0,0:0:0:0:
256,192,5534,1,0,0:0:0:0:
256,192,5834,1,0,0:0:0:0:
256,192,6134,1,0,0:0:0:0:
256,192,6434,1,0,0:0:0:0:
256,192,6734,1,0,0:0:0:0:
256,192,7034,1,12,0:0:0:0:
256,192,7184,1,0,0:0:0:0:
256,192,7259,1,0,0:0:0:0:
256,192,7334,1,8,0:0:0:0:
256,192,7484,1,0,0:0:0:0:
256,192,7559,1,0,0:0:0:0:
256,192,7634,1,8,0:0:0:0:
256,192,7784,1,0,0:0:0:0:
256,192,7859,1,0,0:0:0:0:
256,192,7934,1,8,0:0:0:0:
256,192,8084,1,0,0:0:0:0:
256,192,8234,1,8,0:0:0:0:
256,192,8309,1,8,0:0:0:0:
256,192,8384,1,0,0:0:0:0:
256,192,8534,1,8,0:0:0:0:
256,192,8609,1,8,0:0:0:0:
256,192,8684,1,0,0:0:0:0:
256,192,8834,1,8,0:0:0:0:
256,192,8909,1,8,0:0:0:0:
256,192,8984,1,0,0:0:0:0:
256,192,9134,1,8,0:0:0:0:
256,192,9284,1,0,0:0:0:0:
256,192,9434,1,8,0:0:0:0:
256,192,9734,1,0,0:0:0:0:
256,192,10034,1,0,0:0:0:0:
256,192,10334,1,0,0:0:0:0:
256,192,10409,1,0,0:0:0:0:
256,192,10484,1,0,0:0:0:0:
256,192,10559,1,0,0:0:0:0:
256,192,10634,1,8,0:0:0:0:
256,192,10784,1,8,0:0:0:0:
256,192,10859,1,8,0:0:0:0:
256,192,10934,1,0,0:0:0:0:
256,192,11009,1,0,0:0:0:0:
256,192,11084,1,8,0:0:0:0:
256,192,11159,1,8,0:0:0:0:
256,192,11234,1,0,0:0:0:0:
256,192,11384,1,8,0:0:0:0:
256,192,11459,1,0,0:0:0:0:
256,192,11534,1,8,0:0:0:0:
256,192,11609,1,8,0:0:0:0:
256,192,11684,1,0,0:0:0:0:
256,192,11834,1,12,0:0:0:0:
256,192,11984,1,0,0:0:0:0:
256,192,12059,1,8,0:0:0:0:
256,192,12134,1,8,0:0:0:0:
256,192,12209,1,0,0:0:0:0:
256,192,12284,1,0,0:0:0:0:
256,192,12434,1,8,0:0:0:0:
256,192,12509,1,8,0:0:0:0:
256,192,12584,1,0,0:0:0:0:
256,192,12734,1,0,0:0:0:0:
256,192,12809,1,0,0:0:0:0:
256,192,12884,1,8,0:0:0:0:
256,192,12959,1,8,0:0:0:0:
256,192,13034,1,0,0:0:0:0:
256,192,13184,1,8,0:0:0:0:
256,192,13259,1,8,0:0:0:0:
256,192,13334,1,0,0:0:0:0:
256,192,13409,1,8,0:0:0:0:
256,192,13484,1,0,0:0:0:0:
256,192,13634,1,8,0:0:0:0:
256,192,13709,1,0,0:0:0:0:
256,192,13784,1,8,0:0:0:0:
256,192,13934,1,8,0:0:0:0:
256,192,14009,1,0,0:0:0:0:
256,192,14084,1,8,0:0:0:0:
256,192,14159,1,8,0:0:0:0:
256,192,14234,1,0,0:0:0:0:
256,192,14384,1,0,0:0:0:0:
256,192,14459,1,8,0:0:0:0:
256,192,14534,1,8,0:0:0:0:
256,192,14609,1,0,0:0:0:0:
256,192,14684,1,0,0:0:0:0:
256,192,14834,1,8,0:0:0:0:
256,192,14909,1,0,0:0:0:0:
256,192,14984,1,8,0:0:0:0:
256,192,15134,1,8,0:0:0:0:
256,192,15209,1,8,0:0:0:0:
256,192,15284,1,0,0:0:0:0:
256,192,15359,1,8,0:0:0:0:
256,192,15434,1,0,0:0:0:0:
256,192,15584,1,8,0:0:0:0:
256,192,15659,1,8,0:0:0:0:
256,192,15734,1,0,0:0:0:0:
256,192,15809,1,0,0:0:0:0:
256,192,15884,1,8,0:0:0:0:
256,192,16034,1,8,0:0:0:0:
256,192,16184,1,0,0:0:0:0:
256,192,16259,1,8,0:0:0:0:
256,192,16334,1,8,0:0:0:0:
256,192,16409,1,8,0:0:0:0:
256,192,16484,1,0,0:0:0:0:
256,192,16634,1,12,0:0:0:0:
256,192,16784,1,0,0:0:0:0:
256,192,16859,1,0,0:0:0:0:
256,192,16934,1,8,0:0:0:0:
256,192,17084,1,0,0:0:0:0:
256,192,17159,1,0,0:0:0:0:
256,192,17234,1,8,0:0:0:0:
256,192,17384,1,0,0:0:0:0:
256,192,17534,1,8,0:0:0:0:
256,192,17609,1,8,0:0:0:0:
256,192,17684,1,0,0:0:0:0:
256,192,17834,1,12,0:0:0:0:
256,192,17984,1,0,0:0:0:0:
256,192,18059,1,8,0:0:0:0:
256,192,18134,1,0,0:0:0:0:
256,192,18284,1,8,0:0:0:0:
256,192,18359,1,8,0:0:0:0:
256,192,18434,1,0,0:0:0:0:
256,192,18509,1,0,0:0:0:0:
256,192,18584,1,8,0:0:0:0:
256,192,18734,1,0,0:0:0:0:
256,192,18809,1,0,0:0:0:0:
256,192,18884,1,8,0:0:0:0:
256,192,19034,1,4,0:0:0:0:
256,192,19184,1,8,0:0:0:0:
256,192,19259,1,0,0:0:0:0:
256,192,19334,1,8,0:0:0:0:
256,192,19484,1,8,0:0:0:0:
256,192,19634,1,12,0:0:0:0:
256,192,19784,1,0,0:0:0:0:
256,192,19859,1,8,0:0:0:0:
256,192,19934,1,0,0:0:0:0:
256,192,20084,1,0,0:0:0:0:
256,192,20234,1,4,0:0:0:0:
256,192,20384,1,8,0:0:0:0:
256,192,20434,1,8,0:0:0:0:
256,192,20484,1,0,0:0:0:0:
256,192,20534,1,0,0:0:0:0:
256,192,20684,1,8,0:0:0:0:
256,192,20734,1,8,0:0:0:0:
256,192,20784,1,0,0:0:0:0:
256,192,20834,1,0,0:0:0:0:
256,192,20984,1,8,0:0:0:0:
256,192,21059,1,8,0:0:0:0:
256,192,21134,1,8,0:0:0:0:
256,192,21209,1,8,0:0:0:0:
256,192,21284,1,0,0:0:0:0:
256,192,21334,1,0,0:0:0:0:
256,192,21384,1,0,0:0:0:0:
256,192,21434,1,8,0:0:0:0:
256,192,21584,1,0,0:0:0:0:
256,192,21659,1,8,0:0:0:0:
256,192,21734,1,8,0:0:0:0:
256,192,21809,1,0,0:0:0:0:
256,192,21884,1,0,0:0:0:0:
256,192,22034,1,8,0:0:0:0:
256,192,22184,1,8,0:0:0:0:
256,192,22259,1,8,0:0:0:0:
256,192,22334,1,0,0:0:0:0:
256,192,22409,1,0,0:0:0:0:
256,192,22484,1,8,0:0:0:0:
256,192,22634,1,0,0:0:0:0:
256,192,22784,1,8,0:0:0:0:
256,192,22859,1,8,0:0:0:0:
256,192,22934,1,8,0:0:0:0:
256,192,23009,1,0,0:0:0:0:
256,192,23084,1,0,0:0:0:0:
256,192,23234,1,0,0:0:0:0:
256,192,23384,1,8,0:0:0:0:
256,192,23459,1,0,0:0:0:0:
256,192,23534,1,8,0:0:0:0:
256,192,23609,1,8,0:0:0:0:
256,192,23684,1,0,0:0:0:0:
256,192,23834,1,8,0:0:0:0:
256,192,23909,1,8,0:0:0:0:
256,192,23984,1,0,0:0:0:0:
256,192,24134,1,8,0:0:0:0:
256,192,24209,1,8,0:0:0:0:
256,192,24284,1,0,0:0:0:0:
256,192,24434,1,8,0:0:0:0:
256,192,24509,1,8,0:0:0:0:
256,192,24584,1,0,0:0:0:0:
256,192,24734,1,8,0:0:0:0:
256,192,24884,1,0,0:0:0:0:
256,192,25034,1,8,0:0:0:0:
256,192,25109,1,8,0:0:0:0:
256,192,25184,1,0,0:0:0:0:
256,192,25259,1,0,0:0:0:0:
256,192,25334,1,8,0:0:0:0:
256,192,25409,1,8,0:0:0:0:
256,192,25484,1,0,0:0:0:0:
256,192,25634,1,8,0:0:0:0:
256,192,25709,1,0,0:0:0:0:
256,192,25784,1,8,0:0:0:0:
256,192,25859,1,0,0:0:0:0:
256,192,25934,1,8,0:0:0:0:
256,192,26009,1,8,0:0:0:0:
256,192,26084,1,8,0:0:0:0:
256,192,26234,1,4,0:0:0:0:
256,192,26384,1,8,0:0:0:0:
256,192,26459,1,0,0:0:0:0:
256,192,26534,1,8,0:0:0:0:
256,192,26609,1,8,0:0:0:0:
256,192,26684,1,0,0:0:0:0:
256,192,26834,1,8,0:0:0:0:
256,192,26984,1,0,0:0:0:0:
256,192,27059,1,8,0:0:0:0:
256,192,27134,1,0,0:0:0:0:
256,192,27209,1,0,0:0:0:0:
256,192,27284,1,8,0:0:0:0:
256,192,27434,1,0,0:0:0:0:
256,192,27584,1,8,0:0:0:0:
256,192,27659,1,8,0:0:0:0:
256,192,27734,1,0,0:0:0:0:
256,192,27809,1,0,0:0:0:0:
256,192,27884,1,8,0:0:0:0:
256,192,28034,1,8,0:0:0:0:
256,192,28109,1,0,0:0:0:0:
256,192,28184,1,8,0:0:0:0:
256,192,28334,1,0,0:0:0:0:
256,192,28484,1,8,0:0:0:0:
256,192,28634,1,8,0:0:0:0:
256,192,28709,1,8,0:0:0:0:
256,192,28784,1,0,0:0:0:0:
256,192,28934,1,8,0:0:0:0:
256,192,29009,1,8,0:0:0:0:
256,192,29084,1,0,0:0:0:0:
256,192,29234,1,8,0:0:0:0:
256,192,29309,1,8,0:0:0:0:
256,192,29384,1,0,0:0:0:0:
256,192,29534,1,8,0:0:0:0:
256,192,29684,1,0,0:0:0:0:
256,192,29834,1,8,0:0:0:0:
256,192,29984,1,8,0:0:0:0:
256,192,30034,1,8,0:0:0:0:
256,192,30084,1,0,0:0:0:0:
256,192,30134,1,0,0:0:0:0:
256,192,30284,1,8,0:0:0:0:
256,192,30334,1,8,0:0:0:0:
256,192,30384,1,0,0:0:0:0:
256,192,30434,1,0,0:0:0:0:
256,192,30584,1,8,0:0:0:0:
256,192,30659,1,8,0:0:0:0:
256,192,30734,1,8,0:0:0:0:
256,192,30809,1,8,0:0:0:0:
256,192,30884,1,0,0:0:0:0:
256,192,30934,1,0,0:0:0:0:
256,192,30984,1,0,0:0:0:0:
256,192,31034,1,8,0:0:0:0:
256,192,31184,1,8,0:0:0:0:
256,192,31259,1,8,0:0:0:0:
256,192,31334,1,0,0:0:0:0:
256,192,31409,1,8,0:0:0:0:
256,192,31484,1,0,0:0:0:0:
256,192,31634,1,8,0:0:0:0:
256,192,31709,1,8,0:0:0:0:
256,192,31784,1,0,0:0:0:0:
256,192,31934,1,8,0:0:0:0:
256,192,32009,1,0,0:0:0:0:
256,192,32084,1,8,0:0:0:0:
256,192,32159,1,8,0:0:0:0:
256,192,32234,1,0,0:0:0:0:
256,192,32384,1,0,0:0:0:0:
256,192,32459,1,0,0:0:0:0:
256,192,32534,1,8,0:0:0:0:
256,192,32609,1,8,0:0:0:0:
256,192,32684,1,0,0:0:0:0:
256,192,32834,1,8,0:0:0:0:
256,192,32909,1,0,0:0:0:0:
256,192,32984,1,8,0:0:0:0:
256,192,33134,1,8,0:0:0:0:
256,192,33209,1,8,0:0:0:0:
256,192,33284,1,0,0:0:0:0:
256,192,33359,1,0,0:0:0:0:
256,192,33434,1,8,0:0:0:0:
256,192,33584,1,0,0:0:0:0:
256,192,33659,1,0,0:0:0:0:
256,192,33734,1,8,0:0:0:0:
256,192,33809,1,8,0:0:0:0:
256,192,33884,1,0,0:0:0:0:
256,192,34034,1,8,0:0:0:0:
256,192,34109,1,8,0:0:0:0:
256,192,34184,1,0,0:0:0:0:
256,192,34334,1,8,0:0:0:0:
256,192,34409,1,0,0:0:0:0:
256,192,34484,1,0,0:0:0:0:
256,192,34559,1,8,0:0:0:0:
256,192,34634,1,8,0:0:0:0:
256,192,34784,1,0,0:0:0:0:
256,192,34859,1,8,0:0:0:0:
256,192,34934,1,8,0:0:0:0:
256,192,35009,1,8,0:0:0:0:
256,192,35084,1,0,0:0:0:0:
256,192,35234,1,8,0:0:0:0:
256,192,35309,1,8,0:0:0:0:
256,192,35384,1,0,0:0:0:0:
256,192,35534,1,8,0:0:0:0:
256,192,35609,1,0,0:0:0:0:
256,192,35684,1,8,0:0:0:0:
256,192,35759,1,8,0:0:0:0:
256,192,35834,1,0,0:0:0:0:
256,192,35984,1,8,0:0:0:0:
256,192,36059,1,8,0:0:0:0:
256,192,36134,1,0,0:0:0:0:
256,192,36284,1,8,0:0:0:0:
256,192,36359,1,0,0:0:0:0:
256,192,36434,1,8,0:0:0:0:
256,192,36509,1,0,0:0:0:0:
256,192,36584,1,8,0:0:0:0:
256,192,36734,1,0,0:0:0:0:
256,192,36809,1,0,0:0:0:0:
256,192,36884,1,8,0:0:0:0:
256,192,36959,1,8,0:0:0:0:
256,192,37034,1,0,0:0:0:0:
256,192,37184,1,8,0:0:0:0:
256,192,37259,1,8,0:0:0:0:
256,192,37334,1,8,0:0:0:0:
256,192,37484,1,8,0:0:0:0:
256,192,37559,1,8,0:0:0:0:
256,192,37634,1,0,0:0:0:0:
256,192,37709,1,0,0:0:0:0:
256,192,37784,1,8,0:0:0:0:
256,192,37934,1,8,0:0:0:0:
256,192,38009,1,0,0:0:0:0:
256,192,38084,1,0,0:0:0:0:
256,192,38159,1,0,0:0:0:0:
256,192,38234,1,8,0:0:0:0:
256,192,38384,1,0,0:0:0:0:
256,192,38459,1,0,0:0:0:0:
256,192,38534,1,8,0:0:0:0:
256,192,38609,1,8,0:0:0:0:
256,192,38684,1,0,0:0:0:0:
256,192,38759,1,0,0:0:0:0:
256,192,38834,1,8,0:0:0:0:
256,192,38984,1,0,0:0:0:0:
256,192,39134,1,8,0:0:0:0:
256,192,39209,1,0,0:0:0:0:
256,192,39284,1,0,0:0:0:0:
256,192,39359,1,8,0:0:0:0:
256,192,39434,1,8,0:0:0:0:
256,192,39584,1,0,0:0:0:0:
256,192,39659,1,8,0:0:0:0:
256,192,39734,1,8,0:0:0:0:
256,192,39809,1,8,0:0:0:0:
256,192,39884,1,0,0:0:0:0:
256,192,40034,1,8,0:0:0:0:
256,192,40109,1,8,0:0:0:0:
256,192,40184,1,0,0:0:0:0:
256,192,40334,1,8,0:0:0:0:
256,192,40409,1,8,0:0:0:0:
256,192,40484,1,8,0:0:0:0:
256,192,40559,1,8,0:0:0:0:
256,192,40634,1,0,0:0:0:0:
256,192,40784,1,8,0:0:0:0:
256,192,40859,1,0,0:0:0:0:
256,192,40934,1,8,0:0:0:0:
256,192,41009,1,8,0:0:0:0:
256,192,41084,1,0,0:0:0:0:
256,192,41234,1,8,0:0:0:0:
256,192,41309,1,0,0:0:0:0:
256,192,41384,1,8,0:0:0:0:
256,192,41534,1,0,0:0:0:0:
256,192,41609,1,8,0:0:0:0:
256,192,41684,1,8,0:0:0:0:
256,192,41759,1,8,0:0:0:0:
256,192,41834,1,0,0:0:0:0:
256,192,41984,1,8,0:0:0:0:
256,192,42059,1,8,0:0:0:0:
256,192,42134,1,0,0:0:0:0:
256,192,42209,1,8,0:0:0:0:
256,192,42284,1,8,0:0:0:0:
256,192,42434,1,8,0:0:0:0:
256,192,42509,1,8,0:0:0:0:
256,192,42584,1,0,0:0:0:0:
256,192,42734,1,8,0:0:0:0:
256,192,42809,1,0,0:0:0:0:
256,192,42884,1,0,0:0:0:0:
256,192,42959,1,0,0:0:0:0:
256,192,43034,1,8,0:0:0:0:
256,192,43184,1,0,0:0:0:0:
256,192,43259,1,0,0:0:0:0:
256,192,43334,1,8,0:0:0:0:
256,192,43484,1,0,0:0:0:0:
256,192,43559,1,0,0:0:0:0:
256,192,43634,1,8,0:0:0:0:
256,192,43709,1,0,0:0:0:0:
256,192,43784,1,8,0:0:0:0:
256,192,43934,1,8,0:0:0:0:
256,192,44009,1,8,0:0:0:0:
256,192,44084,1,0,0:0:0:0:
256,192,44159,1,0,0:0:0:0:
256,192,44234,1,8,0:0:0:0:
256,192,44384,1,8,0:0:0:0:
256,192,44459,1,8,0:0:0:0:
256,192,44534,1,0,0:0:0:0:
256,192,44684,1,0,0:0:0:0:
256,192,44759,1,0,0:0:0:0:
256,192,44834,1,8,0:0:0:0:
256,192,44984,1,8,0:0:0:0:
256,192,45059,1,8,0:0:0:0:
256,192,45134,1,0,0:0:0:0:
256,192,45209,1,0,0:0:0:0:
256,192,45284,1,8,0:0:0:0:
256,192,45434,1,0,0:0:0:0:
256,192,45584,1,8,0:0:0:0:
256,192,45659,1,8,0:0:0:0:
256,192,45734,1,8,0:0:0:0:
256,192,45809,1,8,0:0:0:0:
256,192,45884,1,0,0:0:0:0:
256,192,46034,1,8,0:0:0:0:
256,192,46109,1,0,0:0:0:0:
256,192,46184,1,8,0:0:0:0:
256,192,46334,1,8,0:0:0:0:
256,192,46484,1,0,0:0:0:0:
256,192,46634,1,8,0:0:0:0:
256,192,46709,1,8,0:0:0:0:
256,192,46784,1,8,0:0:0:0:
256,192,46859,1,8,0:0:0:0:
256,192,46934,1,0,0:0:0:0:
256,192,47084,1,0,0:0:0:0:
256,192,47234,1,8,0:0:0:0:
256,192,47309,1,8,0:0:0:0:
256,192,47384,1,0,0:0:0:0:
256,192,47459,1,0,0:0:0:0:
256,192,47534,1,8,0:0:0:0:
256,192,47609,1,8,0:0:0:0:
256,192,47684,1,0,0:0:0:0:
256,192,47834,1,8,0:0:0:0:
256,192,47984,1,0,0:0:0:0:
256,192,48059,1,0,0:0:0:0:
256,192,48134,1,8,0:0:0:0:
256,192,48209,1,8,0:0:0:0:
256,192,48284,1,8,0:0:0:0:
256,192,48359,1,0,0:0:0:0:
256,192,48434,1,8,0:0:0:0:
256,192,48509,1,8,0:0:0:0:
256,192,48584,1,0,0:0:0:0:
256,192,48659,1,0,0:0:0:0:
256,192,48734,1,8,0:0:0:0:
256,192,48809,1,0,0:0:0:0:
256,192,48884,1,0,0:0:0:0:
256,192,48959,1,0,0:0:0:0:
256,192,49034,1,8,0:0:0:0:
256,192,49184,1,0,0:0:0:0:
256,192,49234,1,0,0:0:0:0:
256,192,49284,1,8,0:0:0:0:
256,192,49334,1,8,0:0:0:0:
256,192,49484,1,0,0:0:0:0:
256,192,49534,1,0,0:0:0:0:
256,192,49584,1,8,0:0:0:0:
256,192,49634,1,8,0:0:0:0:
256,192,49784,1,0,0:0:0:0:
256,192,49859,1,0,0:0:0:0:
256,192,49934,1,8,0:0:0:0:
256,192,50009,1,8,0:0:0:0:
256,192,50084,1,0,0:0:0:0:
256,192,50134,1,0,0:0:0:0:
256,192,50184,1,0,0:0:0:0:
256,192,50234,1,8,0:0:0:0:
256,192,50384,1,8,0:0:0:0:
256,192,50459,1,8,0:0:0:0:
256,192,50534,1,0,0:0:0:0:
256,192,50609,1,8,0:0:0:0:
256,192,50684,1,0,0:0:0:0:
256,192,50759,1,0,0:0:0:0:
256,192,50834,1,8,0:0:0:0:
256,192,50984,1,0,0:0:0:0:
256,192,51059,1,0,0:0:0:0:
256,192,51134,1,8,0:0:0:0:
256,192,51209,1,0,0:0:0:0:
256,192,51284,1,8,0:0:0:0:
256,192,51434,1,0,0:0:0:0:
256,192,51584,1,8,0:0:0:0:
256,192,51659,1,0,0:0:0:0:
256,192,51734,1,8,0:0:0:0:
256,192,51809,1,8,0:0:0:0:
256,192,51884,1,0,0:0:0:0:
256,192,51959,1,0,0:0:0:0:
256,192,52034,1,8,0:0:0:0:
256,192,52184,1,8,0:0:0:0:
256,192,52259,1,0,0:0:0:0:
256,192,52334,1,8,0:0:0:0:
256,192,52409,1,8,0:0:0:0:
256,192,52484,1,0,0:0:0:0:
256,192,52634,1,8,0:0:0:0:
256,192,52784,1,0,0:0:0:0:
256,192,52859,1,0,0:0:0:0:
256,192,52934,1,8,0:0:0:0:
256,192,53009,1,8,0:0:0:0:
256,192,53084,1,0,0:0:0:0:
256,192,53159,1,0,0:0:0:0:
256,192,53234,1,8,0:0:0:0:
256,192,53384,1,8,0:0:0:0:
256,192,53459,1,0,0:0:0:0:
256,192,53534,1,8,0:0:0:0:
256,192,53609,1,0,0:0:0:0:
256,192,53684,1,0,0:0:0:0:
256,192,53834,1,8,0:0:0:0:
256,192,53984,1,0,0:0:0:0:
256,192,54059,1,8,0:0:0:0:
256,192,54134,1,8,0:0:0:0:
256,192,54209,1,8,0:0:0:0:
256,192,54284,1,0,0:0:0:0:
256,192,54434,1,8,0:0:0:0:
256,192,54509,1,8,0:0:0:0:
256,192,54584,1,0,0:0:0:0:
256,192,54659,1,0,0:0:0:0:
256,192,54734,1,8,0:0:0:0:
256,192,54884,1,8,0:0:0:0:
256,192,55034,1,0,0:0:0:0:
256,192,55109,1,0,0:0:0:0:
256,192,55184,1,8,0:0:0:0:
256,192,55259,1,8,0:0:0:0:
256,192,55334,1,0,0:0:0:0:
256,192,55484,1,8,0:0:0:0:
256,192,55559,1,0,0:0:0:0:
256,192,55634,1,8,0:0:0:0:
256,192,55784,1,8,0:0:0:0:
256,192,55859,1,8,0:0:0:0:
256,192,55934,1,0,0:0:0:0:
256,192,56009,1,0,0:0:0:0:
256,192,56084,1,8,0:0:0:0:
256,192,56234,1,0,0:0:0:0:
256,192,56384,1,8,0:0:0:0:
256,192,56459,1,8,0:0:0:0:
256,192,56534,1,0,0:0:0:0:
256,192,56684,1,8,0:0:0:0:
256,192,56759,1,8,0:0:0:0:
256,192,56834,1,0,0:0:0:0:
256,192,56984,1,8,0:0:0:0:
256,192,57059,1,0,0:0:0:0:
256,192,57134,1,8,0:0:0:0:
256,192,57209,1,8,0:0:0:0:
256,192,57284,1,0,0:0:0:0:
256,192,57434,1,8,0:0:0:0:
256,192,57584,1,0,0:0:0:0:
256,192,57659,1,0,0:0:0:0:
256,192,57734,1,8,0:0:0:0:
256,192,57884,1,0,0:0:0:0:
256,192,57959,1,0,0:0:0:0:
256,192,58034,1,8,0:0:0:0:
256,192,58184,1,8,0:0:0:0:
256,192,58259,1,0,0:0:0:0:
256,192,58334,1,8,0:0:0:0:
256,192,58409,1,0,0:0:0:0:
256,192,58484,1,0,0:0:0:0:
256,192,58634,1,8,0:0:0:0:
256,192,58784,1,0,0:0:0:0:
256,192,58859,1,8,0:0:0:0:
256,192,58934,1,8,0:0:0:0:
256,192,59009,1,8,0:0:0:0:
256,192,59084,1,0,0:0:0:0:
256,192,59234,1,8,0:0:0:0:
256,192,59309,1,8,0:0:0:0:
256,192,59384,1,8,0:0:0:0:
256,192,59459,1,0,0:0:0:0:
256,192,59534,1,8,0:0:0:0:
256,192,59684,1,8,0:0:0:0:
256,192,59834,1,0,0:0:0:0:
256,192,59984,1,8,0:0:0:0:
256,192,60059,1,0,0:0:0:0:
256,192,60134,1,8,0:0:0:0:
256,192,60209,1,8,0:0:0:0:
256,192,60284,1,0,0:0:0:0:
256,192,60434,1,8,0:0:0:0:
256,192,60509,1,0,0:0:0:0:
256,192,60584,1,8,0:0:0:0:
256,192,60734,1,0,0:0:0:0:
256,192,60809,1,8,0:0:0:0:
256,192,60884,1,8,0:0:0:0:
256,192,61034,1,0,0:0:0:0:
256,192,61184,1,8,0:0:0:0:
256,192,61259,1,8,0:0:0:0:
256,192,61334,1,0,0:0:0:0:
256,192,61409,1,8,0:0:0:0:
256,192,61484,1,8,0:0:0:0:
256,192,61634,1,8,0:0:0:0:
256,192,61709,1,8,0:0:0:0:
256,192,61784,1,0,0:0:0:0:
256,192,61934,1,8,0:0:0:0:
256,192,62009,1,0,0:0:0:0:
256,192,62084,1,0,0:0:0:0:
256,192,62234,1,8,0:0:0:0:
256,192,62384,1,0,0:0:0:0:
256,192,62459,1,0,0:0:0:0:
256,192,62534,1,8,0:0:0:0:
256,192,62684,1,0,0:0:0:0:
256,192,62834,1,8,0:0:0:0:
256,192,62909,1,0,0:0:0:0:
256,192,62984,1,8,0:0:0:0:
256,192,63059,1,0,0:0:0:0:
256,192,63134,1,8,0:0:0:0:
256,192,63209,1,8,0:0:0:0:
256,192,63284,1,0,0:0:0:0:
256,192,63434,1,8,0:0:0:0:
256,192,63584,1,8,0:0:0:0:
256,192,63734,1,0,0:0:0:0:
256,192,63809,1,8,0:0:0:0:
256,192,63884,1,0,0:0:0:0:
256,192,64034,1,8,0:0:0:0:
256,192,64109,1,0,0:0:0:0:
256,192,64184,1,8,0:0:0:0:
256,192,64259,1,8,0:0:0:0:
256,192,64334,1,0,0:0:0:0:
256,192,64484,1,8,0:0:0:0:
256,192,64634,1,0,0:0:0:0:
256,192,64709,1,0,0:0:0:0:
256,192,64784,1,8,0:0:0:0:
256,192,64859,1,8,0:0:0:0:
256,192,64934,1,8,0:0:0:0:
256,192,65009,1,8,0:0:0:0:
256,192,65084,1,0,0:0:0:0:
256,192,65159,1,0,0:0:0:0:
256,192,65234,1,0,0:0:0:0:
256,192,65309,1,0,0:0:0:0:
256,192,65384,1,8,0:0:0:0:
256,192,65459,1,0,0:0:0:0:
256,192,65534,1,8,0:0:0:0:
256,192,65609,1,8,0:0:0:0:
256,192,65684,1,0,0:0:0:0:
256,192,65759,1,0,0:0:0:0:
256,192,65834,1,8,0:0:0:0:
256,192,65909,1,8,0:0:0:0:
256,192,65984,1,8,0:0:0:0:
256,192,66059,1,8,0:0:0:0:
256,192,66134,1,0,0:0:0:0:
256,192,66209,1,0,0:0:0:0:
256,192,66284,1,0,0:0:0:0:
256,192,66359,1,0,0:0:0:0:
256,192,66434,1,8,0:0:0:0:
256,192,66509,1,8,0:0:0:0:
256,192,66584,1,0,0:0:0:0:
256,192,66659,1,8,0:0:0:0:
256,192,66734,1,0,0:0:0:0:
256,192,66809,1,0,0:0:0:0:
256,192,66884,1,8,0:0:0:0:
256,192,67034,1,8,0:0:0:0:
256,192,67109,1,8,0:0:0:0:
256,192,67184,1,8,0:0:0:0:
256,192,67259,1,8,0:0:0:0:
256,192,67334,1,0,0:0:0:0:
256,192,67409,1,0,0:0:0:0:
256,192,67484,1,0,0:0:0:0:
256,192,67559,1,0,0:0:0:0:
256,192,67634,1,8,0:0:0:0:
256,192,67709,1,8,0:0:0:0:
256,192,67784,1,8,0:0:0:0:
256,192,67859,1,8,0:0:0:0:
256,192,67934,1,0,0:0:0:0:
256,192,68009,1,8,0:0:0:0:
256,192,68084,1,0,0:0:0:0:
256,192,68134,1,0,0:0:0:0:
256,192,68184,1,8,0:0:0:0:
256,192,68234,1,8,0:0:0:0:
256,192,68384,1,0,0:0:0:0:
256,192,68434,1,0,0:0:0:0:
256,192,68484,1,8,0:0:0:0:
256,192,68534,1,8,0:0:0:0:
256,192,68684,1,0,0:0:0:0:
256,192,68734,1,0,0:0:0:0:
256,192,68784,1,8,0:0:0:0:
256,192,68834,1,8,0:0:0:0:
256,192,68984,1,0,0:0:0:0:
256,192,69034,1,0,0:0:0:0:
256,192,69084,1,8,0:0:0:0:
256,192,69134,1,8,0:0:0:0:
256,192,69209,1,0,0:0:0:0:
256,192,69284,1,8,0:0:0:0:
256,192,69334,1,8,0:0:0:0:
256,192,69384,1,8,0:0:0:0:
256,192,69434,1,4,0:0:0:0:
256,192,69584,8,0,74084,0:0:0:0:
252,188,74234,5,4,0:0:0:0:
252,188,74834,1,8,0:0:0:0:
252,188,76034,1,8,0:0:0:0:
252,188,76234,1,8,0:0:0:0:
252,188,76434,1,0,0:0:0:0:
252,188,76634,1,8,0:0:0:0:
252,188,77234,1,8,0:0:0:0:
252,188,78434,1,0,0:0:0:0:
252,188,79034,1,0,0:0:0:0:
252,188,79634,1,8,0:0:0:0:
252,188,80834,1,8,0:0:0:0:
252,188,81034,1,8,0:0:0:0:
252,188,81234,1,0,0:0:0:0:
252,188,81434,1,8,0:0:0:0:
252,188,82034,1,8,0:0:0:0:
252,188,82934,1,0,0:0:0:0:
252,188,83234,1,8,0:0:0:0:
252,188,83534,1,8,0:0:0:0:
252,188,83834,1,4,0:0:0:0:
252,188,85034,1,8,0:0:0:0:
252,188,85634,1,0,0:0:0:0:
252,188,86234,1,8,0:0:0:0:
252,188,87434,1,8,0:0:0:0:
252,188,87734,1,0,0:0:0:0:
252,188,88034,1,0,0:0:0:0:
252,188,88234,1,8,0:0:0:0:
252,188,88434,1,8,0:0:0:0:
252,188,88634,1,8,0:0:0:0:
252,188,89234,1,0,0:0:0:0:
252,188,90134,1,0,0:0:0:0:
252,188,90434,1,8,0:0:0:0:
252,188,90734,1,8,0:0:0:0:
252,188,91034,1,8,0:0:0:0:
252,188,91634,1,0,0:0:0:0:
252,188,92234,1,8,0:0:0:0:
252,188,92834,1,8,0:0:0:0:
252,188,93434,1,4,0:0:0:0:
252,188,93584,1,0,0:0:0:0:
252,188,93659,1,0,0:0:0:0:
252,188,93734,1,8,0:0:0:0:
252,188,93884,1,8,0:0:0:0:
252,188,93959,1,0,0:0:0:0:
252,188,94034,1,8,0:0:0:0:
252,188,94184,1,8,0:0:0:0:
252,188,94259,1,8,0:0:0:0:
252,188,94334,1,0,0:0:0:0:
252,188,94409,1,0,0:0:0:0:
252,188,94484,1,8,0:0:0:0:
252,188,94634,1,8,0:0:0:0:
252,188,94709,1,8,0:0:0:0:
252,188,94784,1,8,0:0:0:0:
252,188,94934,1,0,0:0:0:0:
252,188,95084,1,0,0:0:0:0:
252,188,95234,1,8,0:0:0:0:
252,188,95434,1,8,0:0:0:0:
252,188,95634,1,0,0:0:0:0:
252,188,95834,1,8,0:0:0:0:
252,188,96434,1,0,0:0:0:0:
252,188,96509,1,0,0:0:0:0:
252,188,96584,1,0,0:0:0:0:
252,188,96659,1,0,0:0:0:0:
252,188,96734,1,8,0:0:0:0:
252,188,96809,1,8,0:0:0:0:
252,188,96884,1,8,0:0:0:0:
252,188,96959,1,8,0:0:0:0:
252,188,97034,1,0,0:0:0:0:
252,188,97184,1,8,0:0:0:0:
252,188,97259,1,0,0:0:0:0:
252,188,97334,1,8,0:0:0:0:
252,188,97409,1,8,0:0:0:0:
252,188,97484,1,8,0:0:0:0:
252,188,97634,1,8,0:0:0:0:
252,188,97709,1,8,0:0:0:0:
252,188,97784,1,0,0:0:0:0:
252,188,97934,1,12,0:0:0:0:
252,188,98084,1,4,0:0:0:0:
252,188,98234,1,4,0:0:0:0:
252,188,98384,1,8,0:0:0:0:
252,188,98459,1,8,0:0:0:0:
252,188,98534,1,0,0:0:0:0:
252,188,98609,1,0,0:0:0:0:
252,188,98684,1,8,0:0:0:0:
252,188,98834,1,8,0:0:0:0:
252,188,98909,1,0,0:0:0:0:
252,188,98984,1,0,0:0:0:0:
252,188,99134,1,8,0:0:0:0:
252,188,99209,1,8,0:0:0:0:
252,188,99284,1,8,0:0:0:0:
252,188,99359,1,8,0:0:0:0:
252,188,99434,1,0,0:0:0:0:
252,188,99509,1,0,0:0:0:0:
252,188,99584,1,0,0:0:0:0:
252,188,99659,1,0,0:0:0:0:
252,188,99734,1,8,0:0:0:0:
252,188,99884,1,0,0:0:0:0:
252,188,100034,1,8,0:0:0:0:
252,188,100234,1,8,0:0:0:0:
252,188,100434,1,0,0:0:0:0:
252,188,100634,1,8,0:0:0:0:
252,188,101234,1,8,0:0:0:0:
252,188,101384,1,0,0:0:0:0:
252,188,101459,1,0,0:0:0:0:
252,188,101534,1,8,0:0:0:0:
252,188,101609,1,8,0:0:0:0:
252,188,101684,1,0,0:0:0:0:
252,188,101834,1,8,0:0:0:0:
252,188,101984,1,0,0:0:0:0:
252,188,102134,1,8,0:0:0:0:
252,188,102434,1,8,0:0:0:0:
252,188,102734,1,8,0:0:0:0:
252,188,102884,1,4,0:0:0:0:
252,188,103034,1,4,0:0:0:0:
252,188,104234,1,8,0:0:0:0:
252,188,104834,1,0,0:0:0:0:
252,188,105284,1,12,0:0:0:0:
252,188,105434,1,4,0:0:0:0:
252,188,106484,1,4,0:0:0:0:
252,188,106634,1,12,0:0:0:0:
252,188,106934,1,0,0:0:0:0:
252,188,107234,1,0,0:0:0:0:
252,188,107434,1,8,0:0:0:0:
252,188,107634,1,8,0:0:0:0:
252,188,107834,1,12,0:0:0:0:
252,188,108434,1,8,0:0:0:0:
252,188,108884,1,4,0:0:0:0:
252,188,109034,1,4,0:0:0:0:
252,188,109334,1,8,0:0:0:0:
252,188,109634,1,8,0:0:0:0:
252,188,109934,1,8,0:0:0:0:
252,188,110084,1,4,0:0:0:0:
252,188,110234,1,4,0:0:0:0:
252,188,110384,1,4,0:0:0:0:
252,188,110684,1,8,0:0:0:0:
252,188,110759,1,8,0:0:0:0:
252,188,110834,1,0,0:0:0:0:
252,188,110984,1,4,0:0:0:0:
252,188,111284,1,8,0:0:0:0:
252,188,111359,1,8,0:0:0:0:
252,188,111434,1,0,0:0:0:0:
252,188,111584,1,8,0:0:0:0:
252,188,111659,1,0,0:0:0:0:
252,188,111734,1,8,0:0:0:0:
252,188,111809,1,8,0:0:0:0:
252,188,111884,1,8,0:0:0:0:
252,188,111959,1,8,0:0:0:0:
252,188,112034,1,0,0:0:0:0:
252,188,112184,1,0,0:0:0:0:
252,188,112259,1,0,0:0:0:0:
252,188,112334,1,8,0:0:0:0:
252,188,112409,1,8,0:0:0:0:
252,188,112484,1,8,0:0:0:0:
252,188,112559,1,8,0:0:0:0:
252,188,112634,1,4,0:0:0:0:
252,188,112784,1,8,0:0:0:0:
252,188,112934,1,8,0:0:0:0:
252,188,113084,1,8,0:0:0:0:
252,188,113234,1,8,0:0:0:0:
252,188,113384,1,8,0:0:0:0:
252,188,113534,1,8,0:0:0:0:
252,188,113684,1,8,0:0:0:0:
252,188,113834,1,12,0:0:0:0:
252,188,113984,1,0,0:0:0:0:
252,188,114059,1,8,0:0:0:0:
252,188,114209,1,8,0:0:0:0:
252,188,114284,1,0,0:0:0:0:
252,188,114359,1,0,0:0:0:0:
252,188,114434,1,8,0:0:0:0:
252,188,114584,1,8,0:0:0:0:
252,188,114734,1,0,0:0:0:0:
252,188,115034,1,12,0:0:0:0:
252,188,115184,1,0,0:0:0:0:
252,188,115259,1,0,0:0:0:0:
252,188,115334,1,8,0:0:0:0:
252,188,115409,1,8,0:0:0:0:
252,188,115484,1,0,0:0:0:0:
252,188,115559,1,0,0:0:0:0:
252,188,115634,1,8,0:0:0:0:
252,188,115709,1,0,0:0:0:0:
252,188,115784,1,8,0:0:0:0:
252,188,115859,1,8,0:0:0:0:
252,188,115934,1,0,0:0:0:0:
252,188,116009,1,8,0:0:0:0:
252,188,116084,1,8,0:0:0:0:
252,188,116159,1,8,0:0:0:0:
252,188,116234,1,0,0:0:0:0:
252,188,116384,1,8,0:0:0:0:
252,188,116459,1,0,0:0:0:0:
252,188,116534,1,8,0:0:0:0:
252,188,116609,1,8,0:0:0:0:
252,188,116684,1,0,0:0:0:0:
252,188,116759,1,0,0:0:0:0:
252,188,116834,1,8,0:0:0:0:
252,188,116909,1,0,0:0:0:0:
252,188,116984,1,0,0:0:0:0:
252,188,117134,1,8,0:0:0:0:
252,188,117209,1,0,0:0:0:0:
252,188,117284,1,8,0:0:0:0:
252,188,117359,1,8,0:0:0:0:
252,188,117434,1,0,0:0:0:0:
252,188,117584,1,8,0:0:0:0:
252,188,117659,1,8,0:0:0:0:
252,188,117734,1,8,0:0:0:0:
252,188,117809,1,8,0:0:0:0:
252,188,117884,1,0,0:0:0:0:
252,188,117959,1,0,0:0:0:0:
252,188,118034,1,8,0:0:0:0:
252,188,118109,1,0,0:0:0:0:
252,188,118184,1,8,0:0:0:0:
252,188,118259,1,8,0:0:0:0:
252,188,118334,1,0,0:0:0:0:
252,188,118409,1,0,0:0:0:0:
252,188,118484,1,8,0:0:0:0:
252,188,118559,1,0,0:0:0:0:
252,188,118634,1,8,0:0:0:0:
252,188,118784,1,0,0:0:0:0:
252,188,118859,1,0,0:0:0:0:
252,188,118934,1,8,0:0:0:0:
252,188,119009,1,8,0:0:0:0:
252,188,119084,1,0,0:0:0:0:
252,188,119159,1,0,0:0:0:0:
252,188,119234,1,8,0:0:0:0:
252,188,119384,1,8,0:0:0:0:
252,188,119459,1,0,0:0:0:0:
252,188,119534,1,8,0:0:0:0:
252,188,119609,1,8,0:0:0:0:
252,188,119684,1,0,0:0:0:0:
252,188,119834,1,8,0:0:0:0:
252,188,119909,1,0,0:0:0:0:
252,188,119984,1,8,0:0:0:0:
252,188,120059,1,0,0:0:0:0:
252,188,120134,1,8,0:0:0:0:
252,188,120209,1,8,0:0:0:0:
252,188,120284,1,0,0:0:0:0:
252,188,120359,1,0,0:0:0:0:
252,188,120434,1,8,0:0:0:0:
252,188,120509,1,0,0:0:0:0:
252,188,120584,1,8,0:0:0:0:
252,188,120659,1,8,0:0:0:0:
252,188,120734,1,0,0:0:0:0:
252,188,120809,1,0,0:0:0:0:
252,188,120884,1,8,0:0:0:0:
252,188,120959,1,8,0:0:0:0:
252,188,121034,1,8,0:0:0:0:
252,188,121184,1,8,0:0:0:0:
252,188,121259,1,0,0:0:0:0:
252,188,121334,1,8,0:0:0:0:
252,188,121409,1,8,0:0:0:0:
252,188,121484,1,0,0:0:0:0:
252,188,121559,1,0,0:0:0:0:
252,188,121634,1,8,0:0:0:0:
252,188,121709,1,0,0:0:0:0:
252,188,121784,1,8,0:0:0:0:
252,188,121934,1,0,0:0:0:0:
252,188,122009,1,0,0:0:0:0:
252,188,122084,1,8,0:0:0:0:
252,188,122159,1,8,0:0:0:0:
252,188,122234,1,0,0:0:0:0:
252,188,122384,1,8,0:0:0:0:
252,188,122459,1,0,0:0:0:0:
252,188,122534,1,8,0:0:0:0:
252,188,122609,1,8,0:0:0:0:
252,188,122684,1,0,0:0:0:0:
252,188,122759,1,0,0:0:0:0:
252,188,122834,1,8,0:0:0:0:
252,188,122909,1,0,0:0:0:0:
252,188,122984,1,8,0:0:0:0:
252,188,123059,1,0,0:0:0:0:
252,188,123134,1,8,0:0:0:0:
252,188,123209,1,8,0:0:0:0:
252,188,123284,1,0,0:0:0:0:
252,188,123359,1,8,0:0:0:0:
252,188,123434,1,0,0:0:0:0:
252,188,123584,1,8,0:0:0:0:
252,188,123659,1,8,0:0:0:0:
252,188,123734,1,0,0:0:0:0:
252,188,123809,1,8,0:0:0:0:
252,188,123884,1,0,0:0:0:0:
252,188,123959,1,0,0:0:0:0:
252,188,124034,1,8,0:0:0:0:
252,188,124184,1,0,0:0:0:0:
252,188,124259,1,0,0:0:0:0:
252,188,124334,1,8,0:0:0:0:
252,188,124409,1,8,0:0:0:0:
252,188,124484,1,0,0:0:0:0:
252,188,124634,1,8,0:0:0:0:
252,188,124709,1,0,0:0:0:0:
252,188,124784,1,0,0:0:0:0:
252,188,124859,1,0,0:0:0:0:
252,188,124934,1,8,0:0:0:0:
252,188,125009,1,8,0:0:0:0:
252,188,125084,1,0,0:0:0:0:
252,188,125159,1,0,0:0:0:0:
252,188,125234,1,8,0:0:0:0:
252,188,125309,1,0,0:0:0:0:
252,188,125384,1,8,0:0:0:0:
252,188,125459,1,8,0:0:0:0:
252,188,125534,1,0,0:0:0:0:
252,188,125609,1,0,0:0:0:0:
252,188,125684,1,8,0:0:0:0:
252,188,125759,1,0,0:0:0:0:
252,188,125834,1,8,0:0:0:0:
252,188,125984,1,0,0:0:0:0:
252,188,126059,1,0,0:0:0:0:
252,188,126134,1,8,0:0:0:0:
252,188,126209,1,8,0:0:0:0:
252,188,126284,1,8,0:0:0:0:
252,188,126359,1,8,0:0:0:0:
252,188,126434,1,0,0:0:0:0:
252,188,126509,1,0,0:0:0:0:
252,188,126584,1,8,0:0:0:0:
252,188,126734,1,8,0:0:0:0:
252,188,126809,1,8,0:0:0:0:
252,188,126884,1,0,0:0:0:0:
252,188,126959,1,8,0:0:0:0:
252,188,127034,1,0,0:0:0:0:
252,188,127184,1,8,0:0:0:0:
252,188,127259,1,0,0:0:0:0:
252,188,127334,1,8,0:0:0:0:
252,188,127409,1,8,0:0:0:0:
252,188,127484,1,0,0:0:0:0:
252,188,127559,1,0,0:0:0:0:
252,188,127634,1,8,0:0:0:0:
252,188,127709,1,8,0:0:0:0:
252,188,127784,1,0,0:0:0:0:
252,188,127859,1,8,0:0:0:0:
252,188,127934,1,0,0:0:0:0:
252,188,128009,1,0,0:0:0:0:
252,188,128084,1,8,0:0:0:0:
252,188,128159,1,8,0:0:0:0:
252,188,128234,1,0,0:0:0:0:
252,188,128384,1,8,0:0:0:0:
252,188,128459,1,0,0:0:0:0:
252,188,128534,1,8,0:0:0:0:
252,188,128609,1,0,0:0:0:0:
252,188,128684,1,0,0:0:0:0:
252,188,128759,1,0,0:0:0:0:
252,188,128834,1,8,0:0:0:0:
252,188,128984,1,0,0:0:0:0:
252,188,129059,1,0,0:0:0:0:
252,188,129134,1,8,0:0:0:0:
252,188,129209,1,0,0:0:0:0:
252,188,129284,1,8,0:0:0:0:
252,188,129434,1,8,0:0:0:0:
252,188,129509,1,8,0:0:0:0:
252,188,129584,1,0,0:0:0:0:
252,188,129659,1,8,0:0:0:0:
252,188,129734,1,0,0:0:0:0:
252,188,129809,1,0,0:0:0:0:
252,188,129884,1,8,0:0:0:0:
252,188,129959,1,0,0:0:0:0:
252,188,130034,1,8,0:0:0:0:
252,188,130109,1,8,0:0:0:0:
252,188,130184,1,0,0:0:0:0:
252,188,130259,1,0,0:0:0:0:
252,188,130334,1,8,0:0:0:0:
252,188,130484,1,8,0:0:0:0:
252,188,130559,1,8,0:0:0:0:
252,188,130634,1,0,0:0:0:0:
252,188,130709,1,0,0:0:0:0:
252,188,130784,1,8,0:0:0:0:
252,188,130859,1,8,0:0:0:0:
252,188,130934,1,0,0:0:0:0:
252,188,131009,1,8,0:0:0:0:
252,188,131084,1,0,0:0:0:0:
252,188,131234,1,8,0:0:0:0:
252,188,131309,1,0,0:0:0:0:
252,188,131384,1,8,0:0:0:0:
252,188,131459,1,8,0:0:0:0:
252,188,131534,1,0,0:0:0:0:
252,188,131609,1,8,0:0:0:0:
252,188,131684,1,0,0:0:0:0:
252,188,131834,1,8,0:0:0:0:
252,188,131909,1,8,0:0:0:0:
252,188,131984,1,8,0:0:0:0:
252,188,132059,1,0,0:0:0:0:
252,188,132134,1,8,0:0:0:0:
252,188,132209,1,8,0:0:0:0:
252,188,132284,1,8,0:0:0:0:
252,188,132359,1,0,0:0:0:0:
252,188,132434,1,8,0:0:0:0:
252,188,132509,1,8,0:0:0:0:
252,188,132584,1,0,0:0:0:0:
252,188,132659,1,0,0:0:0:0:
252,188,132734,1,8,0:0:0:0:
252,188,132809,1,8,0:0:0:0:
252,188,132884,1,0,0:0:0:0:
252,188,132959,1,0,0:0:0:0:
252,188,133034,1,8,0:0:0:0:
252,188,133109,1,0,0:0:0:0:
252,188,133184,1,8,0:0:0:0:
252,188,133259,1,8,0:0:0:0:
252,188,133334,1,0,0:0:0:0:
252,188,133409,1,8,0:0:0:0:
252,188,133484,1,8,0:0:0:0:
252,188,133559,1,8,0:0:0:0:
252,188,133634,1,0,0:0:0:0:
252,188,133709,1,0,0:0:0:0:
252,188,133784,1,8,0:0:0:0:
252,188,133834,1,8,0:0:0:0:
252,188,133884,1,0,0:0:0:0:
252,188,133934,1,0,0:0:0:0:
252,188,134009,1,0,0:0:0:0:
252,188,134084,1,0,0:0:0:0:
252,188,134234,1,12,0:0:0:0:
252,188,134384,1,0,0:0:0:0:
252,188,134459,1,0,0:0:0:0:
252,188,134534,1,8,0:0:0:0:
252,188,134609,1,8,0:0:0:0:
252,188,134684,1,0,0:0:0:0:
252,188,134759,1,0,0:0:0:0:
252,188,134834,1,8,0:0:0:0:
252,188,134909,1,0,0:0:0:0:
252,188,134984,1,8,0:0:0:0:
252,188,135059,1,0,0:0:0:0:
252,188,135134,1,8,0:0:0:0:
252,188,135209,1,8,0:0:0:0:
252,188,135284,1,0,0:0:0:0:
252,188,135359,1,0,0:0:0:0:
252,188,135434,1,8,0:0:0:0:
252,188,135584,1,8,0:0:0:0:
252,188,135659,1,0,0:0:0:0:
252,188,135734,1,0,0:0:0:0:
252,188,135809,1,8,0:0:0:0:
252,188,135884,1,0,0:0:0:0:
252,188,135959,1,0,0:0:0:0:
252,188,136034,1,8,0:0:0:0:
252,188,136109,1,0,0:0:0:0:
252,188,136184,1,0,0:0:0:0:
252,188,136259,1,0,0:0:0:0:
252,188,136334,1,8,0:0:0:0:
252,188,136484,1,8,0:0:0:0:
252,188,136559,1,0,0:0:0:0:
252,188,136634,1,8,0:0:0:0:
252,188,136784,1,8,0:0:0:0:
252,188,136859,1,0,0:0:0:0:
252,188,136934,1,8,0:0:0:0:
252,188,137009,1,8,0:0:0:0:
252,188,137084,1,0,0:0:0:0:
252,188,137159,1,0,0:0:0:0:
252,188,137234,1,8,0:0:0:0:
252,188,137309,1,0,0:0:0:0:
252,188,137384,1,8,0:0:0:0:
252,188,137459,1,0,0:0:0:0:
252,188,137534,1,8,0:0:0:0:
252,188,137609,1,8,0:0:0:0:
252,188,137684,1,0,0:0:0:0:
252,188,137759,1,0,0:0:0:0:
252,188,137834,1,8,0:0:0:0:
252,188,137984,1,8,0:0:0:0:
252,188,138059,1,0,0:0:0:0:
252,188,138134,1,0,0:0:0:0:
252,188,138209,1,8,0:0:0:0:
252,188,138284,1,8,0:0:0:0:
252,188,138359,1,0,0:0:0:0:
252,188,138434,1,8,0:0:0:0:
252,188,138509,1,8,0:0:0:0:
252,188,138584,1,0,0:0:0:0:
252,188,138659,1,0,0:0:0:0:
252,188,138734,1,8,0:0:0:0:
252,188,138884,1,0,0:0:0:0:
252,188,138959,1,8,0:0:0:0:
252,188,139034,1,8,0:0:0:0:
252,188,139184,1,0,0:0:0:0:
252,188,139259,1,8,0:0:0:0:
252,188,139334,1,0,0:0:0:0:
252,188,139409,1,0,0:0:0:0:
252,188,139484,1,8,0:0:0:0:
252,188,139559,1,8,0:0:0:0:
252,188,139634,1,0,0:0:0:0:
252,188,139709,1,8,0:0:0:0:
252,188,139784,1,8,0:0:0:0:
252,188,139859,1,0,0:0:0:0:
252,188,139934,1,8,0:0:0:0:
252,188,140009,1,0,0:0:0:0:
252,188,140084,1,0,0:0:0:0:
252,188,140159,1,0,0:0:0:0:
252,188,140234,1,8,0:0:0:0:
252,188,140384,1,8,0:0:0:0:
252,188,140459,1,0,0:0:0:0:
252,188,140534,1,0,0:0:0:0:
252,188,140609,1,8,0:0:0:0:
252,188,140684,1,8,0:0:0:0:
252,188,140759,1,0,0:0:0:0:
252,188,140834,1,8,0:0:0:0:
252,188,140909,1,8,0:0:0:0:
252,188,140984,1,0,0:0:0:0:
252,188,141059,1,8,0:0:0:0:
252,188,141134,1,0,0:0:0:0:
252,188,141284,1,8,0:0:0:0:
252,188,141359,1,0,0:0:0:0:
252,188,141434,1,8,0:0:0:0:
252,188,141584,1,8,0:0:0:0:
252,188,141659,1,0,0:0:0:0:
252,188,141734,1,8,0:0:0:0:
252,188,141809,1,0,0:0:0:0:
252,188,141884,1,8,0:0:0:0:
252,188,141959,1,8,0:0:0:0:
252,188,142034,1,0,0:0:0:0:
252,188,142109,1,8,0:0:0:0:
252,188,142184,1,8,0:0:0:0:
252,188,142259,1,0,0:0:0:0:
252,188,142334,1,8,0:0:0:0:
252,188,142484,1,0,0:0:0:0:
252,188,142559,1,0,0:0:0:0:
252,188,142634,1,8,0:0:0:0:
252,188,142784,1,8,0:0:0:0:
252,188,142859,1,0,0:0:0:0:
252,188,142934,1,8,0:0:0:0:
252,188,143009,1,0,0:0:0:0:
252,188,143084,1,8,0:0:0:0:
252,188,143159,1,8,0:0:0:0:
252,188,143234,1,0,0:0:0:0:
252,188,143384,1,8,0:0:0:0:
252,188,143459,1,0,0:0:0:0:
252,188,143534,1,8,0:0:0:0:
252,188,143609,1,0,0:0:0:0:
252,188,143684,1,0,0:0:0:0:
252,188,143834,1,8,0:0:0:0:
252,188,143984,1,0,0:0:0:0:
252,188,144059,1,0,0:0:0:0:
252,188,144134,1,8,0:0:0:0:
252,188,144209,1,8,0:0:0:0:
252,188,144284,1,0,0:0:0:0:
252,188,144434,1,8,0:0:0:0:
252,188,144584,1,8,0:0:0:0:
252,188,144659,1,0,0:0:0:0:
252,188,144734,1,8,0:0:0:0:
252,188,144809,1,8,0:0:0:0:
252,188,144884,1,0,0:0:0:0:
252,188,145034,1,8,0:0:0:0:
252,188,145184,1,0,0:0:0:0:
252,188,145259,1,8,0:0:0:0:
252,188,145334,1,8,0:0:0:0:
252,188,145409,1,0,0:0:0:0:
252,188,145484,1,0,0:0:0:0:
252,188,145634,1,8,0:0:0:0:
252,188,145784,1,8,0:0:0:0:
252,188,145859,1,0,0:0:0:0:
252,188,145934,1,8,0:0:0:0:
252,188,146009,1,0,0:0:0:0:
252,188,146084,1,0,0:0:0:0:
252,188,146234,1,8,0:0:0:0:
252,188,146384,1,0,0:0:0:0:
252,188,146459,1,0,0:0:0:0:
252,188,146534,1,8,0:0:0:0:
252,188,146609,1,8,0:0:0:0:
252,188,146684,1,0,0:0:0:0:
252,188,146759,1,0,0:0:0:0:
252,188,146834,1,8,0:0:0:0:
252,188,146909,1,0,0:0:0:0:
252,188,146984,1,0,0:0:0:0:
252,188,147059,1,0,0:0:0:0:
252,188,147134,1,8,0:0:0:0:
252,188,147284,1,0,0:0:0:0:
252,188,147359,1,0,0:0:0:0:
252,188,147434,1,8,0:0:0:0:
252,188,147584,1,8,0:0:0:0:
252,188,147659,1,0,0:0:0:0:
252,188,147734,1,8,0:0:0:0:
252,188,147809,1,0,0:0:0:0:
252,188,147884,1,8,0:0:0:0:
252,188,147959,1,0,0:0:0:0:
252,188,148034,1,8,0:0:0:0:
252,188,148109,1,8,0:0:0:0:
252,188,148184,1,0,0:0:0:0:
252,188,148334,1,8,0:0:0:0:
252,188,148409,1,0,0:0:0:0:
252,188,148484,1,0,0:0:0:0:
252,188,148634,1,8,0:0:0:0:
252,188,148709,1,0,0:0:0:0:
252,188,148784,1,8,0:0:0:0:
252,188,148859,1,0,0:0:0:0:
252,188,148934,1,8,0:0:0:0:
252,188,149009,1,8,0:0:0:0:
252,188,149084,1,0,0:0:0:0:
252,188,149159,1,0,0:0:0:0:
252,188,149234,1,8,0:0:0:0:
252,188,149309,1,0,0:0:0:0:
252,188,149384,1,8,0:0:0:0:
252,188,149459,1,0,0:0:0:0:
252,188,149534,1,8,0:0:0:0:
252,188,149609,1,8,0:0:0:0:
252,188,149684,1,0,0:0:0:0:
252,188,149834,1,8,0:0:0:0:
252,188,149909,1,0,0:0:0:0:
252,188,149984,1,8,0:0:0:0:
252,188,150059,1,8,0:0:0:0:
252,188,150134,1,0,0:0:0:0:
252,188,150209,1,8,0:0:0:0:
252,188,150284,1,0,0:0:0:0:
252,188,150359,1,0,0:0:0:0:
252,188,150434,1,8,0:0:0:0:
252,188,150509,1,0,0:0:0:0:
252,188,150584,1,8,0:0:0:0:
252,188,150659,1,8,0:0:0:0:
252,188,150734,1,0,0:0:0:0:
252,188,150809,1,0,0:0:0:0:
252,188,150884,1,8,0:0:0:0:
252,188,150959,1,8,0:0:0:0:
252,188,151034,1,0,0:0:0:0:
252,188,151184,1,8,0:0:0:0:
252,188,151259,1,0,0:0:0:0:
252,188,151334,1,8,0:0:0:0:
252,188,151409,1,8,0:0:0:0:
252,188,151484,1,0,0:0:0:0:
252,188,151559,1,0,0:0:0:0:
252,188,151634,1,8,0:0:0:0:
252,188,151709,1,0,0:0:0:0:
252,188,151784,1,8,0:0:0:0:
252,188,151859,1,8,0:0:0:0:
252,188,151934,1,0,0:0:0:0:
252,188,152009,1,8,0:0:0:0:
252,188,152084,1,0,0:0:0:0:
252,188,152134,1,0,0:0:0:0:
252,188,152184,1,8,0:0:0:0:
252,188,152234,1,8,0:0:0:0:
252,188,152384,1,0,0:0:0:0:
252,188,152434,1,0,0:0:0:0:
252,188,152484,1,8,0:0:0:0:
252,188,152534,1,8,0:0:0:0:
252,188,152684,1,0,0:0:0:0:
252,188,152734,1,0,0:0:0:0:
252,188,152784,1,8,0:0:0:0:
252,188,152834,1,8,0:0:0:0:
252,188,152909,1,0,0:0:0:0:
252,188,152984,1,8,0:0:0:0:
252,188,153059,1,8,0:0:0:0:
252,188,153134,1,0,0:0:0:0:
252,188,153209,1,0,0:0:0:0:
252,188,153284,1,8,0:0:0:0:
252,188,153334,1,8,0:0:0:0:
252,188,153384,1,8,0:0:0:0:
252,188,153434,1,4,0:0:0:0:
252,188,153584,1,8,0:0:0:0:
252,188,153659,1,8,0:0:0:0:
252,188,153734,1,8,0:0:0:0:
252,188,153809,1,8,0:0:0:0:
252,188,153884,1,8,0:0:0:0:
252,188,153959,1,8,0:0:0:0:
252,188,154034,1,0,0:0:0:0:
252,188,154109,1,0,0:0:0:0:
252,188,154184,1,0,0:0:0:0:
252,188,154259,1,0,0:0:0:0:
252,188,154334,1,0,0:0:0:0:
252,188,154409,1,0,0:0:0:0:
252,188,154484,1,0,0:0:0:0:
252,188,154559,1,0,0:0:0:0:
252,188,154634,1,8,0:0:0:0:
252,188,154709,1,8,0:0:0:0:
252,188,154784,1,8,0:0:0:0:
252,188,154859,1,8,0:0:0:0:
252,188,154934,1,0,0:0:0:0:
252,188,155009,1,0,0:0:0:0:
252,188,155084,1,0,0:0:0:0:
252,188,155159,1,0,0:0:0:0:
252,188,155234,1,8,0:0:0:0:
252,188,155309,1,0,0:0:0:0:
252,188,155384,1,0,0:0:0:0:
252,188,155459,1,8,0:0:0:0:
252,188,155534,1,0,0:0:0:0:
252,188,155609,1,0,0:0:0:0:
252,188,155684,1,8,0:0:0:0:
252,188,155834,1,8,0:0:0:0:
252,188,155909,1,8,0:0:0:0:
252,188,155984,1,8,0:0:0:0:
252,188,156059,1,8,0:0:0:0:
252,188,156134,1,8,0:0:0:0:
252,188,156209,1,8,0:0:0:0:
252,188,156284,1,8,0:0:0:0:
252,188,156359,1,8,0:0:0:0:
252,188,156434,1,0,0:0:0:0:
252,188,156509,1,0,0:0:0:0:
252,188,156584,1,0,0:0:0:0:
252,188,156659,1,0,0:0:0:0:
252,188,156734,1,0,0:0:0:0:
252,188,156809,1,0,0:0:0:0:
252,188,156884,1,0,0:0:0:0:
252,188,156959,1,0,0:0:0:0:
252,188,157034,1,8,0:0:0:0:
252,188,157109,1,8,0:0:0:0:
252,188,157184,1,0,0:0:0:0:
252,188,157259,1,0,0:0:0:0:
252,188,157334,1,8,0:0:0:0:
252,188,157409,1,0,0:0:0:0:
252,188,157484,1,0,0:0:0:0:
252,188,157559,1,0,0:0:0:0:
252,188,157634,1,8,0:0:0:0:
252,188,157709,1,8,0:0:0:0:
252,188,157784,1,0,0:0:0:0:
252,188,157859,1,0,0:0:0:0:
252,188,157934,1,8,0:0:0:0:
252,188,158009,1,0,0:0:0:0:
252,188,158084,1,8,0:0:0:0:
252,188,158234,1,8,0:0:0:0:
252,188,158309,1,8,0:0:0:0:
252,188,158384,1,8,0:0:0:0:
252,188,158459,1,8,0:0:0:0:
252,188,158534,1,8,0:0:0:0:
252,188,158609,1,8,0:0:0:0:
252,188,158684,1,8,0:0:0:0:
252,188,158759,1,8,0:0:0:0:
252,188,158834,1,0,0:0:0:0:
252,188,158909,1,0,0:0:0:0:
252,188,158984,1,0,0:0:0:0:
252,188,159059,1,0,0:0:0:0:
252,188,159134,1,0,0:0:0:0:
252,188,159209,1,0,0:0:0:0:
252,188,159284,1,0,0:0:0:0:
252,188,159359,1,0,0:0:0:0:
252,188,159434,1,8,0:0:0:0:
252,188,159509,1,8,0:0:0:0:
252,188,159584,1,8,0:0:0:0:
252,188,159659,1,8,0:0:0:0:
252,188,159734,1,0,0:0:0:0:
252,188,159809,1,0,0:0:0:0:
252,188,159884,1,0,0:0:0:0:
252,188,159959,1,0,0:0:0:0:
252,188,160034,1,8,0:0:0:0:
252,188,160109,1,8,0:0:0:0:
252,188,160184,1,0,0:0:0:0:
252,188,160259,1,8,0:0:0:0:
252,188,160334,1,8,0:0:0:0:
252,188,160409,1,0,0:0:0:0:
252,188,160484,1,8,0:0:0:0:
252,188,160634,1,8,0:0:0:0:
252,188,160709,1,8,0:0:0:0:
252,188,160784,1,8,0:0:0:0:
252,188,160859,1,8,0:0:0:0:
252,188,160934,1,8,0:0:0:0:
252,188,161009,1,8,0:0:0:0:
252,188,161084,1,8,0:0:0:0:
252,188,161159,1,8,0:0:0:0:
252,188,161234,1,0,0:0:0:0:
252,188,161309,1,0,0:0:0:0:
252,188,161384,1,0,0:0:0:0:
252,188,161459,1,0,0:0:0:0:
252,188,161534,1,0,0:0:0:0:
252,188,161609,1,0,0:0:0:0:
252,188,161684,1,0,0:0:0:0:
252,188,161759,1,0,0:0:0:0:
252,188,161834,1,8,0:0:0:0:
252,188,161909,1,8,0:0:0:0:
252,188,161984,1,0,0:0:0:0:
252,188,162059,1,0,0:0:0:0:
252,188,162134,1,8,0:0:0:0:
252,188,162209,1,8,0:0:0:0:
252,188,162284,1,0,0:0:0:0:
252,188,162359,1,0,0:0:0:0:
252,188,162434,1,8,0:0:0:0:
252,188,162509,1,0,0:0:0:0:
252,188,162584,1,0,0:0:0:0:
252,188,162659,1,0,0:0:0:0:
252,188,162734,1,8,0:0:0:0:
252,188,162884,1,8,0:0:0:0:
252,188,163034,1,4,0:0:0:0:
252,188,163184,1,8,0:0:0:0:
252,188,163259,1,8,0:0:0:0:
252,188,163334,1,8,0:0:0:0:
252,188,163409,1,8,0:0:0:0:
252,188,163484,1,8,0:0:0:0:
252,188,163559,1,8,0:0:0:0:
252,188,163634,1,0,0:0:0:0:
252,188,163709,1,0,0:0:0:0:
252,188,163784,1,0,0:0:0:0:
252,188,163859,1,0,0:0:0:0:
252,188,163934,1,0,0:0:0:0:
252,188,164009,1,0,0:0:0:0:
252,188,164084,1,0,0:0:0:0:
252,188,164159,1,0,0:0:0:0:
252,188,164234,1,8,0:0:0:0:
252,188,164309,1,8,0:0:0:0:
252,188,164384,1,8,0:0:0:0:
252,188,164459,1,8,0:0:0:0:
252,188,164534,1,0,0:0:0:0:
252,188,164609,1,0,0:0:0:0:
252,188,164684,1,0,0:0:0:0:
252,188,164759,1,0,0:0:0:0:
252,188,164834,1,8,0:0:0:0:
252,188,164909,1,0,0:0:0:0:
252,188,164984,1,0,0:0:0:0:
252,188,165059,1,8,0:0:0:0:
252,188,165134,1,0,0:0:0:0:
252,188,165209,1,0,0:0:0:0:
252,188,165284,1,8,0:0:0:0:
252,188,165434,1,8,0:0:0:0:
252,188,165509,1,8,0:0:0:0:
252,188,165584,1,8,0:0:0:0:
252,188,165659,1,8,0:0:0:0:
252,188,165734,1,8,0:0:0:0:
252,188,165809,1,8,0:0:0:0:
252,188,165884,1,8,0:0:0:0:
252,188,165959,1,8,0:0:0:0:
252,188,166034,1,0,0:0:0:0:
252,188,166109,1,0,0:0:0:0:
252,188,166184,1,0,0:0:0:0:
252,188,166259,1,0,0:0:0:0:
252,188,166334,1,0,0:0:0:0:
252,188,166409,1,0,0:0:0:0:
252,188,166484,1,0,0:0:0:0:
252,188,166559,1,0,0:0:0:0:
252,188,166634,1,8,0:0:0:0:
252,188,166709,1,8,0:0:0:0:
252,188,166784,1,0,0:0:0:0:
252,188,166859,1,0,0:0:0:0:
252,188,166934,1,8,0:0:0:0:
252,188,167009,1,0,0:0:0:0:
252,188,167084,1,0,0:0:0:0:
252,188,167159,1,0,0:0:0:0:
252,188,167234,1,8,0:0:0:0:
252,188,167309,1,8,0:0:0:0:
252,188,167384,1,0,0:0:0:0:
252,188,167459,1,0,0:0:0:0:
252,188,167534,1,8,0:0:0:0:
252,188,167609,1,0,0:0:0:0:
252,188,167684,1,8,0:0:0:0:
252,188,167834,1,8,0:0:0:0:
252,188,167909,1,8,0:0:0:0:
252,188,167984,1,0,0:0:0:0:
252,188,168059,1,0,0:0:0:0:
252,188,168134,1,8,0:0:0:0:
252,188,168209,1,0,0:0:0:0:
252,188,168284,1,8,0:0:0:0:
252,188,168359,1,0,0:0:0:0:
252,188,168434,1,8,0:0:0:0:
252,188,168509,1,8,0:0:0:0:
252,188,168584,1,0,0:0:0:0:
252,188,168659,1,0,0:0:0:0:
252,188,168734,1,8,0:0:0:0:
252,188,168809,1,0,0:0:0:0:
252,188,168884,1,8,0:0:0:0:
252,188,168959,1,0,0:0:0:0:
252,188,169034,1,8,0:0:0:0:
252,188,169109,1,8,0:0:0:0:
252,188,169184,1,8,0:0:0:0:
252,188,169259,1,0,0:0:0:0:
252,188,169334,1,8,0:0:0:0:
252,188,169409,1,0,0:0:0:0:
252,188,169484,1,8,0:0:0:0:
252,188,169559,1,0,0:0:0:0:
252,188,169634,1,8,0:0:0:0:
252,188,169709,1,8,0:0:0:0:
252,188,169784,1,0,0:0:0:0:
252,188,169859,1,8,0:0:0:0:
252,188,169934,1,8,0:0:0:0:
252,188,170009,1,0,0:0:0:0:
252,188,170084,1,8,0:0:0:0:
252,188,170234,1,8,0:0:0:0:
252,188,170309,1,8,0:0:0:0:
252,188,170384,1,8,0:0:0:0:
252,188,170459,1,8,0:0:0:0:
252,188,170534,1,0,0:0:0:0:
252,188,170609,1,0,0:0:0:0:
252,188,170684,1,0,0:0:0:0:
252,188,170759,1,0,0:0:0:0:
252,188,170834,1,8,0:0:0:0:
252,188,170909,1,8,0:0:0:0:
252,188,170984,1,0,0:0:0:0:
252,188,171059,1,0,0:0:0:0:
252,188,171134,1,8,0:0:0:0:
252,188,171209,1,8,0:0:0:0:
252,188,171284,1,0,0:0:0:0:
252,188,171334,1,0,0:0:0:0:
252,188,171384,1,8,0:0:0:0:
252,188,171434,1,8,0:0:0:0:
252,188,171584,1,0,0:0:0:0:
252,188,171634,1,0,0:0:0:0:
252,188,171684,1,8,0:0:0:0:
252,188,171734,1,8,0:0:0:0:
252,188,171884,1,0,0:0:0:0:
252,188,171934,1,0,0:0:0:0:
252,188,171984,1,8,0:0:0:0:
252,188,172034,1,8,0:0:0:0:
252,188,172109,1,0,0:0:0:0:
252,188,172184,1,8,0:0:0:0:
252,188,172259,1,8,0:0:0:0:
252,188,172334,1,0,0:0:0:0:
252,188,172409,1,0,0:0:0:0:
252,188,172484,1,8,0:0:0:0:
252,188,172534,1,8,0:0:0:0:
252,188,172584,1,8,0:0:0:0:
252,188,172634,1,4,0:0:0:0:
252,188,173834,1,8,0:0:0:0:
252,188,174434,1,0,0:0:0:0:
252,188,175034,1,8,0:0:0:0:
252,188,176234,1,8,0:0:0:0:
252,188,176534,1,0,0:0:0:0:
252,188,176834,1,0,0:0:0:0:
252,188,177034,1,8,0:0:0:0:
252,188,177234,1,8,0:0:0:0:
252,188,177434,1,8,0:0:0:0:
252,188,178034,1,0,0:0:0:0:
252,188,178634,1,0,0:0:0:0:
252,188,178784,1,0,0:0:0:0:
252,188,178934,1,8,0:0:0:0:
252,188,179084,1,0,0:0:0:0:
252,188,179234,1,8,0:0:0:0:
252,188,179384,1,0,0:0:0:0:
252,188,179534,1,8,0:0:0:0:
252,188,179684,1,8,0:0:0:0:
252,188,179834,1,8,0:0:0:0:
252,188,179984,1,0,0:0:0:0:
252,188,180059,1,0,0:0:0:0:
252,188,180134,1,0,0:0:0:0:
252,188,180284,1,0,0:0:0:0:
252,188,180434,1,8,0:0:0:0:
252,188,180584,1,0,0:0:0:0:
252,188,180659,1,0,0:0:0:0:
252,188,180734,1,0,0:0:0:0:
252,188,180884,1,0,0:0:0:0:
252,188,181034,1,8,0:0:0:0:
252,188,181109,1,8,0:0:0:0:
252,188,181184,1,8,0:0:0:0:
252,188,181259,1,8,0:0:0:0:
252,188,181334,1,0,0:0:0:0:
252,188,181409,1,0,0:0:0:0:
252,188,181484,1,0,0:0:0:0:
252,188,181559,1,0,0:0:0:0:
252,188,181634,1,8,0:0:0:0:
252,188,181709,1,8,0:0:0:0:
252,188,181784,1,8,0:0:0:0:
252,188,181859,1,8,0:0:0:0:
252,188,181934,1,0,0:0:0:0:
252,188,182009,1,0,0:0:0:0:
252,188,182084,1,8,0:0:0:0:
252,188,182159,1,8,0:0:0:0:
252,188,182234,1,4,0:0:0:0:
252,188,182384,1,8,0:0:0:0:
252,188,182534,1,8,0:0:0:0:
252,188,182684,1,8,0:0:0:0:
252,188,182834,1,8,0:0:0:0:
252,188,182984,1,8,0:0:0:0:
252,188,183134,1,8,0:0:0:0:
252,188,183284,1,8,0:0:0:0:
252,188,183434,1,12,0:0:0:0:
252,188,183584,1,0,0:0:0:0:
252,188,183659,1,8,0:0:0:0:
252,188,183809,1,8,0:0:0:0:
252,188,183884,1,0,0:0:0:0:
252,188,183959,1,0,0:0:0:0:
252,188,184034,1,8,0:0:0:0:
252,188,184184,1,8,0:0:0:0:
252,188,184334,1,0,0:0:0:0:
252,188,184634,1,12,0:0:0:0:
252,188,184784,1,0,0:0:0:0:
252,188,184859,1,0,0:0:0:0:
252,188,184934,1,8,0:0:0:0:
252,188,185009,1,8,0:0:0:0:
252,188,185084,1,0,0:0:0:0:
252,188,185159,1,0,0:0:0:0:
252,188,185234,1,8,0:0:0:0:
252,188,185309,1,0,0:0:0:0:
252,188,185384,1,8,0:0:0:0:
252,188,185459,1,8,0:0:0:0:
252,188,185534,1,0,0:0:0:0:
252,188,185609,1,8,0:0:0:0:
252,188,185684,1,8,0:0:0:0:
252,188,185759,1,8,0:0:0:0:
252,188,185834,1,0,0:0:0:0:
252,188,185984,1,8,0:0:0:0:
252,188,186059,1,0,0:0:0:0:
252,188,186134,1,8,0:0:0:0:
252,188,186209,1,8,0:0:0:0:
252,188,186284,1,0,0:0:0:0:
252,188,186359,1,0,0:0:0:0:
252,188,186434,1,8,0:0:0:0:
252,188,186509,1,0,0:0:0:0:
252,188,186584,1,0,0:0:0:0:
252,188,186734,1,8,0:0:0:0:
252,188,186809,1,0,0:0:0:0:
252,188,186884,1,8,0:0:0:0:
252,188,186959,1,8,0:0:0:0:
252,188,187034,1,0,0:0:0:0:
252,188,187184,1,8,0:0:0:0:
252,188,187259,1,8,0:0:0:0:
252,188,187334,1,8,0:0:0:0:
252,188,187409,1,8,0:0:0:0:
252,188,187484,1,0,0:0:0:0:
252,188,187559,1,0,0:0:0:0:
252,188,187634,1,8,0:0:0:0:
252,188,187709,1,0,0:0:0:0:
252,188,187784,1,8,0:0:0:0:
252,188,187859,1,8,0:0:0:0:
252,188,187934,1,0,0:0:0:0:
252,188,188009,1,0,0:0:0:0:
252,188,188084,1,8,0:0:0:0:
252,188,188159,1,0,0:0:0:0:
252,188,188234,1,8,0:0:0:0:
252,188,188384,1,0,0:0:0:0:
252,188,188459,1,0,0:0:0:0:
252,188,188534,1,8,0:0:0:0:
252,188,188609,1,8,0:0:0:0:
252,188,188684,1,0,0:0:0:0:
252,188,188759,1,0,0:0:0:0:
252,188,188834,1,8,0:0:0:0:
252,188,188984,1,8,0:0:0:0:
252,188,189059,1,0,0:0:0:0:
252,188,189134,1,8,0:0:0:0:
252,188,189209,1,8,0:0:0:0:
252,188,189284,1,0,0:0:0:0:
252,188,189434,1,8,0:0:0:0:
252,188,189509,1,0,0:0:0:0:
252,188,189584,1,8,0:0:0:0:
252,188,189659,1,0,0:0:0:0:
252,188,189734,1,8,0:0:0:0:
252,188,189809,1,8,0:0:0:0:
252,188,189884,1,0,0:0:0:0:
252,188,189959,1,0,0:0:0:0:
252,188,190034,1,8,0:0:0:0:
252,188,190109,1,0,0:0:0:0:
252,188,190184,1,8,0:0:0:0:
252,188,190259,1,8,0:0:0:0:
252,188,190334,1,0,0:0:0:0:
252,188,190409,1,0,0:0:0:0:
252,188,190484,1,8,0:0:0:0:
252,188,190559,1,8,0:0:0:0:
252,188,190634,1,8,0:0:0:0:
252,188,190784,1,8,0:0:0:0:
252,188,190859,1,0,0:0:0:0:
252,188,190934,1,8,0:0:0:0:
252,188,191009,1,8,0:0:0:0:
252,188,191084,1,0,0:0:0:0:
252,188,191159,1,0,0:0:0:0:
252,188,191234,1,8,0:0:0:0:
252,188,191309,1,0,0:0:0:0:
252,188,191384,1,8,0:0:0:0:
252,188,191534,1,0,0:0:0:0:
252,188,191609,1,0,0:0:0:0:
252,188,191684,1,8,0:0:0:0:
252,188,191759,1,8,0:0:0:0:
252,188,191834,1,0,0:0:0:0:
252,188,191984,1,8,0:0:0:0:
252,188,192059,1,0,0:0:0:0:
252,188,192134,1,8,0:0:0:0:
252,188,192209,1,8,0:0:0:0:
252,188,192284,1,0,0:0:0:0:
252,188,192359,1,0,0:0:0:0:
252,188,192434,1,8,0:0:0:0:
252,188,192509,1,0,0:0:0:0:
252,188,192584,1,8,0:0:0:0:
252,188,192659,1,0,0:0:0:0:
252,188,192734,1,8,0:0:0:0:
252,188,192809,1,8,0:0:0:0:
252,188,192884,1,0,0:0:0:0:
252,188,192959,1,8,0:0:0:0:
252,188,193034,1,0,0:0:0:0:
252,188,193184,1,8,0:0:0:0:
252,188,193259,1,8,0:0:0:0:
252,188,193334,1,0,0:0:0:0:
252,188,193409,1,8,0:0:0:0:
252,188,193484,1,0,0:0:0:0:
252,188,193559,1,0,0:0:0:0:
252,188,193634,1,8,0:0:0:0:
252,188,193784,1,0,0:0:0:0:
252,188,193859,1,0,0:0:0:0:
252,188,193934,1,8,0:0:0:0:
252,188,194009,1,8,0:0:0:0:
252,188,194084,1,0,0:0:0:0:
252,188,194234,1,8,0:0:0:0:
252,188,194309,1,0,0:0:0:0:
252,188,194384,1,0,0:0:0:0:
252,188,194459,1,0,0:0:0:0:
252,188,194534,1,8,0:0:0:0:
252,188,194609,1,8,0:0:0:0:
252,188,194684,1,0,0:0:0:0:
252,188,194759,1,0,0:0:0:0:
252,188,194834,1,8,0:0:0:0:
252,188,194909,1,0,0:0:0:0:
252,188,194984,1,8,0:0:0:0:
252,188,195059,1,8,0:0:0:0:
252,188,195134,1,0,0:0:0:0:
252,188,195209,1,0,0:0:0:0:
252,188,195284,1,8,0:0:0:0:
252,188,195359,1,0,0:0:0:0:
252,188,195434,1,8,0:0:0:0:
252,188,195584,1,0,0:0:0:0:
252,188,195659,1,0,0:0:0:0:
252,188,195734,1,8,0:0:0:0:
252,188,195809,1,8,0:0:0:0:
252,188,195884,1,8,0:0:0:0:
252,188,195959,1,8,0:0:0:0:
252,188,196034,1,0,0:0:0:0:
252,188,196109,1,0,0:0:0:0:
252,188,196184,1,8,0:0:0:0:
252,188,196334,1,8,0:0:0:0:
252,188,196409,1,8,0:0:0:0:
252,188,196484,1,0,0:0:0:0:
252,188,196559,1,8,0:0:0:0:
252,188,196634,1,0,0:0:0:0:
252,188,196784,1,8,0:0:0:0:
252,188,196859,1,0,0:0:0:0:
252,188,196934,1,8,0:0:0:0:
252,188,197009,1,8,0:0:0:0:
252,188,197084,1,0,0:0:0:0:
252,188,197159,1,0,0:0:0:0:
252,188,197234,1,8,0:0:0:0:
252,188,197309,1,8,0:0:0:0:
252,188,197384,1,0,0:0:0:0:
252,188,197459,1,8,0:0:0:0:
252,188,197534,1,0,0:0:0:0:
252,188,197609,1,0,0:0:0:0:
252,188,197684,1,8,0:0:0:0:
252,188,197759,1,8,0:0:0:0:
252,188,197834,1,0,0:0:0:0:
252,188,197984,1,8,0:0:0:0:
252,188,198059,1,0,0:0:0:0:
252,188,198134,1,8,0:0:0:0:
252,188,198209,1,0,0:0:0:0:
252,188,198284,1,0,0:0:0:0:
252,188,198359,1,0,0:0:0:0:
252,188,198434,1,8,0:0:0:0:
252,188,198584,1,0,0:0:0:0:
252,188,198659,1,0,0:0:0:0:
252,188,198734,1,8,0:0:0:0:
252,188,198809,1,0,0:0:0:0:
252,188,198884,1,8,0:0:0:0:
252,188,199034,1,8,0:0:0:0:
252,188,199109,1,8,0:0:0:0:
252,188,199184,1,0,0:0:0:0:
252,188,199259,1,8,0:0:0:0:
252,188,199334,1,0,0:0:0:0:
252,188,199409,1,0,0:0:0:0:
252,188,199484,1,8,0:0:0:0:
252,188,199559,1,0,0:0:0:0:
252,188,199634,1,8,0:0:0:0:
252,188,199709,1,8,0:0:0:0:
252,188,199784,1,0,0:0:0:0:
252,188,199859,1,0,0:0:0:0:
252,188,199934,1,8,0:0:0:0:
252,188,200084,1,8,0:0:0:0:
252,188,200159,1,8,0:0:0:0:
252,188,200234,1,0,0:0:0:0:
252,188,200309,1,0,0:0:0:0:
252,188,200384,1,8,0:0:0:0:
252,188,200459,1,8,0:0:0:0:
252,188,200534,1,0,0:0:0:0:
252,188,200609,1,8,0:0:0:0:
252,188,200684,1,0,0:0:0:0:
252,188,200834,1,8,0:0:0:0:
252,188,200909,1,0,0:0:0:0:
252,188,200984,1,8,0:0:0:0:
252,188,201059,1,8,0:0:0:0:
252,188,201134,1,0,0:0:0:0:
252,188,201209,1,8,0:0:0:0:
252,188,201284,1,0,0:0:0:0:
252,188,201434,1,8,0:0:0:0:
252,188,201509,1,8,0:0:0:0:
252,188,201584,1,8,0:0:0:0:
252,188,201659,1,0,0:0:0:0:
252,188,201734,1,8,0:0:0:0:
252,188,201809,1,8,0:0:0:0:
252,188,201884,1,8,0:0:0:0:
252,188,201959,1,0,0:0:0:0:
252,188,202034,1,8,0:0:0:0:
252,188,202109,1,8,0:0:0:0:
252,188,202184,1,0,0:0:0:0:
252,188,202259,1,0,0:0:0:0:
252,188,202334,1,8,0:0:0:0:
252,188,202409,1,8,0:0:0:0:
252,188,202484,1,0,0:0:0:0:
252,188,202559,1,0,0:0:0:0:
252,188,202634,1,8,0:0:0:0:
252,188,202709,1,0,0:0:0:0:
252,188,202784,1,8,0:0:0:0:
252,188,202859,1,8,0:0:0:0:
252,188,202934,1,0,0:0:0:0:
252,188,203009,1,8,0:0:0:0:
252,188,203084,1,8,0:0:0:0:
252,188,203159,1,8,0:0:0:0:
252,188,203234,1,0,0:0:0:0:
252,188,203309,1,0,0:0:0:0:
252,188,203384,1,8,0:0:0:0:
252,188,203434,1,8,0:0:0:0:
252,188,203484,1,0,0:0:0:0:
252,188,203534,1,0,0:0:0:0:
252,188,203609,1,0,0:0:0:0:
252,188,203684,1,0,0:0:0:0:
252,188,203834,1,12,0:0:0:0:
252,188,203984,1,0,0:0:0:0:
252,188,204059,1,0,0:0:0:0:
252,188,204134,1,8,0:0:0:0:
252,188,204209,1,8,0:0:0:0:
252,188,204284,1,0,0:0:0:0:
252,188,204359,1,0,0:0:0:0:
252,188,204434,1,8,0:0:0:0:
252,188,204509,1,0,0:0:0:0:
252,188,204584,1,8,0:0:0:0:
252,188,204659,1,0,0:0:0:0:
252,188,204734,1,8,0:0:0:0:
252,188,204809,1,8,0:0:0:0:
252,188,204884,1,0,0:0:0:0:
252,188,204959,1,0,0:0:0:0:
252,188,205034,1,8,0:0:0:0:
252,188,205184,1,8,0:0:0:0:
252,188,205259,1,0,0:0:0:0:
252,188,205334,1,0,0:0:0:0:
252,188,205409,1,8,0:0:0:0:
252,188,205484,1,0,0:0:0:0:
252,188,205559,1,0,0:0:0:0:
252,188,205634,1,8,0:0:0:0:
252,188,205709,1,0,0:0:0:0:
252,188,205784,1,0,0:0:0:0:
252,188,205859,1,0,0:0:0:0:
252,188,205934,1,8,0:0:0:0:
252,188,206084,1,8,0:0:0:0:
252,188,206159,1,0,0:0:0:0:
252,188,206234,1,8,0:0:0:0:
252,188,206384,1,8,0:0:0:0:
252,188,206459,1,0,0:0:0:0:
252,188,206534,1,8,0:0:0:0:
252,188,206609,1,8,0:0:0:0:
252,188,206684,1,0,0:0:0:0:
252,188,206759,1,0,0:0:0:0:
252,188,206834,1,8,0:0:0:0:
252,188,206909,1,0,0:0:0:0:
252,188,206984,1,8,0:0:0:0:
252,188,207059,1,0,0:0:0:0:
252,188,207134,1,8,0:0:0:0:
252,188,207209,1,8,0:0:0:0:
252,188,207284,1,0,0:0:0:0:
252,188,207359,1,0,0:0:0:0:
252,188,207434,1,8,0:0:0:0:
252,188,207584,1,8,0:0:0:0:
252,188,207659,1,0,0:0:0:0:
252,188,207734,1,0,0:0:0:0:
252,188,207809,1,8,0:0:0:0:
252,188,207884,1,8,0:0:0:0:
252,188,207959,1,0,0:0:0:0:
252,188,208034,1,8,0:0:0:0:
252,188,208109,1,8,0:0:0:0:
252,188,208184,1,0,0:0:0:0:
252,188,208259,1,0,0:0:0:0:
252,188,208334,1,8,0:0:0:0:
252,188,208484,1,0,0:0:0:0:
252,188,208559,1,8,0:0:0:0:
252,188,208634,1,8,0:0:0:0:
252,188,208784,1,0,0:0:0:0:
252,188,208859,1,8,0:0:0:0:
252,188,208934,1,0,0:0:0:0:
252,188,209009,1,0,0:0:0:0:
252,188,209084,1,8,0:0:0:0:
252,188,209159,1,8,0:0:0:0:
252,188,209234,1,0,0:0:0:0:
252,188,209309,1,8,0:0:0:0:
252,188,209384,1,8,0:0:0:0:
252,188,209459,1,0,0:0:0:0:
252,188,209534,1,8,0:0:0:0:
252,188,209609,1,0,0:0:0:0:
252,188,209684,1,0,0:0:0:0:
252,188,209759,1,0,0:0:0:0:
252,188,209834,1,8,0:0:0:0:
252,188,209984,1,8,0:0:0:0:
252,188,210059,1,0,0:0:0:0:
252,188,210134,1,0,0:0:0:0:
252,188,210209,1,8,0:0:0:0:
252,188,210284,1,8,0:0:0:0:
252,188,210359,1,0,0:0:0:0:
252,188,210434,1,8,0:0:0:0:
252,188,210509,1,8,0:0:0:0:
252,188,210584,1,0,0:0:0:0:
252,188,210659,1,8,0:0:0:0:
252,188,210734,1,0,0:0:0:0:
252,188,210884,1,8,0:0:0:0:
252,188,210959,1,0,0:0:0:0:
252,188,211034,1,8,0:0:0:0:
252,188,211184,1,8,0:0:0:0:
252,188,211259,1,0,0:0:0:0:
252,188,211334,1,8,0:0:0:0:
252,188,211409,1,0,0:0:0:0:
252,188,211484,1,8,0:0:0:0:
252,188,211559,1,8,0:0:0:0:
252,188,211634,1,0,0:0:0:0:
252,188,211709,1,8,0:0:0:0:
252,188,211784,1,8,0:0:0:0:
252,188,211859,1,0,0:0:0:0:
252,188,211934,1,8,0:0:0:0:
252,188,212009,1,0,0:0:0:0:
252,188,212084,1,0,0:0:0:0:
252,188,212159,1,0,0:0:0:0:
252,188,212234,1,8,0:0:0:0:
252,188,212384,1,8,0:0:0:0:
252,188,212459,1,0,0:0:0:0:
252,188,212534,1,8,0:0:0:0:
252,188,212609,1,0,0:0:0:0:
252,188,212684,1,8,0:0:0:0:
252,188,212759,1,8,0:0:0:0:
252,188,212834,1,0,0:0:0:0:
252,188,212909,1,8,0:0:0:0:
252,188,212984,1,8,0:0:0:0:
252,188,213134,1,8,0:0:0:0:
252,188,213209,1,0,0:0:0:0:
252,188,213284,1,0,0:0:0:0:
252,188,213434,1,8,0:0:0:0:
252,188,213584,1,0,0:0:0:0:
252,188,213659,1,0,0:0:0:0:
252,188,213734,1,8,0:0:0:0:
252,188,213809,1,8,0:0:0:0:
252,188,213884,1,0,0:0:0:0:
252,188,214034,1,8,0:0:0:0:
252,188,214184,1,8,0:0:0:0:
252,188,214259,1,0,0:0:0:0:
252,188,214334,1,8,0:0:0:0:
252,188,214409,1,8,0:0:0:0:
252,188,214484,1,0,0:0:0:0:
252,188,214634,1,8,0:0:0:0:
252,188,214784,1,0,0:0:0:0:
252,188,214859,1,8,0:0:0:0:
252,188,214934,1,8,0:0:0:0:
252,188,215009,1,0,0:0:0:0:
252,188,215084,1,0,0:0:0:0:
252,188,215234,1,8,0:0:0:0:
252,188,215384,1,8,0:0:0:0:
252,188,215459,1,0,0:0:0:0:
252,188,215534,1,8,0:0:0:0:
252,188,215609,1,0,0:0:0:0:
252,188,215684,1,0,0:0:0:0:
252,188,215834,1,8,0:0:0:0:
252,188,215984,1,0,0:0:0:0:
252,188,216059,1,0,0:0:0:0:
252,188,216134,1,8,0:0:0:0:
252,188,216209,1,8,0:0:0:0:
252,188,216284,1,0,0:0:0:0:
252,188,216359,1,0,0:0:0:0:
252,188,216434,1,8,0:0:0:0:
252,188,216584,1,0,0:0:0:0:
252,188,216659,1,0,0:0:0:0:
252,188,216734,1,8,0:0:0:0:
252,188,216884,1,8,0:0:0:0:
252,188,216959,1,0,0:0:0:0:
252,188,217034,1,8,0:0:0:0:
252,188,217184,1,8,0:0:0:0:
252,188,217259,1,0,0:0:0:0:
252,188,217334,1,8,0:0:0:0:
252,188,217409,1,8,0:0:0:0:
252,188,217484,1,0,0:0:0:0:
252,188,217559,1,0,0:0:0:0:
252,188,217634,1,8,0:0:0:0:
252,188,217784,1,0,0:0:0:0:
252,188,217859,1,0,0:0:0:0:
252,188,217934,1,8,0:0:0:0:
252,188,218009,1,0,0:0:0:0:
252,188,218084,1,0,0:0:0:0:
252,188,218234,1,8,0:0:0:0:
252,188,218309,1,0,0:0:0:0:
252,188,218384,1,8,0:0:0:0:
252,188,218459,1,0,0:0:0:0:
252,188,218534,1,8,0:0:0:0:
252,188,218609,1,8,0:0:0:0:
252,188,218684,1,0,0:0:0:0:
252,188,218759,1,0,0:0:0:0:
252,188,218834,1,8,0:0:0:0:
252,188,218909,1,0,0:0:0:0:
252,188,218984,1,8,0:0:0:0:
252,188,219059,1,0,0:0:0:0:
252,188,219134,1,8,0:0:0:0:
252,188,219209,1,8,0:0:0:0:
252,188,219284,1,0,0:0:0:0:
252,188,219359,1,0,0:0:0:0:
252,188,219434,1,8,0:0:0:0:
252,188,219584,1,8,0:0:0:0:
252,188,219659,1,8,0:0:0:0:
252,188,219734,1,0,0:0:0:0:
252,188,219809,1,8,0:0:0:0:
252,188,219884,1,0,0:0:0:0:
252,188,219959,1,0,0:0:0:0:
252,188,220034,1,8,0:0:0:0:
252,188,220109,1,0,0:0:0:0:
252,188,220184,1,8,0:0:0:0:
252,188,220259,1,8,0:0:0:0:
252,188,220334,1,0,0:0:0:0:
252,188,220409,1,0,0:0:0:0:
252,188,220484,1,8,0:0:0:0:
252,188,220559,1,8,0:0:0:0:
252,188,220634,1,0,0:0:0:0:
252,188,220784,1,8,0:0:0:0:
252,188,220859,1,0,0:0:0:0:
252,188,220934,1,8,0:0:0:0:
252,188,221009,1,8,0:0:0:0:
252,188,221084,1,0,0:0:0:0:
252,188,221159,1,0,0:0:0:0:
252,188,221234,1,8,0:0:0:0:
252,188,221309,1,0,0:0:0:0:
252,188,221384,1,8,0:0:0:0:
252,188,221459,1,8,0:0:0:0:
252,188,221534,1,0,0:0:0:0:
252,188,221609,1,8,0:0:0:0:
252,188,221684,1,0,0:0:0:0:
252,188,221734,1,0,0:0:0:0:
252,188,221784,1,8,0:0:0:0:
252,188,221834,1,8,0:0:0:0:
252,188,221984,1,0,0:0:0:0:
252,188,222034,1,0,0:0:0:0:
252,188,222084,1,8,0:0:0:0:
252,188,222134,1,8,0:0:0:0:
252,188,222284,1,0,0:0:0:0:
252,188,222334,1,0,0:0:0:0:
252,188,222384,1,8,0:0:0:0:
252,188,222434,1,8,0:0:0:0:
252,188,222509,1,0,0:0:0:0:
252,188,222584,1,8,0:0:0:0:
252,188,222659,1,8,0:0:0:0:
252,188,222734,1,0,0:0:0:0:
252,188,222809,1,0,0:0:0:0:
252,188,222884,1,8,0:0:0:0:
252,188,222934,1,8,0:0:0:0:
252,188,222984,1,8,0:0:0:0:
252,188,223034,1,4,0:0:0:0:
252,188,223184,1,8,0:0:0:0:
252,188,223259,1,8,0:0:0:0:
252,188,223334,1,8,0:0:0:0:
252,188,223409,1,8,0:0:0:0:
252,188,223484,1,8,0:0:0:0:
252,188,223559,1,8,0:0:0:0:
252,188,223634,1,0,0:0:0:0:
252,188,223709,1,0,0:0:0:0:
252,188,223784,1,0,0:0:0:0:
252,188,223859,1,0,0:0:0:0:
252,188,223934,1,0,0:0:0:0:
252,188,224009,1,0,0:0:0:0:
252,188,224084,1,0,0:0:0:0:
252,188,224159,1,0,0:0:0:0:
252,188,224234,1,8,0:0:0:0:
252,188,224309,1,8,0:0:0:0:
252,188,224384,1,8,0:0:0:0:
252,188,224459,1,8,0:0:0:0:
252,188,224534,1,0,0:0:0:0:
252,188,224609,1,0,0:0:0:0:
252,188,224684,1,0,0:0:0:0:
252,188,224759,1,0,0:0:0:0:
252,188,224834,1,8,0:0:0:0:
252,188,224909,1,0,0:0:0:0:
252,188,224984,1,0,0:0:0:0:
252,188,225059,1,8,0:0:0:0:
252,188,225134,1,0,0:0:0:0:
252,188,225209,1,0,0:0:0:0:
252,188,225284,1,8,0:0:0:0:
252,188,225434,1,8,0:0:0:0:
252,188,225509,1,8,0:0:0:0:
252,188,225584,1,8,0:0:0:0:
252,188,225659,1,8,0:0:0:0:
252,188,225734,1,8,0:0:0:0:
252,188,225809,1,8,0:0:0:0:
252,188,225884,1,8,0:0:0:0:
252,188,225959,1,8,0:0:0:0:
252,188,226034,1,0,0:0:0:0:
252,188,226109,1,0,0:0:0:0:
252,188,226184,1,0,0:0:0:0:
252,188,226259,1,0,0:0:0:0:
252,188,226334,1,0,0:0:0:0:
252,188,226409,1,0,0:0:0:0:
252,188,226484,1,0,0:0:0:0:
252,188,226559,1,0,0:0:0:0:
252,188,226634,1,8,0:0:0:0:
252,188,226709,1,8,0:0:0:0:
252,188,226784,1,0,0:0:0:0:
252,188,226859,1,0,0:0:0:0:
252,188,226934,1,8,0:0:0:0:
252,188,227009,1,0,0:0:0:0:
252,188,227084,1,0,0:0:0:0:
252,188,227159,1,0,0:0:0:0:
252,188,227234,1,8,0:0:0:0:
252,188,227309,1,8,0:0:0:0:
252,188,227384,1,0,0:0:0:0:
252,188,227459,1,0,0:0:0:0:
252,188,227534,1,8,0:0:0:0:
252,188,227609,1,0,0:0:0:0:
252,188,227684,1,8,0:0:0:0:
252,188,227834,1,8,0:0:0:0:
252,188,227909,1,8,0:0:0:0:
252,188,227984,1,8,0:0:0:0:
252,188,228059,1,8,0:0:0:0:
252,188,228134,1,8,0:0:0:0:
252,188,228209,1,8,0:0:0:0:
252,188,228284,1,8,0:0:0:0:
252,188,228359,1,8,0:0:0:0:
252,188,228434,1,0,0:0:0:0:
252,188,228509,1,0,0:0:0:0:
252,188,228584,1,0,0:0:0:0:
252,188,228659,1,0,0:0:0:0:
252,188,228734,1,0,0:0:0:0:
252,188,228809,1,0,0:0:0:0:
252,188,228884,1,0,0:0:0:0:
252,188,228959,1,0,0:0:0:0:
252,188,229034,1,8,0:0:0:0:
252,188,229109,1,8,0:0:0:0:
252,188,229184,1,8,0:0:0:0:
252,188,229259,1,8,0:0:0:0:
252,188,229334,1,0,0:0:0:0:
252,188,229409,1,0,0:0:0:0:
252,188,229484,1,0,0:0:0:0:
252,188,229559,1,0,0:0:0:0:
252,188,229634,1,8,0:0:0:0:
252,188,229709,1,8,0:0:0:0:
252,188,229784,1,0,0:0:0:0:
252,188,229859,1,8,0:0:0:0:
252,188,229934,1,8,0:0:0:0:
252,188,230009,1,0,0:0:0:0:
252,188,230084,1,8,0:0:0:0:
252,188,230234,1,8,0:0:0:0:
252,188,230309,1,8,0:0:0:0:
252,188,230384,1,8,0:0:0:0:
252,188,230459,1,8,0:0:0:0:
252,188,230534,1,8,0:0:0:0:
252,188,230609,1,8,0:0:0:0:
252,188,230684,1,8,0:0:0:0:
252,188,230759,1,8,0:0:0:0:
252,188,230834,1,0,0:0:0:0:
252,188,230909,1,0,0:0:0:0:
252,188,230984,1,0,0:0:0:0:
252,188,231059,1,0,0:0:0:0:
252,188,231134,1,0,0:0:0:0:
252,188,231209,1,0,0:0:0:0:
252,188,231284,1,0,0:0:0:0:
252,188,231359,1,0,0:0:0:0:
252,188,231434,1,8,0:0:0:0:
252,188,231509,1,8,0:0:0:0:
252,188,231584,1,0,0:0:0:0:
252,188,231659,1,0,0:0:0:0:
252,188,231734,1,8,0:0:0:0:
252,188,231809,1,8,0:0:0:0:
252,188,231884,1,0,0:0:0:0:
252,188,231959,1,0,0:0:0:0:
252,188,232034,1,8,0:0:0:0:
252,188,232109,1,0,0:0:0:0:
252,188,232184,1,0,0:0:0:0:
252,188,232259,1,0,0:0:0:0:
252,188,232334,1,8,0:0:0:0:
252,188,232484,1,8,0:0:0:0:
252,188,232634,1,4,0:0:0:0:
252,188,232784,1,8,0:0:0:0:
252,188,232859,1,8,0:0:0:0:
252,188,232934,1,8,0:0:0:0:
252,188,233009,1,8,0:0:0:0:
252,188,233084,1,8,0:0:0:0:
252,188,233159,1,8,0:0:0:0:
252,188,233234,1,0,0:0:0:0:
252,188,233309,1,0,0:0:0:0:
252,188,233384,1,0,0:0:0:0:
252,188,233459,1,0,0:0:0:0:
252,188,233534,1,0,0:0:0:0:
252,188,233609,1,0,0:0:0:0:
252,188,233684,1,0,0:0:0:0:
252,188,233759,1,0,0:0:0:0:
252,188,233834,1,8,0:0:0:0:
252,188,233909,1,8,0:0:0:0:
252,188,233984,1,8,0:0:0:0:
252,188,234059,1,8,0:0:0:0:
252,188,234134,1,0,0:0:0:0:
252,188,234209,1,0,0:0:0:0:
252,188,234284,1,0,0:0:0:0:
252,188,234359,1,0,0:0:0:0:
252,188,234434,1,8,0:0:0:0:
252,188,234509,1,0,0:0:0:0:
252,188,234584,1,0,0:0:0:0:
252,188,234659,1,8,0:0:0:0:
252,188,234734,1,0,0:0:0:0:
252,188,234809,1,0,0:0:0:0:
252,188,234884,1,8,0:0:0:0:
252,188,235034,1,8,0:0:0:0:
252,188,235109,1,8,0:0:0:0:
252,188,235184,1,8,0:0:0:0:
252,188,235259,1,8,0:0:0:0:
252,188,235334,1,8,0:0:0:0:
252,188,235409,1,8,0:0:0:0:
252,188,235484,1,8,0:0:0:0:
252,188,235559,1,8,0:0:0:0:
252,188,235634,1,0,0:0:0:0:
252,188,235709,1,0,0:0:0:0:
252,188,235784,1,0,0:0:0:0:
252,188,235859,1,0,0:0:0:0:
252,188,235934,1,0,0:0:0:0:
252,188,236009,1,0,0:0:0:0:
252,188,236084,1,0,0:0:0:0:
252,188,236159,1,0,0:0:0:0:
252,188,236234,1,8,0:0:0:0:
252,188,236309,1,8,0:0:0:0:
252,188,236384,1,0,0:0:0:0:
252,188,236459,1,0,0:0:0:0:
252,188,236534,1,8,0:0:0:0:
252,188,236609,1,0,0:0:0:0:
252,188,236684,1,0,0:0:0:0:
252,188,236759,1,0,0:0:0:0:
252,188,236834,1,8,0:0:0:0:
252,188,236909,1,8,0:0:0:0:
252,188,236984,1,0,0:0:0:0:
252,188,237059,1,0,0:0:0:0:
252,188,237134,1,8,0:0:0:0:
252,188,237209,1,0,0:0:0:0:
252,188,237284,1,8,0:0:0:0:
252,188,237434,1,8,0:0:0:0:
252,188,237509,1,8,0:0:0:0:
252,188,237584,1,0,0:0:0:0:
252,188,237659,1,0,0:0:0:0:
252,188,237734,1,8,0:0:0:0:
252,188,237809,1,0,0:0:0:0:
252,188,237884,1,8,0:0:0:0:
252,188,237959,1,0,0:0:0:0:
252,188,238034,1,8,0:0:0:0:
252,188,238109,1,8,0:0:0:0:
252,188,238184,1,0,0:0:0:0:
252,188,238259,1,0,0:0:0:0:
252,188,238334,1,8,0:0:0:0:
252,188,238409,1,0,0:0:0:0:
252,188,238484,1,8,0:0:0:0:
252,188,238559,1,0,0:0:0:0:
252,188,238634,1,8,0:0:0:0:
252,188,238709,1,8,0:0:0:0:
252,188,238784,1,8,0:0:0:0:
252,188,238859,1,0,0:0:0:0:
252,188,238934,1,8,0:0:0:0:
252,188,239009,1,0,0:0:0:0:
252,188,239084,1,8,0:0:0:0:
252,188,239159,1,0,0:0:0:0:
252,188,239234,1,8,0:0:0:0:
252,188,239309,1,8,0:0:0:0:
252,188,239384,1,0,0:0:0:0:
252,188,239459,1,8,0:0:0:0:
252,188,239534,1,8,0:0:0:0:
252,188,239609,1,0,0:0:0:0:
252,188,239684,1,8,0:0:0:0:
252,188,239834,1,8,0:0:0:0:
252,188,239909,1,8,0:0:0:0:
252,188,239984,1,8,0:0:0:0:
252,188,240059,1,8,0:0:0:0:
252,188,240134,1,0,0:0:0:0:
252,188,240209,1,0,0:0:0:0:
252,188,240284,1,0,0:0:0:0:
252,188,240359,1,0,0:0:0:0:
252,188,240434,1,8,0:0:0:0:
252,188,240509,1,8,0:0:0:0:
252,188,240584,1,8,0:0:0:0:
252,188,240659,1,8,0:0:0:0:
252,188,240734,1,0,0:0:0:0:
252,188,240809,1,8,0:0:0:0:
252,188,240884,1,0,0:0:0:0:
252,188,240934,1,0,0:0:0:0:
252,188,240984,1,8,0:0:0:0:
252,188,241034,1,8,0:0:0:0:
252,188,241184,1,0,0:0:0:0:
252,188,241234,1,0,0:0:0:0:
252,188,241284,1,8,0:0:0:0:
252,188,241334,1,8,0:0:0:0:
252,188,241484,1,0,0:0:0:0:
252,188,241534,1,0,0:0:0:0:
252,188,241584,1,8,0:0:0:0:
252,188,241634,1,8,0:0:0:0:
252,188,241709,1,0,0:0:0:0:
252,188,241784,1,8,0:0:0:0:
252,188,241859,1,8,0:0:0:0:
252,188,241934,1,0,0:0:0:0:
252,188,242009,1,0,0:0:0:0:
252,188,242084,1,8,0:0:0:0:
252,188,242134,1,8,0:0:0:0:
252,188,242184,1,8,0:0:0:0:
252,188,242234,1,4,0:0:0:0:
252,188,243434,1,8,0:0:0:0:
252,188,244034,1,0,0:0:0:0:
252,188,244634,1,8,0:0:0:0:
252,188,245834,1,8,0:0:0:0:
252,188,246134,1,0,0:0:0:0:
252,188,246434,1,0,0:0:0:0:
252,188,246634,1,8,0:0:0:0:
252,188,246834,1,8,0:0:0:0:
252,188,247034,1,8,0:0:0:0:
252,188,247634,1,0,0:0:0:0:
252,188,248234,1,12,0:0:0:0:
256,192,248384,8,0,253034,0:0:0:0:
