osu file format v14

[General]
AudioFilename: audio.mp3
AudioLeadIn: 0
PreviewTime: 153359
Countdown: 0
SampleSet: Normal
StackLeniency: 0.7
Mode: 1
LetterboxInBreaks: 0
WidescreenStoryboard: 1

[Editor]
DistanceSpacing: 1.1
BeatDivisor: 4
GridSize: 32
TimelineZoom: 1.2

[Metadata]
Title:Blue Zenith
TitleUnicode:Blue Zenith
Artist:xi
ArtistUnicode:xi
Creator:Faputa
Version:Cynp-zy's Futsuu
Source:
Tags:osu! featured artist fa mappers' guild mg mpg BlackBq BlackBn Cynp-zy Cynplytholowazy -GN Junior -GN Jr. -GN_Jr. -GN_Junior raytoly rhytoly Parousia 727 electronic instrumental
BeatmapID:3399379
BeatmapSetID:1008969

[Difficulty]
HPDrainRate:6.5
CircleSize:10
OverallDifficulty:4
ApproachRate:10
SliderMultiplier:1.4
SliderTickRate:1

[Events]
//Background and Video events
0,0,"70549737_p0.jpg",0,-100
//Break Periods
//Storyboard Layer 0 (Background)
//Storyboard Layer 1 (Fail)
//Storyboard Layer 2 (Pass)
//Storyboard Layer 3 (Foreground)
//Storyboard Layer 4 (Overlay)
//Storyboard Sound Samples

[TimingPoints]
2234,300,4,1,0,100,1,0
2234,-111.111111111111,4,1,0,100,0,0
153434,-111.111111111111,4,1,0,100,0,1
172634,-111.111111111111,4,1,0,100,0,0
172784,-111.111111111111,4,1,0,100,0,0
184634,-111.111111111111,4,1,0,100,0,0
223034,-111.111111111111,4,1,0,100,0,1
242234,-111.111111111111,4,1,0,100,0,0
242534,-111.111111111111,4,1,0,100,0,0
253034,-111.111111111111,4,1,0,100,0,0

[HitObjects]
256,192,2234,5,4,0:0:0:0:
256,192,7034,1,2,0:0:0:0:
256,192,7334,1,2,0:0:0:0:
256,192,7634,1,2,0:0:0:0:
256,192,7934,1,2,0:0:0:0:
256,192,8234,1,2,0:0:0:0:
256,192,8534,1,2,0:0:0:0:
256,192,8834,1,2,0:0:0:0:
256,192,9134,1,2,0:0:0:0:
256,192,10634,1,0,0:0:0:0:
256,192,10934,1,0,0:0:0:0:
256,192,11084,1,0,0:0:0:0:
256,192,11234,1,2,0:0:0:0:
256,192,11534,1,0,0:0:0:0:
256,192,11834,1,6,0:0:0:0:
256,192,12434,1,0,0:0:0:0:
256,192,12734,1,0,0:0:0:0:
256,192,12884,1,0,0:0:0:0:
256,192,13034,1,2,0:0:0:0:
256,192,13334,1,2,0:0:0:0:
256,192,13634,1,0,0:0:0:0:
256,192,13934,1,2,0:0:0:0:
256,192,14234,1,0,0:0:0:0:
256,192,14834,1,2,0:0:0:0:
256,192,15134,1,2,0:0:0:0:
256,192,15284,1,2,0:0:0:0:
256,192,15434,1,0,0:0:0:0:
256,192,15734,1,2,0:0:0:0:
256,192,16034,1,0,0:0:0:0:
256,192,16334,1,0,0:0:0:0:
256,192,16634,1,6,0:0:0:0:
256,192,17234,1,2,0:0:0:0:
256,192,17534,1,2,0:0:0:0:
256,192,17684,1,2,0:0:0:0:
256,192,17834,1,4,0:0:0:0:
256,192,18434,1,0,0:0:0:0:
256,192,18734,1,0,0:0:0:0:
256,192,18884,1,0,0:0:0:0:
256,192,19034,1,6,0:0:0:0:
256,192,19634,1,6,0:0:0:0:
256,192,20234,1,6,0:0:0:0:
256,192,20534,1,4,0:0:0:0:
256,192,20834,1,6,0:0:0:0:
256,192,21134,1,6,0:0:0:0:
256,192,21434,1,4,0:0:0:0:
256,192,22034,1,0,0:0:0:0:
256,192,22334,1,0,0:0:0:0:
256,192,22484,1,0,0:0:0:0:
256,192,22634,1,2,0:0:0:0:
256,192,22934,1,0,0:0:0:0:
256,192,23234,1,2,0:0:0:0:
256,192,23534,1,2,0:0:0:0:
256,192,23834,1,0,0:0:0:0:
256,192,24134,1,0,0:0:0:0:
256,192,24434,1,0,0:0:0:0:
256,192,24734,1,0,0:0:0:0:
256,192,25034,1,2,0:0:0:0:
256,192,25634,1,2,0:0:0:0:
256,192,25934,1,2,0:0:0:0:
256,192,26084,1,2,0:0:0:0:
256,192,26234,1,4,0:0:0:0:
256,192,26834,1,0,0:0:0:0:
256,192,27134,1,0,0:0:0:0:
256,192,27284,1,0,0:0:0:0:
256,192,27434,1,2,0:0:0:0:
256,192,27734,1,0,0:0:0:0:
256,192,28034,1,2,0:0:0:0:
256,192,28334,1,0,0:0:0:0:
256,192,28634,1,2,0:0:0:0:
256,192,28934,1,2,0:0:0:0:
256,192,29234,1,2,0:0:0:0:
256,192,29534,1,2,0:0:0:0:
256,192,29834,1,2,0:0:0:0:
256,192,29984,1,0,0:0:0:0:
256,192,30134,1,2,0:0:0:0:
256,192,30284,1,2,0:0:0:0:
256,192,30434,1,0,0:0:0:0:
256,192,30734,1,0,0:0:0:0:
256,192,30884,1,0,0:0:0:0:
256,192,31034,1,6,0:0:0:0:
256,192,31634,1,2,0:0:0:0:
256,192,31934,1,0,0:0:0:0:
256,192,32234,1,2,0:0:0:0:
256,192,32534,1,2,0:0:0:0:
256,192,32684,1,2,0:0:0:0:
256,192,32834,1,0,0:0:0:0:
256,192,33134,1,2,0:0:0:0:
256,192,33434,1,0,0:0:0:0:
256,192,33734,1,0,0:0:0:0:
256,192,34034,1,0,0:0:0:0:
256,192,34334,1,0,0:0:0:0:
256,192,34634,1,2,0:0:0:0:
256,192,34934,1,0,0:0:0:0:
256,192,35234,1,2,0:0:0:0:
256,192,35384,1,2,0:0:0:0:
256,192,35534,1,0,0:0:0:0:
256,192,35834,1,2,0:0:0:0:
256,192,36434,1,0,0:0:0:0:
256,192,36734,1,0,0:0:0:0:
256,192,37034,1,2,0:0:0:0:
256,192,37334,1,0,0:0:0:0:
256,192,37634,1,2,0:0:0:0:
256,192,37784,1,2,0:0:0:0:
256,192,37934,1,0,0:0:0:0:
256,192,38234,1,2,0:0:0:0:
256,192,38534,1,2,0:0:0:0:
256,192,38834,1,2,0:0:0:0:
256,192,39134,1,2,0:0:0:0:
256,192,39434,1,0,0:0:0:0:
256,192,39734,1,0,0:0:0:0:
256,192,39884,1,0,0:0:0:0:
256,192,40034,1,2,0:0:0:0:
256,192,40334,1,0,0:0:0:0:
256,192,40634,1,2,0:0:0:0:
256,192,41234,1,2,0:0:0:0:
256,192,41534,1,2,0:0:0:0:
256,192,41834,1,0,0:0:0:0:
256,192,42134,1,0,0:0:0:0:
256,192,42284,1,0,0:0:0:0:
256,192,42434,1,2,0:0:0:0:
256,192,42734,1,0,0:0:0:0:
256,192,43034,1,2,0:0:0:0:
256,192,43334,1,2,0:0:0:0:
256,192,43634,1,2,0:0:0:0:
256,192,43934,1,2,0:0:0:0:
256,192,44234,1,0,0:0:0:0:
256,192,44534,1,0,0:0:0:0:
256,192,44834,1,2,0:0:0:0:
256,192,44984,1,2,0:0:0:0:
256,192,45134,1,0,0:0:0:0:
256,192,45284,1,0,0:0:0:0:
256,192,45434,1,2,0:0:0:0:
256,192,46034,1,0,0:0:0:0:
256,192,46334,1,0,0:0:0:0:
256,192,46634,1,2,0:0:0:0:
256,192,46934,1,0,0:0:0:0:
256,192,47234,1,2,0:0:0:0:
256,192,47384,1,2,0:0:0:0:
256,192,47534,1,0,0:0:0:0:
256,192,47834,1,0,0:0:0:0:
256,192,48134,1,0,0:0:0:0:
256,192,48434,1,2,0:0:0:0:
256,192,48734,1,0,0:0:0:0:
256,192,48884,1,0,0:0:0:0:
256,192,49034,1,2,0:0:0:0:
256,192,49184,1,0,0:0:0:0:
256,192,49334,1,2,0:0:0:0:
256,192,49634,1,2,0:0:0:0:
256,192,49784,1,2,0:0:0:0:
256,192,49934,1,0,0:0:0:0:
256,192,50084,1,0,0:0:0:0:
256,192,50234,1,6,0:0:0:0:
256,192,50834,1,2,0:0:0:0:
256,192,51134,1,0,0:0:0:0:
256,192,51434,1,2,0:0:0:0:
256,192,51734,1,2,0:0:0:0:
256,192,51884,1,2,0:0:0:0:
256,192,52034,1,0,0:0:0:0:
256,192,52334,1,2,0:0:0:0:
256,192,52634,1,0,0:0:0:0:
256,192,52934,1,0,0:0:0:0:
256,192,53234,1,0,0:0:0:0:
256,192,53534,1,0,0:0:0:0:
256,192,53834,1,2,0:0:0:0:
256,192,54134,1,0,0:0:0:0:
256,192,54434,1,2,0:0:0:0:
256,192,54584,1,2,0:0:0:0:
256,192,54734,1,0,0:0:0:0:
256,192,54884,1,0,0:0:0:0:
256,192,55034,1,2,0:0:0:0:
256,192,55634,1,0,0:0:0:0:
256,192,55934,1,0,0:0:0:0:
256,192,56234,1,2,0:0:0:0:
256,192,56534,1,0,0:0:0:0:
256,192,56834,1,2,0:0:0:0:
256,192,56984,1,2,0:0:0:0:
256,192,57134,1,0,0:0:0:0:
256,192,57434,1,2,0:0:0:0:
256,192,57734,1,2,0:0:0:0:
256,192,58034,1,2,0:0:0:0:
256,192,58334,1,2,0:0:0:0:
256,192,58634,1,0,0:0:0:0:
256,192,58934,1,0,0:0:0:0:
256,192,59084,1,0,0:0:0:0:
256,192,59234,1,2,0:0:0:0:
256,192,59534,1,0,0:0:0:0:
256,192,59834,1,2,0:0:0:0:
256,192,60434,1,2,0:0:0:0:
256,192,60734,1,2,0:0:0:0:
256,192,61034,1,0,0:0:0:0:
256,192,61334,1,0,0:0:0:0:
256,192,61484,1,0,0:0:0:0:
256,192,61634,1,2,0:0:0:0:
256,192,61934,1,0,0:0:0:0:
256,192,62234,1,2,0:0:0:0:
256,192,62534,1,2,0:0:0:0:
256,192,62834,1,2,0:0:0:0:
256,192,63134,1,2,0:0:0:0:
256,192,63434,1,0,0:0:0:0:
256,192,64034,1,2,0:0:0:0:
256,192,64184,1,2,0:0:0:0:
256,192,64334,1,0,0:0:0:0:
256,192,64484,1,0,0:0:0:0:
256,192,64634,1,2,0:0:0:0:
256,192,64934,1,0,0:0:0:0:
256,192,65084,1,0,0:0:0:0:
256,192,65234,1,2,0:0:0:0:
256,192,65534,1,0,0:0:0:0:
256,192,65834,1,2,0:0:0:0:
256,192,66134,1,0,0:0:0:0:
256,192,66434,1,2,0:0:0:0:
256,192,66584,1,2,0:0:0:0:
256,192,66734,1,0,0:0:0:0:
256,192,66884,1,0,0:0:0:0:
256,192,67034,1,2,0:0:0:0:
256,192,67334,1,0,0:0:0:0:
256,192,67484,1,0,0:0:0:0:
256,192,67634,1,2,0:0:0:0:
256,192,67934,1,0,0:0:0:0:
256,192,68084,1,0,0:0:0:0:
256,192,68234,1,2,0:0:0:0:
256,192,68534,1,2,0:0:0:0:
256,192,68684,1,0,0:0:0:0:
256,192,68834,1,2,0:0:0:0:
256,192,68984,1,2,0:0:0:0:
256,192,69134,1,0,0:0:0:0:
256,192,69284,1,0,0:0:0:0:
256,192,69434,1,6,0:0:0:0:
256,192,71834,1,0,0:0:0:0:
256,192,72134,1,2,0:0:0:0:
256,192,72434,1,2,0:0:0:0:
256,192,74234,1,4,0:0:0:0:
256,192,74834,1,0,0:0:0:0:
256,192,76034,1,2,0:0:0:0:
256,192,76234,1,2,0:0:0:0:
256,192,76434,1,0,0:0:0:0:
256,192,76634,1,2,0:0:0:0:
256,192,77234,1,0,0:0:0:0:
256,192,78434,1,0,0:0:0:0:
256,192,79034,1,0,0:0:0:0:
256,192,79634,1,0,0:0:0:0:
256,192,80834,1,2,0:0:0:0:
256,192,81034,1,2,0:0:0:0:
256,192,81234,1,0,0:0:0:0:
256,192,81434,1,2,0:0:0:0:
256,192,82034,1,2,0:0:0:0:
256,192,82934,1,2,0:0:0:0:
256,192,83234,1,2,0:0:0:0:
256,192,83534,1,2,0:0:0:0:
256,192,83834,1,4,0:0:0:0:
256,192,85034,1,2,0:0:0:0:
256,192,85634,1,0,0:0:0:0:
256,192,86234,1,2,0:0:0:0:
256,192,87434,1,2,0:0:0:0:
256,192,87734,1,0,0:0:0:0:
256,192,88034,1,0,0:0:0:0:
256,192,88234,1,0,0:0:0:0:
256,192,88434,1,2,0:0:0:0:
256,192,88634,1,2,0:0:0:0:
256,192,89234,1,0,0:0:0:0:
256,192,90134,1,0,0:0:0:0:
256,192,90434,1,2,0:0:0:0:
256,192,90734,1,2,0:0:0:0:
256,192,91034,1,2,0:0:0:0:
256,192,91634,1,0,0:0:0:0:
256,192,92234,1,2,0:0:0:0:
256,192,92834,1,2,0:0:0:0:
256,192,93434,1,4,0:0:0:0:
256,192,94034,1,2,0:0:0:0:
256,192,95234,1,2,0:0:0:0:
256,192,95434,1,2,0:0:0:0:
256,192,95634,1,0,0:0:0:0:
256,192,95834,1,2,0:0:0:0:
256,192,96434,1,0,0:0:0:0:
256,192,97634,1,0,0:0:0:0:
256,192,97934,1,6,0:0:0:0:
256,192,98234,1,4,0:0:0:0:
256,192,98834,1,2,0:0:0:0:
256,192,100034,1,2,0:0:0:0:
256,192,100234,1,2,0:0:0:0:
256,192,100434,1,0,0:0:0:0:
256,192,100634,1,2,0:0:0:0:
256,192,101234,1,2,0:0:0:0:
256,192,102134,1,0,0:0:0:0:
256,192,102434,1,2,0:0:0:0:
256,192,102884,1,6,0:0:0:0:
256,192,103034,1,4,0:0:0:0:
256,192,104234,1,2,0:0:0:0:
256,192,104834,1,0,0:0:0:0:
256,192,105284,1,6,0:0:0:0:
256,192,105434,1,4,0:0:0:0:
256,192,106484,1,6,0:0:0:0:
256,192,106634,1,4,0:0:0:0:
256,192,106934,1,0,0:0:0:0:
256,192,107234,1,2,0:0:0:0:
256,192,107684,1,6,0:0:0:0:
256,192,107834,1,4,0:0:0:0:
256,192,108434,1,0,0:0:0:0:
256,192,108884,1,6,0:0:0:0:
256,192,109034,1,4,0:0:0:0:
256,192,109334,1,0,0:0:0:0:
256,192,109634,1,2,0:0:0:0:
256,192,109934,1,2,0:0:0:0:
256,192,110234,1,6,0:0:0:0:
256,192,110384,1,4,0:0:0:0:
256,192,110834,1,6,0:0:0:0:
256,192,110984,1,4,0:0:0:0:
256,192,111434,1,6,0:0:0:0:
256,192,112034,1,2,0:0:0:0:
256,192,112184,1,2,0:0:0:0:
256,192,112334,1,0,0:0:0:0:
256,192,112634,1,4,0:0:0:0:
256,192,113834,1,6,0:0:0:0:
256,192,114134,1,6,0:0:0:0:
256,192,114434,1,6,0:0:0:0:
256,192,114734,1,6,0:0:0:0:
256,192,115034,1,4,0:0:0:0:
256,192,115634,1,0,0:0:0:0:
256,192,115934,1,0,0:0:0:0:
256,192,116234,1,2,0:0:0:0:
256,192,116534,1,2,0:0:0:0:
256,192,116684,1,2,0:0:0:0:
256,192,116834,1,0,0:0:0:0:
256,192,117134,1,2,0:0:0:0:
256,192,117434,1,0,0:0:0:0:
256,192,117734,1,0,0:0:0:0:
256,192,118034,1,2,0:0:0:0:
256,192,118334,1,0,0:0:0:0:
256,192,118634,1,2,0:0:0:0:
256,192,118784,1,2,0:0:0:0:
256,192,118934,1,0,0:0:0:0:
256,192,119234,1,2,0:0:0:0:
256,192,119834,1,0,0:0:0:0:
256,192,120434,1,2,0:0:0:0:
256,192,120734,1,2,0:0:0:0:
256,192,121034,1,0,0:0:0:0:
256,192,121334,1,0,0:0:0:0:
256,192,121484,1,0,0:0:0:0:
256,192,121634,1,2,0:0:0:0:
256,192,121934,1,0,0:0:0:0:
256,192,122234,1,2,0:0:0:0:
256,192,122534,1,2,0:0:0:0:
256,192,122684,1,2,0:0:0:0:
256,192,122834,1,0,0:0:0:0:
256,192,123134,1,2,0:0:0:0:
256,192,123434,1,0,0:0:0:0:
256,192,123734,1,0,0:0:0:0:
256,192,124034,1,2,0:0:0:0:
256,192,124334,1,0,0:0:0:0:
256,192,124484,1,0,0:0:0:0:
256,192,124634,1,2,0:0:0:0:
256,192,125234,1,2,0:0:0:0:
256,192,125534,1,2,0:0:0:0:
256,192,125834,1,0,0:0:0:0:
256,192,126134,1,0,0:0:0:0:
256,192,126284,1,0,0:0:0:0:
256,192,126434,1,2,0:0:0:0:
256,192,126734,1,0,0:0:0:0:
256,192,127034,1,2,0:0:0:0:
256,192,127334,1,0,0:0:0:0:
256,192,127634,1,2,0:0:0:0:
256,192,127934,1,2,0:0:0:0:
256,192,128084,1,2,0:0:0:0:
256,192,128234,1,0,0:0:0:0:
256,192,128534,1,2,0:0:0:0:
256,192,128834,1,0,0:0:0:0:
256,192,129134,1,2,0:0:0:0:
256,192,129284,1,2,0:0:0:0:
256,192,129434,1,0,0:0:0:0:
256,192,130034,1,0,0:0:0:0:
256,192,130334,1,0,0:0:0:0:
256,192,130634,1,2,0:0:0:0:
256,192,130934,1,0,0:0:0:0:
256,192,131234,1,2,0:0:0:0:
256,192,131534,1,2,0:0:0:0:
256,192,131684,1,2,0:0:0:0:
256,192,131834,1,0,0:0:0:0:
256,192,132134,1,0,0:0:0:0:
256,192,132284,1,0,0:0:0:0:
256,192,132434,1,2,0:0:0:0:
256,192,132584,1,0,0:0:0:0:
256,192,132734,1,2,0:0:0:0:
256,192,133034,1,2,0:0:0:0:
256,192,133184,1,2,0:0:0:0:
256,192,133334,1,0,0:0:0:0:
256,192,133484,1,0,0:0:0:0:
256,192,133634,1,2,0:0:0:0:
256,192,133784,1,0,0:0:0:0:
256,192,133934,1,2,0:0:0:0:
256,192,134234,1,4,0:0:0:0:
256,192,134834,1,0,0:0:0:0:
256,192,135134,1,0,0:0:0:0:
256,192,135434,1,2,0:0:0:0:
256,192,135734,1,0,0:0:0:0:
256,192,136034,1,2,0:0:0:0:
256,192,136334,1,2,0:0:0:0:
256,192,136484,1,2,0:0:0:0:
256,192,136634,1,0,0:0:0:0:
256,192,136934,1,0,0:0:0:0:
256,192,137234,1,2,0:0:0:0:
256,192,137534,1,0,0:0:0:0:
256,192,137684,1,0,0:0:0:0:
256,192,137834,1,2,0:0:0:0:
256,192,138134,1,2,0:0:0:0:
256,192,138434,1,0,0:0:0:0:
256,192,138734,1,2,0:0:0:0:
256,192,138884,1,0,0:0:0:0:
256,192,139034,1,2,0:0:0:0:
256,192,139634,1,2,0:0:0:0:
256,192,139934,1,2,0:0:0:0:
256,192,140234,1,0,0:0:0:0:
256,192,140534,1,0,0:0:0:0:
256,192,140684,1,0,0:0:0:0:
256,192,140834,1,2,0:0:0:0:
256,192,141134,1,0,0:0:0:0:
256,192,141434,1,2,0:0:0:0:
256,192,141734,1,2,0:0:0:0:
256,192,141884,1,2,0:0:0:0:
256,192,142034,1,0,0:0:0:0:
256,192,142334,1,2,0:0:0:0:
256,192,142634,1,2,0:0:0:0:
256,192,142934,1,2,0:0:0:0:
256,192,143234,1,0,0:0:0:0:
256,192,143534,1,0,0:0:0:0:
256,192,143684,1,0,0:0:0:0:
256,192,143834,1,2,0:0:0:0:
256,192,144434,1,2,0:0:0:0:
256,192,144734,1,2,0:0:0:0:
256,192,145034,1,0,0:0:0:0:
256,192,145334,1,0,0:0:0:0:
256,192,145634,1,2,0:0:0:0:
256,192,145934,1,0,0:0:0:0:
256,192,146234,1,2,0:0:0:0:
256,192,146534,1,2,0:0:0:0:
256,192,146684,1,2,0:0:0:0:
256,192,146834,1,0,0:0:0:0:
256,192,147134,1,2,0:0:0:0:
256,192,147434,1,0,0:0:0:0:
256,192,148034,1,2,0:0:0:0:
256,192,148334,1,0,0:0:0:0:
256,192,148484,1,0,0:0:0:0:
256,192,148634,1,6,0:0:0:0:
256,192,148934,1,2,0:0:0:0:
256,192,149234,1,0,0:0:0:0:
256,192,149534,1,0,0:0:0:0:
256,192,149684,1,0,0:0:0:0:
256,192,149834,1,6,0:0:0:0:
256,192,150134,1,0,0:0:0:0:
256,192,150434,1,2,0:0:0:0:
256,192,150734,1,0,0:0:0:0:
256,192,150884,1,0,0:0:0:0:
256,192,151034,1,6,0:0:0:0:
256,192,151334,1,2,0:0:0:0:
256,192,151634,1,4,0:0:0:0:
256,192,151934,1,0,0:0:0:0:
256,192,152234,1,6,0:0:0:0:
256,192,152534,1,6,0:0:0:0:
256,192,152834,1,6,0:0:0:0:
256,192,153134,1,6,0:0:0:0:
256,192,153434,1,4,0:0:0:0:
256,192,154034,1,2,0:0:0:0:
256,192,154334,1,0,0:0:0:0:
256,192,154484,1,0,0:0:0:0:
256,192,154634,1,2,0:0:0:0:
256,192,154934,1,0,0:0:0:0:
256,192,155234,1,2,0:0:0:0:
256,192,155434,1,2,0:0:0:0:
256,192,155634,1,0,0:0:0:0:
256,192,155834,1,2,0:0:0:0:
256,192,156434,1,0,0:0:0:0:
256,192,156734,1,0,0:0:0:0:
256,192,156884,1,0,0:0:0:0:
256,192,157034,1,2,0:0:0:0:
256,192,157334,1,0,0:0:0:0:
256,192,157634,1,2,0:0:0:0:
256,192,157934,1,0,0:0:0:0:
256,192,158084,1,0,0:0:0:0:
256,192,158234,1,2,0:0:0:0:
256,192,158834,1,0,0:0:0:0:
256,192,159134,1,0,0:0:0:0:
256,192,159284,1,0,0:0:0:0:
256,192,159434,1,2,0:0:0:0:
256,192,159734,1,0,0:0:0:0:
256,192,160034,1,2,0:0:0:0:
256,192,160234,1,2,0:0:0:0:
256,192,160434,1,0,0:0:0:0:
256,192,160634,1,2,0:0:0:0:
256,192,161234,1,0,0:0:0:0:
256,192,161534,1,0,0:0:0:0:
256,192,161834,1,2,0:0:0:0:
256,192,162134,1,2,0:0:0:0:
256,192,162284,1,2,0:0:0:0:
256,192,162434,1,0,0:0:0:0:
256,192,162734,1,0,0:0:0:0:
256,192,162884,1,0,0:0:0:0:
256,192,163034,1,6,0:0:0:0:
256,192,163634,1,0,0:0:0:0:
256,192,163934,1,0,0:0:0:0:
256,192,164084,1,0,0:0:0:0:
256,192,164234,1,2,0:0:0:0:
256,192,164534,1,0,0:0:0:0:
256,192,164834,1,2,0:0:0:0:
256,192,165034,1,2,0:0:0:0:
256,192,165234,1,0,0:0:0:0:
256,192,165434,1,2,0:0:0:0:
256,192,166034,1,0,0:0:0:0:
256,192,166334,1,0,0:0:0:0:
256,192,166484,1,0,0:0:0:0:
256,192,166634,1,2,0:0:0:0:
256,192,166934,1,0,0:0:0:0:
256,192,167234,1,2,0:0:0:0:
256,192,167534,1,0,0:0:0:0:
256,192,167684,1,0,0:0:0:0:
256,192,167834,1,6,0:0:0:0:
256,192,168134,1,0,0:0:0:0:
256,192,168284,1,0,0:0:0:0:
256,192,168434,1,2,0:0:0:0:
256,192,168584,1,0,0:0:0:0:
256,192,168734,1,2,0:0:0:0:
256,192,169034,1,4,0:0:0:0:
256,192,169334,1,0,0:0:0:0:
256,192,169634,1,2,0:0:0:0:
256,192,169834,1,2,0:0:0:0:
256,192,170034,1,0,0:0:0:0:
256,192,170234,1,6,0:0:0:0:
256,192,170534,1,0,0:0:0:0:
256,192,170834,1,6,0:0:0:0:
256,192,171134,1,0,0:0:0:0:
256,192,171284,1,0,0:0:0:0:
256,192,171434,1,6,0:0:0:0:
256,192,171734,1,4,0:0:0:0:
256,192,172034,1,6,0:0:0:0:
256,192,172334,1,6,0:0:0:0:
256,192,172634,1,4,0:0:0:0:
256,192,173834,1,2,0:0:0:0:
256,192,174434,1,0,0:0:0:0:
256,192,175034,1,2,0:0:0:0:
256,192,176234,1,2,0:0:0:0:
256,192,176534,1,0,0:0:0:0:
256,192,176834,1,0,0:0:0:0:
256,192,177034,1,2,0:0:0:0:
256,192,177234,1,2,0:0:0:0:
256,192,177434,1,2,0:0:0:0:
256,192,178034,1,0,0:0:0:0:
256,192,178934,1,0,0:0:0:0:
256,192,179234,1,2,0:0:0:0:
256,192,179534,1,2,0:0:0:0:
256,192,179834,1,2,0:0:0:0:
256,192,180434,1,0,0:0:0:0:
256,192,181034,1,2,0:0:0:0:
256,192,181634,1,2,0:0:0:0:
256,192,182234,1,4,0:0:0:0:
256,192,183434,1,6,0:0:0:0:
256,192,183734,1,6,0:0:0:0:
256,192,184034,1,6,0:0:0:0:
256,192,184334,1,6,0:0:0:0:
256,192,184634,1,4,0:0:0:0:
256,192,185234,1,0,0:0:0:0:
256,192,185534,1,0,0:0:0:0:
256,192,185834,1,2,0:0:0:0:
256,192,186134,1,2,0:0:0:0:
256,192,186284,1,2,0:0:0:0:
256,192,186434,1,0,0:0:0:0:
256,192,186734,1,2,0:0:0:0:
256,192,187034,1,0,0:0:0:0:
256,192,187334,1,0,0:0:0:0:
256,192,187634,1,2,0:0:0:0:
256,192,187934,1,0,0:0:0:0:
256,192,188234,1,2,0:0:0:0:
256,192,188384,1,2,0:0:0:0:
256,192,188534,1,0,0:0:0:0:
256,192,188834,1,2,0:0:0:0:
256,192,189434,1,0,0:0:0:0:
256,192,190034,1,2,0:0:0:0:
256,192,190334,1,2,0:0:0:0:
256,192,190634,1,0,0:0:0:0:
256,192,190934,1,0,0:0:0:0:
256,192,191084,1,0,0:0:0:0:
256,192,191234,1,2,0:0:0:0:
256,192,191534,1,0,0:0:0:0:
256,192,191834,1,2,0:0:0:0:
256,192,192134,1,2,0:0:0:0:
256,192,192284,1,2,0:0:0:0:
256,192,192434,1,0,0:0:0:0:
256,192,192734,1,2,0:0:0:0:
256,192,193034,1,0,0:0:0:0:
256,192,193334,1,0,0:0:0:0:
256,192,193634,1,2,0:0:0:0:
256,192,193934,1,0,0:0:0:0:
256,192,194084,1,0,0:0:0:0:
256,192,194234,1,2,0:0:0:0:
256,192,194834,1,2,0:0:0:0:
256,192,195134,1,2,0:0:0:0:
256,192,195434,1,0,0:0:0:0:
256,192,195734,1,0,0:0:0:0:
256,192,195884,1,0,0:0:0:0:
256,192,196034,1,2,0:0:0:0:
256,192,196334,1,0,0:0:0:0:
256,192,196634,1,2,0:0:0:0:
256,192,196934,1,0,0:0:0:0:
256,192,197234,1,2,0:0:0:0:
256,192,197534,1,2,0:0:0:0:
256,192,197684,1,2,0:0:0:0:
256,192,197834,1,0,0:0:0:0:
256,192,198134,1,2,0:0:0:0:
256,192,198434,1,0,0:0:0:0:
256,192,198734,1,2,0:0:0:0:
256,192,198884,1,2,0:0:0:0:
256,192,199034,1,0,0:0:0:0:
256,192,199634,1,0,0:0:0:0:
256,192,199934,1,0,0:0:0:0:
256,192,200234,1,2,0:0:0:0:
256,192,200534,1,0,0:0:0:0:
256,192,200834,1,2,0:0:0:0:
256,192,201134,1,2,0:0:0:0:
256,192,201284,1,2,0:0:0:0:
256,192,201434,1,0,0:0:0:0:
256,192,201734,1,0,0:0:0:0:
256,192,201884,1,0,0:0:0:0:
256,192,202034,1,2,0:0:0:0:
256,192,202184,1,0,0:0:0:0:
256,192,202334,1,2,0:0:0:0:
256,192,202634,1,2,0:0:0:0:
256,192,202784,1,2,0:0:0:0:
256,192,202934,1,0,0:0:0:0:
256,192,203084,1,0,0:0:0:0:
256,192,203234,1,2,0:0:0:0:
256,192,203384,1,0,0:0:0:0:
256,192,203534,1,2,0:0:0:0:
256,192,203834,1,4,0:0:0:0:
256,192,204434,1,0,0:0:0:0:
256,192,204734,1,0,0:0:0:0:
256,192,205034,1,2,0:0:0:0:
256,192,205334,1,0,0:0:0:0:
256,192,205634,1,2,0:0:0:0:
256,192,205934,1,2,0:0:0:0:
256,192,206084,1,2,0:0:0:0:
256,192,206234,1,0,0:0:0:0:
256,192,206534,1,0,0:0:0:0:
256,192,206834,1,2,0:0:0:0:
256,192,207134,1,0,0:0:0:0:
256,192,207284,1,0,0:0:0:0:
256,192,207434,1,2,0:0:0:0:
256,192,207734,1,2,0:0:0:0:
256,192,208034,1,0,0:0:0:0:
256,192,208334,1,2,0:0:0:0:
256,192,208484,1,0,0:0:0:0:
256,192,208634,1,2,0:0:0:0:
256,192,209234,1,2,0:0:0:0:
256,192,209534,1,2,0:0:0:0:
256,192,209834,1,0,0:0:0:0:
256,192,210134,1,0,0:0:0:0:
256,192,210284,1,0,0:0:0:0:
256,192,210434,1,2,0:0:0:0:
256,192,210734,1,0,0:0:0:0:
256,192,211034,1,2,0:0:0:0:
256,192,211334,1,2,0:0:0:0:
256,192,211484,1,2,0:0:0:0:
256,192,211634,1,0,0:0:0:0:
256,192,211934,1,2,0:0:0:0:
256,192,212234,1,2,0:0:0:0:
256,192,212534,1,2,0:0:0:0:
256,192,212834,1,0,0:0:0:0:
256,192,213134,1,0,0:0:0:0:
256,192,213284,1,0,0:0:0:0:
256,192,213434,1,2,0:0:0:0:
256,192,214034,1,2,0:0:0:0:
256,192,214334,1,2,0:0:0:0:
256,192,214634,1,0,0:0:0:0:
256,192,214934,1,0,0:0:0:0:
256,192,215234,1,2,0:0:0:0:
256,192,215534,1,0,0:0:0:0:
256,192,215834,1,2,0:0:0:0:
256,192,216134,1,2,0:0:0:0:
256,192,216284,1,2,0:0:0:0:
256,192,216434,1,0,0:0:0:0:
256,192,216734,1,2,0:0:0:0:
256,192,217034,1,0,0:0:0:0:
256,192,217634,1,2,0:0:0:0:
256,192,217934,1,0,0:0:0:0:
256,192,218084,1,0,0:0:0:0:
256,192,218234,1,6,0:0:0:0:
256,192,218534,1,2,0:0:0:0:
256,192,218834,1,0,0:0:0:0:
256,192,219134,1,0,0:0:0:0:
256,192,219284,1,0,0:0:0:0:
256,192,219434,1,6,0:0:0:0:
256,192,219734,1,0,0:0:0:0:
256,192,220034,1,2,0:0:0:0:
256,192,220334,1,0,0:0:0:0:
256,192,220484,1,0,0:0:0:0:
256,192,220634,1,6,0:0:0:0:
256,192,220934,1,2,0:0:0:0:
256,192,221234,1,4,0:0:0:0:
256,192,221534,1,0,0:0:0:0:
256,192,221834,1,6,0:0:0:0:
256,192,222134,1,6,0:0:0:0:
256,192,222434,1,6,0:0:0:0:
256,192,222734,1,6,0:0:0:0:
256,192,223034,1,4,0:0:0:0:
256,192,223634,1,2,0:0:0:0:
256,192,223934,1,0,0:0:0:0:
256,192,224084,1,0,0:0:0:0:
256,192,224234,1,2,0:0:0:0:
256,192,224534,1,0,0:0:0:0:
256,192,224834,1,2,0:0:0:0:
256,192,225034,1,2,0:0:0:0:
256,192,225234,1,0,0:0:0:0:
256,192,225434,1,2,0:0:0:0:
256,192,226034,1,0,0:0:0:0:
256,192,226334,1,0,0:0:0:0:
256,192,226484,1,0,0:0:0:0:
256,192,226634,1,2,0:0:0:0:
256,192,226934,1,0,0:0:0:0:
256,192,227234,1,2,0:0:0:0:
256,192,227534,1,0,0:0:0:0:
256,192,227684,1,0,0:0:0:0:
256,192,227834,1,2,0:0:0:0:
256,192,228434,1,0,0:0:0:0:
256,192,228734,1,0,0:0:0:0:
256,192,228884,1,0,0:0:0:0:
256,192,229034,1,2,0:0:0:0:
256,192,229334,1,0,0:0:0:0:
256,192,229634,1,2,0:0:0:0:
256,192,229834,1,2,0:0:0:0:
256,192,230034,1,0,0:0:0:0:
256,192,230234,1,2,0:0:0:0:
256,192,230834,1,0,0:0:0:0:
256,192,231134,1,0,0:0:0:0:
256,192,231434,1,2,0:0:0:0:
256,192,231734,1,2,0:0:0:0:
256,192,231884,1,2,0:0:0:0:
256,192,232034,1,0,0:0:0:0:
256,192,232334,1,0,0:0:0:0:
256,192,232484,1,0,0:0:0:0:
256,192,232634,1,6,0:0:0:0:
256,192,233234,1,0,0:0:0:0:
256,192,233534,1,0,0:0:0:0:
256,192,233684,1,0,0:0:0:0:
256,192,233834,1,2,0:0:0:0:
256,192,234134,1,0,0:0:0:0:
256,192,234434,1,2,0:0:0:0:
256,192,234634,1,2,0:0:0:0:
256,192,234834,1,0,0:0:0:0:
256,192,235034,1,2,0:0:0:0:
256,192,235634,1,0,0:0:0:0:
256,192,235934,1,0,0:0:0:0:
256,192,236084,1,0,0:0:0:0:
256,192,236234,1,2,0:0:0:0:
256,192,236534,1,0,0:0:0:0:
256,192,236834,1,2,0:0:0:0:
256,192,237134,1,0,0:0:0:0:
256,192,237284,1,0,0:0:0:0:
256,192,237434,1,6,0:0:0:0:
256,192,237734,1,0,0:0:0:0:
256,192,237884,1,0,0:0:0:0:
256,192,238034,1,2,0:0:0:0:
256,192,238184,1,0,0:0:0:0:
256,192,238334,1,2,0:0:0:0:
256,192,238634,1,4,0:0:0:0:
256,192,238934,1,0,0:0:0:0:
256,192,239234,1,2,0:0:0:0:
256,192,239434,1,2,0:0:0:0:
256,192,239634,1,0,0:0:0:0:
256,192,239834,1,6,0:0:0:0:
256,192,240134,1,0,0:0:0:0:
256,192,240434,1,6,0:0:0:0:
256,192,240734,1,0,0:0:0:0:
256,192,240884,1,0,0:0:0:0:
256,192,241034,1,6,0:0:0:0:
256,192,241334,1,4,0:0:0:0:
256,192,241634,1,6,0:0:0:0:
256,192,241934,1,6,0:0:0:0:
256,192,242234,1,4,0:0:0:0:
256,192,243434,1,2,0:0:0:0:
256,192,244034,1,0,0:0:0:0:
256,192,244634,1,2,0:0:0:0:
256,192,245834,1,2,0:0:0:0:
256,192,246134,1,0,0:0:0:0:
256,192,246434,1,0,0:0:0:0:
256,192,246634,1,2,0:0:0:0:
256,192,246834,1,2,0:0:0:0:
256,192,247034,1,2,0:0:0:0:
256,192,247634,1,0,0:0:0:0:
256,192,248234,1,4,0:0:0:0:
256,192,248384,12,4,253034,0:0:0:0:
