osu file format v14

[General]
AudioFilename: audio.mp3
AudioLeadIn: 0
PreviewTime: 59787
Countdown: 0
SampleSet: Soft
StackLeniency: 0.7
Mode: 0
LetterboxInBreaks: 0
WidescreenStoryboard: 1

[Editor]
Bookmarks: 2262,21462,59862,79062
DistanceSpacing: 0.7
BeatDivisor: 4
GridSize: 8
TimelineZoom: 4.599998

[Metadata]
Title:Blue Zenith (Cut Ver.)
TitleUnicode:Blue Zenith (Cut Ver.)
Artist:xi
ArtistUnicode:xi
Creator:Sotarks
Version:schoolboy's Extreme
Source:
Tags:parousia electronic instrumental short edit version wysi 727 featured artist fa akitoshi corinn pepekcz sanairrt kowari -laura uberfazz kujinn reform sytho matthewrigaud11 armin A_r_M_i_N schoolboy komore nino snownino_ vaporfly red crewmate god haachama
BeatmapID:3552451
BeatmapSetID:1737645

[Difficulty]
HPDrainRate:7
CircleSize:4.2
OverallDifficulty:9
ApproachRate:9.5
SliderMultiplier:1.62
SliderTickRate:1

[Events]
//Background and Video events
0,0,"727.jpg",0,0
//Break Periods
//Storyboard Layer 0 (Background)
//Storyboard Layer 1 (Fail)
//Storyboard Layer 2 (Pass)
//Storyboard Layer 3 (Foreground)
//Storyboard Layer 4 (Overlay)
//Storyboard Sound Samples

[TimingPoints]
2262,300,4,2,1,52,1,0
2262,-125,4,2,1,52,0,0
2562,-111.111111111111,4,2,1,52,0,0
3462,-125,4,2,1,52,0,0
3762,-111.111111111111,4,2,1,52,0,0
4662,-125,4,2,1,52,0,0
4962,-111.111111111111,4,2,1,52,0,0
6462,-99.9999999999999,4,2,1,52,0,0
7662,-111.111111111111,4,2,1,52,0,0
7962,-125,4,2,1,52,0,0
8262,-142.857142857143,4,2,1,52,0,0
8562,-166.666666666667,4,2,1,52,0,0
8862,-111.111111111111,4,2,1,52,0,0
11862,-100,4,2,1,52,0,0
19062,-100,4,2,1,62,0,0
19662,-90.9090909090909,4,2,1,62,0,0
20412,-100,4,2,1,62,0,0
21162,-166.666666666667,4,2,1,62,0,0
21462,-100,4,2,2,72,0,0
21537,-100,4,2,1,72,0,0
22212,-100,4,2,1,72,0,0
22662,-100,4,2,3,72,0,0
22737,-100,4,2,1,72,0,0
22812,-100,4,2,1,72,0,0
23862,-100,4,2,4,72,0,0
23937,-100,4,2,1,72,0,0
24087,-100,4,2,1,72,0,0
25062,-100,4,2,5,72,0,0
25137,-100,4,2,1,72,0,0
25287,-100,4,2,1,72,0,0
26262,-100,4,2,2,72,0,0
26337,-100,4,2,1,72,0,0
26487,-100,4,2,1,72,0,0
27462,-100,4,2,3,72,0,0
27537,-100,4,2,1,72,0,0
27687,-100,4,2,1,72,0,0
28662,-100,4,2,6,72,0,0
28737,-100,4,2,1,72,0,0
29037,-100,4,2,1,72,0,0
29862,-100,4,2,4,72,0,0
29937,-100,4,2,1,72,0,0
31062,-100,4,2,7,72,0,0
31137,-100,4,2,1,72,0,0
31812,-100,4,2,1,72,0,0
32262,-100,4,2,6,72,0,0
32337,-100,4,2,1,72,0,0
32637,-100,4,2,1,72,0,0
33462,-100,4,2,7,72,0,0
33537,-100,4,2,1,72,0,0
33687,-100,4,2,1,72,0,0
34662,-100,4,2,8,72,0,0
34737,-100,4,2,1,72,0,0
34887,-100,4,2,1,72,0,0
35262,-100,4,2,9,72,0,0
35337,-100,4,2,1,72,0,0
35862,-100,4,2,6,72,0,0
35937,-100,4,2,1,72,0,0
36087,-100,4,2,1,72,0,0
37662,-100,4,2,10,72,0,0
37737,-100,4,2,1,72,0,0
38262,-100,4,2,3,72,0,0
38337,-100,4,2,1,72,0,0
39387,-100,4,2,1,72,0,0
39462,-100,4,2,7,72,0,0
39537,-100,4,2,1,72,0,0
39687,-100,4,2,1,72,0,0
40662,-100,4,2,2,72,0,0
40737,-100,4,2,1,72,0,0
40812,-100,4,2,1,72,0,0
41862,-100,4,2,3,72,0,0
41937,-100,4,2,1,72,0,0
42087,-100,4,2,1,72,0,0
43062,-100,4,2,2,72,0,0
43137,-100,4,2,1,72,0,0
43437,-100,4,2,1,72,0,0
44262,-100,4,2,6,72,0,0
44337,-100,4,2,1,72,0,0
45462,-100,4,2,6,72,0,0
45537,-100,4,2,1,72,0,0
45612,-100,4,2,1,72,0,0
46662,-100,4,2,7,72,0,0
46737,-100,4,2,1,72,0,0
47037,-100,4,2,1,72,0,0
47862,-100,4,2,7,72,0,0
47937,-100,4,2,1,72,0,0
49062,-100,4,2,11,72,0,0
49137,-100,4,2,1,72,0,0
50862,-100,4,2,8,72,0,0
50937,-100,4,2,1,72,0,0
51087,-100,4,2,1,72,0,0
51462,-100,4,2,9,72,0,0
51537,-100,4,2,1,72,0,0
51687,-100,4,2,1,72,0,0
52062,-100,4,2,12,72,0,0
52137,-100,4,2,1,72,0,0
52287,-100,4,2,1,72,0,0
52662,-100,4,2,7,72,0,0
52737,-100,4,2,1,72,0,0
52887,-100,4,2,1,72,0,0
53862,-100,4,2,2,72,0,0
53937,-100,4,2,1,72,0,0
55062,-100,4,2,6,72,0,0
55137,-100,4,2,1,72,0,0
56937,-100,4,2,1,72,0,0
57462,-100,4,2,13,72,0,0
57537,-100,4,2,1,72,0,0
58549,-100,4,2,1,72,0,0
58662,-100,4,2,14,72,0,0
58737,-100,4,2,1,72,0,0
58887,-100,4,2,1,72,0,0
59262,-100,4,2,15,72,0,0
59337,-100,4,2,1,72,0,0
59487,-100,4,2,1,72,0,0
59862,-90.9090909090909,4,2,16,82,0,0
60012,-90.9090909090909,4,2,1,82,0,0
60087,-90.9090909090909,4,2,1,82,0,0
60462,-90.9090909090909,4,2,2,82,0,0
60912,-90.9090909090909,4,2,1,82,0,0
61662,-90.9090909090909,4,2,17,82,0,0
61887,-90.9090909090909,4,2,18,82,0,0
61962,-90.9090909090909,4,2,1,82,0,0
62112,-90.9090909090909,4,2,19,82,0,0
62262,-90.9090909090909,4,2,20,82,0,0
62337,-90.9090909090909,4,2,1,82,0,0
62487,-90.9090909090909,4,2,1,82,0,0
62862,-90.9090909090909,4,2,2,82,0,0
62937,-90.9090909090909,4,2,1,82,0,0
63312,-90.9090909090909,4,2,1,82,0,0
64062,-90.9090909090909,4,2,16,82,0,0
64137,-90.9090909090909,4,2,1,82,0,0
64287,-90.9090909090909,4,2,1,82,0,0
64662,-90.9090909090909,4,2,16,82,0,0
64812,-90.9090909090909,4,2,1,82,0,0
64887,-90.9090909090909,4,2,1,82,0,0
65262,-90.9090909090909,4,2,2,82,0,0
65562,-90.9090909090909,4,2,1,82,0,0
65712,-90.9090909090909,4,2,1,82,0,0
66462,-90.9090909090909,4,2,21,82,0,0
66687,-90.9090909090909,4,2,17,82,0,0
66912,-90.9090909090909,4,2,18,82,0,0
67062,-90.9090909090909,4,2,15,82,0,0
67137,-90.9090909090909,4,2,1,82,0,0
67287,-90.9090909090909,4,2,1,82,0,0
67662,-90.9090909090909,4,2,22,82,0,0
68862,-90.9090909090909,4,2,23,82,0,0
68937,-90.9090909090909,4,2,1,82,0,0
69162,-90.9090909090909,4,2,23,82,0,0
69462,-90.9090909090909,4,2,16,82,0,0
69612,-90.9090909090909,4,2,1,82,0,0
69687,-90.9090909090909,4,2,1,82,0,0
70062,-90.9090909090909,4,2,2,82,0,0
70512,-90.9090909090909,4,2,1,82,0,0
71262,-90.9090909090909,4,2,17,82,0,0
71487,-90.9090909090909,4,2,18,82,0,0
71562,-90.9090909090909,4,2,1,82,0,0
71712,-90.9090909090909,4,2,19,82,0,0
71862,-90.9090909090909,4,2,20,82,0,0
71937,-90.9090909090909,4,2,1,82,0,0
72087,-90.9090909090909,4,2,1,82,0,0
72462,-90.9090909090909,4,2,2,82,0,0
72537,-90.9090909090909,4,2,1,82,0,0
72912,-90.9090909090909,4,2,1,82,0,0
73662,-90.9090909090909,4,2,16,82,0,0
73737,-90.9090909090909,4,2,1,82,0,0
73887,-90.9090909090909,4,2,1,82,0,0
74262,-90.9090909090909,4,2,16,82,0,0
74862,-90.9090909090909,4,2,2,82,0,0
75387,-90.9090909090909,4,2,1,82,0,0
76062,-90.9090909090909,4,2,17,82,0,0
76512,-90.9090909090909,4,2,19,82,0,0
76662,-76.9230769230769,4,2,20,82,0,0
76737,-76.9230769230769,4,2,1,82,0,0
77262,-76.9230769230769,4,2,24,82,0,0
77412,-76.9230769230769,4,2,1,82,0,0
78162,-76.9230769230769,4,2,25,82,0,0
78349,-76.9230769230769,4,2,1,82,0,0
78387,-76.9230769230769,4,2,1,82,0,0
78462,-76.9230769230769,4,2,26,82,0,0
78537,-76.9230769230769,4,2,1,82,0,0
78762,-66.6666666666667,4,2,25,82,0,0
78837,-66.6666666666667,4,2,1,82,0,0
78912,-58.8235294117647,4,2,1,82,0,0
79062,-100,4,2,27,62,0,0
80262,-100,4,2,28,62,0,0
80862,-100,4,2,29,62,0,0
81462,-105.263157894737,4,2,22,62,0,0
82662,-105.263157894737,4,2,18,62,0,0
82962,-105.263157894737,4,2,19,62,0,0
83262,-100,4,2,19,62,0,0
83462,-100,4,2,30,62,0,0
83662,-100,4,2,18,62,0,0
83862,-100,4,2,29,62,0,0
84462,-100,4,2,31,62,0,0
85062,-100,4,2,1,62,0,0

[Colours]
Combo1 : 23,198,255
Combo2 : 187,192,198
Combo3 : 130,130,130
Combo4 : 148,156,216
Combo5 : 94,135,204
Combo6 : 11,62,238

[HitObjects]
70,63,2262,6,0,P|83:109|94:157,1,97.2,4|0,1:2|0:0,0:0:0:0:
26,179,2562,2,0,P|12:132|0:65,1,109.35,0|0,1:0|0:0,0:0:0:0:
100,174,2862,2,0,P|177:184|272:197,1,145.8,0|0,1:0|1:0,0:0:0:0:
480,31,3462,6,0,P|477:83|438:93,1,97.2,0|0,1:0|0:0,0:0:0:0:
411,162,3762,2,0,P|406:110|357:97,1,109.35,0|0,1:0|0:0,0:0:0:0:
396,182,4062,2,0,B|317:174|347:210|237:197,1,145.8,0|0,1:0|1:0,0:0:0:0:
33,84,4662,70,0,B|73:56|73:56|119:74,1,97.2,0|0,1:0|0:0,0:0:0:0:
161,143,4962,2,0,P|180:30|186:-10,2,145.8,0|0|0,1:0|1:0|1:0,0:0:0:0:
340,324,5862,6,0,P|333:265|324:189,1,109.35,0|0,1:0|0:0,0:0:0:0:
348,136,6162,2,0,P|377:135|403:204,1,109.35,0|0,1:0|0:0,0:0:0:0:
316,224,6462,2,0,P|232:199|145:195,1,162,0|0,1:0|1:0,0:0:0:0:
10,43,7062,6,0,P|51:43|69:99,1,81.0000000000001,2|2,1:2|2:0,2:0:0:0:
126,129,7287,1,2,2:0:0:0:
126,129,7362,2,0,P|132:89|147:37,1,81.0000000000001,2|2,1:2|2:0,2:0:0:0:
30,191,7587,1,2,2:0:0:0:
30,191,7662,2,0,P|24:151|14:112,1,72.9000000000001,2|2,1:2|2:0,2:0:0:0:
100,261,7962,2,0,P|107:216|115:189,1,64.8,2|2,1:2|2:0,2:0:0:0:
0,290,8262,6,0,P|25:292|46:319,1,56.7,2|2,1:2|2:0,2:0:0:0:
106,376,8562,2,0,P|143:364|156:340,1,48.5999999999999,2|2,1:2|2:0,2:0:0:0:
223,291,8862,2,0,B|302:283|272:319|382:306,2,145.8,2|2|2,1:2|1:2|1:2,2:0:0:0:
61,73,9762,2,0,P|115:51|141:125,1,145.8,0|0,1:0|1:0,0:0:0:0:
97,235,10362,2,0,P|79:206|88:154,1,72.9000000000001,0|0,1:0|2:0,2:0:0:0:
146,118,10587,1,0,2:0:0:0:
162,130,10662,38,0,L|215:124,3,36.45,0|0|0|0,1:0|2:0|2:0|2:0,0:0:0:0:
284,53,10962,2,0,L|337:59,3,36.45,0|0|0|0,1:0|2:0|2:0|2:0,0:0:0:0:
415,146,11262,5,0,1:0:0:0:
450,151,11337,1,0,2:0:0:0:
483,136,11412,1,0,2:0:0:0:
502,106,11487,1,0,2:0:0:0:
501,70,11562,2,0,P|491:29|475:-21,1,72.9000000000001,0|0,1:0|1:0,2:0:0:0:
415,146,11862,70,0,P|409:186|400:256,1,81,4|0,1:2|2:0,0:0:0:0:
437,296,12087,1,0,2:0:0:0:
437,296,12162,2,0,P|401:313|360:301,1,81,0|0,1:0|2:0,0:0:0:0:
226,383,12462,2,0,P|202:367|182:369,3,40.5,0|0|0|0,1:0|2:0|2:0|2:0,2:0:0:0:
152,298,12762,2,0,P|94:309|57:317,1,81,0|0,1:0|2:0,0:0:0:0:
10,261,12987,1,0,0:0:0:0:
7,246,13062,6,0,P|17:200|30:149,1,81,0|0,1:0|2:0,0:0:0:0:
83,110,13287,1,0,2:0:0:0:
83,110,13362,2,0,P|76:67|67:22,1,81,0|0,1:0|2:0,0:0:0:0:
177,148,13662,1,0,1:0:0:0:
216,147,13737,1,0,2:0:0:0:
252,166,13812,1,0,2:0:0:0:
272,200,13887,1,0,2:0:0:0:
271,240,13962,70,0,L|256:304,1,40.5,0|0,1:0|2:0,2:0:0:0:
333,296,14112,2,0,L|318:360,1,40.5,0|0,2:0|2:0,0:0:0:0:
250,363,14262,6,0,P|182:370|138:378,1,81,0|0,1:0|2:0,2:0:0:0:
99,337,14487,1,0,2:0:0:0:
99,337,14562,2,0,P|101:294|143:263,1,81,0|0,1:0|2:0,2:0:0:0:
288,159,14862,1,0,1:0:0:0:
131,98,15012,1,0,2:0:0:0:
232,242,15162,1,0,1:0:0:0:
289,43,15312,1,0,2:0:0:0:
165,187,15462,69,0,1:0:0:0:
395,146,15612,1,0,2:0:0:0:
199,59,15762,1,0,1:0:0:0:
353,242,15912,1,0,2:0:0:0:
426,26,16062,1,0,1:0:0:0:
248,142,16212,1,0,2:0:0:0:
473,228,16362,1,0,1:0:0:0:
470,220,16437,1,0,2:0:0:0:
467,212,16512,1,0,1:0:0:0:
464,204,16587,1,0,2:0:0:0:
461,196,16662,22,0,P|465:167|477:120,3,40.5,6|2|2|0,1:2|2:0|2:0|0:0,0:0:0:0:
332,77,16962,2,0,P|336:106|348:153,3,40.5,2|2|2|0,1:2|2:0|2:0|0:0,0:0:0:0:
209,226,17262,2,0,P|213:197|225:150,3,40.5,2|2|2|0,1:2|2:0|2:0|0:0,0:0:0:0:
149,113,17562,1,2,1:2:0:0:
111,100,17637,1,0,0:0:0:0:
72,111,17712,1,2,1:0:0:0:
48,142,17787,1,0,0:0:0:0:
45,182,17862,54,0,P|50:223|59:295,1,81,4|0,1:2|2:0,0:0:0:0:
0,320,18087,1,0,2:0:0:0:
0,320,18162,2,0,P|45:345|77:336,1,81,0|0,1:0|2:0,0:0:0:0:
228,243,18462,2,0,P|249:245|268:251,3,40.5,0|0|0|0,1:0|2:0|2:0|2:0,0:0:0:0:
321,312,18762,1,0,1:0:0:0:
350,315,18837,1,0,2:0:0:0:
379,305,18912,1,0,1:0:0:0:
400,283,18987,1,0,2:0:0:0:
410,255,19062,6,0,P|401:219|395:201,1,40.5,6|0,1:2|0:0,0:0:0:0:
454,94,19212,2,0,P|444:130|438:148,1,40.5,2|0,2:0|0:0,0:0:0:0:
441,281,19362,2,0,P|447:253|452:224,1,40.5,2|0,1:2|0:0,0:0:0:0:
409,45,19512,2,0,P|415:73|420:102,1,40.5,2|0,2:0|0:0,0:0:0:0:
321,312,19662,70,0,P|327:277|332:232,1,44.55,2|0,2:0|0:0,0:0:0:0:
321,15,19812,6,0,P|327:50|332:95,1,44.55,2|0,2:0|0:0,0:0:0:0:
335,341,19962,70,0,P|341:306|346:261,1,44.55,2|0,2:0|0:0,0:0:0:0:
331,0,20112,6,0,P|337:35|342:80,1,44.55,2|0,2:0|0:0,0:0:0:0:
352,354,20262,69,6,2:0:0:0:
247,183,20412,2,0,L|239:239,1,40.5,2|0,2:0|2:0,0:0:0:0:
172,272,20562,2,0,P|125:281|73:296,1,81,6|2,2:0|2:0,0:0:0:0:
330,169,20862,2,0,P|375:172|401:212,1,81,6|2,2:0|2:0,2:0:0:0:
195,90,21162,6,0,P|184:39|182:9,1,72.8999999999999,6|0,2:0|2:0,2:0:0:0:
219,112,21462,6,0,B|146:98|154:144|45:122,2,162,6|0|0,1:2|1:0|1:0,0:0:0:0:
285,168,22212,1,0,2:0:0:0:
454,15,22362,2,0,P|419:39|367:37,1,81,0|0,1:0|2:0,0:0:0:0:
313,6,22587,1,0,2:0:0:0:
313,6,22662,6,0,P|317:45|325:99,1,81,2|0,1:2|2:0,0:0:0:0:
348,254,22962,2,0,L|354:311,2,40.5,0|0|0,1:0|2:0|2:0,0:0:0:0:
459,174,23262,1,0,1:0:0:0:
459,174,23337,1,0,2:0:0:0:
459,174,23412,70,0,P|404:165|375:163,1,81,0|0,2:0|1:0,0:0:0:0:
357,200,23637,1,0,2:0:0:0:
336,235,23712,1,0,2:0:0:0:
296,244,23787,1,0,2:0:0:0:
256,234,23862,6,0,P|209:189|144:200,1,121.5,2|0,1:2|2:0,0:0:0:0:
80,230,24162,2,0,L|71:162,3,40.5,0|0|0|0,1:0|2:0|2:0|2:0,0:0:0:0:
0,131,24462,2,0,L|13:69,3,40.5,0|0|0|0,1:0|2:0|2:0|2:0,0:0:0:0:
84,34,24762,69,0,1:0:0:0:
103,37,24837,1,0,2:0:0:0:
123,40,24912,1,0,2:0:0:0:
143,43,24987,1,0,2:0:0:0:
163,47,25062,2,0,P|227:39|289:32,1,121.5,2|0,1:2|2:0,2:0:0:0:
331,90,25362,6,0,P|325:113|321:147,1,40.5,0|0,1:0|2:0,2:0:0:0:
446,217,25512,2,0,P|444:199|430:157,1,40.5,0|0,2:0|2:0,0:0:0:0:
361,313,25662,1,0,1:0:0:0:
361,313,25737,1,0,2:0:0:0:
361,313,25812,1,0,2:0:0:0:
361,313,25887,1,0,2:0:0:0:
361,313,25962,69,0,1:0:0:0:
340,278,26037,1,0,2:0:0:0:
305,259,26112,1,0,2:0:0:0:
265,259,26187,1,0,2:0:0:0:
230,279,26262,6,0,B|168:278|183:311|101:305,1,121.5,6|0,1:2|2:0,0:0:0:0:
83,298,26562,2,0,P|76:252|66:206,1,81,0|0,1:0|2:0,0:0:0:0:
170,132,26862,2,0,L|215:141,2,40.5,0|0|0,1:0|2:0|2:0,0:0:0:0:
71,40,27162,1,0,1:0:0:0:
31,44,27237,1,0,2:0:0:0:
9,76,27312,1,0,2:0:0:0:
18,114,27387,1,0,2:0:0:0:
54,135,27462,70,0,P|121:122|186:114,1,121.5,2|0,1:2|2:0,0:0:0:0:
242,77,27762,2,0,L|249:29,1,40.5,0|0,1:0|2:0,0:0:0:0:
321,115,27912,1,0,2:0:0:0:
138,41,28062,1,0,1:0:0:0:
374,0,28212,1,0,2:0:0:0:
255,188,28362,1,0,1:0:0:0:
255,188,28437,1,0,2:0:0:0:
255,188,28512,1,0,2:0:0:0:
399,315,28662,6,0,P|412:227|427:148,1,162,2|0,1:2|1:0,0:0:0:0:
373,239,29037,1,0,2:0:0:0:
373,239,29112,2,0,P|350:248|331:247,1,40.5,0|0,2:0|2:0,0:0:0:0:
279,306,29262,2,0,P|252:298|239:280,1,40.5,0|0,1:0|2:0,0:0:0:0:
165,292,29412,2,0,P|163:264|173:236,1,40.5,0|0,2:0|2:0,0:0:0:0:
102,204,29562,2,0,P|42:214|15:218,1,81,0|0,1:0|2:0,0:0:0:0:
231,63,29862,70,0,P|270:73|287:77,1,40.5,2|0,1:2|2:0,0:0:0:0:
68,129,30012,1,0,2:0:0:0:
285,99,30162,2,0,P|305:94|332:90,1,40.5,0|0,1:0|2:0,0:0:0:0:
100,45,30312,1,0,2:0:0:0:
191,224,30462,2,0,P|220:217|285:205,1,81,0|0,1:0|0:0,0:0:0:0:
385,257,30762,5,0,1:0:0:0:
98,230,30912,1,0,1:0:0:0:
259,342,31062,70,0,B|186:328|194:374|85:352,2,162,2|0|0,1:2|1:0|1:0,0:0:0:0:
338,379,31812,1,0,0:0:0:0:
483,225,31962,1,0,1:0:0:0:
483,225,32037,1,0,0:0:0:0:
483,225,32112,1,0,0:0:0:0:
483,225,32187,1,0,0:0:0:0:
483,225,32262,6,0,P|436:302|343:276,1,162,2|0,1:2|1:0,0:0:0:0:
320,244,32637,2,0,P|341:227|368:230,1,40.5
235,65,32862,70,0,L|229:16,2,40.5,0|0|0,1:0|0:0|0:0,0:0:0:0:
244,290,33162,1,0,1:0:0:0:
244,290,33237,1,0,0:0:0:0:
244,290,33312,2,0,L|237:363,1,40.5
183,384,33462,6,0,P|130:350|60:359,1,121.5,2|0,1:2|0:0,0:0:0:0:
56,361,33762,2,0,P|25:336|34:265,1,81,0|0,1:0|0:0,0:0:0:0:
139,120,34062,1,0,1:0:0:0:
164,150,34137,1,0,0:0:0:0:
160,189,34212,1,0,0:0:0:0:
129,214,34287,1,0,0:0:0:0:
90,209,34362,2,0,P|23:195|-28:193,1,81,0|0,1:0|0:0,0:0:0:0:
197,272,34587,1,0,0:0:0:0:
211,276,34662,70,0,P|278:265|342:258,1,121.5,2|0,1:2|0:0,0:0:0:0:
392,204,34962,2,0,L|456:224,1,40.5,0|0,1:0|0:0,0:0:0:0:
194,129,35112,1,0,0:0:0:0:
436,188,35262,2,0,L|502:175,1,40.5,2|0,1:2|0:0,0:0:0:0:
171,249,35412,1,0,0:0:0:0:
453,163,35562,5,0,1:0:0:0:
178,98,35712,1,0,1:0:0:0:
256,318,35862,70,0,P|267:250|281:179,1,121.5,6|0,1:2|2:0,0:0:0:0:
301,79,36162,2,0,P|303:99|310:136,1,40.5,0|0,1:0|2:0,0:0:0:0:
186,209,36312,1,0,2:0:0:0:
367,298,36462,2,0,P|360:247|354:199,1,81,0|0,1:0|2:0,0:0:0:0:
259,275,36762,1,0,1:0:0:0:
473,248,36912,1,0,2:0:0:0:
341,384,37062,6,0,P|235:361|194:355,1,121.5,0|0,1:0|2:0,0:0:0:0:
138,383,37362,2,0,P|106:367|112:278,1,121.5,0|0,1:0|2:0,0:0:0:0:
41,222,37662,70,0,P|13:229|-17:238,1,40.5,2|0,1:2|2:0,2:0:0:0:
120,176,37812,2,0,P|148:183|178:192,1,40.5,0|0,2:0|2:0,0:0:0:0:
44,123,37962,2,0,P|30:77|23:25,1,81,0|0,1:0|1:0,2:0:0:0:
100,289,38262,5,6,1:2:0:0:
298,145,38412,1,0,1:0:0:0:
140,50,38562,1,0,1:0:0:0:
390,148,38712,1,0,1:0:0:0:
173,249,38862,1,0,1:0:0:0:
427,146,39012,1,0,1:0:0:0:
115,47,39162,1,0,1:0:0:0:
263,326,39312,69,0,1:0:0:0:
272,339,39387,1,0,1:0:0:0:
282,351,39462,2,0,P|321:349|351:319,1,81,6|0,1:2|1:0,2:0:0:0:
391,257,39687,1,0,2:0:0:0:
391,257,39762,6,0,P|378:224|359:211,1,40.5,0|0,1:0|2:0,2:0:0:0:
208,127,39912,1,0,1:0:0:0:
175,353,40062,1,0,1:0:0:0:
206,360,40137,1,0,1:0:0:0:
238,356,40212,2,0,L|251:388,1,20.25,0|0,1:0|1:0,0:0:0:0:
265,339,40287,2,0,L|283:351,1,20.25,0|0,1:0|1:0,0:0:0:0:
285,314,40362,1,0,1:0:0:0:
294,283,40437,1,0,1:0:0:0:
290,251,40512,2,0,P|285:220|280:199,1,40.5,0|0,1:0|1:0,0:0:0:0:
351,148,40662,70,0,P|391:156|450:168,1,81,6|0,1:2|2:0,2:0:0:0:
512,333,40962,2,0,P|481:358|421:341,1,81,0|0,1:0|2:0,2:0:0:0:
398,252,41262,1,0,1:0:0:0:
413,257,41337,1,0,2:0:0:0:
428,262,41412,1,0,2:0:0:0:
443,267,41487,1,0,2:0:0:0:
477,253,41562,5,0,1:0:0:0:
436,257,41637,1,0,2:0:0:0:
396,263,41712,1,0,2:0:0:0:
356,270,41787,1,0,2:0:0:0:
317,278,41862,2,0,P|239:262|167:248,1,121.5,2|0,1:2|0:0,0:0:0:0:
114,246,42162,2,0,L|124:302,3,40.5,0|0|0|0,1:0|0:0|0:0|0:0,0:0:0:0:
139,373,42462,69,0,1:0:0:0:
139,373,42537,1,0,0:0:0:0:
139,373,42612,1,0,0:0:0:0:
83,65,42762,1,0,1:0:0:0:
83,65,42837,1,0,0:0:0:0:
83,65,42912,1,0,0:0:0:0:
19,252,43062,6,0,B|108:265|88:214|192:228,1,162,2|0,1:2|1:0,0:0:0:0:
237,272,43437,1,0,0:0:0:0:
276,266,43512,1,0,0:0:0:0:
305,238,43587,1,0,0:0:0:0:
311,199,43662,2,0,P|300:145|291:113,1,81,0|0,1:0|0:0,0:0:0:0:
269,33,43962,1,0,1:0:0:0:
409,133,44112,1,0,0:0:0:0:
276,266,44262,70,0,P|257:251|228:250,1,40.5,2|0,1:2|2:0,2:0:0:0:
171,342,44412,2,0,P|171:308|156:285,1,40.5,0|0,2:0|2:0,0:0:0:0:
82,258,44562,1,0,1:2:0:0:
85,239,44637,1,0,2:0:0:0:
88,220,44712,1,0,2:0:0:0:
91,202,44787,1,0,2:0:0:0:
92,183,44862,6,0,P|85:139|77:88,1,81,0|0,1:2|2:0,2:0:0:0:
180,231,45162,1,0,1:0:0:0:
243,36,45312,1,0,1:0:0:0:
13,208,45462,70,0,P|72:208|102:244,1,81,6|0,1:2|2:0,0:0:0:0:
172,376,45762,2,0,P|222:371|255:328,1,81,0|0,1:0|2:0,0:0:0:0:
336,246,46062,2,0,P|341:265|349:290,1,40.5,0|0,1:0|2:0,0:0:0:0:
256,204,46212,1,0,2:0:0:0:
380,118,46362,2,0,P|422:130|488:147,1,81,0|0,1:0|2:0,0:0:0:0:
281,42,46587,1,0,2:0:0:0:
260,32,46662,6,0,P|182:43|82:57,1,162,2|0,1:2|1:0,0:0:0:0:
37,16,47037,1,0,0:0:0:0:
37,16,47112,1,0,0:0:0:0:
197,134,47262,2,0,L|246:146,2,40.5,0|0|0,1:0|0:0|0:0,0:0:0:0:
39,219,47562,2,0,P|17:223|-10:231,2,40.5,0|0|0,1:0|0:0|0:0,0:0:0:0:
161,365,47862,70,0,P|166:334|172:291,1,40.5,2|0,1:2|0:0,0:0:0:0:
181,238,48012,1,0,0:0:0:0:
236,369,48162,6,0,P|241:338|247:295,1,40.5,0|0,1:0|0:0,0:0:0:0:
259,216,48312,1,0,0:0:0:0:
313,371,48462,70,0,P|318:340|324:297,1,40.5,0|0,1:0|0:0,0:0:0:0:
336,192,48612,1,0,0:0:0:0:
388,375,48762,6,0,P|393:344|399:301,1,40.5,0|0,1:0|0:0,0:0:0:0:
414,170,48912,1,0,0:0:0:0:
470,273,49062,69,2,1:2:0:0:
470,273,49137,1,0,2:0:0:0:
470,273,49212,1,0,2:0:0:0:
126,205,49362,1,0,1:0:0:0:
126,205,49437,1,0,2:0:0:0:
126,205,49512,1,0,2:0:0:0:
41,235,49662,5,0,1:0:0:0:
41,235,49737,1,0,2:0:0:0:
41,235,49812,1,0,2:0:0:0:
116,299,49962,69,0,1:0:0:0:
395,218,50112,1,0,1:0:0:0:
240,37,50262,6,0,P|225:130|215:185,1,121.5,6|0,1:2|2:0,0:0:0:0:
150,94,50562,2,0,L|140:52,2,40.5,0|0|0,1:0|2:0|2:0,0:0:0:0:
0,210,50862,2,0,P|58:210|93:257,1,121.5,2|0,1:2|2:0,0:0:0:0:
166,239,51162,2,0,P|173:260|177:291,1,40.5,0|0,1:0|2:0,0:0:0:0:
230,371,51312,2,0,P|235:335|246:305,1,40.5,0|0,2:0|2:0,0:0:0:0:
311,285,51462,70,0,B|377:279|362:312|442:297,1,121.5,2|0,1:2|2:0,0:0:0:0:
490,249,51762,2,0,P|481:206|465:151,1,81,0|0,1:0|2:0,0:0:0:0:
325,20,52062,2,0,P|276:28|262:110,1,121.5,2|0,1:2|2:0,0:0:0:0:
187,134,52362,2,0,P|131:142|94:150,1,81,0|0,1:0|2:0,0:0:0:0:
45,36,52587,5,0,2:0:0:0:
46,57,52662,2,0,P|32:145|25:188,1,121.5,2|0,1:2|2:0,0:0:0:0:
16,257,52962,2,0,P|23:280|28:311,1,40.5,0|0,1:0|2:0,0:0:0:0:
93,366,53112,2,0,P|95:345|99:325,1,40.5,0|0,2:0|2:0,0:0:0:0:
174,278,53262,69,0,1:0:0:0:
203,282,53337,1,0,2:0:0:0:
229,298,53412,1,0,2:0:0:0:
247,322,53487,1,0,2:0:0:0:
254,351,53562,1,2,1:2:0:0:
276,329,53637,1,0,2:0:0:0:
304,318,53712,1,0,2:0:0:0:
334,318,53787,1,0,2:0:0:0:
361,330,53862,6,0,P|365:301|373:255,1,40.5,2|0,1:2|2:0,2:0:0:0:
254,136,54012,1,0,2:0:0:0:
436,260,54162,70,0,P|430:237|423:210,1,40.5,0|0,1:0|2:0,2:0:0:0:
177,142,54312,2,0,P|183:165|190:192,1,40.5,0|0,2:0|2:0,0:0:0:0:
241,347,54462,6,0,P|352:332|391:327,1,121.5,0|0,1:0|2:0,2:0:0:0:
441,345,54762,1,0,1:0:0:0:
201,256,54912,1,0,1:0:0:0:
368,58,55062,70,0,P|356:127|349:168,1,81,6|0,1:2|1:0,0:0:0:0:
321,333,55362,1,0,1:0:0:0:
236,57,55512,1,0,1:0:0:0:
167,348,55662,1,0,1:0:0:0:
272,158,55812,1,0,1:0:0:0:
388,369,55962,1,0,1:0:0:0:
194,160,56112,1,0,1:0:0:0:
194,160,56187,1,0,1:0:0:0:
194,160,56262,5,6,1:2:0:0:
50,370,56412,1,0,1:0:0:0:
103,63,56562,1,0,1:0:0:0:
219,360,56712,1,0,1:0:0:0:
180,43,56862,70,0,L|189:99,1,40.5,0|0,1:0|2:0,0:0:0:0:
119,300,57012,2,0,L|128:244,1,40.5,0|0,1:0|2:0,0:0:0:0:
40,148,57162,5,0,1:0:0:0:
40,148,57237,1,0,2:0:0:0:
40,148,57312,2,0,L|6:153,1,20.25,0|0,1:0|1:0,0:0:0:0:
40,148,57387,2,0,L|16:139,1,20.25,0|0,1:0|1:0,0:0:0:0:
40,148,57462,70,0,P|83:154|135:164,1,81,6|0,1:2|1:0,0:0:0:0:
438,214,57762,2,0,P|395:208|350:201,1,81,0|0,1:0|1:0,0:0:0:0:
102,238,58062,1,0,1:0:0:0:
412,116,58212,1,0,1:0:0:0:
119,161,58362,1,0,1:0:0:0:
396,285,58512,2,0,L|405:309,1,20.25,0|0,1:0|1:0,0:0:0:0:
396,285,58587,2,0,L|389:313,1,20.25,0|0,1:0|1:0,0:0:0:0:
389,279,58662,6,0,P|331:293|270:312,1,121.5,6|0,1:2|1:0,0:0:0:0:
205,277,58962,2,0,P|200:257|195:236,1,40.5,0|0,1:0|2:0,0:0:0:0:
149,329,59112,2,0,L|143:358,2,20.25,0|0|0,1:0|1:0|1:0,0:0:0:0:
85,288,59262,2,0,P|40:295|0:303,1,81,6|0,1:2|1:0,0:0:0:0:
13,266,59487,1,0,1:0:0:0:
93,177,59562,70,0,L|97:199,6,20.25,0|0|0|0|0|0|0,1:0|1:0|1:0|1:0|1:0|1:0|1:0,0:0:0:0:
101,211,59862,22,0,P|117:129|132:74,1,133.65,6|0,1:2|0:0,2:0:0:0:
87,6,60162,2,0,P|44:16|-2:24,1,89.1,0|0,1:0|2:0,2:0:0:0:
253,174,60462,2,0,B|344:188|342:129|427:146,1,178.2,2|0,1:2|1:0,2:0:0:0:
497,194,60912,1,0,2:0:0:0:
364,330,61062,6,0,B|295:325|308:358|216:343,1,133.65,0|0,1:0|2:0,0:0:0:0:
159,308,61362,2,0,P|112:317|57:328,1,89.1,0|0,1:0|2:0,0:0:0:0:
277,213,61662,1,2,1:2:0:0:
105,131,61887,1,2,2:0:0:0:
60,142,61962,1,0,1:0:0:0:
222,50,62112,1,2,2:0:0:0:
374,186,62262,70,0,P|431:186|453:98,1,133.65,6|0,1:2|0:0,0:0:0:0:
507,56,62562,2,0,P|483:17|421:27,1,89.1,0|0,1:0|0:0,0:0:0:0:
267,183,62862,2,0,P|275:252|383:257,1,178.2,2|0,1:2|1:0,0:0:0:0:
323,15,63312,1,0,0:0:0:0:
290,273,63462,5,0,1:0:0:0:
253,297,63537,1,0,0:0:0:0:
209,299,63612,1,0,0:0:0:0:
170,279,63687,1,0,0:0:0:0:
147,241,63762,70,0,L|153:188,1,44.55,0|0,1:0|0:0,0:0:0:0:
96,148,63912,2,0,L|102:95,1,44.55
24,65,64062,2,0,P|90:53|168:40,1,133.65,2|0,1:2|0:0,0:0:0:0:
238,31,64362,5,0,1:0:0:0:
170,279,64512,1,0,1:0:0:0:
414,203,64662,70,0,P|392:156|315:149,1,133.65,6|0,1:2|0:0,2:0:0:0:
401,126,64962,2,0,P|447:115|471:75,1,89.1,0|0,1:0|2:0,2:0:0:0:
225,246,65262,2,0,B|146:232|139:289|51:274,1,178.2,2|0,1:2|1:0,2:0:0:0:
0,207,65712,1,0,2:0:0:0:
249,369,65862,6,0,P|270:361|285:344,1,44.55,0|0,1:0|2:0,0:0:0:0:
364,293,66012,2,0,P|362:271|350:252,1,44.55,0|0,2:0|2:0,0:0:0:0:
224,160,66162,2,0,P|153:172|114:177,1,89.1,0|0,1:0|2:0,0:0:0:0:
341,50,66462,1,2,1:2:0:0:
241,273,66687,1,2,2:0:0:0:
184,260,66762,1,0,1:0:0:0:
359,153,66912,1,2,2:0:0:0:
271,366,67062,70,0,P|157:348|107:340,1,133.65,6|0,1:2|0:0,0:0:0:0:
67,383,67362,2,0,P|40:356|58:287,1,89.1,0|0,1:0|0:0,0:0:0:0:
194,118,67662,2,0,P|176:179|99:178,1,133.65,2|0,1:2|0:0,0:0:0:0:
42,145,67962,2,0,P|36:113|34:87,2,44.55,0|0|0,1:0|0:0|0:0,0:0:0:0:
221,290,68262,5,0,1:0:0:0:
262,274,68337,1,0,0:0:0:0:
305,280,68412,1,0,0:0:0:0:
340,307,68487,1,0,0:0:0:0:
356,348,68562,1,0,1:0:0:0:
374,345,68637,1,0,0:0:0:0:
391,341,68712,1,0,0:0:0:0:
408,337,68787,1,0,0:0:0:0:
425,332,68862,70,0,P|428:298|433:259,3,44.55,0|0|0|0,1:2|0:0|0:0|0:0,0:0:0:0:
511,271,69162,1,2,1:2:0:0:
502,239,69237,1,0,1:0:0:0:
480,213,69312,1,0,1:0:0:0:
450,199,69387,1,0,1:0:0:0:
417,200,69462,6,0,P|424:152|439:31,1,133.65,6|0,1:2|0:0,0:0:0:0:
309,97,69762,2,0,P|337:129|379:125,1,89.1,0|0,1:0|0:0,0:0:0:0:
197,0,70062,2,0,P|114:0|83:80,1,178.2,2|0,1:2|1:0,0:0:0:0:
148,127,70512,1,0,2:0:0:0:
1,257,70662,70,0,B|77:250|50:284|132:275,1,133.65,0|0,1:0|2:0,0:0:0:0:
196,230,70962,2,0,P|240:235|283:246,1,89.1,0|0,1:0|2:0,0:0:0:0:
489,33,71262,1,2,1:2:0:0:
325,132,71487,1,2,2:0:0:0:
271,120,71562,1,0,1:0:0:0:
471,225,71712,1,2,2:0:0:0:
279,333,71862,6,0,P|186:354|132:369,1,133.65,6|0,1:2|0:0,0:0:0:0:
70,332,72162,2,0,P|80:277|122:262,1,89.1,0|0,1:0|0:0,0:0:0:0:
271,120,72462,2,0,B|234:154|241:199|241:199|218:151|149:153,1,178.2,2|0,1:2|1:0,0:0:0:0:
200,72,72912,1,0,0:0:0:0:
21,217,73062,69,0,1:0:0:0:
25,172,73137,1,0,0:0:0:0:
30,128,73212,1,0,0:0:0:0:
34,84,73287,1,0,0:0:0:0:
39,39,73362,6,0,P|44:57|58:94,1,44.55,0|0,1:0|0:0,0:0:0:0:
105,262,73512,2,0,P|110:244|124:207,1,44.55
246,140,73662,2,0,P|297:138|345:201,1,133.65,2|0,1:2|0:0,0:0:0:0:
419,233,73962,1,0,1:0:0:0:
316,23,74112,1,0,1:0:0:0:
195,262,74262,70,0,P|242:254|297:245,1,89.1,6|0,1:2|1:0,0:0:0:0:
431,148,74562,1,0,1:0:0:0:
188,58,74712,1,0,1:0:0:0:
345,153,74862,1,2,1:2:0:0:
181,252,75012,1,0,1:0:0:0:
447,147,75162,1,0,1:0:0:0:
169,50,75312,1,0,1:0:0:0:
466,145,75462,5,4,1:2:0:0:
107,209,75612,1,0,1:0:0:0:
357,339,75762,69,0,1:0:0:0:
248,68,75912,1,0,1:0:0:0:
141,338,76062,5,2,1:2:0:0:
422,226,76212,1,0,1:0:0:0:
130,120,76362,69,0,1:0:0:0:
439,227,76512,1,2,1:2:0:0:
267,360,76662,6,0,P|271:331|276:302,1,52.65,2|0,1:2|0:0,0:0:0:0:
256,38,76812,2,0,P|260:66|265:96,1,52.65,0|0,1:0|0:0,0:0:0:0:
287,331,76962,70,0,P|282:300|276:272,1,52.65,0|0,1:0|0:0,0:0:0:0:
245,23,77112,2,0,P|239:48|236:74,1,52.65,0|0,1:0|1:0,0:0:0:0:
352,375,77262,5,6,1:2:0:0:
188,273,77412,1,0,1:0:0:0:
151,280,77487,1,4,1:2:0:0:
114,286,77562,1,0,1:0:0:0:
381,202,77712,2,0,L|423:212,2,26.325,0|0|0,1:0|1:0|1:0,0:0:0:0:
302,183,77862,70,0,P|287:100|277:30,1,131.625,4|0,1:2|0:0,0:0:0:0:
297,26,78087,2,0,L|342:35,1,26.325,0|0,1:0|1:0,0:0:0:0:
261,127,78162,6,0,P|203:142|158:89,1,131.625,6|0,1:2|0:0,0:0:0:0:
143,89,78387,2,0,L|154:53,1,26.325,0|0,1:0|1:0,0:0:0:0:
93,103,78462,70,0,P|107:119|103:162,1,52.65,2|0,1:2|1:0,0:0:0:0:
256,335,78612,6,0,P|268:319|272:288,1,52.65,0|0,1:0|1:0,0:0:0:0:
426,121,78762,70,0,P|412:125|400:187,1,60.75,2|0,1:2|1:0,0:0:0:0:
76,256,78912,6,0,P|111:285|116:315,1,68.85,0|0,1:0|1:0,0:0:0:0:
229,22,79062,6,0,B|304:49|421:112|387:308|286:498|58:171|311:94|433:122,1,648,6|2,1:2|2:0,0:0:0:0:
492,159,80862,1,2,2:0:0:0:
398,303,81462,6,0,B|361:402|188:464|28:325|100:115|301:38|360:210|372:296|253:288|273:267,1,615.599999999999,2|2,2:0|2:0,0:0:0:0:
272,268,82962,1,2,2:0:0:0:
222,207,83262,70,0,B|184:170|93:187,2,108,2|2|2,2:0|2:0|2:0,2:0:0:0:
429,361,83862,2,0,B|546:336|517:123|397:186|386:328|445:344,2,324,2|2|6,2:0|2:0|1:2,0:0:0:0:
256,192,85099,12,0,89862,2:0:0:0:
