osu file format v14

[General]
AudioFilename: audio.mp3
AudioLeadIn: 0
PreviewTime: 59787
Countdown: 0
SampleSet: Soft
StackLeniency: 0.7
Mode: 0
LetterboxInBreaks: 0
WidescreenStoryboard: 1

[Editor]
Bookmarks: 2262,21462,59862,76362,79062
DistanceSpacing: 1
BeatDivisor: 3
GridSize: 8
TimelineZoom: 1.8

[Metadata]
Title:Blue Zenith (Cut Ver.)
TitleUnicode:Blue Zenith (Cut Ver.)
Artist:xi
ArtistUnicode:xi
Creator:Sotarks
Version:sanairrt's Insane
Source:
Tags:parousia electronic instrumental short edit version wysi 727 featured artist fa akitoshi corinn pepekcz sanairrt kowari -laura uberfazz kujinn reform sytho matthewrigaud11 armin A_r_M_i_N schoolboy komore nino snownino_ vaporfly red crewmate god haachama
BeatmapID:3552450
BeatmapSetID:1737645

[Difficulty]
HPDrainRate:5.5
CircleSize:4.2
OverallDifficulty:8
ApproachRate:9
SliderMultiplier:1.6
SliderTickRate:1

[Events]
//Background and Video events
0,0,"727.jpg",0,0
//Break Periods
//Storyboard Layer 0 (Background)
//Storyboard Layer 1 (Fail)
//Storyboard Layer 2 (Pass)
//Storyboard Layer 3 (Foreground)
//Storyboard Layer 4 (Overlay)
//Storyboard Sound Samples

[TimingPoints]
2262,300,4,2,1,52,1,0
2262,-142.857142857143,4,2,1,52,0,0
8562,-166.666666666667,4,2,1,52,0,0
8862,-200,4,2,1,52,0,0
9162,-250.000000000001,4,2,1,52,0,0
9462,-142.857142857143,4,2,1,52,0,0
10662,-125,4,2,1,52,0,0
11862,-111.111111111111,4,2,1,52,0,0
19062,-111.111111111111,4,2,1,62,0,0
21162,-166.666666666666,4,2,1,62,0,0
21462,-100,4,2,2,72,0,0
21537,-100,4,2,1,72,0,0
22212,-100,4,2,1,72,0,0
22662,-100,4,2,3,72,0,0
22737,-100,4,2,1,72,0,0
22887,-100,4,2,1,72,0,0
23862,-100,4,2,4,72,0,0
23937,-100,4,2,1,72,0,0
24312,-100,4,2,1,72,0,0
25062,-100,4,2,5,72,0,0
25137,-100,4,2,1,72,0,0
25512,-100,4,2,1,72,0,0
26262,-100,4,2,2,72,0,0
26337,-100,4,2,1,72,0,0
26712,-100,4,2,1,72,0,0
27462,-100,4,2,3,72,0,0
27537,-100,4,2,1,72,0,0
27912,-100,4,2,1,72,0,0
28662,-100,4,2,6,72,0,0
28737,-100,4,2,1,72,0,0
28812,-100,4,2,1,72,0,0
29862,-100,4,2,4,72,0,0
29937,-100,4,2,1,72,0,0
30087,-100,4,2,1,72,0,0
31062,-100,4,2,7,72,0,0
31137,-100,4,2,1,72,0,0
31812,-100,4,2,1,72,0,0
32262,-100,4,2,6,72,0,0
32337,-100,4,2,1,72,0,0
32487,-100,4,2,1,72,0,0
33462,-100,4,2,7,72,0,0
33537,-100,4,2,1,72,0,0
33912,-100,4,2,1,72,0,0
34662,-100,4,2,8,72,0,0
34737,-100,4,2,1,72,0,0
34887,-100,4,2,1,72,0,0
35262,-100,4,2,9,72,0,0
35337,-100,4,2,1,72,0,0
35412,-100,4,2,1,72,0,0
35862,-100,4,2,6,72,0,0
35937,-100,4,2,1,72,0,0
36312,-100,4,2,1,72,0,0
37662,-100,4,2,10,72,0,0
37737,-100,4,2,1,72,0,0
37812,-100,4,2,1,72,0,0
38262,-100,4,2,3,72,0,0
38337,-100,4,2,1,72,0,0
39462,-100,4,2,7,72,0,0
39537,-100,4,2,1,72,0,0
40137,-100,4,2,1,72,0,0
40662,-100,4,2,2,72,0,0
40737,-100,4,2,1,72,0,0
41412,-100,4,2,1,72,0,0
41862,-100,4,2,3,72,0,0
41937,-100,4,2,1,72,0,0
42087,-100,4,2,1,72,0,0
43062,-100,4,2,2,72,0,0
43137,-100,4,2,1,72,0,0
43512,-100,4,2,1,72,0,0
44262,-100,4,2,6,72,0,0
44337,-100,4,2,1,72,0,0
44712,-100,4,2,1,72,0,0
45462,-100,4,2,6,72,0,0
45537,-100,4,2,1,72,0,0
45912,-100,4,2,1,72,0,0
46662,-100,4,2,7,72,0,0
46737,-100,4,2,1,72,0,0
46887,-100,4,2,1,72,0,0
47862,-100,4,2,7,72,0,0
47937,-100,4,2,1,72,0,0
48312,-100,4,2,1,72,0,0
49062,-100,4,2,11,72,0,0
49137,-100,4,2,1,72,0,0
49512,-100,4,2,1,72,0,0
50862,-100,4,2,8,72,0,0
50937,-100,4,2,1,72,0,0
51012,-100,4,2,1,72,0,0
51462,-100,4,2,9,72,0,0
51537,-100,4,2,1,72,0,0
51687,-100,4,2,1,72,0,0
52062,-100,4,2,12,72,0,0
52137,-100,4,2,1,72,0,0
52212,-100,4,2,1,72,0,0
52662,-100,4,2,7,72,0,0
52737,-100,4,2,1,72,0,0
53112,-100,4,2,1,72,0,0
53862,-100,4,2,2,72,0,0
53937,-100,4,2,1,72,0,0
54312,-100,4,2,1,72,0,0
55062,-100,4,2,6,72,0,0
55137,-100,4,2,1,72,0,0
57387,-100,4,2,1,72,0,0
57462,-100,4,2,13,72,0,0
57537,-100,4,2,1,72,0,0
57987,-100,4,2,1,72,0,0
58662,-100,4,2,14,72,0,0
58737,-100,4,2,1,72,0,0
58887,-100,4,2,1,72,0,0
59262,-100,4,2,15,72,0,0
59337,-100,4,2,1,72,0,0
59637,-100,4,2,1,72,0,0
59862,-90.9090909090909,4,2,16,82,0,0
60012,-90.9090909090909,4,2,1,82,0,0
60462,-90.9090909090909,4,2,2,82,0,0
60912,-90.9090909090909,4,2,1,82,0,0
61662,-90.9090909090909,4,2,17,82,0,0
61887,-90.9090909090909,4,2,18,82,0,0
61962,-90.9090909090909,4,2,1,82,0,0
62112,-90.9090909090909,4,2,19,82,0,0
62262,-90.9090909090909,4,2,20,82,0,0
62337,-90.9090909090909,4,2,1,82,0,0
62712,-90.9090909090909,4,2,1,82,0,0
62862,-90.9090909090909,4,2,2,82,0,0
62937,-90.9090909090909,4,2,1,82,0,0
63012,-90.9090909090909,4,2,1,82,0,0
64062,-90.9090909090909,4,2,16,82,0,0
64137,-90.9090909090909,4,2,1,82,0,0
64212,-90.9090909090909,4,2,1,82,0,0
64662,-90.9090909090909,4,2,16,82,0,0
64812,-90.9090909090909,4,2,1,82,0,0
65262,-90.9090909090909,4,2,2,82,0,0
65562,-90.9090909090909,4,2,1,82,0,0
65712,-90.9090909090909,4,2,1,82,0,0
66462,-90.9090909090909,4,2,21,82,0,0
66687,-90.9090909090909,4,2,17,82,0,0
66912,-90.9090909090909,4,2,18,82,0,0
67062,-90.9090909090909,4,2,15,82,0,0
67137,-90.9090909090909,4,2,1,82,0,0
67512,-90.9090909090909,4,2,1,82,0,0
67662,-90.9090909090909,4,2,22,82,0,0
68862,-90.9090909090909,4,2,23,82,0,0
69012,-90.9090909090909,4,2,1,82,0,0
69162,-90.9090909090909,4,2,23,82,0,0
69462,-90.9090909090909,4,2,16,82,0,0
69612,-90.9090909090909,4,2,1,82,0,0
70062,-90.9090909090909,4,2,2,82,0,0
70512,-90.9090909090909,4,2,1,82,0,0
71262,-90.9090909090909,4,2,17,82,0,0
71487,-90.9090909090909,4,2,18,82,0,0
71562,-90.9090909090909,4,2,1,82,0,0
71712,-90.9090909090909,4,2,19,82,0,0
71862,-90.9090909090909,4,2,20,82,0,0
71937,-90.9090909090909,4,2,1,82,0,0
72312,-90.9090909090909,4,2,1,82,0,0
72462,-90.9090909090909,4,2,2,82,0,0
72537,-90.9090909090909,4,2,1,82,0,0
72612,-90.9090909090909,4,2,1,82,0,0
73662,-90.9090909090909,4,2,16,82,0,0
73737,-90.9090909090909,4,2,1,82,0,0
73812,-90.9090909090909,4,2,1,82,0,0
74262,-90.9090909090909,4,2,16,82,0,0
74862,-90.9090909090909,4,2,2,82,0,0
75387,-90.9090909090909,4,2,1,82,0,0
76062,-90.9090909090909,4,2,17,82,0,0
76512,-90.9090909090909,4,2,19,82,0,0
76662,-90.9090909090909,4,2,20,82,0,0
77262,-90.9090909090909,4,2,24,82,0,0
77412,-90.9090909090909,4,2,1,82,0,0
77562,-90.9090909090909,4,2,1,82,0,0
78162,-90.9090909090909,4,2,25,82,0,0
78387,-90.9090909090909,4,2,1,82,0,0
78462,-90.9090909090909,4,2,26,82,0,0
78537,-90.9090909090909,4,2,1,82,0,0
78762,-90.9090909090909,4,2,25,82,0,0
78837,-90.9090909090909,4,2,1,82,0,0
79062,-90.9090909090909,4,2,27,62,0,0
80262,-142.857142857143,4,2,28,62,0,0
80862,-142.857142857143,4,2,29,62,0,0
81462,-142.857142857143,4,2,22,62,0,0
82662,-142.857142857143,4,2,18,62,0,0
82962,-142.857142857143,4,2,19,62,0,0
83462,-142.857142857143,4,2,30,62,0,0
83662,-142.857142857143,4,2,18,62,0,0
83862,-142.857142857143,4,2,29,62,0,0
84462,-142.857142857143,4,2,31,62,0,0
85062,-217.391304347826,4,2,1,62,0,0

[Colours]
Combo1 : 23,198,255
Combo2 : 187,192,198
Combo3 : 130,130,130
Combo4 : 148,156,216
Combo5 : 94,135,204
Combo6 : 11,62,238

[HitObjects]
70,153,2262,6,0,P|61:97|50:42,3,112,4|0|0|0,1:2|1:0|1:0|1:0,0:0:0:0:
167,225,3462,2,0,P|156:280|146:336,3,112,0|0|0|0,1:0|1:0|1:0|1:0,0:0:0:0:
263,152,4662,2,0,P|252:97|242:41,3,112,0|0|0|0,1:0|1:0|1:0|1:0,0:0:0:0:
359,225,5862,2,0,P|348:279|338:335,3,112,0|0|0|0,1:0|1:0|1:0|1:0,0:0:0:0:
466,118,7062,22,0,L|419:107,3,28,2|2|2|2,1:2|2:0|2:0|2:0,2:0:0:0:
410,83,7362,2,0,L|363:94,3,28,2|2|2|2,1:2|2:0|2:0|2:0,2:0:0:0:
354,118,7662,2,0,L|307:107,3,28,2|2|2|2,1:2|2:0|2:0|2:0,2:0:0:0:
298,83,7962,2,0,L|251:94,3,28,2|2|2|2,1:2|2:0|2:0|2:0,2:0:0:0:
237,70,8262,6,0,P|229:96|218:144,1,55.9999999999999,2|2,1:2|2:0,2:0:0:0:
132,157,8562,2,0,P|151:176|174:202,1,47.9999999999999,2|2,1:2|2:0,2:0:0:0:
154,281,8862,2,0,P|180:274|207:267,1,40,2|2,1:2|2:0,2:0:0:0:
263,320,9162,2,0,P|270:293|274:279,1,31.9999999999999,2|2,1:2|2:0,2:0:0:0:
379,226,9462,38,0,P|369:183|347:92,3,112,2|0|0|0,1:2|1:0|1:0|1:0,0:0:0:0:
237,70,10662,6,0,P|204:96|140:82,1,96,0|0,1:0|2:0,0:0:0:0:
118,70,10962,2,0,P|109:98|94:150,1,64,0|0,1:0|2:0,0:0:0:0:
48,238,11262,2,0,L|1:226,3,32,0|0|0|0,1:0|2:0|2:0|2:0,2:0:0:0:
75,269,11562,2,0,P|108:258|153:247,1,64,0|0,1:0|1:0,2:0:0:0:
235,175,11862,70,0,P|307:190|390:208,1,144,4|0,1:2|1:0,0:0:0:0:
462,147,12312,1,0,2:0:0:0:
462,147,12387,1,0,2:0:0:0:
462,147,12462,2,0,P|471:184|483:235,1,72.0000000000001,0|0,1:0|2:0,2:0:0:0:
407,332,12762,2,0,P|388:328|356:321,3,36,0|0|0|0,1:0|0:0|2:0|0:0,0:0:0:0:
343,347,13062,6,0,P|304:316|235:344,1,108,0|0,1:0|2:0,0:0:0:0:
222,354,13362,2,0,P|212:316|201:276,1,72.0000000000001,0|0,1:0|2:0,0:0:0:0:
92,211,13662,2,0,P|82:245|73:280,1,72.0000000000001,0|0,1:0|2:0,2:0:0:0:
140,119,13962,2,0,P|115:111|81:100,3,36,0|0|0|0,1:0|2:0|2:0|2:0,2:0:0:0:
168,96,14262,70,0,B|250:66|236:126|325:87,1,144,0|0,1:0|1:0,2:0:0:0:
368,170,14712,1,0,2:0:0:0:
443,32,14862,1,0,1:0:0:0:
308,93,15012,1,0,2:0:0:0:
466,174,15162,2,0,L|476:132,3,36,0|0|0|0,1:0|0:0|2:0|0:0,0:0:0:0:
487,202,15462,6,0,P|518:247|499:313,1,108,0|0,1:0|0:0,2:0:0:0:
490,327,15762,2,0,P|454:318|394:308,1,72.0000000000001,0|0,1:0|2:0,2:0:0:0:
329,251,16062,2,0,P|293:257|258:266,1,72.0000000000001,0|0,1:0|2:0,2:0:0:0:
157,375,16362,1,0,1:0:0:0:
68,260,16512,1,0,1:0:0:0:
135,176,16662,6,0,L|186:189,3,36,6|2|2|0,1:2|2:0|2:0|0:0,0:0:0:0:
201,217,16962,2,0,L|235:208,3,36,2|2|2|0,1:2|2:0|2:0|0:0,0:0:0:0:
267,176,17262,2,0,L|301:184,3,36,2|2|2|0,1:2|2:0|2:0|0:0,0:0:0:0:
343,210,17562,2,0,P|351:169|362:117,1,72.0000000000001,2|2,1:2|1:0,0:0:0:0:
255,14,17862,54,0,B|204:25|204:25|197:22|197:22|151:33,1,108,4|0,1:2|2:0,0:0:0:0:
112,24,18162,2,0,P|106:49|90:125,1,72.0000000000001,0|0,1:0|2:0,0:0:0:0:
220,137,18462,2,0,P|228:172|235:207,1,72.0000000000001,0|0,1:0|2:0,0:0:0:0:
134,297,18762,2,0,L|86:287,3,36,0|0|0|0,1:0|2:0|1:0|2:0,0:0:0:0:
161,325,19062,6,0,B|170:321|183:322|183:322|198:320|198:320|212:311|231:313,3,72.0000000000001,6|2|2|2,1:2|2:0|1:2|2:0,0:0:0:0:
311,359,19662,1,2,2:0:0:0:
315,348,19812,1,2,2:0:0:0:
319,337,19962,1,2,2:0:0:0:
323,326,20112,1,2,2:0:0:0:
442,229,20262,70,0,P|403:221|351:211,1,72.0000000000001,6|2,2:0|2:0,0:0:0:0:
343,210,20487,1,0,2:0:0:0:
343,210,20562,1,6,2:0:0:0:
230,313,20712,1,2,2:0:0:0:
173,239,20862,2,0,B|184:200|184:200|181:193|181:193|193:151,1,72.0000000000001,6|2,2:0|2:0,2:0:0:0:
320,39,21162,6,0,P|300:57|306:31,1,72.0000000000003,6|0,2:0|2:0,2:0:0:0:
386,106,21462,6,0,P|307:92|228:79,2,160,6|0|0,1:2|1:0|1:0,0:0:0:0:
470,38,22212,1,0,2:0:0:0:
512,158,22362,2,0,P|500:204|486:264,1,80,0|0,1:0|2:0,0:0:0:0:
378,313,22662,6,0,P|345:275|280:284,1,120,2|0,1:2|2:0,0:0:0:0:
254,306,22962,2,0,P|244:267|234:226,1,80,0|0,1:0|2:0,0:0:0:0:
86,135,23262,2,0,P|119:160|173:157,1,80,0|0,1:0|2:0,0:0:0:0:
274,85,23562,2,0,P|268:58|261:27,2,40,0|0|0,1:0|2:0|2:0,0:0:0:0:
408,160,23862,70,0,B|388:219|388:219|396:250|396:250|369:340,1,160,2|0,1:2|1:0,0:0:0:0:
276,384,24312,1,0,2:0:0:0:
184,306,24462,2,0,L|256:289,2,40,0|0|0,1:0|2:0|2:0,0:0:0:0:
389,219,24762,2,0,P|349:209|280:194,1,80,0|0,1:0|2:0,0:0:0:0:
196,86,25062,6,0,B|250:65|250:65|205:182,1,160,2|0,1:2|1:0,2:0:0:0:
171,279,25512,1,0,2:0:0:0:
277,338,25662,2,0,P|312:302|386:322,1,120,0|0,1:0|2:0,2:0:0:0:
404,336,25962,2,0,L|394:374,2,40,0|0|0,1:0|2:0|2:0,2:0:0:0:
493,256,26262,70,0,P|521:184|477:114,1,160,6|0,1:2|1:0,0:0:0:0:
400,61,26712,1,0,2:0:0:0:
342,142,26862,1,0,1:0:0:0:
342,142,26937,1,0,2:0:0:0:
342,142,27012,1,0,2:0:0:0:
255,50,27162,2,0,P|196:58|125:71,1,120,0|0,1:0|2:0,0:0:0:0:
106,78,27462,6,0,B|143:121|143:121|101:232,1,160,2|0,1:2|1:0,0:0:0:0:
176,301,27912,1,0,2:0:0:0:
62,380,28062,2,0,L|11:367,2,40,0|0|0,1:0|2:0|2:0,0:0:0:0:
176,301,28362,2,0,P|212:280|266:291,1,80,0|0,1:0|2:0,0:0:0:0:
349,384,28662,70,0,P|357:335|368:278,1,80,2|0,1:2|2:0,0:0:0:0:
442,230,28962,1,0,1:0:0:0:
442,230,29037,1,0,2:0:0:0:
442,230,29112,1,0,2:0:0:0:
342,142,29262,2,0,P|297:150|246:162,1,80,0|0,1:0|2:0,0:0:0:0:
170,265,29562,2,0,P|209:273|248:281,1,80,0|0,1:0|2:0,0:0:0:0:
95,99,29862,6,0,B|78:144|78:144|82:165|82:165|55:236,1,120,2|0,1:2|2:0,0:0:0:0:
38,232,30162,2,0,P|45:270|56:330,1,80,0|0,1:0|2:0,0:0:0:0:
170,378,30462,2,0,P|177:338|191:294,1,80,0|0,1:0|0:0,0:0:0:0:
244,159,30762,1,0,1:0:0:0:
128,242,30912,1,0,1:0:0:0:
305,332,31062,70,0,B|394:294|374:360|464:320,2,160,2|0|0,1:2|1:0|1:0,0:0:0:0:
226,254,31812,1,0,0:0:0:0:
135,355,31962,2,0,P|127:315|118:272,1,80,0|0,1:0|0:0,0:0:0:0:
17,122,32262,6,0,P|54:158|125:146,1,120,2|0,1:2|0:0,0:0:0:0:
141,128,32562,2,0,P|191:139|243:151,1,80,0|0,1:0|0:0,0:0:0:0:
340,279,32862,2,0,P|328:240|316:202,1,80,0|0,1:0|0:0,0:0:0:0:
369,39,33162,2,0,P|341:68|314:97,1,80,0|0,1:0|0:0,0:0:0:0:
206,295,33462,70,0,B|226:271|243:249|243:249|285:262|350:282,1,160,2|0,1:2|1:0,0:0:0:0:
416,216,33912,1,0,0:0:0:0:
481,349,34062,1,0,1:0:0:0:
339,278,34212,1,0,0:0:0:0:
490,164,34362,2,0,P|508:199|499:256,1,80,0|0,1:0|0:0,0:0:0:0:
323,363,34662,6,0,P|311:308|290:215,1,120,2|0,1:2|0:0,0:0:0:0:
272,227,34962,2,0,P|281:181|292:125,1,80,0|0,1:0|0:0,0:0:0:0:
387,41,35262,2,0,P|435:54|496:70,1,80,2|0,1:2|0:0,0:0:0:0:
287,148,35562,1,0,1:0:0:0:
219,4,35712,1,0,1:0:0:0:
117,76,35862,70,0,P|68:134|88:219,1,160,6|0,1:2|1:0,0:0:0:0:
148,293,36312,1,0,2:0:0:0:
238,237,36462,1,0,1:0:0:0:
238,237,36537,1,0,2:0:0:0:
238,237,36612,1,0,2:0:0:0:
319,339,36762,2,0,P|375:326|438:315,1,120,0|0,1:0|2:0,0:0:0:0:
465,311,37062,6,0,B|494:211|494:211|468:192|432:166,1,160,0|0,1:0|1:0,0:0:0:0:
364,116,37512,1,0,2:0:0:0:
257,227,37662,2,0,P|247:175|239:130,1,80,2|0,1:2|2:0,2:0:0:0:
224,11,37962,2,0,L|286:26,2,40,0|0|0,1:0|2:0|1:0,2:0:0:0:
151,93,38262,69,6,1:2:0:0:
138,97,38412,1,0,1:0:0:0:
126,102,38562,1,0,1:0:0:0:
114,107,38712,1,0,1:0:0:0:
5,208,38862,5,0,1:0:0:0:
20,212,39012,1,0,1:0:0:0:
37,216,39162,1,0,1:0:0:0:
54,221,39312,1,0,1:0:0:0:
135,363,39462,70,0,P|147:319|164:262,1,80,6|0,1:2|1:0,2:0:0:0:
268,161,39762,2,0,P|279:199|289:238,1,80,0|0,1:0|1:0,2:0:0:0:
340,353,40062,1,0,1:0:0:0:
340,353,40137,1,0,1:0:0:0:
340,353,40212,1,0,1:0:0:0:
340,353,40287,1,0,1:0:0:0:
340,353,40362,2,0,L|398:335,3,40,0|0|0|0,1:0|1:0|1:0|1:0,0:0:0:0:
455,319,40662,6,0,P|377:306|261:289,2,160,6|0|0,1:2|1:0|1:0,2:0:0:0:
404,201,41412,1,0,2:0:0:0:
490,133,41562,1,0,1:0:0:0:
490,133,41637,1,0,2:0:0:0:
490,133,41712,1,0,2:0:0:0:
385,52,41862,70,0,P|307:63|232:75,1,120,2|0,1:2|0:0,0:0:0:0:
234,59,42162,2,0,P|225:95|210:162,1,80,0|0,1:0|0:0,0:0:0:0:
113,257,42462,2,0,P|104:218|94:179,1,80,0|0,1:0|0:0,0:0:0:0:
101,51,42762,2,0,L|44:39,2,40,0|0|0,1:0|0:0|0:0,0:0:0:0:
215,136,43062,6,0,P|265:86|353:115,1,160,2|0,1:2|1:0,0:0:0:0:
427,170,43512,1,0,0:0:0:0:
507,75,43662,2,0,L|492:20,2,40,0|0|0,1:0|0:0|0:0,0:0:0:0:
427,170,43962,2,0,B|409:207|409:207|423:258,1,80,0|0,1:0|0:0,0:0:0:0:
329,59,44262,70,0,P|250:70|149:86,1,160,2|0,1:2|1:2,2:0:0:0:
83,10,44712,1,0,2:0:0:0:
3,127,44862,2,0,P|15:181|33:270,1,120,0|0,1:2|2:0,2:0:0:0:
40,277,45162,2,0,L|97:260,2,40,0|0|0,1:0|0:0|1:0,0:0:0:0:
160,186,45462,6,0,B|250:151|231:223|327:184,1,160,6|0,1:2|1:0,0:0:0:0:
378,77,45912,1,0,2:0:0:0:
378,77,45987,1,0,2:0:0:0:
378,77,46062,2,0,P|367:38|355:-6,1,80,0|0,1:0|2:0,0:0:0:0:
502,139,46362,2,0,P|491:177|480:216,1,80,0|0,1:0|2:0,0:0:0:0:
369,327,46662,70,0,P|329:284|272:295,1,120,2|0,1:2|0:0,0:0:0:0:
255,323,46962,2,0,P|217:314|145:302,1,80,0|0,1:0|0:0,0:0:0:0:
36,272,47262,2,0,P|46:312|56:351,1,80,0|0,1:0|0:0,0:0:0:0:
163,205,47562,2,0,L|175:155,2,40,0|0|0,1:0|0:0|0:0,0:0:0:0:
61,100,47862,6,0,B|104:141|104:141|225:108,1,160,2|0,1:2|1:0,0:0:0:0:
268,13,48312,1,0,0:0:0:0:
360,97,48462,2,0,P|394:146|372:219,1,120,0|0,1:0|0:0,0:0:0:0:
397,240,48762,2,0,P|356:232|290:220,1,80,0|0,1:0|0:0,0:0:0:0:
172,123,49062,70,0,B|121:159|121:159|132:208|150:283,1,160,2|0,1:2|1:0,2:0:0:0:
181,378,49512,1,0,2:0:0:0:
181,378,49587,1,0,2:0:0:0:
181,378,49662,2,0,P|222:370|288:358,1,80,0|0,1:0|2:0,2:0:0:0:
397,240,49962,1,0,1:0:0:0:
471,354,50112,1,0,1:0:0:0:
299,264,50262,6,0,P|312:174|325:92,2,160,6|0|2,1:2|1:0|1:2,0:0:0:0:
200,345,51012,1,0,2:0:0:0:
123,267,51162,1,0,1:0:0:0:
123,267,51237,1,0,2:0:0:0:
123,267,51312,1,0,2:0:0:0:
23,353,51462,70,0,P|12:284|1:210,1,120,2|0,1:2|2:0,0:0:0:0:
0,200,51762,2,0,P|39:176|96:185,1,80,0|0,1:0|2:0,0:0:0:0:
227,310,52062,2,0,P|187:301|111:285,1,80,2|0,1:2|2:0,0:0:0:0:
301,172,52362,2,0,L|310:210,2,40,0|0|0,1:0|2:0|2:0,0:0:0:0:
206,122,52662,6,0,P|264:71|359:88,1,160,2|0,1:2|1:0,0:0:0:0:
440,126,53112,1,0,2:0:0:0:
310,210,53262,2,0,L|301:172,2,40,0|0|0,1:0|2:0|2:0,0:0:0:0:
433,256,53562,2,0,P|428:279|418:334,1,80,2|0,1:2|2:0,0:0:0:0:
266,370,53862,70,0,B|222:353|173:336|173:336|156:365|124:386,1,160,2|0,1:2|1:0,2:0:0:0:
82,293,54312,1,0,2:0:0:0:
169,195,54462,2,0,P|211:204|255:215,1,80,0|0,1:0|2:0,2:0:0:0:
150,55,54762,2,0,P|111:64|72:73,1,80,0|0,1:0|1:0,2:0:0:0:
47,83,54987,1,0,1:0:0:0:
47,83,55062,5,6,1:2:0:0:
74,177,55212,1,0,1:0:0:0:
169,195,55362,1,0,1:0:0:0:
246,135,55512,1,0,1:0:0:0:
245,36,55662,2,0,P|206:27|161:19,2,80,0|0|0,1:0|1:0|1:0,0:0:0:0:
364,0,56112,1,0,1:0:0:0:
364,0,56187,1,0,1:0:0:0:
364,0,56262,70,0,P|372:36|384:92,1,80,6|0,1:2|1:0,0:0:0:0:
493,183,56562,2,0,P|456:191|401:203,1,80,0|0,1:0|1:0,0:0:0:0:
310,312,56862,2,0,P|301:275|290:220,1,80,0|0,1:0|1:0,0:0:0:0:
160,105,57162,1,0,1:0:0:0:
74,177,57312,1,0,1:0:0:0:
74,177,57387,1,0,1:0:0:0:
74,177,57462,6,0,P|129:217|224:196,1,160,6|0,1:2|1:0,0:0:0:0:
187,32,57912,1,0,1:0:0:0:
187,32,57987,1,0,1:0:0:0:
187,32,58062,2,0,P|162:77|162:122,1,80,0|0,1:0|1:0,0:0:0:0:
286,271,58362,2,0,P|311:226|311:181,1,80,0|0,1:0|1:0,0:0:0:0:
303,171,58587,1,0,1:0:0:0:
303,171,58662,70,0,P|361:160|431:148,1,120,6|0,1:2|1:0,0:0:0:0:
457,146,58962,2,0,P|448:177|433:246,1,80,0|0,1:0|1:0,0:0:0:0:
492,342,59262,2,0,P|460:350|393:371,1,80,6|0,1:2|1:0,0:0:0:0:
286,271,59562,1,0,1:0:0:0:
286,271,59637,1,0,1:0:0:0:
286,271,59712,1,0,1:0:0:0:
286,271,59787,1,0,1:0:0:0:
286,271,59862,22,0,P|276:210|266:152,1,88,6|0,1:2|2:0,2:0:0:0:
109,96,60162,2,0,P|101:139|94:182,1,88,0|0,1:0|2:0,2:0:0:0:
359,153,60462,2,0,P|289:92|207:120,1,176,2|0,1:2|1:0,2:0:0:0:
94,182,60912,1,0,2:0:0:0:
166,318,61062,6,0,B|202:299|241:288|241:288|265:307|288:331,1,132,0|0,1:0|2:0,0:0:0:0:
312,343,61362,2,0,P|322:294|336:242,1,88,0|0,1:0|2:0,0:0:0:0:
475,168,61662,2,0,B|449:152|420:130|420:130|382:143|340:160,2,132,2|2|2,1:2|2:0|2:0,2:0:0:0:
334,22,62262,70,0,P|273:2|215:91,1,176,6|0,1:2|1:0,0:0:0:0:
252,188,62712,1,0,0:0:0:0:
144,279,62862,2,0,P|88:265|34:254,1,88,2|0,1:2|0:0,0:0:0:0:
252,188,63162,2,0,P|308:174|362:163,1,88,0|0,1:0|0:0,0:0:0:0:
184,44,63462,6,0,P|179:63|168:104,3,44,0|0|0|0,1:0|0:0|0:0|0:0,0:0:0:0:
146,108,63762,2,0,P|151:127|162:168,3,44,0|0|0|0,1:0|0:0|0:0|0:0,0:0:0:0:
124,183,64062,2,0,P|115:217|99:281,1,88,2|0,1:2|0:0,0:0:0:0:
183,378,64362,1,0,1:0:0:0:
286,302,64512,1,0,1:0:0:0:
395,384,64662,70,0,P|448:371|509:361,1,88,6|0,1:2|2:0,2:0:0:0:
304,215,64962,2,0,P|291:268|281:329,1,88,0|0,1:0|2:0,2:0:0:0:
402,167,65262,2,0,P|358:114|233:133,1,176,2|0,1:2|1:0,2:0:0:0:
162,196,65712,1,0,2:0:0:0:
57,24,65862,6,0,B|88:62|88:62|79:102|57:152,1,132,0|0,1:0|2:0,0:0:0:0:
27,152,66162,2,0,P|34:190|47:255,1,88,0|0,1:0|2:0,0:0:0:0:
203,323,66462,2,0,B|182:293|128:286|128:286|111:314|78:330,2,132,2|2|2,1:2|2:0|2:0,2:0:0:0:
355,275,67062,70,0,P|341:192|325:90,1,176,6|0,1:2|1:0,0:0:0:0:
263,28,67512,1,0,0:0:0:0:
165,153,67662,2,0,P|111:141|61:131,1,88,2|0,1:2|0:0,0:0:0:0:
263,28,67962,2,0,P|307:6|363:14,1,88,0|0,1:0|0:0,0:0:0:0:
488,128,68262,6,0,P|462:133|429:142,3,44,0|0|0|0,1:0|0:0|0:0|0:0,0:0:0:0:
419,172,68562,2,0,P|397:166|376:162,3,44,0|0|0|0,1:0|0:0|0:0|0:0,0:0:0:0:
342,136,68862,2,0,P|333:169|314:251,1,88,0|0,1:2|0:0,0:0:0:0:
289,359,69162,1,2,1:2:0:0:
175,287,69312,1,0,1:0:0:0:
175,287,69387,1,0,1:0:0:0:
175,287,69462,70,0,P|94:307|67:316,1,88,6|0,1:2|0:0,0:0:0:0:
232,135,69762,2,0,P|274:147|317:156,1,88,0|0,1:0|0:0,0:0:0:0:
68,190,70062,2,0,B|35:81|35:81|65:58|106:31,1,176,2|0,1:2|1:0,0:0:0:0:
176,0,70512,1,0,2:0:0:0:
232,135,70662,6,0,P|280:172|373:143,1,132,0|0,1:0|2:0,0:0:0:0:
375,149,70962,2,0,P|402:189|390:245,1,88,0|0,1:0|2:0,0:0:0:0:
309,348,71262,2,0,B|274:347|242:316|242:316|208:337|195:362,2,132,2|2|2,1:2|2:0|2:0,2:0:0:0:
399,227,71862,70,0,B|416:165|430:118|430:118|358:158,1,176,6|0,1:2|1:0,0:0:0:0:
279,213,72312,1,0,0:0:0:0:
191,94,72462,2,0,P|205:40|218:-5,1,88,2|0,1:2|0:0,0:0:0:0:
279,213,72762,2,0,P|236:223|194:235,1,88,0|0,1:0|0:0,0:0:0:0:
60,152,73062,6,0,P|69:175|78:211,3,44,0|0|0|0,1:0|0:0|0:0|0:0,0:0:0:0:
44,220,73362,2,0,P|35:243|26:279,3,44,0|0|0|0,1:0|0:0|0:0|0:0,0:0:0:0:
6,293,73662,2,0,P|48:303|90:315,1,88,2|0,1:2|0:0,0:0:0:0:
194,235,73962,1,0,1:0:0:0:
262,368,74112,1,0,1:0:0:0:
345,295,74262,70,0,B|370:299|392:310|392:310|422:304|450:315,3,88,6|0|0|0,1:2|1:0|1:0|1:0,0:0:0:0:
476,215,74862,1,2,1:2:0:0:
470,203,75012,1,0,1:0:0:0:
464,191,75162,1,0,1:0:0:0:
475,76,75312,1,0,1:0:0:0:
475,76,75387,1,0,1:0:0:0:
475,76,75462,6,0,P|429:85|371:97,1,88,4|0,1:2|1:0,0:0:0:0:
242,186,75762,2,0,P|288:195|346:207,1,88,0|0,1:0|1:0,0:0:0:0:
133,116,76062,2,0,P|125:154|110:221,1,88,2|0,1:2|1:0,0:0:0:0:
198,350,76362,1,0,1:0:0:0:
9,331,76512,1,2,1:2:0:0:
9,331,76587,1,0,1:0:0:0:
9,331,76662,70,0,P|52:318|116:302,1,88,2|0,1:2|1:0,0:0:0:0:
328,203,76962,2,0,P|285:194|242:186,1,88,0|0,1:0|1:0,0:0:0:0:
389,296,77262,2,0,P|437:226|417:142,1,176,6|0,1:2|2:0,2:0:0:0:
341,27,77712,1,0,1:0:0:0:
341,27,77787,1,0,1:0:0:0:
341,27,77862,5,4,1:2:0:0:
218,155,78012,2,0,L|279:140,2,44,0|0|6,1:0|1:0|1:2,0:0:0:0:
134,51,78312,1,0,1:0:0:0:
134,51,78387,1,0,1:0:0:0:
134,51,78462,2,0,L|143:93,3,44,2|0|0|0,1:2|1:0|1:0|1:0,0:0:0:0:
218,155,78762,1,2,1:2:0:0:
211,185,78837,1,0,1:0:0:0:
205,215,78912,1,0,1:0:0:0:
199,245,78987,1,0,1:0:0:0:
193,275,79062,5,6,1:2:0:0:
193,275,80262,6,0,B|259:298|313:254|276:228|347:197|410:221,2,224,2|2|2,2:0|2:0|2:0,0:0:0:0:
193,275,82662,69,2,2:0:0:0:
120,174,82962,1,2,2:0:0:0:
193,73,83262,1,2,2:0:0:0:
118,24,83462,6,0,B|103:24|89:33|89:33|70:26|70:26|50:36|31:42,2,74.6666666666666,2|2|2,2:0|2:0|2:0,0:0:0:0:
118,24,84462,1,2,2:0:0:0:
139,348,85062,70,0,B|196:368|282:330|217:266|337:248|337:248|369:330|453:329|453:329|464:251|418:206|418:206|485:210|539:166|539:166|492:113|420:112|420:112|428:65|406:1|406:1|346:33|327:97|327:97|301:52|235:38|192:73,1,1177.6,6|0,1:2|2:0,2:0:0:0:
