osu file format v14

[General]
AudioFilename: audio.mp3
AudioLeadIn: 0
PreviewTime: 59787
Countdown: 0
SampleSet: Soft
StackLeniency: 0.7
Mode: 0
LetterboxInBreaks: 0
WidescreenStoryboard: 1

[Editor]
Bookmarks: 2262,21462,59862,79062
DistanceSpacing: 1.3
BeatDivisor: 4
GridSize: 8
TimelineZoom: 1.8

[Metadata]
Title:Blue Zenith (Cut Ver.)
TitleUnicode:Blue Zenith (Cut Ver.)
Artist:xi
ArtistUnicode:xi
Creator:Sotarks
Version:TWO DIMENSIONS
Source:
Tags:parousia electronic instrumental short edit version wysi 727 featured artist fa akitoshi corinn pepekcz sanairrt kowari -laura uberfazz kujinn reform sytho matthewrigaud11 armin A_r_M_i_N schoolboy komore nino snownino_ vaporfly red crewmate god haachama
BeatmapID:3551549
BeatmapSetID:1737645

[Difficulty]
HPDrainRate:6.2
CircleSize:3.8
OverallDifficulty:9.8
ApproachRate:9.7
SliderMultiplier:2.02
SliderTickRate:1

[Events]
//Background and Video events
0,0,"727.jpg",0,0
//Break Periods
//Storyboard Layer 0 (Background)
//Storyboard Layer 1 (Fail)
//Storyboard Layer 2 (Pass)
//Storyboard Layer 3 (Foreground)
//Storyboard Layer 4 (Overlay)
//Storyboard Sound Samples

[TimingPoints]
2262,300,4,2,1,52,1,0
7062,-161.290322580645,4,2,1,52,0,0
8262,-238.095238095238,4,2,1,52,0,0
10062,-192.307692307692,4,2,1,52,0,0
11262,-138.888888888889,4,2,1,52,0,0
11562,-121.951219512195,4,2,1,52,0,0
12462,-108.695652173913,4,2,1,52,0,0
19062,-108.695652173913,4,2,1,62,0,0
21462,-108.695652173913,4,2,2,72,0,0
21537,-108.695652173913,4,2,1,72,0,0
22662,-108.695652173913,4,2,3,72,0,0
22737,-108.695652173913,4,2,1,72,0,0
23862,-108.695652173913,4,2,4,72,0,0
23937,-108.695652173913,4,2,1,72,0,0
25062,-121.951219512195,4,2,5,72,0,0
25137,-121.951219512195,4,2,1,72,0,0
26262,-121.951219512195,4,2,2,72,0,0
26337,-121.951219512195,4,2,1,72,0,0
27462,-121.951219512195,4,2,3,72,0,0
27537,-121.951219512195,4,2,1,72,0,0
28662,-121.951219512195,4,2,6,72,0,0
28737,-121.951219512195,4,2,1,72,0,0
29862,-121.951219512195,4,2,4,72,0,0
29937,-121.951219512195,4,2,1,72,0,0
31062,-121.951219512195,4,2,7,72,0,0
31137,-121.951219512195,4,2,1,72,0,0
32262,-121.951219512195,4,2,6,72,0,0
32337,-121.951219512195,4,2,1,72,0,0
33462,-121.951219512195,4,2,7,72,0,0
33537,-121.951219512195,4,2,1,72,0,0
34662,-121.951219512195,4,2,8,72,0,0
34737,-121.951219512195,4,2,1,72,0,0
35262,-121.951219512195,4,2,9,72,0,0
35337,-121.951219512195,4,2,1,72,0,0
35862,-121.951219512195,4,2,6,72,0,0
35937,-121.951219512195,4,2,1,72,0,0
37662,-121.951219512195,4,2,10,72,0,0
37737,-121.951219512195,4,2,1,72,0,0
38262,-121.951219512195,4,2,3,72,0,0
38337,-121.951219512195,4,2,1,72,0,0
39462,-81.9672131147541,4,2,7,72,0,0
39537,-81.9672131147541,4,2,1,72,0,0
40662,-121.951219512195,4,2,2,72,0,0
40737,-121.951219512195,4,2,1,72,0,0
41862,-121.951219512195,4,2,3,72,0,0
41937,-121.951219512195,4,2,1,72,0,0
43062,-121.951219512195,4,2,2,72,0,0
43137,-121.951219512195,4,2,1,72,0,0
44262,-121.951219512195,4,2,6,72,0,0
44337,-121.951219512195,4,2,1,72,0,0
45462,-121.951219512195,4,2,6,72,0,0
45537,-121.951219512195,4,2,1,72,0,0
46662,-121.951219512195,4,2,7,72,0,0
46737,-121.951219512195,4,2,1,72,0,0
47862,-121.951219512195,4,2,7,72,0,0
47937,-121.951219512195,4,2,1,72,0,0
49062,-121.951219512195,4,2,11,72,0,0
49137,-121.951219512195,4,2,1,72,0,0
50862,-121.951219512195,4,2,8,72,0,0
50937,-121.951219512195,4,2,1,72,0,0
51462,-121.951219512195,4,2,9,72,0,0
51537,-121.951219512195,4,2,1,72,0,0
52062,-121.951219512195,4,2,12,72,0,0
52137,-121.951219512195,4,2,1,72,0,0
52662,-121.951219512195,4,2,7,72,0,0
52737,-121.951219512195,4,2,1,72,0,0
53862,-121.951219512195,4,2,2,72,0,0
53937,-121.951219512195,4,2,1,72,0,0
55062,-121.951219512195,4,2,6,72,0,0
55137,-121.951219512195,4,2,1,72,0,0
57462,-121.951219512195,4,2,13,72,0,0
57537,-121.951219512195,4,2,1,72,0,0
58662,-121.951219512195,4,2,14,72,0,0
58737,-121.951219512195,4,2,1,72,0,0
59262,-121.951219512195,4,2,15,72,0,0
59337,-121.951219512195,4,2,1,72,0,0
59862,-89.2857142857143,4,2,16,82,0,1
60012,-89.2857142857143,4,2,1,82,0,1
60462,-89.2857142857143,4,2,2,82,0,1
60912,-89.2857142857143,4,2,1,82,0,1
61662,-89.2857142857143,4,2,17,82,0,1
61887,-89.2857142857143,4,2,18,82,0,1
61962,-89.2857142857143,4,2,1,82,0,1
62112,-89.2857142857143,4,2,19,82,0,1
62262,-81.9672131147541,4,2,20,82,0,1
62337,-89.2857142857143,4,2,1,82,0,1
62862,-89.2857142857143,4,2,2,82,0,1
62937,-89.2857142857143,4,2,1,82,0,1
64062,-89.2857142857143,4,2,16,82,0,1
64137,-89.2857142857143,4,2,1,82,0,1
64662,-89.2857142857143,4,2,16,82,0,1
64812,-89.2857142857143,4,2,1,82,0,1
65262,-89.2857142857143,4,2,2,82,0,1
65562,-89.2857142857143,4,2,1,82,0,1
65712,-89.2857142857143,4,2,1,82,0,1
66462,-89.2857142857143,4,2,21,82,0,1
66687,-89.2857142857143,4,2,17,82,0,1
66912,-89.2857142857143,4,2,18,82,0,1
67062,-89.2857142857143,4,2,15,82,0,1
67137,-89.2857142857143,4,2,1,82,0,1
67662,-89.2857142857143,4,2,22,82,0,1
68862,-89.2857142857143,4,2,23,82,0,1
69012,-89.2857142857143,4,2,1,82,0,1
69162,-89.2857142857143,4,2,23,82,0,1
69462,-89.2857142857143,4,2,16,82,0,1
69612,-89.2857142857143,4,2,1,82,0,1
70062,-89.2857142857143,4,2,2,82,0,1
70512,-89.2857142857143,4,2,1,82,0,1
71262,-89.2857142857143,4,2,17,82,0,1
71487,-89.2857142857143,4,2,18,82,0,1
71562,-89.2857142857143,4,2,1,82,0,1
71712,-89.2857142857143,4,2,19,82,0,1
71862,-89.2857142857143,4,2,20,82,0,1
71937,-89.2857142857143,4,2,1,82,0,1
72462,-89.2857142857143,4,2,2,82,0,1
72537,-89.2857142857143,4,2,1,82,0,1
73662,-89.2857142857143,4,2,16,82,0,1
73737,-89.2857142857143,4,2,1,82,0,1
74262,-89.2857142857143,4,2,16,82,0,1
74862,-89.2857142857143,4,2,2,82,0,1
75387,-89.2857142857143,4,2,1,82,0,1
76062,-89.2857142857143,4,2,17,82,0,1
76512,-89.2857142857143,4,2,19,82,0,1
76662,-89.2857142857143,4,2,20,82,0,1
77262,-89.2857142857143,4,2,24,82,0,1
77412,-89.2857142857143,4,2,1,82,0,1
78162,-89.2857142857143,4,2,25,82,0,1
78387,-89.2857142857143,4,2,1,82,0,1
78462,-89.2857142857143,4,2,26,82,0,1
78537,-89.2857142857143,4,2,1,82,0,1
78762,-89.2857142857143,4,2,25,82,0,1
78837,-89.2857142857143,4,2,1,82,0,1
79062,-89.2857142857143,4,2,27,62,0,0
80262,-89.2857142857143,4,2,28,62,0,0
80862,-89.2857142857143,4,2,29,62,0,0
81462,-89.2857142857143,4,2,22,62,0,0
82662,-89.2857142857143,4,2,18,62,0,0
82962,-89.2857142857143,4,2,19,62,0,0
83262,-138.888888888889,4,2,19,62,0,0
83462,-138.888888888889,4,2,30,62,0,0
83662,-138.888888888889,4,2,18,62,0,0
83862,-138.888888888889,4,2,29,62,0,0
84462,-138.888888888889,4,2,31,62,0,0
85062,-555.555555555556,4,2,1,62,0,0

[Colours]
Combo1 : 23,198,255
Combo2 : 187,192,198
Combo3 : 130,130,130
Combo4 : 148,156,216
Combo5 : 94,135,204
Combo6 : 11,62,238

[HitObjects]
200,61,2262,5,4,1:2:0:0:
305,304,2562,1,0,1:0:0:0:
410,61,2862,1,0,1:0:0:0:
147,151,3162,1,0,1:0:0:0:
410,241,3462,5,0,1:0:0:0:
147,331,3762,1,0,1:0:0:0:
200,61,4062,1,0,1:0:0:0:
325,318,4362,1,0,1:0:0:0:
43,200,4662,69,0,1:0:0:0:
325,82,4962,1,0,1:0:0:0:
247,384,5262,1,0,1:0:0:0:
169,82,5562,1,0,1:0:0:0:
476,171,5862,5,0,1:0:0:0:
169,260,6162,1,0,1:0:0:0:
307,0,6462,1,0,1:0:0:0:
426,301,6762,1,0,1:0:0:0:
107,113,7062,6,0,L|115:77,3,31.31,2|2|2|2,1:2|2:0|2:0|2:0,2:0:0:0:
169,260,7362,2,0,L|175:290,3,31.31,2|2|2|2,1:2|2:0|2:0|2:0,2:0:0:0:
227,129,7662,2,0,L|257:122,3,31.31,2|2|2|2,1:2|2:0|2:0|2:0,2:0:0:0:
56,239,7962,2,0,L|25:232,3,31.31,2|2|2|2,1:2|2:0|2:0|2:0,2:0:0:0:
119,134,8262,6,0,L|125:105,3,21.21,2|2|2|2,1:2|2:0|2:0|2:0,2:0:0:0:
184,224,8562,2,0,L|188:244,3,21.21,2|2|2|2,1:2|2:0|2:0|2:0,2:0:0:0:
257,122,8862,2,0,L|263:93,3,21.21,2|2|2|2,1:2|2:0|2:0|2:0,2:0:0:0:
322,212,9162,2,0,L|326:232,3,21.21,2|2|2|2,1:2|2:0|2:0|2:0,2:0:0:0:
401,67,9462,37,2,1:2:0:0:
330,359,9762,1,0,1:0:0:0:
467,170,10062,2,0,L|432:182,3,26.26,0|0|0|0,1:0|2:0|2:0|2:0,2:0:0:0:
373,261,10362,2,0,L|397:269,3,26.26,0|0|0|0,1:0|2:0|2:0|2:0,2:0:0:0:
309,181,10662,5,0,1:0:0:0:
278,162,10737,1,0,2:0:0:0:
242,159,10812,1,0,2:0:0:0:
208,172,10887,1,0,2:0:0:0:
185,200,10962,1,0,1:0:0:0:
154,218,11037,1,0,2:0:0:0:
118,221,11112,1,0,2:0:0:0:
84,208,11187,1,0,2:0:0:0:
61,180,11262,2,0,L|69:126,3,36.36,0|0|0|0,1:0|2:0|2:0|2:0,2:0:0:0:
144,51,11562,70,0,P|149:82|159:104,1,41.41,0|0,1:0|2:0,2:0:0:0:
183,282,11712,2,0,P|188:251|198:229,1,41.41,0|0,1:0|2:0,2:0:0:0:
299,67,11862,5,4,1:2:0:0:
337,41,11937,1,0,2:0:0:0:
382,39,12012,1,0,2:0:0:0:
423,60,12087,1,0,2:0:0:0:
447,100,12162,1,0,1:0:0:0:
447,146,12237,1,0,2:0:0:0:
423,185,12312,1,0,2:0:0:0:
382,207,12387,1,0,2:0:0:0:
337,203,12462,2,0,P|326:176|325:145,3,46.46,0|0|0|0,1:0|2:0|2:0|2:0,2:0:0:0:
348,335,12762,1,0,1:0:0:0:
241,94,12912,1,0,2:0:0:0:
230,238,13062,69,0,1:0:0:0:
189,264,13137,1,0,2:0:0:0:
143,273,13212,1,0,2:0:0:0:
99,262,13287,1,0,2:0:0:0:
63,232,13362,1,0,1:0:0:0:
44,191,13437,1,0,2:0:0:0:
44,145,13512,1,0,2:0:0:0:
64,103,13587,1,0,2:0:0:0:
100,74,13662,6,0,P|132:76|170:96,1,46.46,0|0,1:0|2:0,2:0:0:0:
295,170,13812,1,0,2:0:0:0:
295,170,13887,1,0,2:0:0:0:
295,170,13962,2,0,P|326:168|364:148,1,46.46,0|0,1:0|2:0,2:0:0:0:
467,52,14112,1,0,2:0:0:0:
467,52,14187,1,0,2:0:0:0:
467,52,14262,70,0,L|454:109,3,46.46,0|0|0|0,1:0|2:0|2:0|2:0,2:0:0:0:
477,181,14562,2,0,L|467:227,3,46.46,0|0|0|0,1:0|2:0|2:0|2:0,2:0:0:0:
482,312,14862,2,0,L|471:357,3,46.46,0|0|0|0,1:0|2:0|2:0|2:0,2:0:0:0:
362,185,15162,1,0,1:0:0:0:
292,363,15312,1,0,2:0:0:0:
385,285,15462,6,0,P|331:277|281:247,1,92.92,0|0,1:0|2:0,2:0:0:0:
272,33,15762,2,0,P|290:76|294:122,1,92.92,0|0,1:0|2:0,2:0:0:0:
110,256,16062,2,0,P|137:219|175:192,1,92.92,0|0,1:0|2:0,2:0:0:0:
202,188,16287,1,0,2:0:0:0:
202,188,16362,2,0,L|213:254,1,46.46,0|0,1:0|2:0,2:0:0:0:
235,384,16512,2,0,L|227:338,1,46.46,0|0,1:0|2:0,2:0:0:0:
294,122,16662,5,6,1:2:0:0:
326,96,16737,1,2,2:0:0:0:
367,92,16812,1,2,2:0:0:0:
116,192,16962,5,2,1:2:0:0:
83,180,17037,1,2,2:0:0:0:
62,150,17112,1,2,2:0:0:0:
267,307,17262,69,2,1:2:0:0:
270,327,17337,1,2,2:0:0:0:
261,346,17412,1,2,2:0:0:0:
219,193,17562,53,2,1:2:0:0:
375,384,17712,1,2,1:0:0:0:
367,92,17862,5,4,1:2:0:0:
328,65,17937,1,0,2:0:0:0:
283,64,18012,1,0,2:0:0:0:
244,87,18087,1,0,2:0:0:0:
223,128,18162,1,0,1:0:0:0:
217,174,18237,1,0,2:0:0:0:
190,211,18312,1,0,2:0:0:0:
148,229,18387,1,0,2:0:0:0:
102,226,18462,1,0,1:0:0:0:
63,199,18537,1,0,2:0:0:0:
43,158,18612,1,0,2:0:0:0:
46,113,18687,1,0,2:0:0:0:
69,74,18762,69,0,1:0:0:0:
92,77,18837,1,0,2:0:0:0:
115,81,18912,1,0,1:0:0:0:
138,85,18987,1,0,2:0:0:0:
161,89,19062,5,6,1:2:0:0:
302,157,19212,1,2,2:0:0:0:
276,2,19362,1,2,1:2:0:0:
217,174,19512,1,2,2:0:0:0:
413,51,19662,1,2,2:0:0:0:
315,303,19812,1,2,2:0:0:0:
161,89,19962,1,2,2:0:0:0:
419,218,20112,1,2,2:0:0:0:
159,374,20262,69,6,2:0:0:0:
240,209,20412,1,2,2:0:0:0:
240,209,20487,1,0,2:0:0:0:
240,209,20562,1,6,2:0:0:0:
402,311,20712,1,2,2:0:0:0:
147,293,20862,6,0,L|192:280,1,46.46,6|0,2:0|2:0,2:0:0:0:
340,207,21012,2,0,L|295:194,1,46.46,2|0,2:0|2:0,2:0:0:0:
210,135,21162,2,0,L|196:179,1,46.46,6|0,2:0|2:0,2:0:0:0:
306,338,21312,2,0,L|293:293,1,46.46,2|0,2:0|2:0,2:0:0:0:
108,32,21462,5,6,1:2:0:0:
130,70,21537,1,0,2:0:0:0:
167,94,21612,1,0,2:0:0:0:
212,96,21687,1,0,2:0:0:0:
254,76,21762,1,0,1:0:0:0:
291,50,21837,1,0,2:0:0:0:
335,41,21912,1,0,2:0:0:0:
380,50,21987,1,0,2:0:0:0:
419,76,22062,1,0,1:0:0:0:
443,114,22137,1,0,2:0:0:0:
452,159,22212,1,0,2:0:0:0:
441,204,22287,1,0,2:0:0:0:
414,241,22362,1,0,1:0:0:0:
376,265,22437,1,0,2:0:0:0:
331,271,22512,1,0,2:0:0:0:
287,261,22587,1,0,2:0:0:0:
254,233,22662,5,2,1:2:0:0:
289,202,22737,1,0,2:0:0:0:
333,195,22812,1,0,2:0:0:0:
377,210,22887,1,0,2:0:0:0:
406,246,22962,1,0,1:0:0:0:
413,290,23037,1,0,2:0:0:0:
399,332,23112,1,0,2:0:0:0:
363,362,23187,1,0,2:0:0:0:
319,370,23262,1,0,1:0:0:0:
276,359,23337,1,0,2:0:0:0:
240,329,23412,1,0,2:0:0:0:
223,287,23487,1,0,2:0:0:0:
224,241,23562,1,0,1:0:0:0:
245,201,23637,1,0,2:0:0:0:
281,174,23712,1,0,2:0:0:0:
327,165,23787,1,0,2:0:0:0:
370,176,23862,69,2,1:2:0:0:
410,198,23937,1,0,2:0:0:0:
456,196,24012,1,0,2:0:0:0:
493,170,24087,1,0,2:0:0:0:
512,128,24162,1,0,1:0:0:0:
508,84,24237,1,0,2:0:0:0:
480,47,24312,1,0,2:0:0:0:
438,32,24387,1,0,2:0:0:0:
392,39,24462,1,0,1:0:0:0:
353,63,24537,1,0,2:0:0:0:
333,103,24612,1,0,2:0:0:0:
337,148,24687,1,0,2:0:0:0:
365,185,24762,1,0,1:0:0:0:
377,229,24837,1,0,2:0:0:0:
380,275,24912,1,0,2:0:0:0:
360,315,24987,1,0,2:0:0:0:
330,340,25062,6,0,P|306:340|284:334,3,41.4100006318665,2|0|0|0,1:2|2:0|2:0|2:0,2:0:0:0:
209,163,25362,2,0,P|220:181|226:201,3,41.41,0|0|0|0,1:0|2:0|2:0|2:0,2:0:0:0:
119,338,25662,2,0,P|130:320|144:304,3,41.41,0|0|0|0,1:0|2:0|2:0|2:0,2:0:0:0:
325,322,25962,2,0,P|304:322|284:317,3,41.41,0|0|0|0,1:0|2:0|2:0|2:0,2:0:0:0:
129,212,26262,69,6,1:2:0:0:
98,184,26337,1,0,2:0:0:0:
85,145,26412,1,0,2:0:0:0:
92,104,26487,1,0,2:0:0:0:
116,72,26562,1,0,1:0:0:0:
154,55,26637,1,0,2:0:0:0:
195,57,26712,1,0,2:0:0:0:
230,78,26787,1,0,2:0:0:0:
250,114,26862,1,0,1:0:0:0:
274,147,26937,1,0,2:0:0:0:
309,169,27012,1,0,2:0:0:0:
350,176,27087,1,0,2:0:0:0:
390,168,27162,1,0,1:0:0:0:
424,145,27237,1,0,2:0:0:0:
447,111,27312,1,0,2:0:0:0:
456,71,27387,1,0,2:0:0:0:
450,30,27462,5,2,1:2:0:0:
415,52,27537,1,0,2:0:0:0:
392,86,27612,1,0,2:0:0:0:
383,126,27687,1,0,2:0:0:0:
390,167,27762,1,0,1:0:0:0:
402,206,27837,1,0,2:0:0:0:
400,247,27912,1,0,2:0:0:0:
384,285,27987,1,0,2:0:0:0:
356,315,28062,1,0,1:0:0:0:
319,334,28137,1,0,2:0:0:0:
278,339,28212,1,0,2:0:0:0:
238,330,28287,1,0,2:0:0:0:
203,308,28362,1,0,1:0:0:0:
179,275,28437,1,0,2:0:0:0:
166,236,28512,1,0,2:0:0:0:
168,194,28587,1,0,2:0:0:0:
196,161,28662,69,2,1:2:0:0:
218,193,28737,1,0,2:0:0:0:
221,234,28812,1,0,2:0:0:0:
201,270,28887,1,0,2:0:0:0:
166,290,28962,1,0,1:0:0:0:
125,290,29037,1,0,2:0:0:0:
90,267,29112,1,0,2:0:0:0:
73,231,29187,1,0,2:0:0:0:
77,191,29262,1,0,1:0:0:0:
102,157,29337,1,0,2:0:0:0:
139,139,29412,1,0,2:0:0:0:
180,139,29487,1,0,2:0:0:0:
217,158,29562,1,0,1:0:0:0:
242,191,29637,1,0,2:0:0:0:
250,231,29712,1,0,2:0:0:0:
240,270,29787,1,0,2:0:0:0:
212,301,29862,5,2,1:2:0:0:
179,275,29937,1,0,2:0:0:0:
156,241,30012,1,0,2:0:0:0:
144,202,30087,1,0,2:0:0:0:
144,161,30162,1,0,1:0:0:0:
154,120,30237,1,0,2:0:0:0:
175,85,30312,1,0,2:0:0:0:
203,54,30387,1,0,2:0:0:0:
239,35,30462,1,0,1:0:0:0:
280,31,30537,1,0,0:0:0:0:
321,32,30612,1,0,0:0:0:0:
358,50,30687,1,0,0:0:0:0:
384,82,30762,2,0,L|375:154,1,41.4100006318665,0|0,1:0|0:0,0:0:0:0:
442,319,30912,2,0,L|447:278,1,41.4100006318665,0|0,1:0|0:0,0:0:0:0:
315,204,31062,69,2,1:2:0:0:
281,227,31137,1,0,0:0:0:0:
240,233,31212,1,0,0:0:0:0:
201,221,31287,1,0,0:0:0:0:
172,192,31362,1,0,1:0:0:0:
138,169,31437,1,0,0:0:0:0:
97,162,31512,1,0,0:0:0:0:
57,172,31587,1,0,0:0:0:0:
24,196,31662,1,0,1:0:0:0:
4,232,31737,1,0,0:0:0:0:
0,273,31812,1,0,0:0:0:0:
12,312,31887,1,0,0:0:0:0:
39,343,31962,1,0,1:0:0:0:
76,361,32037,1,0,0:0:0:0:
117,362,32112,1,0,0:0:0:0:
156,347,32187,1,0,0:0:0:0:
183,317,32262,5,2,1:2:0:0:
203,354,32337,1,0,0:0:0:0:
235,378,32412,1,0,0:0:0:0:
276,386,32487,1,0,0:0:0:0:
315,376,32562,1,0,1:0:0:0:
346,349,32637,1,0,0:0:0:0:
362,311,32712,1,0,0:0:0:0:
359,270,32787,1,0,0:0:0:0:
339,234,32862,1,0,1:0:0:0:
313,202,32937,1,0,0:0:0:0:
308,162,33012,1,0,0:0:0:0:
324,124,33087,1,0,0:0:0:0:
357,100,33162,1,0,1:0:0:0:
398,97,33237,1,0,0:0:0:0:
434,116,33312,1,0,0:0:0:0:
456,150,33387,1,0,0:0:0:0:
456,191,33462,69,2,1:2:0:0:
415,195,33537,1,0,0:0:0:0:
376,183,33612,1,0,0:0:0:0:
343,158,33687,1,0,0:0:0:0:
323,124,33762,1,0,1:0:0:0:
296,93,33837,1,0,0:0:0:0:
262,70,33912,1,0,0:0:0:0:
222,59,33987,1,0,0:0:0:0:
181,59,34062,1,0,1:0:0:0:
141,71,34137,1,0,0:0:0:0:
107,94,34212,1,0,0:0:0:0:
81,126,34287,1,0,0:0:0:0:
65,164,34362,1,0,1:0:0:0:
61,205,34437,1,0,0:0:0:0:
69,246,34512,1,0,0:0:0:0:
88,283,34587,1,0,0:0:0:0:
125,302,34662,5,2,1:2:0:0:
161,282,34737,1,0,0:0:0:0:
190,253,34812,1,0,0:0:0:0:
210,217,34887,1,0,0:0:0:0:
219,177,34962,1,0,1:0:0:0:
216,136,35037,1,0,0:0:0:0:
201,98,35112,1,0,0:0:0:0:
176,64,35187,1,0,0:0:0:0:
138,48,35262,69,2,1:2:0:0:
129,89,35337,1,0,0:0:0:0:
132,130,35412,1,0,0:0:0:0:
147,168,35487,1,0,0:0:0:0:
172,202,35562,2,0,P|227:175|234:166,1,41.4100006318665,0|0,1:0|0:0,0:0:0:0:
342,103,35712,2,0,P|397:129|404:138,1,41.4100006318665,0|0,1:0|0:0,0:0:0:0:
449,259,35862,5,6,1:2:0:0:
410,246,35937,1,0,2:0:0:0:
369,245,36012,1,0,2:0:0:0:
329,256,36087,1,0,2:0:0:0:
294,278,36162,1,0,1:0:0:0:
255,290,36237,1,0,2:0:0:0:
214,291,36312,1,0,2:0:0:0:
174,280,36387,1,0,2:0:0:0:
139,258,36462,1,0,1:0:0:0:
118,223,36537,1,0,2:0:0:0:
112,182,36612,1,0,2:0:0:0:
122,142,36687,1,0,2:0:0:0:
148,110,36762,1,0,1:0:0:0:
184,91,36837,1,0,2:0:0:0:
225,87,36912,1,0,2:0:0:0:
264,100,36987,1,0,2:0:0:0:
295,128,37062,1,0,1:0:0:0:
313,164,37137,1,0,2:0:0:0:
312,205,37212,1,0,2:0:0:0:
291,240,37287,1,0,2:0:0:0:
255,261,37362,1,0,1:0:0:0:
214,261,37437,1,0,2:0:0:0:
178,242,37512,1,0,2:0:0:0:
156,207,37587,1,0,2:0:0:0:
154,166,37662,70,0,P|178:155|210:155,3,41.41,2|0|0|0,1:2|2:0|2:0|2:0,2:0:0:0:
309,22,37962,2,0,L|301:63,1,41.41,0|0,1:0|2:0,2:0:0:0:
394,173,38112,2,0,L|379:252,1,41.41,0|0,1:0|2:0,2:0:0:0:
381,339,38262,5,6,1:2:0:0:
333,359,38337,1,0,2:0:0:0:
282,359,38412,1,0,1:0:0:0:
236,338,38487,1,0,2:0:0:0:
197,304,38562,1,0,1:0:0:0:
149,284,38637,1,0,2:0:0:0:
98,284,38712,1,0,1:0:0:0:
52,305,38787,1,0,2:0:0:0:
17,349,38862,69,0,1:0:0:0:
59,379,38937,1,0,2:0:0:0:
109,389,39012,1,0,1:0:0:0:
158,376,39087,1,0,2:0:0:0:
197,343,39162,1,0,1:0:0:0:
218,296,39237,1,0,1:0:0:0:
217,245,39312,1,0,1:0:0:0:
194,200,39387,1,0,1:0:0:0:
154,168,39462,6,0,P|117:177|80:192,1,61.61,6|0,1:2|2:0,2:0:0:0:
265,61,39612,2,0,P|295:66|324:76,1,61.61,0|0,1:0|2:0,2:0:0:0:
133,0,39762,2,0,P|138:29|149:59,1,61.61,0|0,1:0|2:0,2:0:0:0:
258,238,39912,2,0,P|268:208|273:178,1,61.61,0|0,1:0|2:0,2:0:0:0:
416,4,40062,69,0,1:0:0:0:
469,50,40137,1,0,1:0:0:0:
486,118,40212,1,0,1:0:0:0:
461,184,40287,1,0,1:0:0:0:
402,223,40362,1,0,1:0:0:0:
341,255,40437,1,0,1:0:0:0:
329,323,40512,1,0,1:0:0:0:
376,374,40587,1,0,1:0:0:0:
445,368,40662,6,0,P|438:339|429:301,3,41.41,6|0|0|0,1:2|2:0|2:0|2:0,2:0:0:0:
350,214,40962,2,0,P|345:234|340:254,3,41.41,0|0|0|0,1:0|2:0|2:0|2:0,2:0:0:0:
226,384,41262,2,0,P|219:355|210:317,3,41.41,0|0|0|0,1:0|2:0|2:0|2:0,2:0:0:0:
139,195,41562,2,0,P|134:215|129:235,3,41.41,0|0|0|0,1:0|2:0|2:0|2:0,2:0:0:0:
45,95,41862,69,2,1:2:0:0:
75,67,41937,1,0,0:0:0:0:
113,51,42012,1,0,0:0:0:0:
154,48,42087,1,0,0:0:0:0:
194,59,42162,1,0,1:0:0:0:
228,83,42237,1,0,0:0:0:0:
253,116,42312,1,0,0:0:0:0:
265,155,42387,1,0,0:0:0:0:
264,196,42462,1,0,1:0:0:0:
273,234,42537,1,0,0:0:0:0:
285,273,42612,1,0,0:0:0:0:
310,306,42687,1,0,0:0:0:0:
344,330,42762,1,0,1:0:0:0:
384,341,42837,1,0,0:0:0:0:
425,338,42912,1,0,0:0:0:0:
463,322,42987,1,0,0:0:0:0:
493,294,43062,5,2,1:2:0:0:
472,259,43137,1,0,0:0:0:0:
437,236,43212,1,0,0:0:0:0:
397,230,43287,1,0,0:0:0:0:
357,241,43362,1,0,1:0:0:0:
326,268,43437,1,0,0:0:0:0:
310,306,43512,1,0,0:0:0:0:
284,338,43587,1,0,0:0:0:0:
250,359,43662,1,0,1:0:0:0:
209,367,43737,1,0,0:0:0:0:
168,359,43812,1,0,0:0:0:0:
133,338,43887,1,0,0:0:0:0:
107,306,43962,1,0,1:0:0:0:
95,266,44037,1,0,0:0:0:0:
97,225,44112,1,0,0:0:0:0:
114,187,44187,1,0,0:0:0:0:
142,158,44262,70,0,P|162:153|182:148,3,41.41,2|0|0|0,1:2|2:0|2:0|2:0,2:0:0:0:
288,177,44562,2,0,P|308:172|328:167,3,41.41,0|0|0|0,1:2|2:0|2:0|2:0,2:0:0:0:
439,195,44862,2,0,P|459:190|479:185,3,41.41,0|0|0|0,1:2|2:0|2:0|2:0,2:0:0:0:
307,383,45162,6,0,L|297:319,1,41.4100006318665,0|0,1:0|0:0,0:0:0:0:
200,259,45312,2,0,L|190:195,1,41.4100006318665,0|0,1:0|0:0,0:0:0:0:
217,82,45462,69,6,1:2:0:0:
249,56,45537,1,0,2:0:0:0:
289,46,45612,1,0,2:0:0:0:
329,51,45687,1,0,2:0:0:0:
365,72,45762,1,0,1:0:0:0:
389,105,45837,1,0,2:0:0:0:
399,145,45912,1,0,2:0:0:0:
392,186,45987,1,0,2:0:0:0:
371,221,46062,1,0,1:0:0:0:
337,245,46137,1,0,2:0:0:0:
297,253,46212,1,0,2:0:0:0:
256,246,46287,1,0,2:0:0:0:
222,223,46362,1,0,1:0:0:0:
188,199,46437,1,0,2:0:0:0:
148,190,46512,1,0,2:0:0:0:
107,198,46587,1,0,2:0:0:0:
73,220,46662,5,2,1:2:0:0:
87,259,46737,1,0,0:0:0:0:
115,288,46812,1,0,0:0:0:0:
154,303,46887,1,0,0:0:0:0:
195,300,46962,1,0,1:0:0:0:
231,280,47037,1,0,0:0:0:0:
256,245,47112,1,0,0:0:0:0:
278,210,47187,1,0,0:0:0:0:
312,188,47262,1,0,1:0:0:0:
353,184,47337,1,0,0:0:0:0:
392,199,47412,1,0,0:0:0:0:
419,229,47487,1,0,0:0:0:0:
431,268,47562,1,0,1:0:0:0:
424,309,47637,1,0,0:0:0:0:
400,342,47712,1,0,0:0:0:0:
363,360,47787,1,0,0:0:0:0:
322,361,47862,69,2,1:2:0:0:
311,322,47937,1,0,0:0:0:0:
313,280,48012,1,0,0:0:0:0:
328,242,48087,1,0,0:0:0:0:
355,211,48162,1,0,1:0:0:0:
371,173,48237,1,0,0:0:0:0:
373,132,48312,1,0,0:0:0:0:
359,93,48387,1,0,0:0:0:0:
333,62,48462,1,0,1:0:0:0:
297,42,48537,1,0,0:0:0:0:
256,36,48612,1,0,0:0:0:0:
216,46,48687,1,0,0:0:0:0:
182,70,48762,1,0,1:0:0:0:
159,104,48837,1,0,0:0:0:0:
150,144,48912,1,0,0:0:0:0:
156,185,48987,1,0,0:0:0:0:
175,220,49062,6,0,P|182:197|187:171,3,41.41,2|0|0|0,1:2|2:0|2:0|2:0,2:0:0:0:
113,310,49362,2,0,P|93:315|74:322,3,41.41,0|0|0|0,1:0|2:0|2:0|2:0,2:0:0:0:
223,306,49662,2,0,P|237:321|253:335,3,41.41,0|0|0|0,1:0|2:0|2:0|2:0,2:0:0:0:
265,91,49962,70,0,P|286:83|321:84,1,41.41,0|0,1:0|2:0,2:0:0:0:
356,242,50112,2,0,P|336:249|316:251,1,41.41,0|0,1:0|2:0,2:0:0:0:
94,182,50262,5,6,1:2:0:0:
128,159,50337,1,0,2:0:0:0:
169,154,50412,1,0,2:0:0:0:
208,165,50487,1,0,2:0:0:0:
240,192,50562,1,0,1:0:0:0:
274,214,50637,1,0,2:0:0:0:
315,219,50712,1,0,2:0:0:0:
354,208,50787,1,0,2:0:0:0:
386,181,50862,69,2,1:2:0:0:
357,151,50937,1,0,2:0:0:0:
319,136,51012,1,0,2:0:0:0:
278,139,51087,1,0,2:0:0:0:
242,159,51162,1,0,1:0:0:0:
219,193,51237,1,0,2:0:0:0:
212,233,51312,1,0,2:0:0:0:
223,273,51387,1,0,2:0:0:0:
250,304,51462,5,2,1:2:0:0:
276,273,51537,1,0,2:0:0:0:
288,233,51612,1,0,2:0:0:0:
281,193,51687,1,0,2:0:0:0:
257,159,51762,1,0,1:0:0:0:
221,139,51837,1,0,2:0:0:0:
181,136,51912,1,0,2:0:0:0:
142,150,51987,1,0,2:0:0:0:
114,180,52062,69,2,1:2:0:0:
142,210,52137,1,0,2:0:0:0:
181,224,52212,1,0,2:0:0:0:
221,221,52287,1,0,2:0:0:0:
257,201,52362,1,0,1:0:0:0:
281,167,52437,1,0,2:0:0:0:
288,127,52512,1,0,2:0:0:0:
276,87,52587,1,0,2:0:0:0:
250,56,52662,5,2,1:2:0:0:
224,87,52737,1,0,2:0:0:0:
212,127,52812,1,0,2:0:0:0:
219,167,52887,1,0,2:0:0:0:
243,201,52962,1,0,1:0:0:0:
279,221,53037,1,0,2:0:0:0:
319,224,53112,1,0,2:0:0:0:
359,216,53187,1,0,2:0:0:0:
398,227,53262,1,0,1:0:0:0:
428,257,53337,1,0,2:0:0:0:
441,296,53412,1,0,2:0:0:0:
436,336,53487,1,0,2:0:0:0:
412,370,53562,1,2,1:2:0:0:
376,389,53637,1,0,2:0:0:0:
335,390,53712,1,0,2:0:0:0:
298,373,53787,1,0,2:0:0:0:
273,340,53862,70,0,P|276:316|282:290,3,41.41,2|0|0|0,1:2|2:0|2:0|2:0,2:0:0:0:
331,163,54162,2,0,P|312:171|293:177,3,41.41,0|0|0|0,1:0|2:0|2:0|2:0,2:0:0:0:
153,201,54462,2,0,P|169:213|185:227,3,41.41,0|0|0|0,1:0|2:0|2:0|2:0,2:0:0:0:
14,342,54762,2,0,L|22:299,1,41.41,0|0,1:0|2:0,2:0:0:0:
15,201,54912,2,0,L|23:158,1,41.41,0|0,1:0|1:0,2:0:0:0:
2,60,55062,5,6,1:2:0:0:
61,32,55137,1,0,2:0:0:0:
128,40,55212,1,0,1:0:0:0:
178,82,55287,1,0,2:0:0:0:
204,142,55362,1,0,1:0:0:0:
226,203,55437,1,0,2:0:0:0:
278,243,55512,1,0,1:0:0:0:
344,247,55587,1,0,2:0:0:0:
399,214,55662,1,0,1:0:0:0:
431,157,55737,1,0,2:0:0:0:
424,92,55812,1,0,1:0:0:0:
382,39,55887,1,0,2:0:0:0:
320,20,55962,1,0,1:0:0:0:
256,35,56037,1,0,2:0:0:0:
218,91,56112,1,0,1:0:0:0:
221,154,56187,1,0,1:0:0:0:
262,203,56262,69,6,1:2:0:0:
300,256,56337,1,0,2:0:0:0:
295,322,56412,1,0,1:0:0:0:
251,371,56487,1,0,2:0:0:0:
186,380,56562,1,0,1:0:0:0:
128,346,56637,1,0,2:0:0:0:
98,289,56712,1,0,1:0:0:0:
106,221,56787,1,0,2:0:0:0:
149,172,56862,1,0,1:0:0:0:
212,152,56937,1,0,2:0:0:0:
274,171,57012,1,0,1:0:0:0:
317,220,57087,1,0,2:0:0:0:
329,284,57162,1,0,1:0:0:0:
379,326,57237,1,0,2:0:0:0:
444,322,57312,1,0,1:0:0:0:
493,279,57387,1,0,1:0:0:0:
496,213,57462,5,6,1:2:0:0:
433,177,57537,1,0,2:0:0:0:
359,176,57612,1,0,1:0:0:0:
298,211,57687,1,0,2:0:0:0:
259,272,57762,1,0,1:0:0:0:
199,313,57837,1,0,2:0:0:0:
128,316,57912,1,0,1:0:0:0:
66,279,57987,1,0,1:0:0:0:
39,213,58062,1,0,1:0:0:0:
51,142,58137,1,0,2:0:0:0:
100,92,58212,1,0,1:0:0:0:
170,78,58287,1,0,2:0:0:0:
237,105,58362,1,0,1:0:0:0:
284,161,58437,1,0,2:0:0:0:
350,187,58512,1,0,1:0:0:0:
422,174,58587,1,0,1:0:0:0:
469,123,58662,69,6,1:2:0:0:
432,55,58737,1,0,2:0:0:0:
357,38,58812,1,0,1:0:0:0:
297,85,58887,1,0,1:0:0:0:
284,161,58962,1,0,1:0:0:0:
245,225,59037,1,0,2:0:0:0:
171,243,59112,1,0,1:0:0:0:
109,200,59187,1,0,1:0:0:0:
123,126,59262,5,6,1:2:0:0:
200,130,59337,1,0,1:0:0:0:
260,181,59412,1,0,1:0:0:0:
281,255,59487,1,0,1:0:0:0:
256,329,59562,1,0,1:0:0:0:
195,376,59637,1,0,1:0:0:0:
119,380,59712,1,0,1:0:0:0:
51,341,59787,1,0,1:0:0:0:
18,269,59862,22,0,P|19:204|52:150,1,113.120001380859,6|0,1:2|2:0,2:0:0:0:
370,278,60162,2,0,P|369:343|336:397,1,113.120001380859,0|0,1:2|2:0,2:0:0:0:
308,94,60462,2,0,P|372:-3|489:32,1,226.24,2|0,1:2|1:0,2:0:0:0:
289,237,60912,1,0,2:0:0:0:
98,101,61062,69,0,1:0:0:0:
143,68,61137,1,0,2:0:0:0:
199,61,61212,1,0,2:0:0:0:
252,80,61287,1,0,2:0:0:0:
289,122,61362,1,0,1:0:0:0:
334,154,61437,1,0,2:0:0:0:
390,161,61512,1,0,2:0:0:0:
443,142,61587,1,0,2:0:0:0:
480,100,61662,6,0,P|427:28|337:52,1,169.68,2|2,1:2|2:0,2:0:0:0:
289,122,61962,2,0,L|313:252,1,113.12,0|2,1:0|2:0,2:0:0:0:
38,382,62262,69,6,1:2:0:0:
48,313,62337,1,0,0:0:0:0:
97,266,62412,1,0,0:0:0:0:
165,258,62487,1,0,0:0:0:0:
223,293,62562,1,0,1:0:0:0:
281,327,62637,1,0,0:0:0:0:
348,319,62712,1,0,0:0:0:0:
398,272,62787,1,0,0:0:0:0:
408,204,62862,5,2,1:2:0:0:
350,170,62937,1,0,0:0:0:0:
283,178,63012,1,0,0:0:0:0:
233,225,63087,1,0,0:0:0:0:
223,293,63162,1,0,1:0:0:0:
257,350,63237,1,0,0:0:0:0:
318,376,63312,1,0,0:0:0:0:
383,360,63387,1,0,0:0:0:0:
426,309,63462,1,0,1:0:0:0:
418,243,63537,1,0,0:0:0:0:
363,203,63612,1,0,0:0:0:0:
297,211,63687,1,0,0:0:0:0:
256,262,63762,1,0,1:0:0:0:
245,327,63837,1,0,0:0:0:0:
193,367,63912,1,0,0:0:0:0:
127,359,63987,1,0,0:0:0:0:
85,308,64062,69,2,1:2:0:0:
96,243,64137,1,0,0:0:0:0:
148,203,64212,1,0,0:0:0:0:
214,211,64287,1,0,0:0:0:0:
256,262,64362,1,0,1:0:0:0:
310,299,64437,1,0,0:0:0:0:
375,287,64512,1,0,1:0:0:0:
413,233,64587,1,0,0:0:0:0:
396,172,64662,6,0,P|343:147|265:157,1,113.120001380859,6|0,1:2|2:0,2:0:0:0:
95,384,64962,2,0,P|143:350|173:278,1,113.120001380859,0|0,1:0|2:0,2:0:0:0:
92,0,65262,2,0,P|91:113|212:185,1,226.240002761719,2|0,1:2|1:0,2:0:0:0:
225,47,65712,1,0,2:0:0:0:
68,251,65862,69,0,1:0:0:0:
104,295,65937,1,0,2:0:0:0:
155,318,66012,1,0,2:0:0:0:
211,314,66087,1,0,2:0:0:0:
259,286,66162,1,0,1:0:0:0:
294,242,66237,1,0,2:0:0:0:
346,219,66312,1,0,2:0:0:0:
401,223,66387,1,0,2:0:0:0:
449,252,66462,6,0,P|422:340|342:332,1,169.68,2|2,1:2|2:0,2:0:0:0:
294,242,66762,2,0,L|321:95,1,113.12,0|2,1:0|2:0,2:0:0:0:
134,10,67062,69,6,1:2:0:0:
80,47,67137,1,0,0:0:0:0:
65,111,67212,1,0,0:0:0:0:
93,170,67287,1,0,0:0:0:0:
152,197,67362,1,0,1:0:0:0:
205,236,67437,1,0,0:0:0:0:
221,298,67512,1,0,0:0:0:0:
192,357,67587,1,0,0:0:0:0:
134,384,67662,5,2,1:2:0:0:
75,351,67737,1,0,0:0:0:0:
48,290,67812,1,0,0:0:0:0:
62,225,67887,1,0,0:0:0:0:
112,181,67962,1,0,1:0:0:0:
178,176,68037,1,0,0:0:0:0:
235,211,68112,1,0,0:0:0:0:
259,273,68187,1,0,0:0:0:0:
285,335,68262,1,0,1:0:0:0:
341,372,68337,1,0,0:0:0:0:
407,370,68412,1,0,0:0:0:0:
461,330,68487,1,0,0:0:0:0:
483,267,68562,1,0,1:0:0:0:
465,203,68637,1,0,0:0:0:0:
414,160,68712,1,0,0:0:0:0:
347,158,68787,1,0,0:0:0:0:
291,194,68862,2,0,P|283:284|313:348,1,113.120001380859,0|0,1:2|0:0,0:0:0:0:
427,58,69162,69,2,1:2:0:0:
427,58,69237,1,0,1:0:0:0:
427,58,69312,1,0,1:0:0:0:
427,58,69387,1,0,1:0:0:0:
427,58,69462,6,0,P|344:44|290:12,1,113.120001380859,6|0,1:2|0:0,0:0:0:0:
92,195,69762,2,0,P|175:181|229:149,1,113.120001380859,0|0,1:0|0:0,0:0:0:0:
483,363,70062,2,0,P|389:356|346:242,1,226.240002761719,2|0,1:2|1:0,0:0:0:0:
252,382,70512,1,0,2:0:0:0:
496,168,70662,69,0,1:0:0:0:
440,157,70737,1,0,2:0:0:0:
385,167,70812,1,0,2:0:0:0:
335,194,70887,1,0,2:0:0:0:
298,236,70962,1,0,1:0:0:0:
244,252,71037,1,0,2:0:0:0:
188,251,71112,1,0,2:0:0:0:
135,232,71187,1,0,2:0:0:0:
92,195,71262,6,0,P|94:110|187:74,1,169.68,2|2,1:2|2:0,2:0:0:0:
209,139,71562,2,0,L|183:276,1,113.12,0|2,1:0|2:0,2:0:0:0:
438,348,71862,69,6,1:2:0:0:
494,312,71937,1,0,0:0:0:0:
512,251,72012,1,0,0:0:0:0:
512,185,72087,1,0,0:0:0:0:
475,132,72162,1,0,1:0:0:0:
412,109,72237,1,0,0:0:0:0:
347,122,72312,1,0,0:0:0:0:
298,168,72387,1,0,0:0:0:0:
281,233,72462,5,2,1:2:0:0:
348,241,72537,1,0,0:0:0:0:
406,208,72612,1,0,0:0:0:0:
432,147,72687,1,0,0:0:0:0:
418,82,72762,1,0,1:0:0:0:
367,38,72837,1,0,0:0:0:0:
301,33,72912,1,0,0:0:0:0:
244,68,72987,1,0,0:0:0:0:
223,132,73062,1,0,1:0:0:0:
176,179,73137,1,0,0:0:0:0:
110,182,73212,1,0,0:0:0:0:
61,138,73287,1,0,0:0:0:0:
55,72,73362,1,0,1:0:0:0:
101,24,73437,1,0,0:0:0:0:
167,21,73512,1,0,0:0:0:0:
216,65,73587,1,0,0:0:0:0:
222,131,73662,69,2,1:2:0:0:
276,92,73737,1,0,0:0:0:0:
343,89,73812,1,0,0:0:0:0:
402,121,73887,1,0,0:0:0:0:
435,179,73962,1,0,1:0:0:0:
431,246,74037,1,0,1:0:0:0:
393,301,74112,1,0,1:0:0:0:
331,328,74187,1,0,1:0:0:0:
265,318,74262,5,6,1:2:0:0:
422,27,74412,1,0,1:0:0:0:
222,131,74562,1,0,1:0:0:0:
497,322,74712,1,0,1:0:0:0:
372,150,74862,1,2,1:2:0:0:
178,384,75012,1,0,1:0:0:0:
393,301,75162,1,0,1:0:0:0:
129,166,75312,1,0,1:0:0:0:
129,166,75387,1,0,1:0:0:0:
129,166,75462,69,4,1:2:0:0:
271,3,75612,1,0,1:0:0:0:
114,310,75762,1,0,1:0:0:0:
0,62,75912,1,0,1:0:0:0:
315,137,76062,1,2,1:2:0:0:
212,384,76212,1,0,1:0:0:0:
129,166,76362,1,0,1:0:0:0:
411,366,76512,1,2,1:2:0:0:
411,366,76587,1,0,1:0:0:0:
411,366,76662,6,0,P|440:305|426:238,1,113.120001380859,2|0,1:2|1:0,0:0:0:0:
114,310,76962,1,0,1:0:0:0:
283,129,77112,1,0,1:0:0:0:
283,129,77187,1,0,1:0:0:0:
283,129,77262,2,0,L|268:253,1,113.12,6|0,1:2|2:0,2:0:0:0:
339,287,77487,2,0,P|351:261|351:233,1,56.56,4|0,1:2|2:0,2:0:0:0:
121,117,77712,69,0,1:0:0:0:
127,152,77787,1,0,1:0:0:0:
135,189,77862,1,4,1:2:0:0:
409,365,78012,5,0,1:0:0:0:
417,328,78087,1,0,1:0:0:0:
423,293,78162,1,6,1:2:0:0:
312,0,78312,69,0,1:0:0:0:
252,37,78387,1,0,1:0:0:0:
225,100,78462,1,2,1:2:0:0:
240,168,78537,1,0,1:0:0:0:
290,215,78612,1,0,1:0:0:0:
313,279,78687,1,0,1:0:0:0:
288,344,78762,1,2,1:2:0:0:
233,382,78837,1,0,1:0:0:0:
163,376,78912,1,0,1:0:0:0:
111,332,78987,1,0,1:0:0:0:
97,265,79062,1,6,1:2:0:0:
436,69,80262,21,2,2:0:0:0:
296,348,80862,1,2,2:0:0:0:
84,96,81462,1,2,2:0:0:0:
432,256,82662,5,2,2:0:0:0:
278,67,82962,1,2,2:0:0:0:
206,305,83262,2,0,P|252:283|321:268,2,96.9599999999999,2|2|2,2:0|2:0|2:0,2:0:0:0:
294,175,83862,69,2,2:0:0:0:
121,343,84462,1,2,2:0:0:0:
495,112,85062,6,0,B|353:28|193:139|305:247|146:366|12:259,1,581.760014203125,6|0,1:2|2:0,2:0:0:0:
