osu file format v14

[General]
AudioFilename: audio.mp3
AudioLeadIn: 0
PreviewTime: 59787
Countdown: 0
SampleSet: Soft
StackLeniency: 0.7
Mode: 0
LetterboxInBreaks: 0
WidescreenStoryboard: 1

[Editor]
Bookmarks: 2262,21462,59862,79062
DistanceSpacing: 0.5
BeatDivisor: 4
GridSize: 32
TimelineZoom: 3.599998

[Metadata]
Title:Blue Zenith (Cut Ver.)
TitleUnicode:Blue Zenith (Cut Ver.)
Artist:xi
ArtistUnicode:xi
Creator:Sotarks
Version:Kujinn's Expert
Source:
Tags:parousia electronic instrumental short edit version wysi 727 featured artist fa akitoshi corinn pepekcz sanairrt kowari -laura uberfazz kujinn reform sytho matthewrigaud11 armin A_r_M_i_N schoolboy komore nino snownino_ vaporfly red crewmate god haachama
BeatmapID:3561624
BeatmapSetID:1737645

[Difficulty]
HPDrainRate:6.2
CircleSize:3.8
OverallDifficulty:8.6
ApproachRate:9.2
SliderMultiplier:1.82
SliderTickRate:1

[Events]
//Background and Video events
0,0,"727.jpg",0,0
//Break Periods
//Storyboard Layer 0 (Background)
//Storyboard Layer 1 (Fail)
//Storyboard Layer 2 (Pass)
//Storyboard Layer 3 (Foreground)
//Storyboard Layer 4 (Overlay)
//Storyboard Sound Samples

[TimingPoints]
2262,300,4,2,1,52,1,0
2262,-222.222222222221,4,2,1,52,0,0
7062,-153.846153846153,4,2,1,52,0,0
10962,-117.647058823529,4,2,1,52,0,0
16662,-95.238095238095,4,2,1,52,0,0
17562,-117.647058823529,4,2,1,52,0,0
17862,-95.238095238095,4,2,1,52,0,0
19062,-95.238095238095,4,2,1,62,0,0
20412,-117.647058823529,4,2,1,62,0,0
21462,-105.263157894737,4,2,2,72,0,0
21537,-105.263157894737,4,2,1,72,0,0
21912,-105.263157894737,4,2,1,72,0,0
22662,-105.263157894737,4,2,3,72,0,0
22737,-105.263157894737,4,2,1,72,0,0
22812,-105.263157894737,4,2,1,72,0,0
23862,-105.263157894737,4,2,4,72,0,0
23937,-105.263157894737,4,2,1,72,0,0
24312,-105.263157894737,4,2,1,72,0,0
25062,-105.263157894737,4,2,5,72,0,0
25137,-105.263157894737,4,2,1,72,0,0
25212,-105.263157894737,4,2,1,72,0,0
26262,-105.263157894737,4,2,2,72,0,0
26337,-105.263157894737,4,2,1,72,0,0
26712,-105.263157894737,4,2,1,72,0,0
27462,-105.263157894737,4,2,3,72,0,0
27537,-105.263157894737,4,2,1,72,0,0
27612,-105.263157894737,4,2,1,72,0,0
28662,-105.263157894737,4,2,6,72,0,0
28737,-105.263157894737,4,2,1,72,0,0
29112,-105.263157894737,4,2,1,72,0,0
29862,-105.263157894737,4,2,4,72,0,0
29937,-105.263157894737,4,2,1,72,0,0
30012,-105.263157894737,4,2,1,72,0,0
31062,-105.263157894737,4,2,7,72,0,0
31137,-105.263157894737,4,2,1,72,0,0
31512,-105.263157894737,4,2,1,72,0,0
32262,-105.263157894737,4,2,6,72,0,0
32337,-105.263157894737,4,2,1,72,0,0
32712,-105.263157894737,4,2,1,72,0,0
33462,-105.263157894737,4,2,7,72,0,0
33537,-105.263157894737,4,2,1,72,0,0
33612,-105.263157894737,4,2,1,72,0,0
34662,-105.263157894737,4,2,8,72,0,0
34737,-105.263157894737,4,2,1,72,0,0
34812,-105.263157894737,4,2,1,72,0,0
35262,-105.263157894737,4,2,9,72,0,0
35337,-105.263157894737,4,2,1,72,0,0
35862,-105.263157894737,4,2,6,72,0,0
35937,-105.263157894737,4,2,1,72,0,0
36012,-105.263157894737,4,2,1,72,0,0
37662,-105.263157894737,4,2,10,72,0,0
37737,-105.263157894737,4,2,1,72,0,0
38262,-105.263157894737,4,2,3,72,0,0
38337,-105.263157894737,4,2,1,72,0,0
39462,-105.263157894737,4,2,7,72,0,0
39537,-105.263157894737,4,2,1,72,0,0
40137,-105.263157894737,4,2,1,72,0,0
40662,-105.263157894737,4,2,2,72,0,0
40737,-105.263157894737,4,2,1,72,0,0
41112,-105.263157894737,4,2,1,72,0,0
41862,-105.263157894737,4,2,3,72,0,0
41937,-105.263157894737,4,2,1,72,0,0
42012,-105.263157894737,4,2,1,72,0,0
43062,-105.263157894737,4,2,2,72,0,0
43137,-105.263157894737,4,2,1,72,0,0
43512,-105.263157894737,4,2,1,72,0,0
44262,-105.263157894737,4,2,6,72,0,0
44337,-105.263157894737,4,2,1,72,0,0
44412,-105.263157894737,4,2,1,72,0,0
45462,-105.263157894737,4,2,6,72,0,0
45537,-105.263157894737,4,2,1,72,0,0
45912,-105.263157894737,4,2,1,72,0,0
46662,-105.263157894737,4,2,7,72,0,0
46737,-105.263157894737,4,2,1,72,0,0
46812,-105.263157894737,4,2,1,72,0,0
47862,-105.263157894737,4,2,7,72,0,0
47937,-105.263157894737,4,2,1,72,0,0
48312,-105.263157894737,4,2,1,72,0,0
49062,-105.263157894737,4,2,11,72,0,0
49137,-105.263157894737,4,2,1,72,0,0
49212,-105.263157894737,4,2,1,72,0,0
50862,-105.263157894737,4,2,8,72,0,0
50937,-105.263157894737,4,2,1,72,0,0
51012,-105.263157894737,4,2,1,72,0,0
51462,-105.263157894737,4,2,9,72,0,0
51537,-105.263157894737,4,2,1,72,0,0
51612,-105.263157894737,4,2,1,72,0,0
52062,-105.263157894737,4,2,12,72,0,0
52137,-105.263157894737,4,2,1,72,0,0
52212,-105.263157894737,4,2,1,72,0,0
52662,-105.263157894737,4,2,7,72,0,0
52737,-105.263157894737,4,2,1,72,0,0
53112,-105.263157894737,4,2,1,72,0,0
53862,-105.263157894737,4,2,2,72,0,0
53937,-105.263157894737,4,2,1,72,0,0
54012,-105.263157894737,4,2,1,72,0,0
55062,-105.263157894737,4,2,6,72,0,0
55137,-105.263157894737,4,2,1,72,0,0
57387,-105.263157894737,4,2,1,72,0,0
57462,-105.263157894737,4,2,13,72,0,0
57537,-105.263157894737,4,2,1,72,0,0
57987,-105.263157894737,4,2,1,72,0,0
58662,-105.263157894737,4,2,14,72,0,0
58737,-105.263157894737,4,2,1,72,0,0
58849,-105.263157894737,4,2,1,72,0,0
59262,-105.263157894737,4,2,15,72,0,0
59337,-105.263157894737,4,2,1,72,0,0
59599,-105.263157894737,4,2,1,72,0,0
59862,-86.9565217391306,4,2,16,82,0,0
60012,-86.9565217391306,4,2,1,82,0,0
60312,-86.9565217391306,4,2,1,82,0,0
60462,-86.9565217391306,4,2,2,82,0,0
60612,-86.9565217391306,4,2,2,82,0,0
60912,-86.9565217391306,4,2,1,82,0,0
61662,-86.9565217391306,4,2,17,82,0,0
61887,-86.9565217391306,4,2,18,82,0,0
61962,-86.9565217391306,4,2,1,82,0,0
62112,-86.9565217391306,4,2,19,82,0,0
62262,-86.9565217391306,4,2,20,82,0,0
62337,-86.9565217391306,4,2,1,82,0,0
62412,-86.9565217391306,4,2,1,82,0,0
62862,-86.9565217391306,4,2,2,82,0,0
62937,-86.9565217391306,4,2,1,82,0,0
63312,-86.9565217391306,4,2,1,82,0,0
64062,-86.9565217391306,4,2,16,82,0,0
64137,-86.9565217391306,4,2,1,82,0,0
64212,-86.9565217391306,4,2,1,82,0,0
64662,-86.9565217391306,4,2,16,82,0,0
64812,-86.9565217391306,4,2,1,82,0,0
65112,-86.9565217391306,4,2,1,82,0,0
65262,-86.9565217391306,4,2,2,82,0,0
65412,-86.9565217391306,4,2,2,82,0,0
65562,-86.9565217391306,4,2,1,82,0,0
66462,-86.9565217391306,4,2,21,82,0,0
66687,-86.9565217391306,4,2,17,82,0,0
66912,-86.9565217391306,4,2,18,82,0,0
67062,-86.9565217391306,4,2,15,82,0,0
67137,-86.9565217391306,4,2,1,82,0,0
67212,-86.9565217391306,4,2,1,82,0,0
67662,-86.9565217391306,4,2,22,82,0,0
68862,-86.9565217391306,4,2,23,82,0,0
69012,-86.9565217391306,4,2,1,82,0,0
69162,-86.9565217391306,4,2,23,82,0,0
69462,-86.9565217391306,4,2,16,82,0,0
69612,-86.9565217391306,4,2,1,82,0,0
69912,-86.9565217391306,4,2,1,82,0,0
70062,-86.9565217391306,4,2,2,82,0,0
70212,-86.9565217391306,4,2,2,82,0,0
70512,-86.9565217391306,4,2,1,82,0,0
71262,-86.9565217391306,4,2,17,82,0,0
71487,-86.9565217391306,4,2,18,82,0,0
71562,-86.9565217391306,4,2,1,82,0,0
71712,-86.9565217391306,4,2,19,82,0,0
71862,-86.9565217391306,4,2,20,82,0,0
71937,-86.9565217391306,4,2,1,82,0,0
72012,-86.9565217391306,4,2,1,82,0,0
72462,-86.9565217391306,4,2,2,82,0,0
72537,-86.9565217391306,4,2,1,82,0,0
72912,-86.9565217391306,4,2,1,82,0,0
73662,-86.9565217391306,4,2,16,82,0,0
73737,-86.9565217391306,4,2,1,82,0,0
73812,-86.9565217391306,4,2,1,82,0,0
74262,-86.9565217391306,4,2,16,82,0,0
74862,-86.9565217391306,4,2,2,82,0,0
75387,-86.9565217391306,4,2,1,82,0,0
76062,-86.9565217391306,4,2,17,82,0,0
76512,-86.9565217391306,4,2,19,82,0,0
76662,-86.9565217391306,4,2,20,82,0,0
77262,-86.9565217391306,4,2,24,82,0,0
77412,-86.9565217391306,4,2,1,82,0,0
77562,-86.9565217391306,4,2,1,82,0,0
78162,-86.9565217391306,4,2,25,82,0,0
78387,-86.9565217391306,4,2,1,82,0,0
78462,-86.9565217391306,4,2,26,82,0,0
78537,-86.9565217391306,4,2,1,82,0,0
78762,-86.9565217391306,4,2,25,82,0,0
78837,-86.9565217391306,4,2,1,82,0,0
79062,-86.9565217391306,4,2,27,62,0,0
80262,-153.846153846154,4,2,28,62,0,0
80862,-153.846153846154,4,2,29,62,0,0
81462,-153.846153846154,4,2,22,62,0,0
82662,-153.846153846154,4,2,18,62,0,0
82962,-153.846153846154,4,2,19,62,0,0
83462,-153.846153846154,4,2,30,62,0,0
83662,-153.846153846154,4,2,18,62,0,0
83862,-153.846153846154,4,2,29,62,0,0
84462,-153.846153846154,4,2,31,62,0,0
85062,-153.846153846154,4,2,1,62,0,0

[Colours]
Combo1 : 23,198,255
Combo2 : 187,192,198
Combo3 : 130,130,130
Combo4 : 148,156,216
Combo5 : 94,135,204
Combo6 : 11,62,238

[HitObjects]
85,364,2262,6,0,P|78:327|65:280,3,81.9000000000005,4|0|0|0,1:2|1:0|1:0|1:0,0:0:0:0:
142,236,3462,2,0,P|149:273|162:320,3,81.9000000000005,0|0|0|0,1:0|1:0|1:0|1:0,0:0:0:0:
433,290,4662,6,0,P|440:253|453:206,3,81.9000000000005,0|0|0|0,1:0|1:0|1:0|1:0,0:0:0:0:
376,162,5862,2,0,P|369:199|356:246,3,81.9000000000005,0|0|0|0,1:0|1:0|1:0|1:0,0:0:0:0:
212,53,7062,6,0,L|221:6,3,29.5750000000002,2|2|2|2,1:2|2:0|2:0|2:0,2:0:0:0:
218,64,7362,2,0,L|227:17,3,29.5750000000002,2|2|2|2,1:2|2:0|2:0|2:0,2:0:0:0:
224,75,7662,2,0,L|233:28,3,29.5750000000002,2|2|2|2,1:2|2:0|2:0|2:0,2:0:0:0:
230,86,7962,2,0,L|239:39,3,29.5750000000002,2|2|2|2,1:2|2:0|2:0|2:0,2:0:0:0:
291,144,8262,6,0,P|297:181|302:215,1,59.1500000000003,2|2,1:2|2:0,2:0:0:0:
279,159,8562,2,0,P|285:196|290:230,1,59.1500000000003,2|2,1:2|2:0,2:0:0:0:
159,234,8862,70,0,P|153:271|148:305,1,59.1500000000003,2|2,1:2|2:0,2:0:0:0:
171,249,9162,2,0,P|165:286|160:320,1,59.1500000000003,2|2,1:2|2:0,2:0:0:0:
274,365,9462,54,0,P|335:384|391:341,1,118.300000000001,2|0,1:2|1:0,0:0:0:0:
379,359,10062,2,0,L|416:369,3,29.5750000000002,0|0|0|0,1:0|2:0|2:0|2:0,2:0:0:0:
452,296,10362,2,0,L|415:286,3,29.5750000000002,0|0|0|0,1:0|2:0|2:0|2:0,2:0:0:0:
355,240,10662,5,0,1:0:0:0:
355,240,10737,1,0,2:0:0:0:
355,240,10812,1,0,2:0:0:0:
355,240,10887,1,0,2:0:0:0:
355,240,10962,2,0,P|362:208|368:184,3,38.6750000000001,0|0|0|0,1:0|2:0|2:0|2:0,0:0:0:0:
294,144,11262,2,0,P|301:112|307:88,3,38.6750000000001,0|0|0|0,1:0|2:0|2:0|2:0,2:0:0:0:
391,73,11562,1,0,1:0:0:0:
391,73,11712,1,0,1:0:0:0:
268,18,11862,70,0,P|221:6|149:86,1,154.700000000001,4|0,1:2|1:0,0:0:0:0:
50,130,12312,1,0,2:0:0:0:
50,130,12387,1,0,2:0:0:0:
50,130,12462,2,0,P|62:176|72:224,1,77.3500000000003,0|0,1:0|2:0,2:0:0:0:
164,284,12762,2,0,P|156:319|153:338,3,38.6750000000001,0|0|0|0,1:0|0:0|2:0|0:0,0:0:0:0:
172,348,13062,6,0,P|215:385|287:361,1,116.025,0|0,1:0|2:0,0:0:0:0:
302,365,13362,2,0,P|294:314|284:267,1,77.3500000000003,0|0,1:0|2:0,0:0:0:0:
381,201,13662,2,0,P|420:212|461:226,1,77.3500000000003,0|0,1:0|2:0,2:0:0:0:
339,73,13962,2,0,P|314:67|288:58,3,38.6750000000001,0|0|0|0,1:0|2:0|2:0|2:0,2:0:0:0:
279,39,14262,70,0,P|240:62|244:143,1,116.025,0|0,1:0|2:0,2:0:0:0:
251,150,14562,2,0,P|239:195|228:242,1,77.3500000000003,0|0,1:0|2:0,2:0:0:0:
140,293,14862,2,0,P|152:338|163:385,1,77.3500000000003,0|0,1:0|2:0,2:0:0:0:
26,248,15162,1,0,1:0:0:0:
26,248,15237,1,0,0:0:0:0:
26,248,15312,1,0,2:0:0:0:
204,188,15462,6,0,P|152:202|90:103,1,154.700000000001,0|0,1:0|1:0,2:0:0:0:
208,28,15912,1,0,2:0:0:0:
208,28,15987,1,0,0:0:0:0:
208,28,16062,2,0,P|220:74|230:126,1,77.3500000000003,0|0,1:0|2:0,2:0:0:0:
327,236,16362,2,0,P|335:198|345:160,1,77.3500000000003,0|0,1:0|1:0,2:0:0:0:
502,24,16662,6,0,P|475:11|452:-10,3,47.7750000000001,6|2|2|0,1:2|2:0|2:0|0:0,0:0:0:0:
379,30,16962,2,0,P|381:59|374:90,3,47.7750000000001,2|2|2|0,1:2|2:0|2:0|0:0,0:0:0:0:
455,134,17262,2,0,P|479:117|509:107,3,47.7750000000001,2|2|2|0,1:2|2:0|2:0|0:0,0:0:0:0:
401,254,17562,54,0,P|355:242|295:228,1,77.3500000000003,2|2,1:2|1:0,0:0:0:0:
122,335,17862,6,0,P|103:358|77:376,3,47.7750000000001,4|0|0|0,1:2|2:0|2:0|2:0,0:0:0:0:
235,309,18162,2,0,P|264:313|292:326,3,47.7750000000001,0|0|0|0,1:0|2:0|2:0|2:0,0:0:0:0:
159,240,18462,2,0,P|148:212|145:181,3,47.7750000000001,0|0|0|0,1:0|2:0|2:0|2:0,0:0:0:0:
209,109,18762,1,0,1:0:0:0:
209,109,18912,1,0,1:0:0:0:
280,264,19062,69,6,1:2:0:0:
257,189,19212,1,2,2:0:0:0:
354,282,19362,5,2,1:2:0:0:
311,133,19512,1,2,2:0:0:0:
434,296,19662,69,2,2:0:0:0:
367,87,19812,1,2,2:0:0:0:
509,311,19962,5,2,2:0:0:0:
427,42,20112,1,2,2:0:0:0:
354,282,20262,69,6,2:0:0:0:
479,121,20412,2,0,L|521:106,2,38.6750000000001,2|0|6,2:0|2:0|2:0,0:0:0:0:
293,53,20712,1,2,2:0:0:0:
482,241,20862,5,6,2:0:0:0:
375,0,21012,1,2,2:0:0:0:
282,208,21162,2,0,P|232:224|182:239,1,77.3500000000003,6|2,2:0|2:0,2:0:0:0:
13,61,21462,6,0,B|105:23|87:121|180:79,1,172.9,6|0,1:2|1:0,0:0:0:0:
283,16,21912,1,0,2:0:0:0:
283,16,21987,1,0,2:0:0:0:
283,16,22062,2,0,P|274:67|265:115,1,86.4499999999999,0|0,1:0|2:0,0:0:0:0:
182,261,22362,2,0,P|174:222|167:190,3,43.2249999999999,0|0|0|0,1:0|2:0|2:0|2:0,0:0:0:0:
199,190,22662,6,0,P|246:206|302:223,1,86.4499999999999,2|0,1:2|2:0,0:0:0:0:
178,358,22962,2,0,P|136:370|95:384,1,86.4499999999999,0|0,1:0|2:0,0:0:0:0:
9,210,23262,1,0,1:0:0:0:
153,267,23412,1,0,2:0:0:0:
12,357,23562,1,0,1:0:0:0:
10,349,23637,1,0,2:0:0:0:
9,341,23712,1,0,2:0:0:0:
229,293,23862,70,0,B|288:277|288:277|341:306|341:306|409:288,1,172.9,2|0,1:2|1:0,0:0:0:0:
500,176,24312,1,0,2:0:0:0:
500,176,24387,1,0,2:0:0:0:
500,176,24462,2,0,P|486:231|472:285,1,86.4499999999999,0|0,1:0|2:0,0:0:0:0:
343,89,24762,2,0,P|357:144|371:198,1,86.4499999999999,0|0,1:0|2:0,0:0:0:0:
148,267,25062,5,2,1:2:0:0:
272,159,25212,1,0,2:0:0:0:
272,159,25287,1,0,2:0:0:0:
272,159,25362,2,0,P|224:148|178:136,1,86.4499999999999,0|0,1:0|2:0,2:0:0:0:
44,59,25662,2,0,L|35:8,2,43.2249999999999,0|0|0,1:0|2:0|2:0,2:0:0:0:
72,206,25962,1,0,1:0:0:0:
69,214,26037,1,0,2:0:0:0:
66,222,26112,1,0,2:0:0:0:
196,66,26262,70,0,P|179:142|152:265,1,172.9,6|0,1:2|1:0,0:0:0:0:
210,368,26712,1,0,2:0:0:0:
301,291,26862,2,0,P|350:298|384:344,1,86.4499999999999,0|0,1:0|2:0,0:0:0:0:
506,199,27162,2,0,P|490:257|480:300,1,86.4499999999999,0|0,1:0|2:0,0:0:0:0:
344,151,27462,5,2,1:2:0:0:
503,89,27612,1,0,2:0:0:0:
503,89,27687,1,0,2:0:0:0:
503,89,27762,2,0,P|469:95|421:55,1,86.4499999999999,0|0,1:0|2:0,0:0:0:0:
300,5,28062,2,0,P|252:19|210:30,1,86.4499999999999,0|0,1:0|2:0,0:0:0:0:
120,114,28362,2,0,P|89:106|59:97,2,43.2249999999999,0|0|0,1:0|2:0|2:0,0:0:0:0:
257,316,28662,70,0,B|222:273|222:273|269:141,1,172.9,2|0,1:2|1:0,0:0:0:0:
104,29,29112,1,0,2:0:0:0:
104,29,29187,1,0,2:0:0:0:
104,29,29262,2,0,P|114:80|122:126,1,86.4499999999999,0|0,1:0|2:0,0:0:0:0:
0,232,29562,2,0,P|48:235|86:203,1,86.4499999999999,0|0,1:0|2:0,0:0:0:0:
277,77,29862,6,0,P|267:128|259:174,1,86.4499999999999,2|0,1:2|2:0,0:0:0:0:
324,317,30162,1,0,1:0:0:0:
332,321,30237,1,0,2:0:0:0:
340,325,30312,1,0,2:0:0:0:
158,269,30462,1,0,1:0:0:0:
320,210,30612,1,0,0:0:0:0:
217,341,30762,2,0,L|226:393,2,43.2249999999999,0|0|0,1:0|0:0|1:0,0:0:0:0:
151,190,31062,70,0,P|210:180|269:294,1,172.9,2|0,1:2|1:0,0:0:0:0:
420,374,31512,1,0,0:0:0:0:
420,374,31587,1,0,0:0:0:0:
420,374,31662,2,0,P|430:323|440:273,1,86.4499999999999,0|0,1:0|0:0,0:0:0:0:
330,127,31962,2,0,P|338:169|346:211,1,86.4499999999999,0|0,1:0|0:0,0:0:0:0:
367,40,32262,6,0,P|308:30|249:144,1,172.9,2|0,1:2|1:0,0:0:0:0:
170,250,32712,1,0,0:0:0:0:
63,148,32862,2,0,L|48:84,2,43.2249999999999,0|0|0,1:0|0:0|0:0,0:0:0:0:
4,265,33162,1,0,1:0:0:0:
6,274,33237,1,0,0:0:0:0:
8,283,33312,1,0,0:0:0:0:
157,168,33462,70,0,P|209:181|255:191,1,86.4499999999999,2|0,1:2|0:0,0:0:0:0:
334,358,33762,2,0,P|386:345|432:335,1,86.4499999999999,0|0,1:0|0:0,0:0:0:0:
371,239,34062,2,0,B|286:203|294:295|204:257,1,172.9,0|0,1:0|1:0,0:0:0:0:
54,372,34512,5,0,0:0:0:0:
54,372,34587,1,0,0:0:0:0:
54,372,34662,2,0,P|42:314|32:269,1,86.4499999999999,2|0,1:2|0:0,0:0:0:0:
139,178,34962,2,0,P|151:120|161:75,1,86.4499999999999,0|0,1:0|0:0,0:0:0:0:
53,16,35262,2,0,P|26:12|3:7,2,43.2249999999999,2|0|0,1:2|0:0|0:0,0:0:0:0:
191,118,35562,2,0,P|236:107|302:95,1,86.4499999999999,0|0,1:0|1:0,0:0:0:0:
473,17,35862,70,0,P|459:67|448:112,1,86.4499999999999,6|0,1:2|2:0,0:0:0:0:
332,274,36162,2,0,P|321:232|309:190,1,86.4499999999999,0|0,1:0|2:0,0:0:0:0:
506,167,36462,2,0,P|456:188|366:110,1,172.9,0|0,1:0|1:0,0:0:0:0:
330,15,36912,1,0,2:0:0:0:
195,114,37062,6,0,P|206:72|218:30,1,86.4499999999999,0|0,1:0|2:0,0:0:0:0:
62,213,37362,2,0,P|51:171|39:129,1,86.4499999999999,0|0,1:0|2:0,0:0:0:0:
224,231,37662,2,0,P|261:242|281:246,2,43.2249999999999,2|0|0,1:2|2:0|2:0,2:0:0:0:
98,332,37962,1,0,1:0:0:0:
89,335,38037,1,0,2:0:0:0:
80,339,38112,1,0,1:0:0:0:
155,170,38262,69,6,1:2:0:0:
251,326,38412,1,0,1:0:0:0:
378,161,38562,2,0,P|332:146|291:134,1,86.4499999999999,0|0,1:0|1:0,0:0:0:0:
152,334,38862,1,0,1:0:0:0:
344,234,39012,1,0,1:0:0:0:
154,90,39162,2,0,P|167:146|177:192,1,86.4499999999999,0|0,1:0|1:0,0:0:0:0:
367,360,39462,6,0,P|315:341|273:329,1,86.4499999999999,6|0,1:2|1:0,2:0:0:0:
417,121,39762,2,0,P|375:133|335:148,1,86.4499999999999,0|0,1:0|1:0,2:0:0:0:
470,301,40062,1,0,1:0:0:0:
470,301,40137,1,0,1:0:0:0:
470,301,40212,1,0,1:0:0:0:
470,301,40287,1,0,1:0:0:0:
470,301,40362,2,0,L|481:244,3,43.2249999999999,0|0|0|0,1:0|1:0|1:0|1:0,0:0:0:0:
444,228,40662,70,0,B|365:192|368:283|283:244,1,172.9,6|0,1:2|1:0,2:0:0:0:
175,324,41112,1,0,2:0:0:0:
175,324,41187,1,0,2:0:0:0:
175,324,41262,2,0,P|164:269|153:224,1,86.4499999999999,0|0,1:0|2:0,2:0:0:0:
254,133,41562,2,0,P|264:94|269:78,3,43.2249999999999,0|0|0|0,1:0|2:0|2:0|2:0,2:0:0:0:
241,62,41862,6,0,P|193:45|146:25,1,86.4499999999999,2|0,1:2|0:0,0:0:0:0:
0,208,42162,2,0,P|40:191|80:177,1,86.4499999999999,0|0,1:0|0:0,0:0:0:0:
248,235,42462,1,0,1:0:0:0:
144,105,42612,1,0,0:0:0:0:
88,296,42762,1,0,1:0:0:0:
97,292,42837,1,0,0:0:0:0:
106,288,42912,1,0,0:0:0:0:
293,157,43062,70,0,P|278:232|252:360,1,172.9,2|0,1:2|1:0,0:0:0:0:
154,100,43512,1,0,0:0:0:0:
154,100,43587,1,0,0:0:0:0:
154,100,43662,2,0,P|167:164|177:211,1,86.4499999999999,0|0,1:0|0:0,0:0:0:0:
414,52,43962,2,0,P|401:116|391:163,1,86.4499999999999,0|0,1:0|0:0,0:0:0:0:
413,296,44262,5,2,1:2:0:0:
245,202,44412,1,0,2:0:0:0:
245,202,44487,1,0,2:0:0:0:
245,202,44562,2,0,P|292:192|337:183,1,86.4499999999999,0|0,1:2|2:0,2:0:0:0:
303,363,44862,2,0,B|286:339|286:339|303:269,1,86.4499999999999,0|0,1:2|2:0,2:0:0:0:
466,228,45162,2,0,L|517:241,2,43.2249999999999,0|0|0,1:0|0:0|1:0,0:0:0:0:
206,100,45462,70,0,B|291:136|283:44|373:82,1,172.9,6|0,1:2|1:0,0:0:0:0:
361,246,45912,1,0,2:0:0:0:
361,246,45987,1,0,2:0:0:0:
361,246,46062,2,0,P|350:188|338:139,1,86.4499999999999,0|0,1:0|2:0,0:0:0:0:
492,67,46362,2,0,L|503:24,2,43.2249999999999,0|0|0,1:0|2:0|2:0,0:0:0:0:
512,205,46662,6,0,P|463:187|415:171,1,86.4499999999999,2|0,1:2|0:0,0:0:0:0:
316,84,46962,2,0,P|327:32|335:-9,1,86.4499999999999,0|0,1:0|0:0,0:0:0:0:
194,234,47262,1,0,1:0:0:0:
352,168,47412,1,0,0:0:0:0:
204,71,47562,1,0,1:0:0:0:
207,81,47637,1,0,0:0:0:0:
210,91,47712,1,0,0:0:0:0:
342,316,47862,70,0,B|241:276|241:276|179:325,1,172.9,2|0,1:2|1:0,0:0:0:0:
43,371,48312,1,0,0:0:0:0:
43,371,48387,1,0,0:0:0:0:
43,371,48462,2,0,P|32:310|21:259,1,86.4499999999999,0|0,1:0|0:0,0:0:0:0:
129,188,48762,2,0,L|145:121,2,43.2249999999999,0|0|0,1:0|0:0|0:0,0:0:0:0:
86,43,49062,6,0,P|40:32|-1:17,1,86.4499999999999,2|0,1:2|2:0,2:0:0:0:
224,158,49362,1,0,1:0:0:0:
236,163,49437,1,0,2:0:0:0:
249,167,49512,1,0,2:0:0:0:
77,236,49662,2,0,P|43:225|19:218,2,43.2249999999999,0|0|0,1:0|2:0|2:0,2:0:0:0:
162,365,49962,2,0,P|202:350|244:340,1,86.4499999999999,0|0,1:0|1:0,2:0:0:0:
463,351,50262,70,0,P|403:368|337:281,1,172.9,6|0,1:2|1:0,0:0:0:0:
425,212,50712,1,0,2:0:0:0:
425,212,50787,1,0,2:0:0:0:
425,212,50862,2,0,P|466:224|516:246,1,86.4499999999999,2|0,1:2|2:0,0:0:0:0:
366,26,51162,2,0,P|353:76|341:128,1,86.4499999999999,0|0,1:0|2:0,0:0:0:0:
233,285,51462,6,0,P|222:242|212:201,1,86.4499999999999,2|0,1:2|2:0,0:0:0:0:
84,122,51762,1,0,1:0:0:0:
84,122,51837,1,0,2:0:0:0:
84,122,51912,1,0,2:0:0:0:
220,8,52062,1,2,1:2:0:0:
312,181,52212,1,0,2:0:0:0:
173,116,52362,2,0,L|163:67,2,43.2249999999999,0|0|0,1:0|2:0|2:0,0:0:0:0:
0,229,52662,70,0,B|91:195|77:285|167:247,1,172.9,2|0,1:2|1:0,0:0:0:0:
276,338,53112,1,0,2:0:0:0:
276,338,53187,1,0,2:0:0:0:
276,338,53262,2,0,P|289:280|302:236,1,86.4499999999999,0|0,1:0|2:0,0:0:0:0:
431,129,53562,2,0,P|425:96|419:67,2,43.2249999999999,2|0|0,1:2|2:0|2:0,0:0:0:0:
512,273,53862,6,0,P|463:257|410:243,1,86.4499999999999,2|0,1:2|2:0,2:0:0:0:
318,115,54162,2,0,P|269:131|216:145,1,86.4499999999999,0|0,1:0|2:0,2:0:0:0:
150,241,54462,2,0,P|162:295|173:353,1,86.4499999999999,0|0,1:0|2:0,2:0:0:0:
23,218,54762,1,0,1:0:0:0:
109,43,54912,69,0,1:0:0:0:
109,43,54987,1,0,1:0:0:0:
109,43,55062,2,0,P|118:99|125:151,1,86.4499999999999,6|0,1:2|1:0,0:0:0:0:
278,272,55362,2,0,P|284:229|291:186,1,86.4499999999999,0|0,1:0|1:0,0:0:0:0:
391,43,55662,1,0,1:0:0:0:
223,123,55812,1,0,1:0:0:0:
393,233,55962,1,0,1:0:0:0:
314,57,56112,5,0,1:0:0:0:
314,57,56187,1,0,1:0:0:0:
314,57,56262,2,0,P|269:52|207:43,1,86.4499999999999,6|0,1:2|1:0,0:0:0:0:
42,161,56562,2,0,P|84:155|127:150,1,86.4499999999999,0|0,1:0|1:0,0:0:0:0:
296,251,56862,1,0,1:0:0:0:
122,324,57012,1,0,1:0:0:0:
213,153,57162,1,0,1:0:0:0:
387,359,57312,69,0,1:0:0:0:
387,359,57387,1,0,1:0:0:0:
387,359,57462,2,0,P|377:299|368:251,1,86.4499999999999,6|0,1:2|1:0,0:0:0:0:
427,113,57762,1,0,1:0:0:0:
221,279,57912,1,0,1:0:0:0:
221,279,57987,1,0,1:0:0:0:
221,279,58062,2,0,P|231:219|240:171,1,86.4499999999999,0|0,1:0|1:0,0:0:0:0:
181,33,58362,1,0,1:0:0:0:
0,178,58512,6,0,L|7:211,4,21.6125,0|0|0|0|6,1:0|1:0|1:0|1:0|1:2,0:0:0:0:
55,56,58812,2,0,L|61:21,4,21.6125,0|0|0|0|0,1:0|1:0|1:0|1:0|1:0,0:0:0:0:
179,160,59112,2,0,L|173:125,4,21.6125,0|0|0|0|6,1:0|1:0|1:0|1:0|1:2,0:0:0:0:
276,39,59412,1,0,1:0:0:0:
367,163,59562,2,0,L|395:173,6,21.6125,0|0|0|0|0|0|0,1:0|1:0|1:0|1:0|1:0|1:0|1:0,0:0:0:0:
460,203,59862,6,0,B|410:177|354:230|397:248|338:304|281:266,1,209.3,6|0,1:2|1:0,2:0:0:0:
163,229,60312,1,0,2:0:0:0:
92,342,60462,2,0,P|41:360|-15:392,1,104.65,2|0,1:2|0:0,2:0:0:0:
148,149,60762,2,0,P|203:149|242:206,1,104.65,0|0,1:0|2:0,0:0:0:0:
40,272,61062,5,0,1:0:0:0:
34,254,61137,1,0,2:0:0:0:
27,229,61212,1,0,2:0:0:0:
21,201,61287,1,0,2:0:0:0:
16,177,61362,2,0,L|28:117,3,52.3249999999999,0|0|0|0,1:0|2:0|2:0|2:0,0:0:0:0:
0,61,61662,70,0,P|62:94|132:27,1,156.975,2|2,1:2|2:0,2:0:0:0:
126,35,61962,2,0,P|160:-5|226:3,1,104.65,0|2,1:0|2:0,2:0:0:0:
328,61,62262,6,0,P|312:119|299:182,1,104.65,6|0,1:2|0:0,0:0:0:0:
174,236,62562,2,0,P|190:294|203:357,1,104.65,0|0,1:0|0:0,0:0:0:0:
469,350,62862,2,0,P|397:368|334:255,1,209.3,2|0,1:2|1:0,0:0:0:0:
472,214,63312,1,0,0:0:0:0:
380,109,63462,69,0,1:0:0:0:
339,85,63537,1,0,0:0:0:0:
292,90,63612,1,0,0:0:0:0:
258,123,63687,1,0,0:0:0:0:
246,168,63762,1,0,1:0:0:0:
218,206,63837,1,0,0:0:0:0:
171,214,63912,1,0,0:0:0:0:
130,190,63987,1,0,0:0:0:0:
107,148,64062,6,0,P|139:114|210:128,1,104.65,2|0,1:2|0:0,0:0:0:0:
316,230,64362,2,0,P|302:285|292:364,1,104.65,0|0,1:0|1:0,0:0:0:0:
47,327,64662,70,0,B|97:353|153:300|110:282|169:226|226:264,1,209.3,6|0,1:2|1:0,2:0:0:0:
362,384,65112,1,0,2:0:0:0:
497,198,65262,2,0,P|449:194|403:256,1,104.65,2|0,1:2|0:0,2:0:0:0:
349,384,65562,2,0,P|340:332|327:281,1,104.65,0|0,1:0|2:0,0:0:0:0:
179,144,65862,5,0,1:0:0:0:
202,158,65937,1,0,2:0:0:0:
228,159,66012,1,0,2:0:0:0:
253,144,66087,1,0,2:0:0:0:
268,129,66162,2,0,P|275:94|284:61,3,52.3249999999999,0|0|0|0,1:0|2:0|2:0|2:0,0:0:0:0:
260,41,66462,70,0,P|228:5|115:39,1,156.975,2|2,1:2|2:0,2:0:0:0:
126,33,66762,2,0,P|103:59|27:44,1,104.65,0|2,1:0|2:0,2:0:0:0:
16,262,67062,6,0,P|63:241|120:232,1,104.65,6|0,1:2|0:0,0:0:0:0:
249,108,67362,2,0,P|296:129|353:138,1,104.65,0|0,1:0|0:0,0:0:0:0:
175,368,67662,2,0,P|165:283|133:157,1,209.3,2|0,1:2|1:0,0:0:0:0:
334,25,68112,1,0,0:0:0:0:
334,25,68187,1,0,0:0:0:0:
334,25,68262,69,0,1:0:0:0:
378,40,68337,1,0,0:0:0:0:
395,83,68412,1,0,0:0:0:0:
387,129,68487,1,0,0:0:0:0:
353,162,68562,1,0,1:0:0:0:
333,204,68637,1,0,0:0:0:0:
331,251,68712,1,0,0:0:0:0:
361,287,68787,1,0,0:0:0:0:
403,309,68862,6,0,P|452:288|518:285,1,104.65,0|0,1:2|0:0,0:0:0:0:
353,162,69162,1,2,1:2:0:0:
461,56,69312,1,0,1:0:0:0:
461,56,69387,1,0,1:0:0:0:
461,56,69462,70,0,B|411:30|355:83|398:101|339:157|282:119,1,209.3,6|0,1:2|1:0,0:0:0:0:
177,17,69912,1,0,0:0:0:0:
9,94,70062,2,0,P|70:97|99:147,1,104.65,2|0,1:2|0:0,0:0:0:0:
186,282,70362,2,0,P|200:220|218:158,1,104.65,0|0,1:0|2:0,0:0:0:0:
0,333,70662,5,0,1:0:0:0:
26,324,70737,1,0,2:0:0:0:
52,328,70812,1,0,2:0:0:0:
70,341,70887,1,0,2:0:0:0:
88,358,70962,2,0,P|122:373|149:367,3,52.3249999999999,0|0|0|0,1:0|2:0|2:0|2:0,0:0:0:0:
225,309,71262,70,0,P|278:294|348:374,1,156.975,2|2,1:2|2:0,2:0:0:0:
375,384,71562,2,0,P|386:333|405:276,1,104.65,0|2,1:0|2:0,2:0:0:0:
231,137,71862,6,0,P|259:183|318:184,1,104.65,6|0,1:2|0:0,0:0:0:0:
431,100,72162,2,0,P|419:49|401:-8,1,104.65,0|0,1:0|0:0,0:0:0:0:
157,52,72462,2,0,P|139:116|109:277,1,209.3,2|0,1:2|1:0,0:0:0:0:
211,383,72912,1,0,0:0:0:0:
211,383,72987,1,0,0:0:0:0:
211,383,73062,69,0,1:0:0:0:
228,339,73137,1,0,0:0:0:0:
269,316,73212,1,0,0:0:0:0:
315,324,73287,1,0,0:0:0:0:
353,351,73362,1,0,1:0:0:0:
394,372,73437,1,0,0:0:0:0:
440,367,73512,1,0,0:0:0:0:
480,343,73587,1,0,0:0:0:0:
499,300,73662,2,0,P|490:258|470:184,1,104.65,2|0,1:2|0:0,0:0:0:0:
327,67,73962,2,0,P|266:50|202:22,1,104.65,0|0,1:0|1:0,0:0:0:0:
27,234,74262,5,6,1:2:0:0:
199,158,74412,1,0,1:0:0:0:
0,101,74562,1,0,1:0:0:0:
168,280,74712,1,0,1:0:0:0:
110,70,74862,69,2,1:2:0:0:
40,288,75012,1,0,1:0:0:0:
120,94,75162,1,0,1:0:0:0:
179,379,75312,5,0,1:0:0:0:
179,379,75387,1,0,1:0:0:0:
179,379,75462,2,0,P|168:311|155:248,1,104.65,4|0,1:2|1:0,0:0:0:0:
338,115,75762,2,0,P|328:166|320:218,1,104.65,0|0,1:0|1:0,0:0:0:0:
228,95,76062,69,2,1:2:0:0:
427,214,76212,1,0,1:0:0:0:
239,317,76362,1,0,1:0:0:0:
400,58,76512,5,2,1:2:0:0:
400,58,76587,1,0,1:0:0:0:
400,58,76662,2,0,B|448:77|501:83,1,104.65,2|0,1:2|1:0,0:0:0:0:
234,208,76962,2,0,B|186:189|132:182,1,104.65,0|0,1:0|1:0,0:0:0:0:
99,202,77187,1,0,1:0:0:0:
99,202,77262,2,0,P|52:235|76:336,1,156.975,6|4,1:2|1:2,2:0:0:0:
89,353,77562,1,0,2:0:0:0:
314,264,77712,70,0,L|306:223,4,26.1625,0|0|0|0|4,1:0|1:0|1:0|1:0|1:2,0:0:0:0:
445,158,78012,6,0,L|453:117,4,26.1625,0|0|0|0|6,1:0|1:0|1:0|1:0|1:2,0:0:0:0:
309,64,78312,69,0,1:0:0:0:
284,55,78387,1,0,1:0:0:0:
259,44,78462,2,0,P|233:51|205:58,3,52.3249999999999,2|0|0|0,1:2|1:0|1:0|1:0,0:0:0:0:
138,103,78762,6,0,L|104:94,6,26.1625,2|0|0|0|0|0|0,1:2|1:0|1:0|1:0|1:0|1:0|1:0,0:0:0:0:
30,148,79062,5,6,1:2:0:0:
239,341,80262,6,0,P|262:239|287:109,2,236.6,2|2|2,2:0|2:0|2:0,0:0:0:0:
488,97,82662,69,2,2:0:0:0:
431,43,82962,1,2,2:0:0:0:
350,70,83262,2,0,P|330:92|324:153,2,78.8666666666666,2|2|2,2:0|2:0|2:0,2:0:0:0:
409,202,83862,6,0,B|279:143|318:275|182:210,1,236.6,2|2,2:0|2:0,0:0:0:0:
188,212,85062,69,6,1:2:0:0:
256,192,85137,12,0,89862,2:0:0:0:
