osu file format v14

[General]
AudioFilename: audio.mp3
AudioLeadIn: 0
PreviewTime: 59787
Countdown: 0
SampleSet: Soft
StackLeniency: 0.7
Mode: 0
LetterboxInBreaks: 0
WidescreenStoryboard: 1

[Editor]
Bookmarks: 2262,21462,59862,76362,79062
DistanceSpacing: 1
BeatDivisor: 4
GridSize: 8
TimelineZoom: 2.3

[Metadata]
Title:Blue Zenith (Cut Ver.)
TitleUnicode:Blue Zenith (Cut Ver.)
Artist:xi
ArtistUnicode:xi
Creator:Sotarks
Version:Kowari's Another
Source:
Tags:parousia electronic instrumental short edit version wysi 727 featured artist fa akitoshi corinn pepekcz sanairrt kowari -laura uberfazz kujinn reform sytho matthewrigaud11 armin A_r_M_i_N schoolboy komore nino snownino_ vaporfly red crewmate god haachama
BeatmapID:3555216
BeatmapSetID:1737645

[Difficulty]
HPDrainRate:6
CircleSize:4
OverallDifficulty:8
ApproachRate:9
SliderMultiplier:1.8
SliderTickRate:1

[Events]
//Background and Video events
0,0,"727.jpg",0,0
//Break Periods
//Storyboard Layer 0 (Background)
//Storyboard Layer 1 (Fail)
//Storyboard Layer 2 (Pass)
//Storyboard Layer 3 (Foreground)
//Storyboard Layer 4 (Overlay)
//Storyboard Sound Samples

[TimingPoints]
2262,300,4,2,1,52,1,0
19062,-100,4,2,1,62,0,0
21462,-100,4,2,2,72,0,0
21537,-100,4,2,1,72,0,0
21612,-100,4,2,1,72,0,0
22662,-100,4,2,3,72,0,0
22737,-100,4,2,1,72,0,0
22812,-100,4,2,1,72,0,0
23862,-100,4,2,4,72,0,0
23937,-100,4,2,1,72,0,0
24012,-100,4,2,1,72,0,0
25062,-100,4,2,5,72,0,0
25137,-100,4,2,1,72,0,0
25512,-100,4,2,1,72,0,0
26262,-100,4,2,2,72,0,0
26337,-100,4,2,1,72,0,0
26712,-100,4,2,1,72,0,0
27462,-100,4,2,3,72,0,0
27537,-100,4,2,1,72,0,0
27612,-100,4,2,1,72,0,0
28662,-100,4,2,6,72,0,0
28737,-100,4,2,1,72,0,0
28812,-100,4,2,1,72,0,0
29862,-100,4,2,4,72,0,0
29937,-100,4,2,1,72,0,0
30312,-100,4,2,1,72,0,0
31062,-100,4,2,7,72,0,0
31137,-100,4,2,1,72,0,0
31287,-100,4,2,1,72,0,0
32262,-100,4,2,6,72,0,0
32337,-100,4,2,1,72,0,0
33012,-100,4,2,1,72,0,0
33462,-100,4,2,7,72,0,0
33537,-100,4,2,1,72,0,0
33612,-100,4,2,1,72,0,0
34662,-100,4,2,8,72,0,0
34737,-100,4,2,1,72,0,0
35112,-100,4,2,1,72,0,0
35262,-100,4,2,9,72,0,0
35337,-100,4,2,1,72,0,0
35862,-100,4,2,6,72,0,0
35937,-100,4,2,1,72,0,0
36612,-100,4,2,1,72,0,0
37662,-100,4,2,10,72,0,0
37737,-100,4,2,1,72,0,0
38112,-100,4,2,1,72,0,0
38262,-100,4,2,3,72,0,0
38337,-100,4,2,1,72,0,0
39387,-100,4,2,1,72,0,0
39462,-100,4,2,7,72,0,0
39537,-100,4,2,1,72,0,0
40287,-100,4,2,1,72,0,0
40662,-100,4,2,2,72,0,0
40737,-100,4,2,1,72,0,0
40812,-100,4,2,1,72,0,0
41862,-100,4,2,3,72,0,0
41937,-100,4,2,1,72,0,0
42012,-100,4,2,1,72,0,0
43062,-100,4,2,2,72,0,0
43137,-100,4,2,1,72,0,0
43212,-100,4,2,1,72,0,0
44262,-100,4,2,6,72,0,0
44337,-100,4,2,1,72,0,0
44412,-100,4,2,1,72,0,0
45462,-100,4,2,6,72,0,0
45537,-100,4,2,1,72,0,0
45912,-100,4,2,1,72,0,0
46662,-100,4,2,7,72,0,0
46737,-100,4,2,1,72,0,0
47112,-100,4,2,1,72,0,0
47862,-100,4,2,7,72,0,0
47937,-100,4,2,1,72,0,0
48312,-100,4,2,1,72,0,0
49062,-100,4,2,11,72,0,0
49137,-100,4,2,1,72,0,0
49212,-100,4,2,1,72,0,0
50862,-100,4,2,8,72,0,0
50937,-100,4,2,1,72,0,0
51312,-100,4,2,1,72,0,0
51462,-100,4,2,9,72,0,0
51537,-100,4,2,1,72,0,0
51612,-100,4,2,1,72,0,0
52062,-100,4,2,12,72,0,0
52137,-100,4,2,1,72,0,0
52512,-100,4,2,1,72,0,0
52662,-100,4,2,7,72,0,0
52737,-100,4,2,1,72,0,0
52812,-100,4,2,1,72,0,0
53862,-100,4,2,2,72,0,0
53937,-100,4,2,1,72,0,0
54012,-100,4,2,1,72,0,0
55062,-100,4,2,6,72,0,0
55137,-100,4,2,1,72,0,0
56037,-100,4,2,1,72,0,0
57462,-100,4,2,13,72,0,0
57537,-100,4,2,1,72,0,0
57987,-100,4,2,1,72,0,0
58662,-100,4,2,14,72,0,0
58737,-100,4,2,1,72,0,0
58849,-100,4,2,1,72,0,0
59262,-100,4,2,15,72,0,0
59337,-100,4,2,1,72,0,0
59637,-100,4,2,1,72,0,0
59862,-90.9090909090909,4,2,16,82,0,0
60012,-90.9090909090909,4,2,1,82,0,0
60462,-90.9090909090909,4,2,2,82,0,0
60912,-90.9090909090909,4,2,1,82,0,0
61662,-90.9090909090909,4,2,17,82,0,0
61887,-90.9090909090909,4,2,18,82,0,0
61962,-90.9090909090909,4,2,1,82,0,0
62112,-90.9090909090909,4,2,19,82,0,0
62262,-90.9090909090909,4,2,20,82,0,0
62337,-90.9090909090909,4,2,1,82,0,0
62412,-90.9090909090909,4,2,1,82,0,0
62862,-90.9090909090909,4,2,2,82,0,0
62937,-90.9090909090909,4,2,1,82,0,0
63012,-90.9090909090909,4,2,1,82,0,0
64062,-90.9090909090909,4,2,16,82,0,0
64137,-90.9090909090909,4,2,1,82,0,0
64212,-90.9090909090909,4,2,1,82,0,0
64662,-90.9090909090909,4,2,16,82,0,0
64812,-90.9090909090909,4,2,1,82,0,0
65112,-90.9090909090909,4,2,1,82,0,0
65262,-90.9090909090909,4,2,2,82,0,0
65412,-90.9090909090909,4,2,2,82,0,0
65562,-90.9090909090909,4,2,1,82,0,0
66462,-90.9090909090909,4,2,21,82,0,0
66687,-90.9090909090909,4,2,17,82,0,0
66912,-90.9090909090909,4,2,18,82,0,0
67062,-90.9090909090909,4,2,15,82,0,0
67137,-90.9090909090909,4,2,1,82,0,0
67512,-90.9090909090909,4,2,1,82,0,0
67662,-90.9090909090909,4,2,22,82,0,0
68862,-125,4,2,23,82,0,0
69012,-125,4,2,1,82,0,0
69162,-125,4,2,23,82,0,0
69462,-90.9090909090909,4,2,16,82,0,0
69612,-90.9090909090909,4,2,1,82,0,0
70062,-90.9090909090909,4,2,2,82,0,0
70512,-90.9090909090909,4,2,1,82,0,0
71262,-90.9090909090909,4,2,17,82,0,0
71487,-90.9090909090909,4,2,18,82,0,0
71562,-90.9090909090909,4,2,1,82,0,0
71712,-90.9090909090909,4,2,19,82,0,0
71862,-90.9090909090909,4,2,20,82,0,0
71937,-90.9090909090909,4,2,1,82,0,0
72312,-90.9090909090909,4,2,1,82,0,0
72462,-90.9090909090909,4,2,2,82,0,0
72537,-90.9090909090909,4,2,1,82,0,0
72912,-90.9090909090909,4,2,1,82,0,0
73662,-90.9090909090909,4,2,16,82,0,0
73737,-90.9090909090909,4,2,1,82,0,0
74262,-90.9090909090909,4,2,16,82,0,0
74862,-90.9090909090909,4,2,2,82,0,0
75387,-90.9090909090909,4,2,1,82,0,0
76062,-90.9090909090909,4,2,17,82,0,0
76512,-90.9090909090909,4,2,19,82,0,0
76662,-90.9090909090909,4,2,20,82,0,0
77262,-90.9090909090909,4,2,24,82,0,0
77412,-90.9090909090909,4,2,1,82,0,0
78162,-90.9090909090909,4,2,25,82,0,0
78387,-90.9090909090909,4,2,1,82,0,0
78462,-90.9090909090909,4,2,26,82,0,0
78537,-90.9090909090909,4,2,1,82,0,0
78762,-90.9090909090909,4,2,25,82,0,0
78837,-90.9090909090909,4,2,1,82,0,0
79062,-90.9090909090909,4,2,27,62,0,0
80262,-90.9090909090909,4,2,28,62,0,0
80862,-90.9090909090909,4,2,29,62,0,0
81462,-90.9090909090909,4,2,22,62,0,0
82662,-90.9090909090909,4,2,18,62,0,0
82962,-90.9090909090909,4,2,19,62,0,0
83462,-90.9090909090909,4,2,30,62,0,0
83662,-90.9090909090909,4,2,18,62,0,0
83862,-90.9090909090909,4,2,29,62,0,0
84462,-90.9090909090909,4,2,31,62,0,0
85062,-90.9090909090909,4,2,1,62,0,0

[Colours]
Combo1 : 23,198,255
Combo2 : 187,192,198
Combo3 : 130,130,130
Combo4 : 148,156,216
Combo5 : 94,135,204
Combo6 : 11,62,238

[HitObjects]
327,115,2262,5,4,1:2:0:0:
191,132,2562,1,0,1:0:0:0:
209,270,2862,1,0,1:0:0:0:
352,247,3162,1,0,1:0:0:0:
308,90,3462,5,0,1:0:0:0:
168,147,3762,1,0,1:0:0:0:
226,288,4062,1,0,1:0:0:0:
372,223,4362,1,0,1:0:0:0:
281,69,4662,69,0,1:0:0:0:
149,170,4962,1,0,1:0:0:0:
251,303,5262,1,0,1:0:0:0:
387,193,5562,1,0,1:0:0:0:
247,56,5862,5,0,1:0:0:0:
135,200,6162,1,0,1:0:0:0:
282,313,6462,1,0,1:0:0:0:
395,156,6762,1,0,1:0:0:0:
136,30,7062,5,2,1:2:0:0:
136,30,7137,1,2,2:0:0:0:
136,30,7212,1,2,2:0:0:0:
136,30,7287,1,2,2:0:0:0:
136,30,7362,2,0,L|82:21,3,45,2|2|2|2,1:2|2:0|2:0|2:0,2:0:0:0:
108,114,7662,2,0,L|54:105,3,45,2|2|2|2,1:2|2:0|2:0|2:0,2:0:0:0:
75,197,7962,2,0,L|21:188,3,45,2|2|2|2,1:2|2:0|2:0|2:0,2:0:0:0:
44,276,8262,2,0,L|-10:267,3,45,2|2|2|2,1:2|2:0|2:0|2:0,2:0:0:0:
32,368,8562,5,2,1:2:0:0:
32,368,8862,1,2,1:2:0:0:
32,368,9162,1,2,1:2:0:0:
32,368,9462,1,2,1:2:0:0:
32,368,9762,1,0,1:0:0:0:
32,368,10062,37,0,1:0:0:0:
107,328,10212,1,0,2:0:0:0:
189,356,10362,2,0,L|248:361,3,45,0|0|0|0,1:0|2:0|2:0|2:0,2:0:0:0:
296,306,10662,2,0,L|340:309,3,45,0|0|0|0,1:0|2:0|2:0|2:0,0:0:0:0:
410,352,10962,1,0,1:0:0:0:
418,331,11037,1,0,2:0:0:0:
422,309,11112,1,0,2:0:0:0:
422,286,11187,1,0,2:0:0:0:
418,263,11262,2,0,P|413:200|418:160,1,90,0|0,1:0|2:0,2:0:0:0:
507,106,11562,1,0,1:0:0:0:
360,82,11712,1,0,1:0:0:0:
474,11,11862,5,4,1:2:0:0:
474,11,12012,2,0,P|392:-4|312:61,1,180,0|0,2:0|2:0,0:0:0:0:
224,17,12462,2,0,P|168:10|121:-5,1,90,0|0,1:0|2:0,2:0:0:0:
264,143,12762,2,0,P|332:156|373:170,1,90,0|0,1:0|2:0,0:0:0:0:
205,278,13062,69,0,1:0:0:0:
149,203,13212,1,0,2:0:0:0:
149,203,13287,1,0,2:0:0:0:
149,203,13362,2,0,L|157:145,2,45,0|0|0,1:0|2:0|2:0,0:0:0:0:
37,307,13662,2,0,B|137:278|121:329|221:297,1,180,0|0,1:0|1:0,2:0:0:0:
366,227,14112,1,0,2:0:0:0:
328,368,14262,5,0,1:0:0:0:
328,368,14412,2,0,P|306:309|297:269,1,90,0|0,2:0|1:0,0:0:0:0:
491,297,14712,2,0,P|428:319|395:328,2,90,0|0|0,2:0|1:0|2:0,0:0:0:0:
381,81,15162,2,0,P|341:158|373:240,1,180,0|0,1:0|1:0,0:0:0:0:
511,177,15612,69,0,2:0:0:0:
511,177,15687,1,0,0:0:0:0:
511,177,15762,2,0,B|464:167|396:163,1,90,0|0,1:0|2:0,2:0:0:0:
279,44,16062,2,0,B|326:54|394:58,1,90,0|0,1:0|2:0,2:0:0:0:
338,206,16362,1,0,1:0:0:0:
460,38,16512,1,0,1:0:0:0:
279,131,16662,22,0,L|228:124,3,45,6|2|2|0,1:2|2:0|2:0|0:0,0:0:0:0:
139,44,16962,2,0,L|158:91,3,45,2|2|2|0,1:2|2:0|2:0|0:0,0:0:0:0:
130,212,17262,2,0,L|161:171,3,45,2|2|2|0,1:2|2:0|2:0|0:0,0:0:0:0:
245,98,17562,53,2,1:2:0:0:
62,141,17712,1,2,1:0:0:0:
221,238,17862,2,0,P|229:290|221:342,1,90,4|0,1:2|2:0,0:0:0:0:
225,326,18087,1,0,2:0:0:0:
225,326,18162,2,0,P|155:328|49:369,1,180,0|0,1:0|1:0,0:0:0:0:
5,247,18612,1,0,2:0:0:0:
146,197,18762,1,0,1:0:0:0:
146,197,18912,1,0,1:0:0:0:
61,100,19062,6,0,P|54:39|47:1,1,90,6|2,1:2|2:0,0:0:0:0:
266,122,19362,2,0,P|273:61|280:23,1,90,2|2,1:2|2:0,0:0:0:0:
147,235,19662,2,0,P|140:296|133:334,1,90,2|2,2:0|2:0,0:0:0:0:
352,213,19962,2,0,P|359:274|366:312,1,90,2|2,2:0|2:0,0:0:0:0:
490,186,20262,69,6,2:0:0:0:
414,151,20412,1,2,2:0:0:0:
414,151,20487,1,0,2:0:0:0:
352,213,20712,1,2,2:0:0:0:
275,168,20862,2,0,P|211:164|139:137,1,135,6|0,2:0|2:0,2:0:0:0:
113,166,21162,1,6,2:0:0:0:
80,167,21237,1,0,2:0:0:0:
47,179,21312,1,2,2:0:0:0:
22,203,21387,1,0,2:0:0:0:
7,231,21462,22,0,P|12:297|12:349,1,90,6|0,1:2|2:0,0:0:0:0:
189,369,21762,2,0,P|184:303|184:251,1,90,0|0,1:0|2:0,0:0:0:0:
91,143,22062,2,0,B|109:212|76:235|103:325,1,180,0|0,1:0|1:0,0:0:0:0:
202,192,22512,5,0,2:0:0:0:
202,192,22587,1,0,2:0:0:0:
202,192,22662,1,2,1:2:0:0:
321,253,22812,1,0,2:0:0:0:
200,340,22962,2,0,P|275:347|362:268,1,180,0|0,1:0|1:0,0:0:0:0:
383,139,23412,1,0,2:0:0:0:
512,246,23562,2,0,P|459:233|409:229,1,90,0|0,1:0|2:0,0:0:0:0:
295,149,23862,69,2,1:2:0:0:
422,42,24012,2,0,P|410:135|404:223,2,180,0|0|0,2:0|2:0|2:0,0:0:0:0:
512,164,24762,1,0,1:0:0:0:
316,62,24912,5,0,2:0:0:0:
316,62,24987,1,0,2:0:0:0:
316,62,25062,2,0,B|220:40|223:86|132:55,1,180,2|0,1:2|1:0,2:0:0:0:
18,164,25512,1,0,2:0:0:0:
174,210,25662,1,0,1:0:0:0:
18,164,25812,1,0,2:0:0:0:
67,317,25962,2,0,P|85:265|95:215,1,90,0|0,1:0|2:0,2:0:0:0:
348,271,26262,70,0,P|256:259|170:345,1,180,6|0,1:2|1:0,0:0:0:0:
12,138,26712,1,0,2:0:0:0:
75,201,26862,2,0,P|141:213|184:219,1,90,0|0,1:0|2:0,0:0:0:0:
163,216,27087,2,0,P|173:150|185:70,1,135,0|0,2:0|2:0,0:0:0:0:
290,10,27462,5,2,1:2:0:0:
392,113,27612,1,0,2:0:0:0:
392,113,27687,1,0,2:0:0:0:
392,113,27762,2,0,P|447:122|505:125,1,90,0|0,1:0|2:0,0:0:0:0:
313,283,28062,2,0,P|280:232|304:92,1,180,0|0,1:0|1:0,0:0:0:0:
382,202,28512,1,0,2:0:0:0:
211,305,28662,70,0,P|153:317|114:322,1,90,2|0,1:2|2:0,0:0:0:0:
331,377,28962,2,0,P|389:365|428:360,1,90,0|0,1:0|2:0,0:0:0:0:
225,193,29262,2,0,P|143:209|38:209,1,180,0|0,1:0|1:0,0:0:0:0:
110,110,29712,1,0,2:0:0:0:
285,273,29862,6,0,B|254:204|299:172|252:84,1,180,2|0,1:2|1:0,0:0:0:0:
161,33,30312,1,0,2:0:0:0:
161,33,30387,1,0,2:0:0:0:
161,33,30462,1,0,1:0:0:0:
23,137,30612,1,0,0:0:0:0:
189,212,30762,1,0,1:0:0:0:
161,33,30912,1,0,1:0:0:0:
91,216,31062,70,0,P|78:275|97:359,1,135,2|0,1:2|0:0,0:0:0:0:
91,347,31362,2,0,P|175:323|287:333,1,180,0|0,1:0|1:0,0:0:0:0:
379,374,31812,1,0,0:0:0:0:
474,263,31962,2,0,P|401:270|363:266,1,90,0|0,1:0|0:0,0:0:0:0:
245,127,32262,6,0,P|333:109|413:167,2,180,2|0|0,1:2|1:0|1:0,0:0:0:0:
138,238,33012,1,0,0:0:0:0:
138,238,33087,1,0,0:0:0:0:
138,238,33162,2,0,P|79:232|38:220,1,90,0|0,1:0|0:0,0:0:0:0:
188,24,33462,70,0,P|199:89|205:132,1,90,2|0,1:2|0:0,0:0:0:0:
125,329,33762,2,0,P|198:352|293:302,1,180,0|0,1:0|1:0,0:0:0:0:
336,192,34212,1,0,0:0:0:0:
205,228,34362,2,0,P|142:221|104:212,1,90,0|0,1:0|0:0,0:0:0:0:
9,94,34662,6,0,P|107:79|198:71,1,180,2|0,1:2|1:0,0:0:0:0:
336,0,35112,1,0,0:0:0:0:
336,0,35187,1,0,0:0:0:0:
336,0,35262,2,0,P|365:73|351:172,1,180,2|0,1:2|1:0,0:0:0:0:
198,243,35712,1,0,1:0:0:0:
311,349,35862,70,0,B|396:375|414:344|497:369,2,180,6|0|0,1:2|1:0|1:0,0:0:0:0:
198,243,36612,1,0,2:0:0:0:
342,196,36762,2,0,P|409:188|453:181,1,90,0|0,1:0|2:0,0:0:0:0:
286,12,37062,6,0,P|277:73|272:103,1,90,0|0,1:0|2:0,0:0:0:0:
104,221,37362,2,0,P|71:166|102:94,1,135,0|0,1:0|2:0,0:0:0:0:
92,102,37662,2,0,B|175:83|187:116|281:97,1,180,2|0,1:2|1:0,2:0:0:0:
417,39,38112,1,0,1:0:0:0:
417,39,38187,1,0,2:0:0:0:
417,39,38262,69,6,1:2:0:0:
451,172,38412,1,0,1:0:0:0:
320,210,38562,1,0,1:0:0:0:
286,77,38712,1,0,1:0:0:0:
439,56,38862,5,0,1:0:0:0:
437,193,39012,1,0,1:0:0:0:
301,196,39162,1,0,1:0:0:0:
302,58,39312,1,0,1:0:0:0:
302,58,39387,1,0,1:0:0:0:
302,58,39462,2,0,P|231:43|190:40,1,90,6|0,1:2|1:0,2:0:0:0:
388,247,39762,2,0,P|459:262|500:265,1,90,0|0,1:0|1:0,2:0:0:0:
217,156,40062,2,0,P|162:165|72:187,2,135,0|0|0,1:0|1:0|1:0,0:0:0:0:
393,78,40662,70,0,P|377:140|374:171,1,90,6|0,1:2|2:0,2:0:0:0:
269,340,40962,2,0,P|253:278|250:247,1,90,0|0,1:0|2:0,2:0:0:0:
512,267,41262,2,0,P|475:291|349:256,1,180,0|0,1:0|1:0,2:0:0:0:
264,141,41712,1,0,2:0:0:0:
151,236,41862,6,0,P|88:249|40:254,1,90,2|0,1:2|0:0,0:0:0:0:
124,93,42162,2,0,P|183:75|263:74,1,135,0|0,1:0|0:0,0:0:0:0:
255,73,42462,2,0,B|286:159|243:168|277:264,1,180,0|0,1:0|1:0,0:0:0:0:
359,357,42912,69,0,0:0:0:0:
359,357,42987,1,0,0:0:0:0:
359,357,43062,1,2,1:2:0:0:
460,244,43212,2,0,P|395:229|355:228,1,90,0|0,0:0|1:0,0:0:0:0:
353,58,43512,1,0,0:0:0:0:
277,124,43662,2,0,P|337:146|453:90,1,180,0|0,1:0|1:0,0:0:0:0:
271,15,44112,5,0,0:0:0:0:
271,15,44187,1,0,0:0:0:0:
271,15,44262,2,0,P|219:23|180:35,1,90,2|0,1:2|2:0,2:0:0:0:
49,13,44562,2,0,P|61:119|63:173,1,135,0|0,1:2|2:0,2:0:0:0:
62,147,44862,2,0,P|54:212|52:255,1,90,0|0,1:2|2:0,2:0:0:0:
152,353,45162,1,0,1:0:0:0:
207,212,45312,1,0,1:0:0:0:
20,333,45462,70,0,B|115:307|116:350|205:319,1,180,6|0,1:2|1:0,0:0:0:0:
295,259,45912,1,0,2:0:0:0:
428,294,46062,2,0,P|432:359|430:399,1,90,0|0,1:0|2:0,0:0:0:0:
351,189,46362,2,0,P|347:124|349:84,1,90,0|0,1:0|2:0,0:0:0:0:
495,216,46662,6,0,P|431:248|318:214,1,180,2|0,1:2|1:0,0:0:0:0:
244,142,47112,1,0,0:0:0:0:
382,109,47262,2,0,P|442:99|488:81,1,90,0|0,1:0|0:0,0:0:0:0:
289,0,47562,2,0,P|273:84|271:150,1,135,0|0,1:0|0:0,0:0:0:0:
270,133,47862,70,0,B|181:115|176:157|76:130,1,180,2|0,1:2|1:0,0:0:0:0:
0,18,48312,1,0,0:0:0:0:
0,18,48387,1,0,0:0:0:0:
0,18,48462,2,0,P|-8:103|25:212,1,180,0|0,1:0|1:0,0:0:0:0:
136,302,48912,1,0,0:0:0:0:
11,362,49062,6,0,P|71:347|111:336,1,90,2|0,1:2|2:0,2:0:0:0:
266,203,49362,2,0,P|222:191|178:180,1,90,0|0,1:0|2:0,2:0:0:0:
42,279,49662,2,0,P|126:305|201:322,1,135,0|0,1:0|2:0,2:0:0:0:
171,316,49962,1,0,1:0:0:0:
274,218,50112,1,0,1:0:0:0:
405,343,50262,70,0,P|416:254|362:161,1,180,6|0,1:2|1:0,0:0:0:0:
269,143,50712,1,0,2:0:0:0:
475,66,50862,2,0,B|386:50|393:84|290:58,1,180,2|0,1:2|1:0,0:0:0:0:
148,10,51312,1,0,2:0:0:0:
197,116,51462,6,0,P|209:169|216:217,1,90,2|0,1:2|2:0,0:0:0:0:
24,202,51762,2,0,P|88:187|126:169,1,90,0|0,1:0|2:0,0:0:0:0:
304,300,52062,2,0,P|243:260|112:296,1,180,2|0,1:2|1:0,0:0:0:0:
89,384,52512,69,0,2:0:0:0:
89,384,52587,1,0,2:0:0:0:
89,384,52662,2,0,P|150:369|191:365,1,90,2|0,1:2|2:0,0:0:0:0:
283,195,52962,2,0,P|281:265|275:306,1,90,0|0,1:0|2:0,0:0:0:0:
15,245,53262,2,0,B|109:223|111:264|205:234,1,180,0|2,1:0|1:2,0:0:0:0:
296,111,53712,1,0,2:0:0:0:
142,150,53862,6,0,P|132:86|126:52,1,90,2|0,1:2|2:0,2:0:0:0:
294,0,54162,2,0,P|304:64|310:98,1,90,0|0,1:0|2:0,2:0:0:0:
303,231,54462,2,0,P|366:210|480:281,1,180,0|0,1:0|1:0,2:0:0:0:
470,365,54912,69,0,1:0:0:0:
470,365,54987,1,0,1:0:0:0:
470,365,55062,1,6,1:2:0:0:
387,295,55212,1,0,1:0:0:0:
316,363,55362,1,0,1:0:0:0:
242,299,55512,1,0,1:0:0:0:
168,359,55662,2,0,P|109:364|62:365,1,90,0|0,1:0|1:0,0:0:0:0:
6,215,55962,5,0,1:0:0:0:
6,215,56037,1,0,2:0:0:0:
6,215,56112,1,0,1:0:0:0:
6,215,56187,1,0,1:0:0:0:
6,215,56262,1,6,1:2:0:0:
83,119,56412,1,0,1:0:0:0:
144,224,56562,1,0,1:0:0:0:
215,124,56712,1,0,1:0:0:0:
291,238,56862,2,0,P|354:246|395:245,1,90,0|0,1:0|1:0,0:0:0:0:
478,108,57162,69,0,1:0:0:0:
478,108,57237,1,0,2:0:0:0:
478,108,57312,1,0,1:0:0:0:
478,108,57387,1,0,1:0:0:0:
478,108,57462,1,6,1:2:0:0:
341,157,57612,1,0,1:0:0:0:
333,17,57762,2,0,P|272:9|197:7,1,135,0|0,1:0|1:0,0:0:0:0:
198,6,58062,5,0,1:0:0:0:
171,157,58212,1,0,1:0:0:0:
34,108,58362,1,0,1:0:0:0:
122,58,58512,70,0,L|120:87,4,22.5,0|0|0|0|6,1:0|1:0|1:0|1:0|1:2,0:0:0:0:
107,204,58812,2,0,L|105:233,4,22.5,0|0|0|0|0,1:0|1:0|1:0|1:0|1:0,0:0:0:0:
102,346,59112,1,0,1:0:0:0:
102,346,59187,1,0,1:0:0:0:
102,346,59262,2,0,P|51:342|3:328,1,90,6|0,1:2|1:0,0:0:0:0:
217,228,59562,5,0,1:0:0:0:
217,228,59637,1,0,1:0:0:0:
350,370,59787,1,0,1:0:0:0:
350,370,59862,2,0,P|401:377|454:379,1,99,6|0,1:2|2:0,2:0:0:0:
217,228,60162,2,0,P|167:230|118:237,1,99,0|0,1:0|2:0,2:0:0:0:
404,240,60462,2,0,P|430:162|379:46,1,198,2|0,1:2|1:0,2:0:0:0:
297,30,60912,1,0,2:0:0:0:
199,201,61062,5,0,1:0:0:0:
199,201,61212,2,0,B|93:221|100:179|2:206,1,198,0|0,2:0|2:0,0:0:0:0:
156,117,61662,2,0,P|165:52|161:0,1,99,2|0,1:2|0:0,2:0:0:0:
62,290,61962,2,0,P|75:354|88:385,1,99,0|2,1:0|2:0,2:0:0:0:
87,384,62187,1,0,0:0:0:0:
87,384,62262,5,6,1:2:0:0:
257,299,62412,2,0,P|352:284|448:357,1,198
327,381,62862,1,2,1:2:0:0:
240,208,63012,2,0,P|174:206|127:197,2,99,0|0|0,0:0|1:0|0:0,0:0:0:0:
426,71,63462,69,0,1:0:0:0:
403,28,63537,1,0,0:0:0:0:
362,1,63612,1,0,0:0:0:0:
313,0,63687,1,0,0:0:0:0:
270,23,63762,2,0,P|279:85|280:125,1,99,0|0,1:0|0:0,0:0:0:0:
458,250,64062,2,0,P|449:188|448:148,1,99,2|0,1:2|0:0,0:0:0:0:
317,317,64362,1,0,1:0:0:0:
487,350,64512,1,0,1:0:0:0:
351,232,64662,6,0,B|254:216|255:254|146:221,1,198,6|0,1:2|1:0,2:0:0:0:
35,76,65112,1,0,2:0:0:0:
35,76,65187,1,0,0:0:0:0:
35,76,65262,1,2,1:2:0:0:
208,122,65412,2,0,P|290:126|374:44,1,198,0|0,0:0|2:0,0:0:0:0:
154,0,65862,69,0,1:0:0:0:
84,151,66012,2,0,B|94:236|126:360,1,198,0|0,2:0|2:0,0:0:0:0:
425,247,66462,2,0,P|354:235|284:286,1,148.5,2|2,1:2|2:0,2:0:0:0:
291,273,66762,2,0,P|235:269|186:253,1,99,0|2,1:0|2:0,2:0:0:0:
0,133,67062,6,0,P|82:144|177:50,1,198,6|0,1:2|1:0,0:0:0:0:
277,18,67512,1,0,0:0:0:0:
277,18,67587,1,0,0:0:0:0:
277,18,67662,1,2,1:2:0:0:
346,171,67812,1,0,0:0:0:0:
488,79,67962,2,0,P|427:62|376:61,1,99,0|0,1:0|0:0,0:0:0:0:
236,169,68262,69,0,1:0:0:0:
225,204,68337,1,0,0:0:0:0:
227,241,68412,1,0,0:0:0:0:
241,275,68487,1,0,0:0:0:0:
266,303,68562,2,0,P|306:312|321:318,3,49.5,0|0|0|0,1:0|0:0|0:0|0:0,0:0:0:0:
360,384,68862,2,0,P|369:327|414:230,1,144,0|2,1:2|1:2,0:0:0:0:
402,247,69237,1,0,1:0:0:0:
402,247,69312,1,0,1:0:0:0:
402,247,69387,1,0,1:0:0:0:
402,247,69462,6,0,P|448:239|509:230,1,99,6|0,1:2|0:0,0:0:0:0:
273,140,69762,2,0,P|227:148|166:157,1,99,0|0,1:0|0:0,0:0:0:0:
352,0,70062,2,0,P|387:62|343:198,1,198,2|0,1:2|1:0,0:0:0:0:
262,269,70512,1,0,2:0:0:0:
156,172,70662,69,0,1:0:0:0:
156,172,70812,2,0,P|142:88|140:57,2,99,0|0|0,2:0|1:0|2:0,0:0:0:0:
97,384,71262,1,2,1:2:0:0:
249,302,71412,1,0,0:0:0:0:
249,302,71487,1,2,2:0:0:0:
79,242,71637,1,0,0:0:0:0:
79,242,71712,1,2,2:0:0:0:
235,162,71862,6,0,B|338:133|351:172|441:140,1,198,6|0,1:2|1:0,0:0:0:0:
321,38,72312,1,0,0:0:0:0:
271,263,72462,2,0,P|217:278|93:201,1,198,2|0,1:2|1:0,0:0:0:0:
229,58,72912,69,0,0:0:0:0:
229,58,72987,1,0,0:0:0:0:
229,58,73062,2,0,P|243:112|251:165,1,99,0|0,1:0|0:0,0:0:0:0:
382,341,73362,1,0,1:0:0:0:
382,341,73437,2,0,P|390:292|402:244,1,99
402,244,73662,2,0,P|451:199|411:55,1,198,2|0,1:2|1:0,0:0:0:0:
321,8,74112,1,0,1:0:0:0:
171,102,74262,6,0,P|105:89|69:73,1,99,6|0,1:2|1:0,0:0:0:0:
341,282,74562,2,0,P|407:295|443:311,1,99,0|0,1:0|1:0,0:0:0:0:
138,202,74862,70,0,P|82:214|35:219,1,99,2|0,1:2|1:0,0:0:0:0:
374,182,75162,2,0,P|430:170|477:165,1,99,0|0,1:0|1:0,0:0:0:0:
471,165,75387,1,0,1:0:0:0:
471,165,75462,1,4,1:2:0:0:
457,23,75612,1,0,1:0:0:0:
342,29,75762,6,0,P|302:85|284:123,1,99,0|0,1:0|1:0,0:0:0:0:
170,355,76062,2,0,P|210:299|228:261,1,99,2|0,1:2|1:0,0:0:0:0:
256,189,76362,69,0,1:0:0:0:
320,329,76512,1,2,1:2:0:0:
320,329,76587,1,0,1:0:0:0:
320,329,76662,2,0,P|390:348|432:352,1,99,2|0,1:2|1:0,0:0:0:0:
391,151,76962,1,0,1:0:0:0:
209,273,77112,1,0,1:0:0:0:
209,273,77187,1,0,1:0:0:0:
209,273,77262,2,0,B|145:288|135:259|28:288,2,148.5,6|4|0,1:2|1:2|1:0,2:0:0:0:
158,83,77862,6,0,P|153:143|143:194,1,99,4|0,1:2|1:0,0:0:0:0:
305,362,78162,2,0,P|310:302|320:251,1,99,6|0,1:2|1:0,0:0:0:0:
461,110,78462,1,2,1:2:0:0:
417,87,78537,1,0,1:0:0:0:
368,83,78612,1,0,1:0:0:0:
321,98,78687,1,0,1:0:0:0:
281,126,78762,2,0,P|258:121|222:110,3,49.5,2|0|0|0,1:2|1:0|1:0|1:0,0:0:0:0:
187,48,79062,5,6,1:2:0:0:
112,303,80262,1,2,2:0:0:0:
375,364,80862,1,2,2:0:0:0:
442,102,81462,1,2,2:0:0:0:
26,172,82662,5,2,2:0:0:0:
136,230,82962,1,2,2:0:0:0:
258,174,83262,69,2,2:0:0:0:
368,232,83462,1,2,2:0:0:0:
481,178,83662,1,2,2:0:0:0:
481,178,83862,1,2,2:0:0:0:
26,172,84462,1,2,2:0:0:0:
258,174,85062,5,6,1:2:0:0:
256,192,85137,12,0,89862,2:0:0:0:
