osu file format v14

[General]
AudioFilename: audio.mp3
AudioLeadIn: 0
PreviewTime: 59787
Countdown: 0
SampleSet: Soft
StackLeniency: 0.7
Mode: 0
LetterboxInBreaks: 0
WidescreenStoryboard: 1

[Editor]
Bookmarks: 2262,21462,59862,79062
DistanceSpacing: 1
BeatDivisor: 8
GridSize: 8
TimelineZoom: 5.999996

[Metadata]
Title:Blue Zenith (Cut Ver.)
TitleUnicode:Blue Zenith (Cut Ver.)
Artist:xi
ArtistUnicode:xi
Creator:Sotarks
Version:A r M i N's Extreme
Source:
Tags:parousia electronic instrumental short edit version wysi 727 featured artist fa akitoshi corinn pepekcz sanairrt kowari -laura uberfazz kujinn reform sytho matthewrigaud11 armin A_r_M_i_N schoolboy komore nino snownino_ vaporfly red crewmate god haachama
BeatmapID:3563444
BeatmapSetID:1737645

[Difficulty]
HPDrainRate:5.4
CircleSize:4
OverallDifficulty:9
ApproachRate:9.3
SliderMultiplier:1.8
SliderTickRate:1

[Events]
//Background and Video events
0,0,"727.jpg",0,0
//Break Periods
//Storyboard Layer 0 (Background)
//Storyboard Layer 1 (Fail)
//Storyboard Layer 2 (Pass)
//Storyboard Layer 3 (Foreground)
//Storyboard Layer 4 (Overlay)
//Storyboard Sound Samples

[TimingPoints]
2262,300,4,2,1,52,1,0
2262,-166.666666666667,4,2,1,52,0,0
7062,-125,4,2,1,52,0,0
8262,-166.666666666667,4,2,1,52,0,0
10662,-125,4,2,1,52,0,0
12162,-111.111111111111,4,2,1,52,0,0
19062,-111.111111111111,4,2,1,62,0,0
21462,-111.111111111111,4,2,2,72,0,0
21537,-111.111111111111,4,2,1,72,0,0
22062,-100,4,2,1,72,0,0
22662,-100,4,2,3,72,0,0
22737,-100,4,2,1,72,0,0
23862,-100,4,2,4,72,0,0
23937,-100,4,2,1,72,0,0
25062,-100,4,2,5,72,0,0
25137,-100,4,2,1,72,0,0
26262,-100,4,2,2,72,0,0
26337,-100,4,2,1,72,0,0
27462,-100,4,2,3,72,0,0
27537,-100,4,2,1,72,0,0
28662,-100,4,2,6,72,0,0
28737,-100,4,2,1,72,0,0
29862,-100,4,2,4,72,0,0
29937,-100,4,2,1,72,0,0
31062,-100,4,2,7,72,0,0
31137,-100,4,2,1,72,0,0
32262,-100,4,2,6,72,0,0
32337,-100,4,2,1,72,0,0
33462,-100,4,2,7,72,0,0
33537,-100,4,2,1,72,0,0
34662,-100,4,2,8,72,0,0
34737,-100,4,2,1,72,0,0
35262,-100,4,2,9,72,0,0
35337,-100,4,2,1,72,0,0
35862,-100,4,2,6,72,0,0
35937,-100,4,2,1,72,0,0
37662,-100,4,2,10,72,0,0
37737,-100,4,2,1,72,0,0
38262,-100,4,2,3,72,0,0
39462,-100,4,2,7,72,0,0
40662,-100,4,2,2,72,0,0
40737,-100,4,2,1,72,0,0
41862,-100,4,2,3,72,0,0
41937,-100,4,2,1,72,0,0
43062,-100,4,2,2,72,0,0
43137,-100,4,2,1,72,0,0
44262,-100,4,2,6,72,0,0
44337,-100,4,2,1,72,0,0
45462,-100,4,2,6,72,0,0
45537,-100,4,2,1,72,0,0
46662,-100,4,2,7,72,0,0
46737,-100,4,2,1,72,0,0
47862,-100,4,2,7,72,0,0
47937,-100,4,2,1,72,0,0
49062,-100,4,2,11,72,0,0
49137,-100,4,2,1,72,0,0
50862,-100,4,2,8,72,0,0
50937,-100,4,2,1,72,0,0
51462,-100,4,2,9,72,0,0
51537,-100,4,2,1,72,0,0
52062,-100,4,2,12,72,0,0
52137,-100,4,2,1,72,0,0
52662,-100,4,2,7,72,0,0
52737,-100,4,2,1,72,0,0
53862,-100,4,2,2,72,0,0
53937,-100,4,2,1,72,0,0
55062,-100,4,2,6,72,0,0
56262,-100,4,2,1,72,0,0
57462,-100,4,2,13,72,0,0
57537,-100,4,2,1,72,0,0
58662,-100,4,2,14,72,0,0
58737,-100,4,2,1,72,0,0
59262,-100,4,2,15,72,0,0
59862,-100,4,2,16,82,0,1
59937,-100,4,2,1,82,0,1
60162,-83.3333333333333,4,2,1,82,0,1
60462,-83.3333333333333,4,2,2,82,0,1
60537,-83.3333333333333,4,2,1,82,0,1
61662,-83.3333333333333,4,2,17,82,0,1
61887,-83.3333333333333,4,2,18,82,0,1
61962,-83.3333333333333,4,2,1,82,0,1
62112,-83.3333333333333,4,2,19,82,0,1
62262,-83.3333333333333,4,2,20,82,0,1
62337,-83.3333333333333,4,2,1,82,0,1
62862,-83.3333333333333,4,2,2,82,0,1
62937,-83.3333333333333,4,2,1,82,0,1
64062,-83.3333333333333,4,2,16,82,0,1
64137,-83.3333333333333,4,2,1,82,0,1
64662,-83.3333333333333,4,2,16,82,0,1
64737,-83.3333333333333,4,2,1,82,0,1
65262,-83.3333333333333,4,2,2,82,0,1
65337,-83.3333333333333,4,2,1,82,0,1
66462,-83.3333333333333,4,2,21,82,0,1
66687,-83.3333333333333,4,2,17,82,0,1
66912,-83.3333333333333,4,2,18,82,0,1
67062,-83.3333333333333,4,2,15,82,0,1
67137,-83.3333333333333,4,2,1,82,0,1
67662,-83.3333333333333,4,2,22,82,0,1
69162,-83.3333333333333,4,2,23,82,0,1
69462,-83.3333333333333,4,2,16,82,0,1
69537,-83.3333333333333,4,2,1,82,0,1
70062,-83.3333333333333,4,2,2,82,0,1
70137,-83.3333333333333,4,2,1,82,0,1
70512,-83.3333333333333,4,2,1,82,0,1
71262,-83.3333333333333,4,2,17,82,0,1
71487,-83.3333333333333,4,2,18,82,0,1
71562,-83.3333333333333,4,2,1,82,0,1
71712,-83.3333333333333,4,2,19,82,0,1
71862,-83.3333333333333,4,2,20,82,0,1
71937,-83.3333333333333,4,2,1,82,0,1
72462,-83.3333333333333,4,2,2,82,0,1
72537,-83.3333333333333,4,2,1,82,0,1
73662,-83.3333333333333,4,2,16,82,0,1
73737,-83.3333333333333,4,2,1,82,0,1
74262,-83.3333333333333,4,2,16,82,0,1
74862,-83.3333333333333,4,2,2,82,0,1
76062,-83.3333333333333,4,2,17,82,0,1
76512,-83.3333333333333,4,2,19,82,0,1
76662,-83.3333333333333,4,2,20,82,0,1
77262,-83.3333333333333,4,2,24,82,0,1
77412,-83.3333333333333,4,2,1,82,0,1
78162,-83.3333333333333,4,2,25,82,0,1
78412,-83.3333333333333,4,2,1,82,0,1
78462,-83.3333333333333,4,2,26,82,0,1
78762,-83.3333333333333,4,2,25,82,0,1
79062,-83.3333333333333,4,2,27,62,0,0
80262,-250,4,2,28,62,0,0
80862,-250,4,2,29,62,0,0
81462,-250,4,2,22,62,0,0
82662,-250,4,2,18,62,0,0
82962,-250,4,2,19,62,0,0
83462,-250,4,2,30,62,0,0
83662,-250,4,2,18,62,0,0
83862,-250,4,2,29,62,0,0
84462,-250,4,2,31,62,0,0
85062,-250,4,2,1,62,0,0

[Colours]
Combo1 : 23,198,255
Combo2 : 187,192,198
Combo3 : 130,130,130
Combo4 : 148,156,216
Combo5 : 94,135,204
Combo6 : 11,62,238

[HitObjects]
331,217,2262,6,0,B|322:267|322:267|323:271|323:271|312:322,3,108,4|0|0|0,1:2|1:0|1:0|1:0,2:0:0:0:
413,159,3462,6,0,P|466:158|512:131,3,108,0|0|0|0,1:0|1:0|1:0|1:0,2:0:0:0:
323,116,4662,70,0,P|296:69|249:43,3,108,0|0|0|0,1:0|1:0|1:0|1:0,2:0:0:0:
120,161,5862,6,0,B|171:150|171:150|175:151|175:151|226:143,3,108,0|0|0|0,1:0|1:0|1:0|1:0,2:0:0:0:
402,160,7062,6,0,P|417:155|439:149,3,36,2|2|2|2,1:2|2:0|2:0|2:0,2:0:0:0:
271,240,7362,2,0,P|253:235|236:229,3,36,2|2|2|2,1:2|2:0|2:0|2:0,2:0:0:0:
402,261,7662,6,0,P|385:266|368:272,3,36,2|2|2|2,1:2|2:0|2:0|2:0,2:0:0:0:
303,144,7962,2,0,P|285:139|268:133,3,36,2|2|2|2,1:2|2:0|2:0|2:0,2:0:0:0:
139,234,8262,70,0,L|146:259,3,26.9999999999999,2|2|2|2,1:2|2:0|2:0|2:0,2:0:0:0:
59,170,8562,2,0,L|66:144,3,26.9999999999999,2|2|2|2,1:2|2:0|2:0|2:0,2:0:0:0:
174,111,8862,6,0,L|167:137,3,26.9999999999999,2|2|2|2,1:2|2:0|2:0|2:0,2:0:0:0:
97,46,9162,2,0,L|89:20,3,26.9999999999999,2|2|2|2,1:2|2:0|2:0|2:0,2:0:0:0:
261,60,9462,38,0,L|314:50,1,53.9999999999999,2|0,1:2|2:0,2:0:0:0:
433,137,9762,2,0,L|380:128,1,53.9999999999999,0|0,1:0|2:0,2:0:0:0:
247,184,10062,5,0,1:0:0:0:
243,193,10137,1,0,2:0:0:0:
241,203,10212,1,0,2:0:0:0:
240,213,10287,1,0,2:0:0:0:
241,223,10362,1,0,1:0:0:0:
243,233,10437,1,0,2:0:0:0:
246,243,10512,1,0,2:0:0:0:
251,252,10587,1,0,2:0:0:0:
257,260,10662,70,0,L|293:267,1,36,0|0,1:0|2:0,2:0:0:0:
398,321,10812,2,0,L|391:286,1,36,0|0,2:0|2:0,2:0:0:0:
250,361,10962,5,0,1:0:0:0:
230,364,11037,1,0,2:0:0:0:
210,368,11112,1,0,2:0:0:0:
190,371,11187,1,0,2:0:0:0:
170,375,11262,2,0,L|135:367,1,36,0|0,1:0|2:0,2:0:0:0:
94,217,11412,69,0,2:0:0:0:
94,217,11487,1,0,2:0:0:0:
94,217,11562,2,0,P|103:246|104:259,1,36,0|0,1:0|2:0,2:0:0:0:
37,365,11712,2,0,L|44:329,1,36,0|0,1:0|2:0,2:0:0:0:
194,211,11862,5,4,1:2:0:0:
222,199,11937,1,0,2:0:0:0:
252,200,12012,1,0,2:0:0:0:
279,213,12087,1,0,2:0:0:0:
299,235,12162,2,0,P|302:254|308:274,3,40.5,0|0|0|0,1:0|2:0|2:0|2:0,2:0:0:0:
376,324,12462,2,0,P|395:327|415:333,3,40.5,0|0|0|0,1:0|2:0|2:0|2:0,2:0:0:0:
465,265,12762,2,0,P|484:261|504:255,3,40.5,0|0|0|0,1:0|2:0|2:0|2:0,2:0:0:0:
392,178,13062,69,0,1:0:0:0:
387,148,13137,1,0,2:0:0:0:
382,118,13212,1,0,2:0:0:0:
377,88,13287,1,0,2:0:0:0:
372,58,13362,2,0,P|352:51|332:49,3,40.5,0|0|0|0,1:0|2:0|2:0|2:0,2:0:0:0:
263,3,13662,2,0,P|243:9|223:11,3,40.5,0|0|0|0,1:0|2:0|2:0|2:0,2:0:0:0:
163,70,13962,2,0,L|159:118,3,40.5,0|0|0|0,1:0|2:0|2:0|2:0,2:0:0:0:
77,182,14262,5,0,1:0:0:0:
81,212,14337,1,0,2:0:0:0:
85,242,14412,1,0,2:0:0:0:
90,272,14487,1,0,2:0:0:0:
94,302,14562,2,0,P|123:311|143:321,3,40.5,0|0|0|0,1:0|2:0|2:0|2:0,2:0:0:0:
205,359,14862,2,0,P|234:350|254:340,3,40.5,0|0|0|0,1:0|2:0|2:0|2:0,2:0:0:0:
288,274,15162,2,0,L|280:234,3,40.5,0|0|0|0,1:0|2:0|2:0|2:0,2:0:0:0:
323,123,15462,69,0,1:0:0:0:
343,101,15537,1,0,2:0:0:0:
371,89,15612,1,0,2:0:0:0:
401,88,15687,1,0,2:0:0:0:
429,100,15762,2,0,P|436:129|445:151,3,40.5,0|0|0|0,1:0|2:0|2:0|2:0,2:0:0:0:
402,217,16062,2,0,L|356:208,3,40.5,0|0|0|0,1:0|2:0|2:0|2:0,2:0:0:0:
391,306,16362,2,0,L|402:352,1,40.5,0|0,1:0|2:0,2:0:0:0:
481,291,16512,2,0,L|490:251,1,40.5,0|0,1:0|2:0,2:0:0:0:
306,361,16662,21,6,1:2:0:0:
275,356,16737,1,2,2:0:0:0:
245,352,16812,1,2,2:0:0:0:
215,348,16887,1,0,2:0:0:0:
186,344,16962,2,0,L|140:337,3,40.5,2|2|2|0,1:2|2:0|2:0|2:0,2:0:0:0:
104,252,17262,5,2,1:2:0:0:
90,224,17337,1,2,2:0:0:0:
88,194,17412,1,2,2:0:0:0:
96,165,17487,1,0,2:0:0:0:
115,141,17562,2,0,L|160:131,1,40.5,2|0,1:2|2:0,2:0:0:0:
70,68,17712,2,0,L|25:58,1,40.5,2|0,1:0|2:0,2:0:0:0:
162,22,17862,37,4,1:2:0:0:
192,17,17937,1,0,2:0:0:0:
222,13,18012,1,0,2:0:0:0:
252,8,18087,1,0,2:0:0:0:
282,4,18162,2,0,P|294:31|296:60,3,40.5,0|0|0|0,1:0|2:0|2:0|2:0,2:0:0:0:
369,107,18462,5,0,1:0:0:0:
361,136,18537,1,0,2:0:0:0:
355,166,18612,1,0,2:0:0:0:
351,196,18687,1,0,2:0:0:0:
349,226,18762,2,0,P|329:230|309:235,1,40.5,0|0,1:0|2:0,2:0:0:0:
416,280,18912,2,0,P|435:284|455:289,1,40.5,0|0,1:0|2:0,2:0:0:0:
244,332,19062,69,6,1:2:0:0:
183,166,19212,1,2,2:0:0:0:
269,325,19362,1,2,1:2:0:0:
158,173,19512,1,2,2:0:0:0:
294,318,19662,1,2,2:0:0:0:
133,180,19812,1,2,2:0:0:0:
319,311,19962,1,2,2:0:0:0:
108,187,20112,1,2,2:0:0:0:
341,45,20262,5,6,2:0:0:0:
237,207,20412,1,2,2:0:0:0:
229,201,20487,2,0,L|212:117,1,81.0000000000001,2|0,2:0|2:0,2:0:0:0:
134,82,20712,1,2,2:0:0:0:
110,102,20787,1,0,2:0:0:0:
98,130,20862,1,6,2:0:0:0:
97,159,20937,1,0,2:0:0:0:
108,187,21012,1,2,2:0:0:0:
313,290,21162,2,0,L|337:170,1,121.5,6|0,2:0|2:0,2:0:0:0:
360,88,21462,5,6,1:2:0:0:
381,63,21537,1,0,2:0:0:0:
409,50,21612,1,0,2:0:0:0:
441,48,21687,1,0,2:0:0:0:
470,61,21762,1,0,1:0:0:0:
493,83,21837,1,0,2:0:0:0:
506,112,21912,1,0,2:0:0:0:
505,144,21987,1,0,2:0:0:0:
491,173,22062,2,0,P|483:193|482:220,3,45,0|0|0|0,1:0|2:0|2:0|2:0,2:0:0:0:
396,265,22362,2,0,P|392:242|384:221,3,45,0|0|0|0,1:0|2:0|2:0|2:0,2:0:0:0:
281,162,22662,5,2,1:2:0:0:
251,147,22737,1,0,2:0:0:0:
219,151,22812,1,0,2:0:0:0:
193,169,22887,1,0,2:0:0:0:
179,198,22962,1,0,1:0:0:0:
166,227,23037,1,0,2:0:0:0:
140,245,23112,1,0,2:0:0:0:
107,248,23187,1,0,2:0:0:0:
77,234,23262,2,0,P|72:214|63:193,3,45,0|0|0|0,1:0|2:0|2:0|2:0,2:0:0:0:
100,100,23562,2,0,P|105:78|113:57,3,45,0|0|0|0,1:0|2:0|2:0|2:0,2:0:0:0:
239,28,23862,69,2,1:2:0:0:
270,21,23937,1,0,2:0:0:0:
301,28,24012,1,0,2:0:0:0:
327,46,24087,1,0,2:0:0:0:
345,74,24162,1,0,1:0:0:0:
348,106,24237,1,0,2:0:0:0:
339,137,24312,1,0,2:0:0:0:
318,161,24387,1,0,2:0:0:0:
289,175,24462,2,0,L|245:168,3,45,0|0|0|0,1:0|2:0|2:0|2:0,2:0:0:0:
183,91,24762,2,0,L|137:98,3,45,0|0|0|0,1:0|2:0|2:0|2:0,2:0:0:0:
30,186,25062,5,2,1:2:0:0:
25,218,25137,1,0,2:0:0:0:
33,249,25212,1,0,2:0:0:0:
51,275,25287,1,0,2:0:0:0:
77,294,25362,1,0,1:0:0:0:
108,302,25437,1,0,2:0:0:0:
140,300,25512,1,0,2:0:0:0:
169,287,25587,1,0,2:0:0:0:
192,263,25662,2,0,P|187:245|178:219,3,45,0|0|0|0,1:0|2:0|2:0|2:0,2:0:0:0:
240,143,25962,2,0,P|245:121|252:99,3,45,0|0|0|0,1:0|2:0|2:0|2:0,2:0:0:0:
352,38,26262,69,6,1:2:0:0:
382,29,26337,1,0,2:0:0:0:
415,32,26412,1,0,2:0:0:0:
443,46,26487,1,0,2:0:0:0:
466,68,26562,1,0,1:0:0:0:
479,98,26637,1,0,2:0:0:0:
482,130,26712,1,0,2:0:0:0:
473,161,26787,1,0,2:0:0:0:
454,187,26862,2,0,P|434:190|411:197,3,45,0|0|0|0,1:0|2:0|2:0|2:0,2:0:0:0:
359,280,27162,2,0,P|336:276|315:269,3,45,0|0|0|0,1:0|2:0|2:0|2:0,2:0:0:0:
245,163,27462,5,2,1:2:0:0:
219,144,27537,1,0,2:0:0:0:
186,138,27612,1,0,2:0:0:0:
156,146,27687,1,0,2:0:0:0:
131,165,27762,1,0,1:0:0:0:
117,194,27837,1,0,2:0:0:0:
116,227,27912,1,0,2:0:0:0:
130,256,27987,1,0,2:0:0:0:
154,277,28062,2,0,P|162:295|168:319,3,45,0|0|0|0,1:0|2:0|2:0|2:0,2:0:0:0:
249,372,28362,2,0,P|254:350|264:330,3,45,0|0|0|0,1:0|2:0|2:0|2:0,2:0:0:0:
364,256,28662,69,2,1:2:0:0:
377,227,28737,1,0,2:0:0:0:
378,194,28812,1,0,2:0:0:0:
366,165,28887,1,0,2:0:0:0:
343,142,28962,1,0,1:0:0:0:
319,120,29037,1,0,2:0:0:0:
307,89,29112,1,0,2:0:0:0:
308,58,29187,1,0,2:0:0:0:
321,28,29262,2,0,P|341:24|364:16,3,45,0|0|0|0,1:0|2:0|2:0|2:0,2:0:0:0:
453,59,29562,2,0,P|475:62|496:69,3,45,0|0|0|0,1:0|2:0|2:0|2:0,2:0:0:0:
366,165,29862,5,2,1:2:0:0:
333,170,29937,1,0,2:0:0:0:
302,175,30012,1,0,2:0:0:0:
269,181,30087,1,0,2:0:0:0:
248,205,30162,1,0,1:0:0:0:
216,199,30237,1,0,2:0:0:0:
184,193,30312,1,0,2:0:0:0:
152,188,30387,1,0,2:0:0:0:
127,209,30462,2,0,L|83:217,3,45,0|0|0|0,1:0|2:0|2:0|2:0,2:0:0:0:
11,136,30762,70,0,P|6:114|0:92,1,45,0|0,1:0|2:0,2:0:0:0:
148,6,30912,2,0,P|141:27|136:49,1,45,0|0,1:0|2:0,2:0:0:0:
216,199,31062,5,2,1:2:0:0:
239,220,31137,1,0,2:0:0:0:
268,234,31212,1,0,2:0:0:0:
300,236,31287,1,0,2:0:0:0:
331,228,31362,1,0,1:0:0:0:
358,210,31437,1,0,2:0:0:0:
377,184,31512,1,0,2:0:0:0:
386,154,31587,1,0,2:0:0:0:
385,121,31662,2,0,P|376:102|373:79,3,45,0|0|0|0,1:0|2:0|2:0|2:0,2:0:0:0:
305,6,31962,2,0,P|283:-1|261:0,3,45,0|0|0|0,1:0|2:0|2:0|2:0,2:0:0:0:
149,56,32262,69,2,1:2:0:0:
167,82,32337,1,0,2:0:0:0:
184,110,32412,1,0,2:0:0:0:
195,140,32487,1,0,2:0:0:0:
204,171,32562,1,0,1:0:0:0:
209,203,32637,1,0,2:0:0:0:
210,236,32712,1,0,2:0:0:0:
206,268,32787,1,0,2:0:0:0:
199,299,32862,2,0,P|178:303|158:314,3,45,0|0|0|0,1:0|2:0|2:0|2:0,2:0:0:0:
83,379,33162,2,0,P|60:374|40:365,3,45,0|0|0|0,1:0|2:0|2:0|2:0,2:0:0:0:
24,222,33462,5,2,1:2:0:0:
25,189,33537,1,0,2:0:0:0:
37,159,33612,1,0,2:0:0:0:
58,134,33687,1,0,2:0:0:0:
85,117,33762,1,0,1:0:0:0:
116,109,33837,1,0,2:0:0:0:
148,111,33912,1,0,2:0:0:0:
178,123,33987,1,0,2:0:0:0:
202,144,34062,2,0,P|205:163|214:186,3,45,0|0|0|0,1:0|2:0|2:0|2:0,2:0:0:0:
300,235,34362,2,0,P|322:239|342:248,3,45,0|0|0|0,1:0|2:0|2:0|2:0,2:0:0:0:
445,187,34662,69,2,1:2:0:0:
463,160,34737,1,0,2:0:0:0:
470,129,34812,1,0,2:0:0:0:
464,98,34887,1,0,2:0:0:0:
445,72,34962,1,0,1:0:0:0:
417,56,35037,1,0,2:0:0:0:
385,51,35112,2,0,P|370:63|345:70,1,45,0|0,2:0|2:0,2:0:0:0:
206,34,35262,5,2,1:2:0:0:
199,65,35337,1,0,2:0:0:0:
194,96,35412,1,0,2:0:0:0:
188,129,35487,1,0,2:0:0:0:
182,160,35562,2,0,L|174:204,1,45,0|0,1:0|2:0,2:0:0:0:
25,281,35712,2,0,L|17:236,1,45,0|0,1:0|2:0,2:0:0:0:
162,338,35862,69,6,1:2:0:0:
191,351,35937,1,0,2:0:0:0:
223,348,36012,1,0,2:0:0:0:
250,331,36087,1,0,2:0:0:0:
266,304,36162,1,0,1:0:0:0:
282,277,36237,1,0,2:0:0:0:
309,260,36312,1,0,2:0:0:0:
342,257,36387,1,0,2:0:0:0:
370,269,36462,2,0,P|388:280|411:286,3,45,0|0|0|0,1:0|2:0|2:0|2:0,2:0:0:0:
491,228,36762,2,0,P|496:206|507:186,3,45,0|0|0|0,1:0|2:0|2:0|2:0,2:0:0:0:
424,94,37062,5,0,1:0:0:0:
404,67,37137,1,0,2:0:0:0:
378,49,37212,1,0,2:0:0:0:
347,40,37287,1,0,2:0:0:0:
315,40,37362,1,0,1:0:0:0:
284,51,37437,1,0,2:0:0:0:
259,72,37512,1,0,2:0:0:0:
242,99,37587,1,0,2:0:0:0:
234,130,37662,2,0,L|249:218,1,90,2|0,1:2|2:0,2:0:0:0:
120,350,37962,1,0,1:0:0:0:
336,239,38112,1,0,1:0:0:0:
93,192,38262,69,6,1:2:0:0:
275,305,38412,1,0,1:0:0:0:
153,121,38562,1,0,1:0:0:0:
120,350,38712,1,0,1:0:0:0:
62,105,38862,5,0,1:0:0:0:
249,216,39012,1,0,1:0:0:0:
119,33,39162,1,0,1:0:0:0:
185,283,39312,1,0,1:0:0:0:
188,293,39387,1,0,1:0:0:0:
192,302,39462,69,6,1:2:0:0:
352,110,39612,1,0,1:0:0:0:
102,243,39762,1,0,1:0:0:0:
413,329,39912,1,0,1:0:0:0:
224,78,40062,5,0,1:0:0:0:
230,113,40137,1,0,1:0:0:0:
236,148,40212,2,0,L|213:151,1,22.5,0|0,1:0|1:0,2:0:0:0:
242,184,40287,2,0,L|264:180,1,22.5,0|0,1:0|1:0,2:0:0:0:
249,219,40362,1,0,1:0:0:0:
255,255,40437,1,0,1:0:0:0:
261,290,40512,1,0,1:0:0:0:
267,326,40587,1,0,1:0:0:0:
274,361,40662,70,0,L|186:346,1,90,6|0,1:2|2:0,2:0:0:0:
13,191,40962,1,0,1:0:0:0:
30,164,41037,1,0,2:0:0:0:
58,147,41112,1,0,2:0:0:0:
90,144,41187,1,0,2:0:0:0:
120,155,41262,2,0,L|127:199,3,45,0|0|0|0,1:0|2:0|2:0|2:0,2:0:0:0:
218,238,41562,2,0,L|226:194,3,45,0|0|0|0,1:0|2:0|2:0|2:0,2:0:0:0:
306,98,41862,5,2,1:2:0:0:
336,93,41937,1,0,2:0:0:0:
367,98,42012,1,0,2:0:0:0:
394,114,42087,1,0,2:0:0:0:
414,139,42162,1,0,1:0:0:0:
425,168,42237,1,0,2:0:0:0:
425,199,42312,1,0,2:0:0:0:
414,229,42387,1,0,2:0:0:0:
395,253,42462,2,0,P|362:259|340:271,3,45,0|0|0|0,1:0|2:0|2:0|2:0,2:0:0:0:
285,336,42762,2,0,P|252:330|230:318,3,45,0|0|0|0,1:0|2:0|2:0|2:0,2:0:0:0:
183,201,43062,69,2,1:2:0:0:
162,177,43137,1,0,2:0:0:0:
135,162,43212,1,0,2:0:0:0:
104,157,43287,1,0,2:0:0:0:
73,163,43362,1,0,1:0:0:0:
47,180,43437,1,0,2:0:0:0:
27,204,43512,1,0,2:0:0:0:
17,234,43587,1,0,2:0:0:0:
18,266,43662,2,0,P|24:287|29:309,3,45,0|0|0|0,1:0|2:0|2:0|2:0,2:0:0:0:
117,353,43962,2,0,P|122:331|128:309,3,45,0|0|0|0,1:0|2:0|2:0|2:0,2:0:0:0:
216,238,44262,5,2,1:2:0:0:
235,213,44337,1,0,2:0:0:0:
262,197,44412,1,0,2:0:0:0:
293,194,44487,1,0,2:0:0:0:
323,203,44562,1,0,1:2:0:0:
342,228,44637,1,0,2:0:0:0:
369,244,44712,1,0,2:0:0:0:
400,247,44787,1,0,2:0:0:0:
430,238,44862,2,0,P|435:217|445:190,3,45,0|0|0|0,1:2|2:0|2:0|2:0,2:0:0:0:
379,95,45162,70,0,L|334:104,1,45,0|0,1:0|2:0,2:0:0:0:
459,0,45312,2,0,L|504:9,1,45,0|0,1:0|2:0,2:0:0:0:
338,4,45462,5,6,1:2:0:0:
306,7,45537,1,0,2:0:0:0:
278,20,45612,1,0,2:0:0:0:
255,41,45687,1,0,2:0:0:0:
239,68,45762,1,0,1:0:0:0:
233,99,45837,1,0,2:0:0:0:
236,130,45912,1,0,2:0:0:0:
249,159,45987,1,0,2:0:0:0:
270,182,46062,2,0,P|282:212|285:240,3,45,0|0|0|0,1:0|2:0|2:0|2:0,2:0:0:0:
346,302,46362,2,0,P|366:311|388:316,3,45,0|0|0|0,1:0|2:0|2:0|2:0,2:0:0:0:
223,340,46662,69,2,1:2:0:0:
197,358,46737,1,0,2:0:0:0:
167,367,46812,1,0,2:0:0:0:
136,368,46887,1,0,2:0:0:0:
106,359,46962,1,0,1:0:0:0:
80,341,47037,1,0,2:0:0:0:
60,317,47112,1,0,2:0:0:0:
49,288,47187,1,0,2:0:0:0:
47,256,47262,2,0,L|92:246,3,45,0|0|0|0,1:0|2:0|2:0|2:0,2:0:0:0:
153,169,47562,2,0,L|162:125,3,45,0|0|0|0,1:0|2:0|2:0|2:0,2:0:0:0:
259,32,47862,5,2,1:2:0:0:
284,14,47937,1,0,2:0:0:0:
314,4,48012,1,0,2:0:0:0:
346,4,48087,1,0,2:0:0:0:
376,13,48162,1,0,1:0:0:0:
402,30,48237,1,0,2:0:0:0:
422,54,48312,1,0,2:0:0:0:
434,83,48387,1,0,2:0:0:0:
437,114,48462,2,0,P|429:141|427:168,3,45,0|0|0|0,1:0|2:0|2:0|2:0,2:0:0:0:
359,229,48762,2,0,P|367:256|369:283,3,45,0|0|0|0,1:0|2:0|2:0|2:0,2:0:0:0:
282,352,49062,69,2,1:2:0:0:
253,364,49137,1,0,2:0:0:0:
222,364,49212,1,0,2:0:0:0:
193,350,49287,1,0,2:0:0:0:
173,327,49362,1,0,1:0:0:0:
152,303,49437,1,0,2:0:0:0:
124,290,49512,1,0,2:0:0:0:
93,289,49587,1,0,2:0:0:0:
64,302,49662,2,0,P|57:329|57:367,3,45,0|0|0|0,1:0|2:0|2:0|2:0,2:0:0:0:
152,195,49962,6,0,L|203:185,1,45,0|0,1:0|2:0,2:0:0:0:
44,108,50112,2,0,L|-7:98,1,45,0|0,1:0|2:0,2:0:0:0:
162,27,50262,69,6,1:2:0:0:
187,9,50337,1,0,2:0:0:0:
218,1,50412,1,0,2:0:0:0:
249,3,50487,1,0,2:0:0:0:
278,15,50562,1,0,1:0:0:0:
301,36,50637,1,0,2:0:0:0:
316,64,50712,2,0,P|310:85|306:107,1,45,0|0,2:0|2:0,2:0:0:0:
345,279,50862,5,2,1:2:0:0:
370,297,50937,1,0,2:0:0:0:
401,305,51012,1,0,2:0:0:0:
432,303,51087,1,0,2:0:0:0:
461,291,51162,1,0,1:0:0:0:
484,270,51237,1,0,2:0:0:0:
499,241,51312,2,0,P|493:219|489:197,1,45,0|0,2:0|2:0,2:0:0:0:
283,203,51462,69,2,1:2:0:0:
251,208,51537,1,0,2:0:0:0:
220,213,51612,1,0,2:0:0:0:
189,219,51687,1,0,2:0:0:0:
158,224,51762,1,0,1:0:0:0:
127,230,51837,1,0,2:0:0:0:
96,235,51912,2,0,P|87:218|83:190,1,45,0|0,2:0|2:0,2:0:0:0:
214,94,52062,5,2,1:2:0:0:
246,99,52137,1,0,2:0:0:0:
277,104,52212,1,0,2:0:0:0:
308,110,52287,1,0,2:0:0:0:
339,115,52362,1,0,1:0:0:0:
370,121,52437,1,0,2:0:0:0:
401,126,52512,2,0,P|408:147|409:169,1,45,0|0,2:0|2:0,2:0:0:0:
308,257,52662,70,0,L|350:271,3,45,2|0|0|0,1:2|2:0|2:0|2:0,2:0:0:0:
298,355,52962,2,0,L|264:384,3,45,0|0|0|0,1:0|2:0|2:0|2:0,2:0:0:0:
218,297,53262,2,0,L|209:252,3,45,0|0|0|0,1:0|2:0|2:0|2:0,2:0:0:0:
145,364,53562,1,2,1:2:0:0:
116,376,53637,1,0,2:0:0:0:
85,376,53712,1,0,2:0:0:0:
56,362,53787,1,0,2:0:0:0:
36,339,53862,6,0,P|30:317|20:290,3,45,2|0|0|0,1:2|2:0|2:0|2:0,2:0:0:0:
71,209,54162,2,0,P|92:201|113:195,3,45,0|0|0|0,1:0|2:0|2:0|2:0,2:0:0:0:
44,114,54462,2,0,P|22:108|1:100,3,45,0|0|0|0,1:0|2:0|2:0|2:0,2:0:0:0:
133,44,54762,70,0,L|124:0,1,45,0|0,1:0|2:0,2:0:0:0:
266,126,54912,2,0,L|257:170,1,45,0|0,1:0|1:0,2:0:0:0:
384,35,55062,5,6,1:2:0:0:
163,139,55212,1,0,1:0:0:0:
384,238,55362,1,0,1:0:0:0:
231,33,55512,1,0,1:0:0:0:
190,334,55662,69,0,1:0:0:0:
363,143,55812,1,0,1:0:0:0:
278,379,55962,1,0,1:0:0:0:
163,139,56112,1,0,1:0:0:0:
153,135,56187,1,0,1:0:0:0:
143,131,56262,6,0,P|98:128|59:149,1,90,6|0,1:2|1:0,2:0:0:0:
276,285,56562,1,0,1:0:0:0:
173,37,56712,1,0,1:0:0:0:
98,282,56862,69,0,1:0:0:0:
325,166,57012,1,0,1:0:0:0:
76,58,57162,1,0,1:0:0:0:
235,267,57312,2,0,L|257:270,1,22.5,0|0,1:0|1:0,2:0:0:0:
233,278,57387,2,0,L|255:281,1,22.5,0|0,1:0|1:0,2:0:0:0:
231,289,57462,6,0,L|215:377,1,90,6|0,1:2|1:0,2:0:0:0:
402,272,57762,1,0,1:0:0:0:
117,207,57912,1,0,1:0:0:0:
119,218,57987,1,0,1:0:0:0:
121,229,58062,70,0,L|137:318,1,90,0|0,1:0|1:0,2:0:0:0:
352,186,58362,1,0,1:0:0:0:
147,103,58512,2,0,L|144:125,1,22.5,0|0,1:0|1:0,2:0:0:0:
136,101,58587,2,0,L|133:123,1,22.5,0|0,1:0|1:0,2:0:0:0:
125,99,58662,6,0,L|36:83,1,90,6|0,1:2|1:0,2:0:0:0:
227,46,58887,1,0,1:0:0:0:
227,46,58962,2,0,P|244:87|241:131,1,90,0|0,1:0|1:0,2:0:0:0:
194,258,59187,1,0,1:0:0:0:
194,258,59262,70,0,L|187:214,1,45,6|0,1:2|1:0,2:0:0:0:
340,127,59412,2,0,L|332:171,1,45,0|0,1:0|1:0,2:0:0:0:
147,103,59562,6,0,P|136:105|125:109,6,22.5,0|0|0|0|0|0|0,1:0|1:0|1:0|1:0|1:0|1:0|1:0,2:0:0:0:
44,180,59862,5,6,1:2:0:0:
25,216,59937,1,0,2:0:0:0:
24,258,60012,1,0,2:0:0:0:
39,296,60087,1,0,2:0:0:0:
69,325,60162,2,0,P|99:312|130:306,3,54,0|0|0|0,1:0|2:0|2:0|2:0,2:0:0:0:
241,297,60462,5,2,1:2:0:0:
281,301,60537,1,0,2:0:0:0:
323,305,60612,1,0,2:0:0:0:
364,310,60687,1,0,2:0:0:0:
406,314,60762,2,0,P|418:345|423:393,3,54,0|0|0|0,1:0|2:0|2:0|2:0,2:0:0:0:
480,219,61062,69,0,1:0:0:0:
500,183,61137,1,0,2:0:0:0:
509,143,61212,1,0,2:0:0:0:
503,102,61287,1,0,2:0:0:0:
482,66,61362,1,0,1:0:0:0:
450,39,61437,1,0,2:0:0:0:
411,26,61512,1,0,2:0:0:0:
370,27,61587,1,0,2:0:0:0:
331,44,61662,6,0,L|310:160,1,108,2|0,1:2|2:0,2:0:0:0:
247,225,61887,2,0,L|265:331,1,108,2|0,2:0|2:0,2:0:0:0:
350,384,62112,1,2,2:0:0:0:
176,297,62262,69,6,1:2:0:0:
152,261,62337,1,0,2:0:0:0:
145,221,62412,1,0,2:0:0:0:
152,180,62487,1,0,2:0:0:0:
174,146,62562,2,0,P|212:139|248:128,3,54,0|0|0|0,1:0|2:0|2:0|2:0,2:0:0:0:
316,41,62862,5,2,1:2:0:0:
351,20,62937,1,0,2:0:0:0:
391,16,63012,1,0,2:0:0:0:
430,32,63087,1,0,2:0:0:0:
459,61,63162,2,0,P|462:89|470:118,3,54,0|0|0|0,1:0|2:0|2:0|2:0,2:0:0:0:
408,243,63462,69,0,1:0:0:0:
370,225,63537,1,0,2:0:0:0:
328,225,63612,1,0,2:0:0:0:
291,243,63687,1,0,2:0:0:0:
265,274,63762,1,0,1:0:0:0:
240,307,63837,1,0,2:0:0:0:
202,325,63912,1,0,2:0:0:0:
161,325,63987,1,0,2:0:0:0:
124,307,64062,6,0,P|106:219|86:132,1,162,2|0,1:2|2:0,2:0:0:0:
73,115,64362,1,0,1:0:0:0:
0,336,64512,1,0,1:0:0:0:
188,168,64662,69,6,1:2:0:0:
225,151,64737,1,0,2:0:0:0:
267,152,64812,1,0,2:0:0:0:
304,170,64887,1,0,2:0:0:0:
331,201,64962,2,0,P|336:238|350:272,3,54,0|0|0|0,1:0|2:0|2:0|2:0,2:0:0:0:
443,295,65262,5,2,1:2:0:0:
447,253,65337,1,0,2:0:0:0:
452,211,65412,1,0,2:0:0:0:
457,170,65487,1,0,2:0:0:0:
462,128,65562,2,0,P|489:114|535:108,3,54,0|0|0|0,1:0|2:0|2:0|2:0,2:0:0:0:
358,22,65862,69,0,1:0:0:0:
321,6,65937,1,0,2:0:0:0:
281,4,66012,1,0,2:0:0:0:
244,16,66087,1,0,2:0:0:0:
213,42,66162,1,0,1:0:0:0:
194,76,66237,1,0,2:0:0:0:
189,115,66312,1,0,2:0:0:0:
198,154,66387,1,0,2:0:0:0:
222,187,66462,6,0,L|336:170,1,108,2|0,1:2|2:0,2:0:0:0:
422,202,66687,2,0,P|444:250|429:311,1,108,2|0,2:0|2:0,2:0:0:0:
355,362,66912,1,2,2:0:0:0:
130,333,67062,69,6,1:2:0:0:
125,291,67137,1,0,2:0:0:0:
119,250,67212,1,0,2:0:0:0:
110,209,67287,1,0,2:0:0:0:
99,169,67362,2,0,L|34:155,3,54,0|0|0|0,1:0|2:0|2:0|2:0,2:0:0:0:
170,55,67662,5,2,1:2:0:0:
206,35,67737,1,0,2:0:0:0:
247,32,67812,1,0,2:0:0:0:
285,47,67887,1,0,2:0:0:0:
312,78,67962,2,0,P|315:106|325:135,3,54,0|0|0|0,1:0|2:0|2:0|2:0,2:0:0:0:
407,185,68262,70,0,L|513:163,1,108,0|0,1:0|2:0,2:0:0:0:
368,325,68562,2,0,L|262:303,1,108,0|0,1:0|2:0,2:0:0:0:
170,55,68862,1,0,1:2:0:0:
55,380,69162,5,2,1:2:0:0:
55,380,69237,1,0,1:0:0:0:
55,380,69312,2,0,L|41:324,1,54,0|0,1:0|1:0,2:0:0:0:
113,178,69462,69,6,1:2:0:0:
149,159,69537,1,0,2:0:0:0:
190,157,69612,1,0,2:0:0:0:
228,173,69687,1,0,2:0:0:0:
256,204,69762,2,0,L|265:267,3,54,0|0|0|0,1:0|2:0|2:0|2:0,2:0:0:0:
349,337,70062,5,2,1:2:0:0:
387,348,70137,1,0,2:0:0:0:
429,342,70212,1,0,2:0:0:0:
463,320,70287,1,0,2:0:0:0:
485,285,70362,2,0,L|475:225,3,54,0|0|0|0,1:0|2:0|2:0|2:0,2:0:0:0:
444,75,70662,69,0,1:0:0:0:
406,54,70737,1,0,2:0:0:0:
365,51,70812,1,0,2:0:0:0:
326,66,70887,1,0,2:0:0:0:
297,95,70962,1,0,1:0:0:0:
269,124,71037,1,0,2:0:0:0:
229,138,71112,1,0,2:0:0:0:
188,135,71187,1,0,2:0:0:0:
152,116,71262,6,0,P|105:82|46:88,1,108,2|0,1:2|2:0,2:0:0:0:
8,171,71487,2,0,L|30:277,1,108,2|0,2:0|2:0,2:0:0:0:
56,372,71712,1,2,2:0:0:0:
177,245,71862,69,6,1:2:0:0:
218,250,71937,1,0,2:0:0:0:
259,255,72012,1,0,2:0:0:0:
301,261,72087,1,0,2:0:0:0:
341,266,72162,2,0,P|353:295|362:335,3,54,0|0|0|0,1:0|2:0|2:0|2:0,2:0:0:0:
452,188,72462,5,2,1:2:0:0:
468,150,72537,1,0,2:0:0:0:
466,109,72612,1,0,2:0:0:0:
445,73,72687,1,0,2:0:0:0:
411,48,72762,2,0,P|381:46|352:36,3,54,0|0|0|0,1:0|2:0|2:0|2:0,2:0:0:0:
213,0,73062,69,0,1:0:0:0:
177,16,73137,1,0,2:0:0:0:
151,45,73212,1,0,2:0:0:0:
138,82,73287,1,0,2:0:0:0:
139,122,73362,1,0,1:0:0:0:
154,157,73437,1,0,2:0:0:0:
182,184,73512,1,0,2:0:0:0:
219,200,73587,1,0,2:0:0:0:
258,200,73662,6,0,P|331:183|429:165,1,162,2|0,1:2|2:0,2:0:0:0:
449,182,73962,1,0,1:0:0:0:
253,71,74112,1,0,1:0:0:0:
364,278,74262,69,6,1:2:0:0:
398,48,74412,1,0,1:0:0:0:
258,200,74562,1,0,1:0:0:0:
487,90,74712,1,0,1:0:0:0:
183,2,74862,5,2,1:2:0:0:
354,179,75012,1,0,1:0:0:0:
131,86,75162,1,0,1:0:0:0:
324,274,75312,1,0,1:0:0:0:
335,272,75387,1,0,1:0:0:0:
346,270,75462,70,0,L|452:250,1,108,4|0,1:2|1:0,2:0:0:0:
270,129,75762,1,0,1:0:0:0:
360,369,75912,1,0,1:0:0:0:
451,152,76062,5,2,1:2:0:0:
224,274,76212,1,0,1:0:0:0:
457,350,76362,1,0,1:0:0:0:
231,165,76512,1,2,1:2:0:0:
220,167,76587,1,0,1:0:0:0:
209,169,76662,70,0,L|102:188,1,108,2|0,1:2|1:0,2:0:0:0:
285,25,76962,1,0,1:0:0:0:
224,274,77112,2,0,L|170:264,1,54,0|0,1:0|1:0,2:0:0:0:
317,118,77262,6,0,L|423:137,1,108,6|0,1:2|2:0,2:0:0:0:
475,222,77487,2,0,L|368:241,1,108,4|0,1:2|2:0,2:0:0:0:
311,321,77712,70,0,L|339:326,1,26.9999991760254,0|0,1:0|1:0,0:0:0:0:
309,332,77787,2,0,L|339:339,1,26.9999991760254,0|0,1:0|1:0,2:0:0:0:
307,343,77862,1,4,1:2:0:0:
170,264,78012,6,0,L|136:270,1,26.9999991760254,0|0,1:0|1:0,2:0:0:0:
172,275,78087,2,0,L|137:283,1,26.9999991760254,0|0,1:0|1:0,2:0:0:0:
174,286,78162,1,6,1:2:0:0:
295,167,78312,70,0,L|323:170,1,26.9999991760254,0|0,1:0|1:0,2:0:0:0:
293,178,78387,2,0,L|338:184,1,26.9999991760254,0|0,1:0|1:0,2:0:0:0:
290,190,78462,5,2,1:2:0:0:
252,153,78537,1,0,1:0:0:0:
238,104,78612,1,0,1:0:0:0:
250,54,78687,1,0,1:0:0:0:
284,16,78762,1,2,1:2:0:0:
334,0,78837,1,0,1:0:0:0:
384,11,78912,1,0,1:0:0:0:
423,45,78987,1,0,1:0:0:0:
439,95,79062,1,6,1:2:0:0:
173,286,80262,6,0,P|103:266|32:253,2,144,2|2|2,2:0|2:0|2:0,2:0:0:0:
413,93,82662,6,0,P|434:125|429:166,1,72,2|2,2:0|2:0,2:0:0:0:
302,280,83262,2,0,L|307:229,2,48,2|2|2,2:0|2:0|2:0,2:0:0:0:
390,369,83862,70,0,P|443:325|513:341,1,144,2|2,2:0|2:0,2:0:0:0:
256,192,85062,5,6,1:2:0:0:
256,192,85137,12,0,89862,2:0:0:0:
