osu file format v14

[General]
AudioFilename: audio.mp3
AudioLeadIn: 0
PreviewTime: 112634
Countdown: 0
SampleSet: Normal
StackLeniency: 0.7
Mode: 3
LetterboxInBreaks: 0
SpecialStyle: 0
WidescreenStoryboard: 1

[Editor]
Bookmarks: 135434
DistanceSpacing: 2
BeatDivisor: 2
GridSize: 16
TimelineZoom: 1.5

[Metadata]
Title:Blue Zenith
TitleUnicode:Blue Zenith
Artist:xi
ArtistUnicode:xi
Creator:Amethyst507
Version:Ultima+
Source:
Tags:
BeatmapID:1563179
BeatmapSetID:741008

[Difficulty]
HPDrainRate:8.5
CircleSize:4
OverallDifficulty:7
ApproachRate:5
SliderMultiplier:1.4
SliderTickRate:1

[Events]
//Background and Video events
0,0,"zenith.jpg",0,0
//Break Periods
//Storyboard Layer 0 (Background)
//Storyboard Layer 1 (Fail)
//Storyboard Layer 2 (Pass)
//Storyboard Layer 3 (Foreground)
//Storyboard Sound Samples

[TimingPoints]
2235,300,4,1,0,10,1,0
2235,-66.6666666666667,4,1,0,10,0,0
2236,-138.888888888889,4,1,0,10,0,0
3435,-135.135135135135,4,1,0,10,0,0
4635,-131.578947368421,4,1,0,10,0,0
5835,-128.205128205128,4,1,0,10,0,0
7035,-125,4,1,0,10,0,0
8235,-121.951219512195,4,1,0,10,0,0
9434,-117.647058823529,4,1,0,10,0,0
10634,-114.942528735632,4,1,0,10,0,0
11834,-111.111111111111,4,1,0,10,0,0
16635,-108.695652173913,4,1,0,10,0,0
17835,-105.263157894737,4,1,0,10,0,0
19035,-103.092783505155,4,1,0,10,0,0
19635,-100,4,1,0,10,0,0
20235,-95.2380952380952,4,1,0,10,0,0
20535,-90.9090909090909,4,1,0,10,0,0
20835,-86.9565217391304,4,1,0,10,0,0
21135,-83.3333333333333,4,1,0,10,0,0
21435,-100,4,1,0,10,0,0
23835,-103.092783505155,4,1,0,10,0,0
24135,-106.382978723404,4,1,0,10,0,0
24435,-109.89010989011,4,1,0,10,0,0
24735,-113.636363636364,4,1,0,10,0,0
25035,-117.647058823529,4,1,0,10,0,0
25335,-121.951219512195,4,1,0,10,0,0
25635,-125,4,1,0,10,0,0
25785,-117.647058823529,4,1,0,10,0,0
25935,-111.111111111111,4,1,0,10,0,0
26235,-100,4,1,0,10,0,0
28635,-90.9090909090909,4,1,0,10,0,0
31035,-125,4,1,0,10,0,0
33435,-111.111111111111,4,1,0,10,0,0
34635,-125,4,1,0,10,0,0
38235,-111.111111111111,4,1,0,10,0,0
39435,-125,4,1,0,10,0,0
40035,-114.942528735632,4,1,0,10,0,0
40185,-107.52688172043,4,1,0,10,0,0
40335,-100,4,1,0,10,0,0
40635,-125,4,1,0,10,0,0
43035,-111.111111111111,4,1,0,10,0,0
44235,-125,4,1,0,10,0,0
45435,-111.111111111111,4,1,0,10,0,0
47835,-100,4,1,0,10,0,0
48135,-90.9090909090908,4,1,0,10,0,0
48435,-83.3333333333333,4,1,0,10,0,0
48735,-76.9230769230769,4,1,0,10,0,0
49035,-83.3333333333333,4,1,0,10,0,0
49335,-90.9090909090908,4,1,0,10,0,0
49635,-100,4,1,0,10,0,0
49935,-111.111111111111,4,1,0,10,0,0
50235,-125,4,1,0,10,0,0
64035,-125,4,1,0,10,0,0
64110,-121.951219512195,4,1,0,10,0,0
64185,-117.647058823529,4,1,0,10,0,0
64260,-114.942528735632,4,1,0,10,0,0
64335,-111.111111111111,4,1,0,10,0,0
64410,-108.695652173913,4,1,0,10,0,0
64485,-105.263157894737,4,1,0,10,0,0
64560,-103.092783505155,4,1,0,10,0,0
64635,-100,4,1,0,10,0,0
69435,-149.253731343284,4,1,0,10,0,0
72435,-100,4,1,0,10,0,0
73335,-50,4,1,0,10,0,0
74235,-125,4,1,0,10,0,0
74835,-250,4,1,0,10,0,0
76035,-200,4,1,0,10,0,0
76235,-166.666666666667,4,1,0,10,0,0
76435,-142.857142857143,4,1,0,10,0,0
76635,-125,4,1,0,10,0,0
77235,-250,4,1,0,10,0,0
79035,-125,4,1,0,10,0,0
79635,-250,4,1,0,10,0,0
80835,-200,4,1,0,10,0,0
81035,-166.666666666667,4,1,0,10,0,0
81235,-142.857142857143,4,1,0,10,0,0
81435,-125,4,1,0,10,0,0
82035,-166.666666666667,4,1,0,10,0,0
82935,-142.857142857143,4,1,0,10,0,0
83235,-111.111111111111,4,1,0,10,0,0
83535,-90.9090909090908,4,1,0,10,0,0
83835,-50,4,1,0,10,0,0
83935,-250,4,1,0,10,0,0
87435,-200,4,1,0,10,0,0
87735,-166.666666666667,4,1,0,10,0,0
88035,-153.846153846154,4,1,0,10,0,0
88235,-142.857142857143,4,1,0,10,0,0
88435,-133.333333333333,4,1,0,10,0,0
88635,-125,4,1,0,10,0,0
89235,-250,4,1,0,10,0,0
90135,-222.222222222222,4,1,0,10,0,0
90435,-200,4,1,0,10,0,0
90735,-181.818181818182,4,1,0,10,0,0
91035,-166.666666666667,4,1,0,10,0,0
91635,-142.857142857143,4,1,0,10,0,0
92235,-125,4,1,0,10,0,0
92835,-100,4,1,0,10,0,0
93435,-125,4,1,0,10,0,0
95235,-200,4,1,0,10,0,0
95435,-166.666666666667,4,1,0,10,0,0
95635,-142.857142857143,4,1,0,10,0,0
95835,-250,4,1,0,10,0,0
96435,-125,4,1,0,10,0,0
98085,-100,4,1,0,10,0,0
98235,-125,4,1,0,10,0,0
100035,-200,4,1,0,10,0,0
100235,-166.666666666667,4,1,0,10,0,0
100435,-142.857142857143,4,1,0,10,0,0
100635,-250,4,1,0,10,0,0
101235,-125,4,1,0,10,0,0
102135,-117.647058823529,4,1,0,10,0,0
102435,-111.111111111111,4,1,0,10,0,0
102735,-105.263157894737,4,1,0,10,0,0
103035,-100,4,1,0,10,0,0
110235,-95.2380952380952,4,1,0,10,0,0
110835,-90.9090909090909,4,1,0,10,0,0
111435,-86.9565217391304,4,1,0,10,0,0
112035,-83.3333333333333,4,1,0,10,0,0
112635,-125,4,1,0,10,0,0
113835,-111.111111111111,4,1,0,10,0,0
114135,-100,4,1,0,10,0,0
114435,-90.9090909090909,4,1,0,10,0,0
114735,-83.3333333333333,4,1,0,10,0,0
115035,-100,4,1,0,10,0,0
172635,-200,4,1,0,10,0,0
176235,-181.818181818182,4,1,0,10,0,0
176535,-166.666666666667,4,1,0,10,0,0
176835,-153.846153846154,4,1,0,10,0,0
177035,-142.857142857143,4,1,0,10,0,0
177235,-133.333333333333,4,1,0,10,0,0
177435,-125,4,1,0,10,0,0
178035,-166.666666666667,4,1,0,10,0,0
178935,-142.857142857143,4,1,0,10,0,0
179235,-125,4,1,0,10,0,0
179535,-111.111111111111,4,1,0,10,0,0
179835,-95.2380952380952,4,1,0,10,0,0
180435,-90.9090909090909,4,1,0,10,0,0
181035,-86.9565217391304,4,1,0,10,0,0
181635,-83.3333333333333,4,1,0,10,0,0
182235,-125,4,1,0,10,0,0
183435,-111.111111111111,4,1,0,10,0,0
183735,-100,4,1,0,10,0,0
184035,-90.9090909090909,4,1,0,10,0,0
184335,-83.3333333333333,4,1,0,10,0,0
184635,-100,4,1,0,10,0,0
242235,-166.666666666667,4,1,0,10,0,0
245835,-153.846153846154,4,1,0,10,0,0
246135,-142.857142857143,4,1,0,10,0,0
246435,-133.333333333333,4,1,0,10,0,0
246635,-125,4,1,0,10,0,0
246835,-117.647058823529,4,1,0,10,0,0
247035,-111.111111111111,4,1,0,10,0,0
247635,-142.857142857143,4,1,0,10,0,0
248235,-50,4,1,0,10,0,0
248335,-303.030303030303,4,1,0,10,0,0

[HitObjects]
448,192,2235,5,0,0:0:0:0:
320,192,2235,1,0,0:0:0:0:
64,192,2235,128,0,3435:0:0:0:0:
320,192,2535,1,0,0:0:0:0:
448,192,2535,1,0,0:0:0:0:
320,192,2835,1,0,0:0:0:0:
448,192,2835,1,0,0:0:0:0:
320,192,3135,1,0,0:0:0:0:
448,192,3135,1,0,0:0:0:0:
448,192,3435,1,0,0:0:0:0:
320,192,3435,1,0,0:0:0:0:
448,192,3735,1,0,0:0:0:0:
320,192,3735,1,0,0:0:0:0:
320,192,4035,1,0,0:0:0:0:
448,192,4035,1,0,0:0:0:0:
320,192,4335,1,0,0:0:0:0:
448,192,4335,1,0,0:0:0:0:
320,192,4635,1,0,0:0:0:0:
448,192,4635,1,0,0:0:0:0:
320,192,4935,1,0,0:0:0:0:
448,192,4935,1,0,0:0:0:0:
320,192,5235,1,0,0:0:0:0:
448,192,5235,1,0,0:0:0:0:
320,192,5535,1,0,0:0:0:0:
448,192,5535,1,0,0:0:0:0:
320,192,5835,1,0,0:0:0:0:
448,192,5835,1,0,0:0:0:0:
320,192,6135,1,0,0:0:0:0:
448,192,6135,1,0,0:0:0:0:
320,192,6435,1,0,0:0:0:0:
448,192,6435,1,0,0:0:0:0:
320,192,6735,1,0,0:0:0:0:
448,192,6735,1,0,0:0:0:0:
448,192,7035,1,0,0:0:0:0:
320,192,7035,1,0,0:0:0:0:
64,192,7035,1,0,0:0:0:0:
192,192,7110,1,0,0:0:0:0:
64,192,7185,1,0,0:0:0:0:
192,192,7260,1,0,0:0:0:0:
448,192,7335,1,0,0:0:0:0:
320,192,7335,1,0,0:0:0:0:
192,192,7410,1,0,0:0:0:0:
64,192,7485,1,0,0:0:0:0:
192,192,7560,1,0,0:0:0:0:
448,192,7635,1,0,0:0:0:0:
320,192,7635,1,0,0:0:0:0:
192,192,7710,1,0,0:0:0:0:
64,192,7785,1,0,0:0:0:0:
192,192,7860,1,0,0:0:0:0:
320,192,7935,1,0,0:0:0:0:
448,192,7935,1,0,0:0:0:0:
192,192,8010,1,0,0:0:0:0:
64,192,8085,1,0,0:0:0:0:
192,192,8160,1,0,0:0:0:0:
320,192,8235,1,0,0:0:0:0:
448,192,8235,1,0,0:0:0:0:
192,192,8310,1,0,0:0:0:0:
64,192,8385,1,0,0:0:0:0:
192,192,8460,1,0,0:0:0:0:
320,192,8535,1,0,0:0:0:0:
448,192,8535,1,0,0:0:0:0:
192,192,8610,1,0,0:0:0:0:
64,192,8685,1,0,0:0:0:0:
192,192,8760,1,0,0:0:0:0:
320,192,8835,1,0,0:0:0:0:
448,192,8835,1,0,0:0:0:0:
192,192,8910,1,0,0:0:0:0:
64,192,8985,1,0,0:0:0:0:
192,192,9060,1,0,0:0:0:0:
320,192,9135,1,0,0:0:0:0:
448,192,9135,1,0,0:0:0:0:
192,192,9210,1,0,0:0:0:0:
64,192,9285,1,0,0:0:0:0:
192,192,9360,1,0,0:0:0:0:
320,192,9435,1,0,0:0:0:0:
448,192,9435,1,0,0:0:0:0:
448,192,9735,1,0,0:0:0:0:
320,192,9735,1,0,0:0:0:0:
320,192,10035,1,0,0:0:0:0:
448,192,10035,1,0,0:0:0:0:
64,192,10185,1,0,0:0:0:0:
192,192,10260,1,0,0:0:0:0:
320,192,10335,1,0,0:0:0:0:
448,192,10335,1,0,0:0:0:0:
192,192,10410,1,0,0:0:0:0:
320,192,10485,1,0,0:0:0:0:
192,192,10560,1,0,0:0:0:0:
448,192,10635,1,0,0:0:0:0:
320,192,10635,1,0,0:0:0:0:
64,192,10710,1,0,0:0:0:0:
448,192,10785,1,0,0:0:0:0:
64,192,10860,1,0,0:0:0:0:
448,192,10935,1,0,0:0:0:0:
320,192,10935,1,0,0:0:0:0:
192,192,11010,1,0,0:0:0:0:
448,192,11085,1,0,0:0:0:0:
64,192,11085,1,0,0:0:0:0:
320,192,11160,1,0,0:0:0:0:
64,192,11235,1,0,0:0:0:0:
448,192,11235,1,0,0:0:0:0:
192,192,11310,1,0,0:0:0:0:
64,192,11385,1,0,0:0:0:0:
320,192,11385,1,0,0:0:0:0:
192,192,11460,1,0,0:0:0:0:
320,192,11535,1,0,0:0:0:0:
448,192,11535,1,0,0:0:0:0:
64,192,11610,1,0,0:0:0:0:
192,192,11685,1,0,0:0:0:0:
448,192,11685,1,0,0:0:0:0:
320,192,11760,1,0,0:0:0:0:
64,192,11835,128,0,13035:0:0:0:0:
192,192,11835,1,0,0:0:0:0:
448,192,11835,1,0,0:0:0:0:
448,192,11910,1,0,0:0:0:0:
320,192,11985,1,0,0:0:0:0:
192,192,12060,1,0,0:0:0:0:
320,192,12135,1,0,0:0:0:0:
448,192,12135,1,0,0:0:0:0:
192,192,12210,1,0,0:0:0:0:
448,192,12285,1,0,0:0:0:0:
192,192,12360,1,0,0:0:0:0:
448,192,12435,1,0,0:0:0:0:
320,192,12435,1,0,0:0:0:0:
320,192,12510,1,0,0:0:0:0:
192,192,12585,1,0,0:0:0:0:
448,192,12660,1,0,0:0:0:0:
320,192,12735,1,0,0:0:0:0:
192,192,12735,1,0,0:0:0:0:
192,192,12810,1,0,0:0:0:0:
448,192,12885,1,0,0:0:0:0:
320,192,12960,1,0,0:0:0:0:
192,192,13035,1,0,0:0:0:0:
448,192,13035,1,0,0:0:0:0:
192,192,13110,1,0,0:0:0:0:
64,192,13185,1,0,0:0:0:0:
448,192,13260,1,0,0:0:0:0:
320,192,13335,1,0,0:0:0:0:
64,192,13335,1,0,0:0:0:0:
320,192,13410,1,0,0:0:0:0:
192,192,13485,1,0,0:0:0:0:
320,192,13560,1,0,0:0:0:0:
64,192,13635,1,0,0:0:0:0:
448,192,13635,1,0,0:0:0:0:
64,192,13710,1,0,0:0:0:0:
192,192,13785,1,0,0:0:0:0:
320,192,13860,1,0,0:0:0:0:
448,192,13935,1,0,0:0:0:0:
64,192,13935,1,0,0:0:0:0:
448,192,14010,1,0,0:0:0:0:
192,192,14085,1,0,0:0:0:0:
320,192,14160,1,0,0:0:0:0:
64,192,14235,1,0,0:0:0:0:
192,192,14235,1,0,0:0:0:0:
64,192,14310,1,0,0:0:0:0:
320,192,14385,1,0,0:0:0:0:
192,192,14460,1,0,0:0:0:0:
448,192,14535,1,0,0:0:0:0:
320,192,14535,1,0,0:0:0:0:
448,192,14610,1,0,0:0:0:0:
64,192,14685,1,0,0:0:0:0:
192,192,14760,1,0,0:0:0:0:
320,192,14835,1,0,0:0:0:0:
64,192,14835,1,0,0:0:0:0:
320,192,14910,1,0,0:0:0:0:
192,192,14985,1,0,0:0:0:0:
448,192,15060,1,0,0:0:0:0:
320,192,15135,1,0,0:0:0:0:
64,192,15135,1,0,0:0:0:0:
64,192,15210,1,0,0:0:0:0:
192,192,15285,1,0,0:0:0:0:
448,192,15360,1,0,0:0:0:0:
64,192,15435,1,0,0:0:0:0:
320,192,15435,1,0,0:0:0:0:
320,192,15510,1,0,0:0:0:0:
192,192,15585,1,0,0:0:0:0:
448,192,15660,1,0,0:0:0:0:
320,192,15735,1,0,0:0:0:0:
64,192,15735,1,0,0:0:0:0:
64,192,15810,1,0,0:0:0:0:
448,192,15885,1,0,0:0:0:0:
320,192,15960,1,0,0:0:0:0:
64,192,16035,1,0,0:0:0:0:
192,192,16035,1,0,0:0:0:0:
192,192,16110,1,0,0:0:0:0:
320,192,16185,1,0,0:0:0:0:
64,192,16260,1,0,0:0:0:0:
192,192,16335,1,0,0:0:0:0:
448,192,16335,1,0,0:0:0:0:
448,192,16410,1,0,0:0:0:0:
320,192,16485,1,0,0:0:0:0:
64,192,16485,1,0,0:0:0:0:
192,192,16560,1,0,0:0:0:0:
320,192,16635,1,0,0:0:0:0:
448,192,16635,1,0,0:0:0:0:
64,192,16635,1,0,0:0:0:0:
192,192,16710,1,0,0:0:0:0:
320,192,16785,1,0,0:0:0:0:
64,192,16860,1,0,0:0:0:0:
448,192,16935,1,0,0:0:0:0:
320,192,16935,1,0,0:0:0:0:
192,192,17010,1,0,0:0:0:0:
448,192,17085,1,0,0:0:0:0:
64,192,17160,1,0,0:0:0:0:
320,192,17235,1,0,0:0:0:0:
448,192,17235,1,0,0:0:0:0:
192,192,17310,1,0,0:0:0:0:
320,192,17385,1,0,0:0:0:0:
64,192,17460,1,0,0:0:0:0:
320,192,17535,1,0,0:0:0:0:
448,192,17535,1,0,0:0:0:0:
192,192,17610,1,0,0:0:0:0:
64,192,17685,1,0,0:0:0:0:
448,192,17685,1,0,0:0:0:0:
320,192,17760,1,0,0:0:0:0:
192,192,17835,1,0,0:0:0:0:
64,192,17835,1,0,0:0:0:0:
448,192,17835,1,0,0:0:0:0:
320,192,17910,1,0,0:0:0:0:
192,192,17985,1,0,0:0:0:0:
448,192,18060,1,0,0:0:0:0:
192,192,18135,1,0,0:0:0:0:
64,192,18135,1,0,0:0:0:0:
320,192,18210,1,0,0:0:0:0:
64,192,18285,1,0,0:0:0:0:
448,192,18360,1,0,0:0:0:0:
192,192,18435,1,0,0:0:0:0:
64,192,18435,1,0,0:0:0:0:
320,192,18510,1,0,0:0:0:0:
192,192,18585,1,0,0:0:0:0:
448,192,18660,1,0,0:0:0:0:
64,192,18735,1,0,0:0:0:0:
192,192,18735,1,0,0:0:0:0:
320,192,18810,1,0,0:0:0:0:
448,192,18885,1,0,0:0:0:0:
64,192,18885,1,0,0:0:0:0:
192,192,18960,1,0,0:0:0:0:
320,192,19035,1,0,0:0:0:0:
448,192,19035,1,0,0:0:0:0:
64,192,19035,128,0,19110:0:0:0:0:
192,192,19110,1,0,0:0:0:0:
64,192,19185,128,0,19260:0:0:0:0:
448,192,19185,1,0,0:0:0:0:
320,192,19260,1,0,0:0:0:0:
64,192,19335,128,0,19410:0:0:0:0:
192,192,19335,1,0,0:0:0:0:
448,192,19410,1,0,0:0:0:0:
64,192,19485,128,0,19560:0:0:0:0:
320,192,19485,1,0,0:0:0:0:
192,192,19560,1,0,0:0:0:0:
448,192,19635,128,0,19710:0:0:0:0:
320,192,19635,1,0,0:0:0:0:
64,192,19710,1,0,0:0:0:0:
448,192,19785,128,0,19860:0:0:0:0:
192,192,19785,1,0,0:0:0:0:
320,192,19860,1,0,0:0:0:0:
448,192,19935,128,0,20010:0:0:0:0:
64,192,19935,1,0,0:0:0:0:
192,192,20010,1,0,0:0:0:0:
448,192,20085,128,0,20160:0:0:0:0:
320,192,20085,1,0,0:0:0:0:
192,192,20160,1,0,0:0:0:0:
448,192,20235,1,0,0:0:0:0:
320,192,20235,1,0,0:0:0:0:
64,192,20235,128,0,20385:0:0:0:0:
192,192,20310,1,0,0:0:0:0:
448,192,20385,1,0,0:0:0:0:
320,192,20422,1,0,0:0:0:0:
192,192,20460,1,0,0:0:0:0:
64,192,20497,1,0,0:0:0:0:
448,192,20535,128,0,20685:0:0:0:0:
320,192,20535,1,0,0:0:0:0:
64,192,20610,1,0,0:0:0:0:
192,192,20685,1,0,0:0:0:0:
64,192,20722,1,0,0:0:0:0:
320,192,20760,1,0,0:0:0:0:
448,192,20797,1,0,0:0:0:0:
64,192,20835,128,0,20985:0:0:0:0:
192,192,20835,1,0,0:0:0:0:
320,192,20910,1,0,0:0:0:0:
192,192,20985,1,0,0:0:0:0:
448,192,20985,1,0,0:0:0:0:
320,192,21060,1,0,0:0:0:0:
448,192,21060,1,0,0:0:0:0:
448,192,21135,128,0,21435:0:0:0:0:
64,192,21135,1,0,0:0:0:0:
192,192,21135,1,0,0:0:0:0:
64,192,21210,1,0,0:0:0:0:
192,192,21210,1,0,0:0:0:0:
320,192,21285,1,0,0:0:0:0:
64,192,21322,1,0,0:0:0:0:
320,192,21360,1,0,0:0:0:0:
64,192,21397,1,0,0:0:0:0:
192,192,21435,1,0,0:0:0:0:
320,192,21435,1,0,0:0:0:0:
448,192,21510,1,0,0:0:0:0:
64,192,21585,1,0,0:0:0:0:
320,192,21585,1,0,0:0:0:0:
192,192,21660,1,0,0:0:0:0:
320,192,21735,1,0,0:0:0:0:
448,192,21735,1,0,0:0:0:0:
64,192,21810,1,0,0:0:0:0:
192,192,21885,1,0,0:0:0:0:
320,192,21885,1,0,0:0:0:0:
448,192,21960,1,0,0:0:0:0:
64,192,22035,1,0,0:0:0:0:
320,192,22035,1,0,0:0:0:0:
192,192,22110,1,0,0:0:0:0:
320,192,22185,1,0,0:0:0:0:
448,192,22185,1,0,0:0:0:0:
192,192,22260,1,0,0:0:0:0:
64,192,22335,1,0,0:0:0:0:
448,192,22335,1,0,0:0:0:0:
320,192,22410,1,0,0:0:0:0:
192,192,22485,1,0,0:0:0:0:
64,192,22485,1,0,0:0:0:0:
320,192,22560,1,0,0:0:0:0:
448,192,22635,1,0,0:0:0:0:
192,192,22635,1,0,0:0:0:0:
64,192,22710,1,0,0:0:0:0:
320,192,22785,1,0,0:0:0:0:
192,192,22785,1,0,0:0:0:0:
448,192,22860,1,0,0:0:0:0:
320,192,22935,1,0,0:0:0:0:
64,192,22935,1,0,0:0:0:0:
192,192,23010,1,0,0:0:0:0:
320,192,23085,1,0,0:0:0:0:
448,192,23085,1,0,0:0:0:0:
64,192,23160,1,0,0:0:0:0:
192,192,23235,1,0,0:0:0:0:
448,192,23235,1,0,0:0:0:0:
320,192,23310,1,0,0:0:0:0:
192,192,23385,1,0,0:0:0:0:
64,192,23385,1,0,0:0:0:0:
320,192,23460,1,0,0:0:0:0:
192,192,23535,1,0,0:0:0:0:
448,192,23535,1,0,0:0:0:0:
64,192,23610,1,0,0:0:0:0:
320,192,23685,1,0,0:0:0:0:
448,192,23685,1,0,0:0:0:0:
192,192,23760,1,0,0:0:0:0:
64,192,23835,1,0,0:0:0:0:
448,192,23835,128,0,23985:0:0:0:0:
320,192,23910,128,0,23985:0:0:0:0:
192,192,23985,128,0,24135:0:0:0:0:
64,192,23985,1,0,0:0:0:0:
320,192,24060,128,0,24135:0:0:0:0:
448,192,24135,1,0,0:0:0:0:
64,192,24135,128,0,24285:0:0:0:0:
192,192,24210,128,0,24285:0:0:0:0:
448,192,24285,1,0,0:0:0:0:
320,192,24285,128,0,24435:0:0:0:0:
192,192,24360,128,0,24435:0:0:0:0:
448,192,24435,128,0,24585:0:0:0:0:
64,192,24435,1,0,0:0:0:0:
320,192,24510,128,0,24585:0:0:0:0:
192,192,24585,128,0,24735:0:0:0:0:
64,192,24585,1,0,0:0:0:0:
320,192,24660,128,0,24735:0:0:0:0:
448,192,24735,1,0,0:0:0:0:
64,192,24735,128,0,24885:0:0:0:0:
192,192,24810,128,0,24885:0:0:0:0:
320,192,24885,128,0,25035:0:0:0:0:
448,192,24885,1,0,0:0:0:0:
192,192,24960,128,0,25035:0:0:0:0:
64,192,25035,1,0,0:0:0:0:
448,192,25035,128,0,25185:0:0:0:0:
320,192,25110,128,0,25185:0:0:0:0:
192,192,25185,128,0,25335:0:0:0:0:
64,192,25185,1,0,0:0:0:0:
320,192,25260,128,0,25335:0:0:0:0:
448,192,25335,1,0,0:0:0:0:
64,192,25335,1,0,0:0:0:0:
192,192,25410,1,0,0:0:0:0:
64,192,25485,1,0,0:0:0:0:
320,192,25485,1,0,0:0:0:0:
192,192,25560,1,0,0:0:0:0:
320,192,25635,1,0,0:0:0:0:
448,192,25635,128,0,25710:0:0:0:0:
192,192,25710,1,0,0:0:0:0:
320,192,25785,1,0,0:0:0:0:
64,192,25785,1,0,0:0:0:0:
448,192,25785,128,0,25860:0:0:0:0:
64,192,25860,1,0,0:0:0:0:
448,192,25935,128,0,26160:0:0:0:0:
192,192,25935,1,0,0:0:0:0:
320,192,26010,1,0,0:0:0:0:
64,192,26085,1,0,0:0:0:0:
192,192,26085,1,0,0:0:0:0:
320,192,26160,1,0,0:0:0:0:
192,192,26235,1,0,0:0:0:0:
64,192,26235,128,0,28635:0:0:0:0:
448,192,26235,1,0,0:0:0:0:
320,192,26310,1,0,0:0:0:0:
192,192,26385,1,0,0:0:0:0:
448,192,26460,1,0,0:0:0:0:
320,192,26535,1,0,0:0:0:0:
192,192,26535,1,0,0:0:0:0:
448,192,26610,1,0,0:0:0:0:
320,192,26685,1,0,0:0:0:0:
192,192,26760,1,0,0:0:0:0:
448,192,26835,1,0,0:0:0:0:
320,192,26835,1,0,0:0:0:0:
192,192,26910,1,0,0:0:0:0:
448,192,26985,1,0,0:0:0:0:
320,192,27060,1,0,0:0:0:0:
448,192,27135,1,0,0:0:0:0:
192,192,27135,1,0,0:0:0:0:
320,192,27210,1,0,0:0:0:0:
192,192,27285,1,0,0:0:0:0:
448,192,27360,1,0,0:0:0:0:
192,192,27435,1,0,0:0:0:0:
320,192,27435,1,0,0:0:0:0:
448,192,27510,1,0,0:0:0:0:
320,192,27585,1,0,0:0:0:0:
192,192,27660,1,0,0:0:0:0:
448,192,27735,1,0,0:0:0:0:
320,192,27735,1,0,0:0:0:0:
192,192,27810,1,0,0:0:0:0:
448,192,27885,1,0,0:0:0:0:
320,192,27960,1,0,0:0:0:0:
448,192,28035,1,0,0:0:0:0:
192,192,28035,1,0,0:0:0:0:
320,192,28110,1,0,0:0:0:0:
192,192,28185,1,0,0:0:0:0:
448,192,28260,1,0,0:0:0:0:
320,192,28335,1,0,0:0:0:0:
192,192,28335,1,0,0:0:0:0:
448,192,28410,1,0,0:0:0:0:
320,192,28485,1,0,0:0:0:0:
192,192,28560,1,0,0:0:0:0:
320,192,28635,128,0,28785:0:0:0:0:
448,192,28635,128,0,29835:0:0:0:0:
192,192,28710,128,0,28785:0:0:0:0:
64,192,28785,128,0,28935:0:0:0:0:
320,192,28860,128,0,28935:0:0:0:0:
192,192,28935,128,0,29085:0:0:0:0:
64,192,29010,128,0,29085:0:0:0:0:
320,192,29085,128,0,29235:0:0:0:0:
192,192,29160,128,0,29235:0:0:0:0:
64,192,29235,128,0,29385:0:0:0:0:
320,192,29310,128,0,29385:0:0:0:0:
192,192,29385,128,0,29535:0:0:0:0:
64,192,29460,128,0,29535:0:0:0:0:
320,192,29535,128,0,29685:0:0:0:0:
192,192,29610,128,0,29685:0:0:0:0:
64,192,29685,128,0,29760:0:0:0:0:
320,192,29760,128,0,29835:0:0:0:0:
192,192,29835,1,0,0:0:0:0:
64,192,29835,1,0,0:0:0:0:
192,192,29910,1,0,0:0:0:0:
64,192,29985,1,0,0:0:0:0:
448,192,29985,1,0,0:0:0:0:
320,192,30022,1,0,0:0:0:0:
192,192,30060,1,0,0:0:0:0:
64,192,30097,1,0,0:0:0:0:
320,192,30135,1,0,0:0:0:0:
448,192,30135,1,0,0:0:0:0:
192,192,30210,1,0,0:0:0:0:
64,192,30285,1,0,0:0:0:0:
192,192,30285,1,0,0:0:0:0:
448,192,30322,1,0,0:0:0:0:
320,192,30360,1,0,0:0:0:0:
192,192,30397,1,0,0:0:0:0:
64,192,30435,1,0,0:0:0:0:
448,192,30435,1,0,0:0:0:0:
192,192,30510,1,0,0:0:0:0:
320,192,30510,1,0,0:0:0:0:
192,192,30585,1,0,0:0:0:0:
320,192,30585,1,0,0:0:0:0:
448,192,30660,1,0,0:0:0:0:
64,192,30735,1,0,0:0:0:0:
192,192,30735,1,0,0:0:0:0:
64,192,30810,1,0,0:0:0:0:
192,192,30810,1,0,0:0:0:0:
448,192,30885,1,0,0:0:0:0:
320,192,30922,1,0,0:0:0:0:
192,192,30960,1,0,0:0:0:0:
64,192,30997,1,0,0:0:0:0:
320,192,31035,128,0,31072:0:0:0:0:
448,192,31035,128,0,31072:0:0:0:0:
64,192,31110,1,0,0:0:0:0:
448,192,31185,1,0,0:0:0:0:
320,192,31260,1,0,0:0:0:0:
192,192,31335,1,0,0:0:0:0:
64,192,31335,1,0,0:0:0:0:
448,192,31410,1,0,0:0:0:0:
320,192,31485,1,0,0:0:0:0:
64,192,31560,1,0,0:0:0:0:
192,192,31635,1,0,0:0:0:0:
448,192,31635,1,0,0:0:0:0:
320,192,31710,1,0,0:0:0:0:
64,192,31785,1,0,0:0:0:0:
448,192,31860,1,0,0:0:0:0:
320,192,31935,1,0,0:0:0:0:
64,192,31935,1,0,0:0:0:0:
192,192,32010,1,0,0:0:0:0:
448,192,32085,1,0,0:0:0:0:
320,192,32160,1,0,0:0:0:0:
192,192,32235,128,0,32272:0:0:0:0:
64,192,32235,128,0,32272:0:0:0:0:
320,192,32310,1,0,0:0:0:0:
64,192,32385,1,0,0:0:0:0:
448,192,32460,1,0,0:0:0:0:
64,192,32535,1,0,0:0:0:0:
192,192,32535,1,0,0:0:0:0:
320,192,32610,1,0,0:0:0:0:
192,192,32685,1,0,0:0:0:0:
448,192,32760,1,0,0:0:0:0:
320,192,32835,1,0,0:0:0:0:
64,192,32835,1,0,0:0:0:0:
192,192,32910,1,0,0:0:0:0:
448,192,32985,1,0,0:0:0:0:
64,192,33060,1,0,0:0:0:0:
192,192,33135,1,0,0:0:0:0:
448,192,33135,1,0,0:0:0:0:
320,192,33210,1,0,0:0:0:0:
64,192,33285,1,0,0:0:0:0:
192,192,33360,1,0,0:0:0:0:
320,192,33435,128,0,33472:0:0:0:0:
448,192,33435,128,0,33472:0:0:0:0:
64,192,33435,128,0,33510:0:0:0:0:
192,192,33510,128,0,33585:0:0:0:0:
320,192,33585,128,0,33660:0:0:0:0:
64,192,33660,128,0,33735:0:0:0:0:
192,192,33735,128,0,33810:0:0:0:0:
448,192,33735,1,0,0:0:0:0:
320,192,33810,128,0,33885:0:0:0:0:
64,192,33885,128,0,33960:0:0:0:0:
192,192,33960,128,0,34035:0:0:0:0:
320,192,34035,128,0,34110:0:0:0:0:
448,192,34035,1,0,0:0:0:0:
64,192,34110,128,0,34185:0:0:0:0:
192,192,34185,128,0,34260:0:0:0:0:
320,192,34260,128,0,34335:0:0:0:0:
448,192,34335,1,0,0:0:0:0:
64,192,34335,128,0,34410:0:0:0:0:
192,192,34410,128,0,34485:0:0:0:0:
320,192,34485,128,0,34560:0:0:0:0:
448,192,34560,128,0,34635:0:0:0:0:
64,192,34635,128,0,34672:0:0:0:0:
192,192,34635,128,0,34672:0:0:0:0:
320,192,34710,1,0,0:0:0:0:
192,192,34785,1,0,0:0:0:0:
448,192,34860,1,0,0:0:0:0:
64,192,34935,1,0,0:0:0:0:
320,192,34935,1,0,0:0:0:0:
192,192,35010,1,0,0:0:0:0:
448,192,35085,1,0,0:0:0:0:
64,192,35160,1,0,0:0:0:0:
192,192,35235,1,0,0:0:0:0:
320,192,35235,1,0,0:0:0:0:
448,192,35310,1,0,0:0:0:0:
64,192,35385,1,0,0:0:0:0:
320,192,35460,1,0,0:0:0:0:
192,192,35535,1,0,0:0:0:0:
64,192,35535,1,0,0:0:0:0:
448,192,35610,1,0,0:0:0:0:
64,192,35685,1,0,0:0:0:0:
192,192,35760,1,0,0:0:0:0:
320,192,35835,128,0,35872:0:0:0:0:
448,192,35835,128,0,35872:0:0:0:0:
64,192,35910,1,0,0:0:0:0:
320,192,35985,1,0,0:0:0:0:
64,192,36060,1,0,0:0:0:0:
448,192,36135,1,0,0:0:0:0:
192,192,36135,1,0,0:0:0:0:
320,192,36210,1,0,0:0:0:0:
64,192,36285,1,0,0:0:0:0:
192,192,36360,1,0,0:0:0:0:
448,192,36435,1,0,0:0:0:0:
320,192,36435,1,0,0:0:0:0:
192,192,36510,1,0,0:0:0:0:
448,192,36585,1,0,0:0:0:0:
192,192,36660,1,0,0:0:0:0:
64,192,36735,1,0,0:0:0:0:
448,192,36735,1,0,0:0:0:0:
320,192,36810,1,0,0:0:0:0:
192,192,36885,1,0,0:0:0:0:
448,192,36960,1,0,0:0:0:0:
320,192,37035,128,0,37072:0:0:0:0:
64,192,37035,128,0,37072:0:0:0:0:
192,192,37110,1,0,0:0:0:0:
448,192,37185,1,0,0:0:0:0:
64,192,37260,1,0,0:0:0:0:
192,192,37335,1,0,0:0:0:0:
448,192,37335,1,0,0:0:0:0:
320,192,37410,1,0,0:0:0:0:
64,192,37485,1,0,0:0:0:0:
448,192,37560,1,0,0:0:0:0:
320,192,37635,1,0,0:0:0:0:
64,192,37635,1,0,0:0:0:0:
192,192,37710,1,0,0:0:0:0:
448,192,37785,1,0,0:0:0:0:
64,192,37860,1,0,0:0:0:0:
192,192,37935,1,0,0:0:0:0:
320,192,37935,1,0,0:0:0:0:
448,192,38010,1,0,0:0:0:0:
64,192,38085,1,0,0:0:0:0:
320,192,38160,1,0,0:0:0:0:
192,192,38235,128,0,38272:0:0:0:0:
64,192,38235,128,0,38272:0:0:0:0:
448,192,38235,128,0,38310:0:0:0:0:
320,192,38310,128,0,38385:0:0:0:0:
192,192,38385,128,0,38460:0:0:0:0:
64,192,38460,128,0,38535:0:0:0:0:
192,192,38535,128,0,38610:0:0:0:0:
448,192,38535,1,0,0:0:0:0:
320,192,38610,128,0,38685:0:0:0:0:
448,192,38685,128,0,38760:0:0:0:0:
320,192,38760,128,0,38835:0:0:0:0:
64,192,38835,1,0,0:0:0:0:
192,192,38835,128,0,38910:0:0:0:0:
320,192,38910,128,0,38985:0:0:0:0:
192,192,38985,128,0,39060:0:0:0:0:
64,192,39060,128,0,39135:0:0:0:0:
448,192,39135,1,0,0:0:0:0:
192,192,39135,128,0,39210:0:0:0:0:
320,192,39210,128,0,39285:0:0:0:0:
192,192,39285,128,0,39360:0:0:0:0:
320,192,39360,128,0,39435:0:0:0:0:
448,192,39435,128,0,39472:0:0:0:0:
64,192,39435,128,0,39472:0:0:0:0:
192,192,39510,1,0,0:0:0:0:
320,192,39585,1,0,0:0:0:0:
448,192,39585,1,0,0:0:0:0:
64,192,39660,1,0,0:0:0:0:
192,192,39735,1,0,0:0:0:0:
448,192,39735,1,0,0:0:0:0:
320,192,39810,1,0,0:0:0:0:
64,192,39885,1,0,0:0:0:0:
448,192,39960,1,0,0:0:0:0:
192,192,40035,1,0,0:0:0:0:
64,192,40035,128,0,40110:0:0:0:0:
448,192,40110,1,0,0:0:0:0:
64,192,40185,128,0,40260:0:0:0:0:
192,192,40185,1,0,0:0:0:0:
320,192,40260,1,0,0:0:0:0:
64,192,40335,128,0,40635:0:0:0:0:
448,192,40335,1,0,0:0:0:0:
192,192,40410,1,0,0:0:0:0:
448,192,40485,1,0,0:0:0:0:
320,192,40485,1,0,0:0:0:0:
192,192,40560,1,0,0:0:0:0:
320,192,40635,128,0,40672:0:0:0:0:
448,192,40635,128,0,40672:0:0:0:0:
192,192,40710,1,0,0:0:0:0:
448,192,40785,1,0,0:0:0:0:
64,192,40860,1,0,0:0:0:0:
192,192,40935,1,0,0:0:0:0:
448,192,40935,1,0,0:0:0:0:
320,192,41010,1,0,0:0:0:0:
64,192,41085,1,0,0:0:0:0:
448,192,41160,1,0,0:0:0:0:
320,192,41235,1,0,0:0:0:0:
192,192,41235,1,0,0:0:0:0:
64,192,41310,1,0,0:0:0:0:
448,192,41385,1,0,0:0:0:0:
320,192,41460,1,0,0:0:0:0:
64,192,41535,1,0,0:0:0:0:
192,192,41535,1,0,0:0:0:0:
448,192,41610,1,0,0:0:0:0:
64,192,41685,1,0,0:0:0:0:
320,192,41760,1,0,0:0:0:0:
192,192,41835,128,0,41872:0:0:0:0:
448,192,41835,128,0,41872:0:0:0:0:
64,192,41910,1,0,0:0:0:0:
320,192,41985,1,0,0:0:0:0:
192,192,42060,1,0,0:0:0:0:
320,192,42135,1,0,0:0:0:0:
448,192,42135,1,0,0:0:0:0:
64,192,42210,1,0,0:0:0:0:
448,192,42285,1,0,0:0:0:0:
192,192,42360,1,0,0:0:0:0:
320,192,42435,1,0,0:0:0:0:
64,192,42435,1,0,0:0:0:0:
448,192,42510,1,0,0:0:0:0:
192,192,42585,1,0,0:0:0:0:
448,192,42660,1,0,0:0:0:0:
320,192,42735,1,0,0:0:0:0:
64,192,42735,1,0,0:0:0:0:
192,192,42810,1,0,0:0:0:0:
448,192,42885,1,0,0:0:0:0:
320,192,42960,1,0,0:0:0:0:
64,192,43035,128,0,43072:0:0:0:0:
192,192,43035,128,0,43072:0:0:0:0:
448,192,43035,128,0,43110:0:0:0:0:
320,192,43110,128,0,43185:0:0:0:0:
192,192,43185,128,0,43260:0:0:0:0:
448,192,43260,128,0,43335:0:0:0:0:
64,192,43335,128,0,43410:0:0:0:0:
320,192,43335,1,0,0:0:0:0:
192,192,43410,128,0,43485:0:0:0:0:
320,192,43485,128,0,43560:0:0:0:0:
64,192,43560,128,0,43635:0:0:0:0:
448,192,43635,128,0,43710:0:0:0:0:
192,192,43635,1,0,0:0:0:0:
320,192,43710,128,0,43785:0:0:0:0:
192,192,43785,128,0,43935:0:0:0:0:
448,192,43860,128,0,43935:0:0:0:0:
64,192,43860,1,0,0:0:0:0:
320,192,43935,128,0,44010:0:0:0:0:
64,192,44010,128,0,44085:0:0:0:0:
192,192,44085,128,0,44160:0:0:0:0:
320,192,44160,128,0,44235:0:0:0:0:
64,192,44235,128,0,44272:0:0:0:0:
448,192,44235,128,0,44272:0:0:0:0:
192,192,44310,1,0,0:0:0:0:
320,192,44385,1,0,0:0:0:0:
64,192,44460,1,0,0:0:0:0:
448,192,44535,1,0,0:0:0:0:
192,192,44535,1,0,0:0:0:0:
320,192,44610,1,0,0:0:0:0:
64,192,44685,1,0,0:0:0:0:
192,192,44760,1,0,0:0:0:0:
320,192,44835,1,0,0:0:0:0:
448,192,44835,1,0,0:0:0:0:
192,192,44910,1,0,0:0:0:0:
64,192,44985,1,0,0:0:0:0:
448,192,45060,1,0,0:0:0:0:
64,192,45135,1,0,0:0:0:0:
320,192,45135,1,0,0:0:0:0:
192,192,45210,1,0,0:0:0:0:
320,192,45285,1,0,0:0:0:0:
448,192,45285,1,0,0:0:0:0:
192,192,45360,1,0,0:0:0:0:
448,192,45435,128,0,45472:0:0:0:0:
64,192,45435,128,0,45472:0:0:0:0:
320,192,45510,1,0,0:0:0:0:
192,192,45585,1,0,0:0:0:0:
64,192,45660,1,0,0:0:0:0:
320,192,45735,1,0,0:0:0:0:
448,192,45735,1,0,0:0:0:0:
64,192,45810,1,0,0:0:0:0:
320,192,45885,1,0,0:0:0:0:
192,192,45960,1,0,0:0:0:0:
448,192,46035,1,0,0:0:0:0:
64,192,46035,1,0,0:0:0:0:
320,192,46110,1,0,0:0:0:0:
192,192,46185,1,0,0:0:0:0:
448,192,46260,1,0,0:0:0:0:
192,192,46335,1,0,0:0:0:0:
64,192,46335,1,0,0:0:0:0:
320,192,46410,1,0,0:0:0:0:
192,192,46485,1,0,0:0:0:0:
448,192,46560,1,0,0:0:0:0:
320,192,46635,1,0,0:0:0:0:
64,192,46635,1,0,0:0:0:0:
192,192,46710,1,0,0:0:0:0:
448,192,46785,1,0,0:0:0:0:
64,192,46860,1,0,0:0:0:0:
448,192,46935,1,0,0:0:0:0:
192,192,46935,1,0,0:0:0:0:
320,192,47010,1,0,0:0:0:0:
64,192,47085,1,0,0:0:0:0:
448,192,47160,1,0,0:0:0:0:
320,192,47235,128,0,47272:0:0:0:0:
192,192,47235,128,0,47272:0:0:0:0:
64,192,47235,1,0,0:0:0:0:
448,192,47310,1,0,0:0:0:0:
64,192,47385,1,0,0:0:0:0:
448,192,47460,1,0,0:0:0:0:
64,192,47535,1,0,0:0:0:0:
320,192,47535,1,0,0:0:0:0:
192,192,47610,1,0,0:0:0:0:
320,192,47685,1,0,0:0:0:0:
192,192,47760,1,0,0:0:0:0:
64,192,47835,128,0,48060:0:0:0:0:
448,192,47835,128,0,47872:0:0:0:0:
192,192,47910,128,0,48060:0:0:0:0:
320,192,47985,128,0,48135:0:0:0:0:
448,192,48060,128,0,48210:0:0:0:0:
64,192,48135,128,0,48285:0:0:0:0:
192,192,48135,128,0,48360:0:0:0:0:
320,192,48210,128,0,48360:0:0:0:0:
448,192,48285,128,0,48435:0:0:0:0:
64,192,48360,128,0,48510:0:0:0:0:
192,192,48435,128,0,48585:0:0:0:0:
320,192,48435,128,0,48660:0:0:0:0:
448,192,48510,128,0,48660:0:0:0:0:
64,192,48585,128,0,48735:0:0:0:0:
192,192,48660,128,0,48810:0:0:0:0:
320,192,48735,128,0,48885:0:0:0:0:
448,192,48735,128,0,48960:0:0:0:0:
64,192,48810,128,0,48960:0:0:0:0:
192,192,48885,128,0,49147:0:0:0:0:
320,192,48960,128,0,49035:0:0:0:0:
64,192,49035,128,0,49110:0:0:0:0:
448,192,49035,128,0,49110:0:0:0:0:
320,192,49110,128,0,49185:0:0:0:0:
448,192,49185,1,0,0:0:0:0:
64,192,49185,128,0,49410:0:0:0:0:
192,192,49222,128,0,49260:0:0:0:0:
320,192,49260,128,0,49297:0:0:0:0:
448,192,49297,128,0,49335:0:0:0:0:
192,192,49335,128,0,49447:0:0:0:0:
320,192,49410,128,0,49485:0:0:0:0:
448,192,49410,128,0,49522:0:0:0:0:
64,192,49485,128,0,49560:0:0:0:0:
192,192,49522,128,0,49560:0:0:0:0:
320,192,49560,128,0,49597:0:0:0:0:
448,192,49597,128,0,49635:0:0:0:0:
64,192,49635,1,0,0:0:0:0:
192,192,49635,128,0,49710:0:0:0:0:
448,192,49710,1,0,0:0:0:0:
320,192,49710,128,0,49785:0:0:0:0:
64,192,49785,1,0,0:0:0:0:
192,192,49785,128,0,49860:0:0:0:0:
448,192,49860,1,0,0:0:0:0:
320,192,49860,128,0,49935:0:0:0:0:
192,192,49935,1,0,0:0:0:0:
64,192,49935,128,0,50010:0:0:0:0:
320,192,50010,128,0,50085:0:0:0:0:
448,192,50010,1,0,0:0:0:0:
64,192,50085,128,0,50160:0:0:0:0:
192,192,50122,1,0,0:0:0:0:
320,192,50160,128,0,50235:0:0:0:0:
448,192,50197,1,0,0:0:0:0:
64,192,50235,128,0,51435:0:0:0:0:
192,192,50235,128,0,50272:0:0:0:0:
320,192,50310,1,0,0:0:0:0:
448,192,50385,1,0,0:0:0:0:
192,192,50460,1,0,0:0:0:0:
320,192,50535,1,0,0:0:0:0:
448,192,50535,1,0,0:0:0:0:
192,192,50610,1,0,0:0:0:0:
320,192,50685,1,0,0:0:0:0:
448,192,50760,1,0,0:0:0:0:
320,192,50835,1,0,0:0:0:0:
192,192,50835,1,0,0:0:0:0:
448,192,50910,1,0,0:0:0:0:
192,192,50985,1,0,0:0:0:0:
320,192,51060,1,0,0:0:0:0:
448,192,51135,1,0,0:0:0:0:
192,192,51135,1,0,0:0:0:0:
320,192,51210,1,0,0:0:0:0:
448,192,51285,1,0,0:0:0:0:
320,192,51360,1,0,0:0:0:0:
192,192,51435,128,0,52635:0:0:0:0:
448,192,51435,128,0,51472:0:0:0:0:
320,192,51510,1,0,0:0:0:0:
64,192,51585,1,0,0:0:0:0:
448,192,51660,1,0,0:0:0:0:
320,192,51735,1,0,0:0:0:0:
64,192,51735,1,0,0:0:0:0:
448,192,51810,1,0,0:0:0:0:
320,192,51885,1,0,0:0:0:0:
64,192,51960,1,0,0:0:0:0:
320,192,52035,1,0,0:0:0:0:
448,192,52035,1,0,0:0:0:0:
64,192,52110,1,0,0:0:0:0:
448,192,52185,1,0,0:0:0:0:
320,192,52260,1,0,0:0:0:0:
64,192,52335,1,0,0:0:0:0:
448,192,52335,1,0,0:0:0:0:
320,192,52410,1,0,0:0:0:0:
64,192,52485,1,0,0:0:0:0:
448,192,52560,1,0,0:0:0:0:
320,192,52635,128,0,53835:0:0:0:0:
64,192,52635,128,0,52672:0:0:0:0:
448,192,52710,1,0,0:0:0:0:
64,192,52785,1,0,0:0:0:0:
192,192,52860,1,0,0:0:0:0:
448,192,52935,1,0,0:0:0:0:
64,192,52935,1,0,0:0:0:0:
192,192,53010,1,0,0:0:0:0:
448,192,53085,1,0,0:0:0:0:
64,192,53160,1,0,0:0:0:0:
192,192,53235,1,0,0:0:0:0:
448,192,53235,1,0,0:0:0:0:
64,192,53310,1,0,0:0:0:0:
192,192,53385,1,0,0:0:0:0:
448,192,53460,1,0,0:0:0:0:
192,192,53535,1,0,0:0:0:0:
64,192,53535,1,0,0:0:0:0:
448,192,53610,1,0,0:0:0:0:
64,192,53685,1,0,0:0:0:0:
192,192,53760,1,0,0:0:0:0:
448,192,53835,128,0,55035:0:0:0:0:
64,192,53835,128,0,53872:0:0:0:0:
320,192,53910,1,0,0:0:0:0:
192,192,53985,1,0,0:0:0:0:
64,192,54060,1,0,0:0:0:0:
192,192,54135,1,0,0:0:0:0:
320,192,54135,1,0,0:0:0:0:
64,192,54210,1,0,0:0:0:0:
320,192,54285,1,0,0:0:0:0:
192,192,54360,1,0,0:0:0:0:
64,192,54435,1,0,0:0:0:0:
320,192,54435,1,0,0:0:0:0:
320,192,54510,1,0,0:0:0:0:
64,192,54585,1,0,0:0:0:0:
64,192,54660,1,0,0:0:0:0:
192,192,54735,1,0,0:0:0:0:
320,192,54735,1,0,0:0:0:0:
64,192,54810,1,0,0:0:0:0:
192,192,54885,1,0,0:0:0:0:
320,192,54885,1,0,0:0:0:0:
192,192,54960,1,0,0:0:0:0:
320,192,55035,128,0,56235:0:0:0:0:
64,192,55035,128,0,55072:0:0:0:0:
448,192,55110,1,0,0:0:0:0:
192,192,55185,1,0,0:0:0:0:
64,192,55260,1,0,0:0:0:0:
192,192,55335,1,0,0:0:0:0:
448,192,55335,1,0,0:0:0:0:
64,192,55410,1,0,0:0:0:0:
448,192,55485,1,0,0:0:0:0:
192,192,55560,1,0,0:0:0:0:
448,192,55635,1,0,0:0:0:0:
64,192,55635,1,0,0:0:0:0:
192,192,55710,1,0,0:0:0:0:
448,192,55785,1,0,0:0:0:0:
64,192,55860,1,0,0:0:0:0:
192,192,55935,1,0,0:0:0:0:
448,192,55935,1,0,0:0:0:0:
64,192,56010,1,0,0:0:0:0:
192,192,56085,1,0,0:0:0:0:
64,192,56160,1,0,0:0:0:0:
448,192,56235,128,0,57435:0:0:0:0:
192,192,56235,128,0,56272:0:0:0:0:
64,192,56310,1,0,0:0:0:0:
320,192,56385,1,0,0:0:0:0:
192,192,56460,1,0,0:0:0:0:
64,192,56535,1,0,0:0:0:0:
320,192,56535,1,0,0:0:0:0:
192,192,56610,1,0,0:0:0:0:
64,192,56685,1,0,0:0:0:0:
192,192,56760,1,0,0:0:0:0:
64,192,56835,1,0,0:0:0:0:
320,192,56835,1,0,0:0:0:0:
192,192,56910,1,0,0:0:0:0:
320,192,56985,1,0,0:0:0:0:
64,192,57060,1,0,0:0:0:0:
192,192,57135,1,0,0:0:0:0:
320,192,57135,1,0,0:0:0:0:
64,192,57210,1,0,0:0:0:0:
192,192,57285,1,0,0:0:0:0:
320,192,57360,1,0,0:0:0:0:
192,192,57435,128,0,58635:0:0:0:0:
64,192,57435,128,0,57472:0:0:0:0:
320,192,57510,1,0,0:0:0:0:
448,192,57585,1,0,0:0:0:0:
64,192,57660,1,0,0:0:0:0:
320,192,57735,1,0,0:0:0:0:
448,192,57735,1,0,0:0:0:0:
64,192,57810,1,0,0:0:0:0:
320,192,57885,1,0,0:0:0:0:
448,192,57960,1,0,0:0:0:0:
320,192,58035,1,0,0:0:0:0:
64,192,58035,1,0,0:0:0:0:
448,192,58110,1,0,0:0:0:0:
64,192,58185,1,0,0:0:0:0:
320,192,58260,1,0,0:0:0:0:
448,192,58335,1,0,0:0:0:0:
64,192,58335,1,0,0:0:0:0:
320,192,58410,1,0,0:0:0:0:
448,192,58485,1,0,0:0:0:0:
64,192,58560,1,0,0:0:0:0:
320,192,58635,128,0,59835:0:0:0:0:
448,192,58635,128,0,58672:0:0:0:0:
192,192,58710,1,0,0:0:0:0:
64,192,58785,1,0,0:0:0:0:
448,192,58860,1,0,0:0:0:0:
192,192,58935,1,0,0:0:0:0:
64,192,58935,1,0,0:0:0:0:
448,192,59010,1,0,0:0:0:0:
192,192,59085,1,0,0:0:0:0:
448,192,59160,1,0,0:0:0:0:
64,192,59235,1,0,0:0:0:0:
192,192,59235,1,0,0:0:0:0:
192,192,59310,1,0,0:0:0:0:
448,192,59385,1,0,0:0:0:0:
64,192,59460,1,0,0:0:0:0:
448,192,59535,1,0,0:0:0:0:
192,192,59535,1,0,0:0:0:0:
448,192,59610,1,0,0:0:0:0:
64,192,59685,1,0,0:0:0:0:
192,192,59685,1,0,0:0:0:0:
64,192,59760,1,0,0:0:0:0:
192,192,59835,128,0,61035:0:0:0:0:
448,192,59835,128,0,59872:0:0:0:0:
320,192,59910,1,0,0:0:0:0:
64,192,59985,1,0,0:0:0:0:
448,192,60060,1,0,0:0:0:0:
320,192,60135,1,0,0:0:0:0:
64,192,60135,1,0,0:0:0:0:
448,192,60210,1,0,0:0:0:0:
320,192,60285,1,0,0:0:0:0:
64,192,60360,1,0,0:0:0:0:
448,192,60435,1,0,0:0:0:0:
320,192,60435,1,0,0:0:0:0:
64,192,60510,1,0,0:0:0:0:
320,192,60585,1,0,0:0:0:0:
448,192,60660,1,0,0:0:0:0:
320,192,60735,1,0,0:0:0:0:
64,192,60735,1,0,0:0:0:0:
448,192,60810,1,0,0:0:0:0:
64,192,60885,1,0,0:0:0:0:
320,192,60960,1,0,0:0:0:0:
448,192,61035,128,0,62235:0:0:0:0:
64,192,61035,128,0,61072:0:0:0:0:
320,192,61110,1,0,0:0:0:0:
192,192,61185,1,0,0:0:0:0:
64,192,61260,1,0,0:0:0:0:
320,192,61335,1,0,0:0:0:0:
192,192,61335,1,0,0:0:0:0:
64,192,61410,1,0,0:0:0:0:
320,192,61485,1,0,0:0:0:0:
192,192,61560,1,0,0:0:0:0:
64,192,61635,1,0,0:0:0:0:
320,192,61635,1,0,0:0:0:0:
192,192,61710,1,0,0:0:0:0:
64,192,61785,1,0,0:0:0:0:
320,192,61860,1,0,0:0:0:0:
192,192,61935,1,0,0:0:0:0:
64,192,61935,1,0,0:0:0:0:
320,192,62010,1,0,0:0:0:0:
192,192,62085,1,0,0:0:0:0:
320,192,62160,1,0,0:0:0:0:
64,192,62235,128,0,63435:0:0:0:0:
192,192,62235,128,0,62272:0:0:0:0:
320,192,62310,1,0,0:0:0:0:
448,192,62385,1,0,0:0:0:0:
192,192,62460,1,0,0:0:0:0:
320,192,62535,1,0,0:0:0:0:
448,192,62535,1,0,0:0:0:0:
192,192,62610,1,0,0:0:0:0:
320,192,62685,1,0,0:0:0:0:
448,192,62760,1,0,0:0:0:0:
320,192,62835,1,0,0:0:0:0:
192,192,62835,1,0,0:0:0:0:
448,192,62910,1,0,0:0:0:0:
192,192,62985,1,0,0:0:0:0:
320,192,63060,1,0,0:0:0:0:
448,192,63135,1,0,0:0:0:0:
192,192,63135,1,0,0:0:0:0:
320,192,63210,1,0,0:0:0:0:
448,192,63285,1,0,0:0:0:0:
320,192,63360,1,0,0:0:0:0:
192,192,63435,128,0,64035:0:0:0:0:
448,192,63435,128,0,63472:0:0:0:0:
320,192,63510,1,0,0:0:0:0:
64,192,63585,1,0,0:0:0:0:
448,192,63660,1,0,0:0:0:0:
320,192,63735,1,0,0:0:0:0:
64,192,63735,1,0,0:0:0:0:
448,192,63810,1,0,0:0:0:0:
320,192,63885,1,0,0:0:0:0:
64,192,63960,1,0,0:0:0:0:
448,192,64035,128,0,64072:0:0:0:0:
320,192,64035,128,0,64560:0:0:0:0:
64,192,64110,1,0,0:0:0:0:
192,192,64185,1,0,0:0:0:0:
448,192,64260,1,0,0:0:0:0:
192,192,64335,1,0,0:0:0:0:
64,192,64335,1,0,0:0:0:0:
192,192,64410,1,0,0:0:0:0:
64,192,64485,1,0,0:0:0:0:
448,192,64485,1,0,0:0:0:0:
192,192,64560,1,0,0:0:0:0:
64,192,64635,1,0,0:0:0:0:
320,192,64635,1,0,0:0:0:0:
448,192,64635,1,0,0:0:0:0:
192,192,64710,1,0,0:0:0:0:
320,192,64785,1,0,0:0:0:0:
448,192,64785,1,0,0:0:0:0:
64,192,64860,1,0,0:0:0:0:
320,192,64935,1,0,0:0:0:0:
448,192,64935,1,0,0:0:0:0:
192,192,65010,1,0,0:0:0:0:
320,192,65085,1,0,0:0:0:0:
448,192,65085,1,0,0:0:0:0:
64,192,65160,1,0,0:0:0:0:
448,192,65235,1,0,0:0:0:0:
320,192,65235,1,0,0:0:0:0:
192,192,65310,1,0,0:0:0:0:
448,192,65385,1,0,0:0:0:0:
64,192,65385,1,0,0:0:0:0:
320,192,65460,1,0,0:0:0:0:
448,192,65535,1,0,0:0:0:0:
64,192,65535,1,0,0:0:0:0:
192,192,65610,1,0,0:0:0:0:
320,192,65685,1,0,0:0:0:0:
448,192,65685,1,0,0:0:0:0:
192,192,65760,1,0,0:0:0:0:
320,192,65760,1,0,0:0:0:0:
192,192,65835,1,0,0:0:0:0:
64,192,65835,1,0,0:0:0:0:
448,192,65910,1,0,0:0:0:0:
192,192,65985,1,0,0:0:0:0:
64,192,65985,1,0,0:0:0:0:
320,192,66060,1,0,0:0:0:0:
192,192,66135,1,0,0:0:0:0:
64,192,66135,1,0,0:0:0:0:
448,192,66210,1,0,0:0:0:0:
192,192,66285,1,0,0:0:0:0:
64,192,66285,1,0,0:0:0:0:
320,192,66360,1,0,0:0:0:0:
192,192,66435,1,0,0:0:0:0:
64,192,66435,1,0,0:0:0:0:
448,192,66510,1,0,0:0:0:0:
192,192,66585,1,0,0:0:0:0:
64,192,66585,1,0,0:0:0:0:
320,192,66660,1,0,0:0:0:0:
192,192,66735,1,0,0:0:0:0:
64,192,66735,1,0,0:0:0:0:
320,192,66810,1,0,0:0:0:0:
448,192,66885,1,0,0:0:0:0:
192,192,66885,1,0,0:0:0:0:
64,192,66960,1,0,0:0:0:0:
320,192,66960,1,0,0:0:0:0:
192,192,67035,1,0,0:0:0:0:
448,192,67035,1,0,0:0:0:0:
320,192,67110,1,0,0:0:0:0:
192,192,67185,1,0,0:0:0:0:
448,192,67185,1,0,0:0:0:0:
64,192,67260,1,0,0:0:0:0:
192,192,67335,1,0,0:0:0:0:
448,192,67335,1,0,0:0:0:0:
320,192,67410,1,0,0:0:0:0:
448,192,67485,1,0,0:0:0:0:
64,192,67485,1,0,0:0:0:0:
320,192,67560,1,0,0:0:0:0:
192,192,67560,1,0,0:0:0:0:
448,192,67635,1,0,0:0:0:0:
64,192,67635,1,0,0:0:0:0:
192,192,67710,1,0,0:0:0:0:
320,192,67785,1,0,0:0:0:0:
64,192,67785,1,0,0:0:0:0:
448,192,67860,1,0,0:0:0:0:
64,192,67935,1,0,0:0:0:0:
192,192,67935,1,0,0:0:0:0:
320,192,68010,1,0,0:0:0:0:
448,192,68085,1,0,0:0:0:0:
64,192,68085,1,0,0:0:0:0:
192,192,68122,1,0,0:0:0:0:
448,192,68160,1,0,0:0:0:0:
320,192,68197,1,0,0:0:0:0:
64,192,68235,1,0,0:0:0:0:
192,192,68235,1,0,0:0:0:0:
320,192,68310,1,0,0:0:0:0:
448,192,68385,1,0,0:0:0:0:
64,192,68385,1,0,0:0:0:0:
192,192,68422,1,0,0:0:0:0:
448,192,68460,1,0,0:0:0:0:
320,192,68497,1,0,0:0:0:0:
192,192,68535,1,0,0:0:0:0:
64,192,68535,1,0,0:0:0:0:
320,192,68610,1,0,0:0:0:0:
448,192,68685,1,0,0:0:0:0:
64,192,68685,1,0,0:0:0:0:
192,192,68722,1,0,0:0:0:0:
448,192,68760,1,0,0:0:0:0:
320,192,68797,1,0,0:0:0:0:
192,192,68835,1,0,0:0:0:0:
64,192,68835,1,0,0:0:0:0:
320,192,68910,1,0,0:0:0:0:
448,192,68910,1,0,0:0:0:0:
192,192,68985,1,0,0:0:0:0:
64,192,68985,1,0,0:0:0:0:
448,192,69022,1,0,0:0:0:0:
320,192,69060,1,0,0:0:0:0:
192,192,69097,1,0,0:0:0:0:
64,192,69135,1,0,0:0:0:0:
448,192,69135,1,0,0:0:0:0:
320,192,69210,1,0,0:0:0:0:
192,192,69285,1,0,0:0:0:0:
64,192,69285,1,0,0:0:0:0:
448,192,69322,1,0,0:0:0:0:
320,192,69360,1,0,0:0:0:0:
192,192,69397,1,0,0:0:0:0:
320,192,69435,1,0,0:0:0:0:
64,192,69435,128,0,74235:0:0:0:0:
448,192,69435,128,0,71835:0:0:0:0:
192,192,71835,128,0,71985:0:0:0:0:
320,192,72135,128,0,72285:0:0:0:0:
448,192,72435,128,0,74235:0:0:0:0:
192,192,73335,128,0,74235:0:0:0:0:
320,192,74235,128,0,76235:0:0:0:0:
192,192,74835,128,0,76035:0:0:0:0:
64,192,76035,128,0,76635:0:0:0:0:
192,192,76235,128,0,76635:0:0:0:0:
320,192,76435,128,0,76635:0:0:0:0:
448,192,76635,128,0,78235:0:0:0:0:
64,192,77235,128,0,79035:0:0:0:0:
448,192,78435,128,0,79035:0:0:0:0:
320,192,79035,128,0,80835:0:0:0:0:
64,192,79635,128,0,80835:0:0:0:0:
192,192,80835,1,0,0:0:0:0:
448,192,80835,128,0,81235:0:0:0:0:
64,192,81035,1,0,0:0:0:0:
320,192,81035,128,0,81235:0:0:0:0:
192,192,81235,1,0,0:0:0:0:
64,192,81235,128,0,82035:0:0:0:0:
448,192,81435,128,0,82935:0:0:0:0:
320,192,81435,1,0,0:0:0:0:
192,192,82035,128,0,82935:0:0:0:0:
320,192,82935,128,0,83835:0:0:0:0:
64,192,83235,128,0,83835:0:0:0:0:
192,192,83535,128,0,83835:0:0:0:0:
448,192,83835,128,0,85035:0:0:0:0:
320,192,85035,128,0,85635:0:0:0:0:
64,192,85035,1,0,0:0:0:0:
64,192,85635,128,0,86235:0:0:0:0:
448,192,85635,1,0,0:0:0:0:
448,192,86235,128,0,87435:0:0:0:0:
192,192,86235,1,0,0:0:0:0:
320,192,87435,1,0,0:0:0:0:
64,192,87435,128,0,88035:0:0:0:0:
448,192,87735,1,0,0:0:0:0:
192,192,87735,128,0,88035:0:0:0:0:
448,192,88035,1,0,0:0:0:0:
320,192,88035,128,0,88235:0:0:0:0:
192,192,88235,1,0,0:0:0:0:
448,192,88235,128,0,88635:0:0:0:0:
64,192,88435,1,0,0:0:0:0:
320,192,88435,128,0,88635:0:0:0:0:
192,192,88635,1,0,0:0:0:0:
64,192,88635,128,0,90435:0:0:0:0:
192,192,89235,128,0,90435:0:0:0:0:
448,192,90135,128,0,90735:0:0:0:0:
320,192,90435,128,0,90735:0:0:0:0:
192,192,90735,128,0,91035:0:0:0:0:
64,192,91035,128,0,92235:0:0:0:0:
448,192,91035,128,0,92235:0:0:0:0:
320,192,91635,128,0,92835:0:0:0:0:
192,192,92235,128,0,92835:0:0:0:0:
448,192,92835,128,0,93435:0:0:0:0:
64,192,92835,128,0,93435:0:0:0:0:
320,192,93435,128,0,94035:0:0:0:0:
192,192,93435,1,0,0:0:0:0:
448,192,93510,1,0,0:0:0:0:
64,192,93585,1,0,0:0:0:0:
448,192,93660,1,0,0:0:0:0:
64,192,93735,1,0,0:0:0:0:
448,192,93810,1,0,0:0:0:0:
64,192,93885,1,0,0:0:0:0:
448,192,93960,1,0,0:0:0:0:
192,192,94035,128,0,95235:0:0:0:0:
64,192,94035,1,0,0:0:0:0:
320,192,94110,1,0,0:0:0:0:
64,192,94185,1,0,0:0:0:0:
320,192,94260,1,0,0:0:0:0:
64,192,94335,1,0,0:0:0:0:
320,192,94410,1,0,0:0:0:0:
64,192,94485,1,0,0:0:0:0:
320,192,94560,1,0,0:0:0:0:
448,192,94710,1,0,0:0:0:0:
320,192,94785,1,0,0:0:0:0:
64,192,94860,1,0,0:0:0:0:
448,192,94935,1,0,0:0:0:0:
64,192,95010,1,0,0:0:0:0:
448,192,95085,1,0,0:0:0:0:
64,192,95160,1,0,0:0:0:0:
320,192,95235,128,0,95435:0:0:0:0:
192,192,95435,128,0,95835:0:0:0:0:
448,192,95635,128,0,95835:0:0:0:0:
320,192,95835,128,0,96435:0:0:0:0:
64,192,96435,128,0,97635:0:0:0:0:
192,192,96435,1,0,0:0:0:0:
448,192,96510,1,0,0:0:0:0:
192,192,96585,1,0,0:0:0:0:
448,192,96660,1,0,0:0:0:0:
192,192,96735,1,0,0:0:0:0:
448,192,96810,1,0,0:0:0:0:
192,192,96885,1,0,0:0:0:0:
448,192,96960,1,0,0:0:0:0:
448,192,97110,1,0,0:0:0:0:
320,192,97185,1,0,0:0:0:0:
192,192,97260,1,0,0:0:0:0:
320,192,97335,1,0,0:0:0:0:
192,192,97410,1,0,0:0:0:0:
320,192,97485,1,0,0:0:0:0:
192,192,97560,1,0,0:0:0:0:
320,192,97635,128,0,98010:0:0:0:0:
192,192,97710,1,0,0:0:0:0:
64,192,97785,1,0,0:0:0:0:
192,192,97860,1,0,0:0:0:0:
64,192,97935,1,0,0:0:0:0:
448,192,97935,128,0,98010:0:0:0:0:
192,192,98010,1,0,0:0:0:0:
320,192,98085,1,0,0:0:0:0:
448,192,98085,1,0,0:0:0:0:
64,192,98085,1,0,0:0:0:0:
320,192,98235,1,0,0:0:0:0:
64,192,98235,1,0,0:0:0:0:
448,192,98235,128,0,98835:0:0:0:0:
192,192,98310,1,0,0:0:0:0:
320,192,98385,1,0,0:0:0:0:
192,192,98460,1,0,0:0:0:0:
320,192,98535,1,0,0:0:0:0:
192,192,98610,1,0,0:0:0:0:
320,192,98685,1,0,0:0:0:0:
64,192,98760,1,0,0:0:0:0:
192,192,98835,128,0,100035:0:0:0:0:
320,192,98835,1,0,0:0:0:0:
64,192,98910,1,0,0:0:0:0:
320,192,98985,1,0,0:0:0:0:
64,192,99060,1,0,0:0:0:0:
320,192,99135,1,0,0:0:0:0:
64,192,99210,1,0,0:0:0:0:
320,192,99285,1,0,0:0:0:0:
64,192,99360,1,0,0:0:0:0:
448,192,99510,1,0,0:0:0:0:
320,192,99585,1,0,0:0:0:0:
448,192,99660,1,0,0:0:0:0:
320,192,99735,1,0,0:0:0:0:
448,192,99810,1,0,0:0:0:0:
320,192,99885,1,0,0:0:0:0:
448,192,99960,1,0,0:0:0:0:
64,192,100035,128,0,100435:0:0:0:0:
320,192,100035,1,0,0:0:0:0:
320,192,100235,128,0,100435:0:0:0:0:
192,192,100435,128,0,100635:0:0:0:0:
320,192,100635,128,0,101235:0:0:0:0:
448,192,101235,128,0,102435:0:0:0:0:
64,192,101235,1,0,0:0:0:0:
192,192,101310,1,0,0:0:0:0:
320,192,101385,1,0,0:0:0:0:
64,192,101460,1,0,0:0:0:0:
320,192,101535,1,0,0:0:0:0:
64,192,101610,1,0,0:0:0:0:
320,192,101685,1,0,0:0:0:0:
64,192,101760,1,0,0:0:0:0:
320,192,101835,1,0,0:0:0:0:
64,192,101910,1,0,0:0:0:0:
320,192,101985,1,0,0:0:0:0:
64,192,102060,1,0,0:0:0:0:
192,192,102135,128,0,102435:0:0:0:0:
320,192,102135,128,0,102735:0:0:0:0:
64,192,102435,128,0,103035:0:0:0:0:
192,192,102735,128,0,103035:0:0:0:0:
448,192,102885,1,0,0:0:0:0:
320,192,102885,1,0,0:0:0:0:
320,192,102960,1,0,0:0:0:0:
448,192,102960,1,0,0:0:0:0:
320,192,103035,128,0,104235:0:0:0:0:
448,192,103035,128,0,104835:0:0:0:0:
64,192,104235,128,0,105435:0:0:0:0:
192,192,104235,1,0,0:0:0:0:
192,192,104835,128,0,105435:0:0:0:0:
320,192,104835,1,0,0:0:0:0:
320,192,105285,1,0,0:0:0:0:
448,192,105285,1,0,0:0:0:0:
448,192,105360,1,0,0:0:0:0:
320,192,105360,1,0,0:0:0:0:
320,192,105435,128,0,107235:0:0:0:0:
448,192,105435,128,0,106635:0:0:0:0:
64,192,106485,1,0,0:0:0:0:
192,192,106485,1,0,0:0:0:0:
64,192,106635,128,0,107435:0:0:0:0:
192,192,106635,128,0,106935:0:0:0:0:
448,192,106935,128,0,107235:0:0:0:0:
192,192,107235,128,0,107435:0:0:0:0:
320,192,107435,128,0,107835:0:0:0:0:
448,192,107635,128,0,107835:0:0:0:0:
192,192,107685,1,0,0:0:0:0:
64,192,107685,1,0,0:0:0:0:
64,192,107760,1,0,0:0:0:0:
192,192,107760,1,0,0:0:0:0:
192,192,107835,128,0,108435:0:0:0:0:
64,192,107835,128,0,108435:0:0:0:0:
320,192,108435,128,0,109635:0:0:0:0:
192,192,108885,1,0,0:0:0:0:
64,192,108885,1,0,0:0:0:0:
448,192,109035,1,0,0:0:0:0:
192,192,109035,1,0,0:0:0:0:
64,192,109035,1,0,0:0:0:0:
448,192,109335,128,0,109635:0:0:0:0:
192,192,109635,128,0,110235:0:0:0:0:
320,192,109935,128,0,110235:0:0:0:0:
64,192,110085,1,0,0:0:0:0:
448,192,110085,1,0,0:0:0:0:
448,192,110160,1,0,0:0:0:0:
64,192,110160,1,0,0:0:0:0:
448,192,110235,1,0,0:0:0:0:
64,192,110235,128,0,110835:0:0:0:0:
320,192,110385,1,0,0:0:0:0:
192,192,110385,1,0,0:0:0:0:
448,192,110685,1,0,0:0:0:0:
320,192,110685,1,0,0:0:0:0:
320,192,110760,1,0,0:0:0:0:
448,192,110760,1,0,0:0:0:0:
448,192,110835,1,0,0:0:0:0:
320,192,110835,1,0,0:0:0:0:
192,192,110835,128,0,111435:0:0:0:0:
64,192,110985,1,0,0:0:0:0:
448,192,110985,1,0,0:0:0:0:
320,192,111285,1,0,0:0:0:0:
64,192,111285,1,0,0:0:0:0:
320,192,111360,1,0,0:0:0:0:
64,192,111360,1,0,0:0:0:0:
64,192,111435,1,0,0:0:0:0:
320,192,111435,128,0,112035:0:0:0:0:
448,192,111510,1,0,0:0:0:0:
192,192,111585,1,0,0:0:0:0:
448,192,111660,1,0,0:0:0:0:
64,192,111735,1,0,0:0:0:0:
192,192,111735,1,0,0:0:0:0:
448,192,111810,1,0,0:0:0:0:
64,192,111885,1,0,0:0:0:0:
192,192,111885,1,0,0:0:0:0:
448,192,111960,1,0,0:0:0:0:
64,192,112035,1,0,0:0:0:0:
192,192,112035,128,0,112635:0:0:0:0:
448,192,112110,1,0,0:0:0:0:
320,192,112185,1,0,0:0:0:0:
64,192,112185,1,0,0:0:0:0:
448,192,112260,1,0,0:0:0:0:
320,192,112335,1,0,0:0:0:0:
64,192,112335,1,0,0:0:0:0:
448,192,112410,1,0,0:0:0:0:
320,192,112485,1,0,0:0:0:0:
64,192,112485,1,0,0:0:0:0:
448,192,112560,1,0,0:0:0:0:
320,192,112635,1,0,0:0:0:0:
64,192,112635,128,0,112710:0:0:0:0:
448,192,112710,1,0,0:0:0:0:
64,192,112785,128,0,112860:0:0:0:0:
192,192,112785,1,0,0:0:0:0:
320,192,112860,1,0,0:0:0:0:
64,192,112935,128,0,113010:0:0:0:0:
192,192,112935,1,0,0:0:0:0:
320,192,113010,1,0,0:0:0:0:
64,192,113085,128,0,113160:0:0:0:0:
192,192,113085,1,0,0:0:0:0:
320,192,113160,1,0,0:0:0:0:
448,192,113235,128,0,113310:0:0:0:0:
192,192,113235,1,0,0:0:0:0:
64,192,113310,1,0,0:0:0:0:
448,192,113385,128,0,113460:0:0:0:0:
320,192,113385,1,0,0:0:0:0:
64,192,113460,1,0,0:0:0:0:
448,192,113535,128,0,113610:0:0:0:0:
320,192,113535,1,0,0:0:0:0:
64,192,113610,1,0,0:0:0:0:
448,192,113685,128,0,113760:0:0:0:0:
320,192,113685,1,0,0:0:0:0:
192,192,113760,1,0,0:0:0:0:
64,192,113835,128,0,114060:0:0:0:0:
320,192,113835,128,0,113910:0:0:0:0:
320,192,114135,128,0,114210:0:0:0:0:
64,192,114135,128,0,114360:0:0:0:0:
448,192,114285,128,0,114435:0:0:0:0:
192,192,114285,128,0,114735:0:0:0:0:
64,192,114435,128,0,114660:0:0:0:0:
320,192,114435,128,0,114585:0:0:0:0:
448,192,114585,128,0,114960:0:0:0:0:
64,192,114735,128,0,114960:0:0:0:0:
320,192,114735,128,0,114960:0:0:0:0:
64,192,115035,1,0,0:0:0:0:
448,192,115035,128,0,115072:0:0:0:0:
320,192,115035,128,0,115072:0:0:0:0:
192,192,115110,1,0,0:0:0:0:
64,192,115185,1,0,0:0:0:0:
448,192,115260,1,0,0:0:0:0:
64,192,115335,1,0,0:0:0:0:
192,192,115335,1,0,0:0:0:0:
320,192,115410,1,0,0:0:0:0:
448,192,115485,1,0,0:0:0:0:
192,192,115560,1,0,0:0:0:0:
64,192,115635,1,0,0:0:0:0:
448,192,115635,1,0,0:0:0:0:
320,192,115710,1,0,0:0:0:0:
192,192,115785,1,0,0:0:0:0:
448,192,115860,1,0,0:0:0:0:
320,192,115935,1,0,0:0:0:0:
64,192,115935,1,0,0:0:0:0:
192,192,116010,1,0,0:0:0:0:
320,192,116085,1,0,0:0:0:0:
448,192,116160,1,0,0:0:0:0:
192,192,116235,128,0,116272:0:0:0:0:
64,192,116235,128,0,116272:0:0:0:0:
320,192,116235,1,0,0:0:0:0:
448,192,116310,1,0,0:0:0:0:
192,192,116385,1,0,0:0:0:0:
320,192,116460,1,0,0:0:0:0:
64,192,116535,1,0,0:0:0:0:
448,192,116535,1,0,0:0:0:0:
192,192,116610,1,0,0:0:0:0:
448,192,116685,1,0,0:0:0:0:
320,192,116760,1,0,0:0:0:0:
192,192,116835,1,0,0:0:0:0:
64,192,116835,1,0,0:0:0:0:
320,192,116910,1,0,0:0:0:0:
448,192,116985,1,0,0:0:0:0:
64,192,117060,1,0,0:0:0:0:
192,192,117135,1,0,0:0:0:0:
448,192,117135,1,0,0:0:0:0:
320,192,117210,1,0,0:0:0:0:
64,192,117285,1,0,0:0:0:0:
192,192,117360,1,0,0:0:0:0:
64,192,117435,1,0,0:0:0:0:
320,192,117435,128,0,117472:0:0:0:0:
448,192,117435,128,0,117472:0:0:0:0:
192,192,117510,1,0,0:0:0:0:
320,192,117585,1,0,0:0:0:0:
448,192,117660,1,0,0:0:0:0:
192,192,117735,1,0,0:0:0:0:
64,192,117735,1,0,0:0:0:0:
320,192,117810,1,0,0:0:0:0:
192,192,117885,1,0,0:0:0:0:
448,192,117960,1,0,0:0:0:0:
320,192,118035,1,0,0:0:0:0:
64,192,118035,1,0,0:0:0:0:
192,192,118110,1,0,0:0:0:0:
320,192,118185,1,0,0:0:0:0:
448,192,118260,1,0,0:0:0:0:
64,192,118335,1,0,0:0:0:0:
192,192,118335,1,0,0:0:0:0:
320,192,118410,1,0,0:0:0:0:
448,192,118485,1,0,0:0:0:0:
192,192,118560,1,0,0:0:0:0:
448,192,118635,128,0,118672:0:0:0:0:
64,192,118635,128,0,118672:0:0:0:0:
320,192,118635,1,0,0:0:0:0:
192,192,118710,1,0,0:0:0:0:
448,192,118785,1,0,0:0:0:0:
64,192,118860,1,0,0:0:0:0:
192,192,118935,1,0,0:0:0:0:
320,192,118935,1,0,0:0:0:0:
448,192,119010,1,0,0:0:0:0:
64,192,119085,1,0,0:0:0:0:
320,192,119160,1,0,0:0:0:0:
64,192,119235,1,0,0:0:0:0:
192,192,119235,1,0,0:0:0:0:
448,192,119310,1,0,0:0:0:0:
320,192,119385,1,0,0:0:0:0:
192,192,119460,1,0,0:0:0:0:
320,192,119535,1,0,0:0:0:0:
448,192,119535,1,0,0:0:0:0:
64,192,119610,1,0,0:0:0:0:
448,192,119685,1,0,0:0:0:0:
320,192,119760,1,0,0:0:0:0:
192,192,119835,128,0,119872:0:0:0:0:
64,192,119835,128,0,119872:0:0:0:0:
448,192,119835,1,0,0:0:0:0:
320,192,119910,1,0,0:0:0:0:
192,192,119985,1,0,0:0:0:0:
448,192,120060,1,0,0:0:0:0:
320,192,120135,1,0,0:0:0:0:
64,192,120135,1,0,0:0:0:0:
192,192,120210,1,0,0:0:0:0:
320,192,120285,1,0,0:0:0:0:
64,192,120360,1,0,0:0:0:0:
192,192,120435,1,0,0:0:0:0:
448,192,120435,1,0,0:0:0:0:
320,192,120510,1,0,0:0:0:0:
192,192,120585,1,0,0:0:0:0:
64,192,120660,1,0,0:0:0:0:
320,192,120735,1,0,0:0:0:0:
448,192,120735,1,0,0:0:0:0:
192,192,120810,1,0,0:0:0:0:
64,192,120885,1,0,0:0:0:0:
320,192,120960,1,0,0:0:0:0:
64,192,121035,128,0,121072:0:0:0:0:
192,192,121035,1,0,0:0:0:0:
448,192,121035,128,0,121072:0:0:0:0:
320,192,121110,1,0,0:0:0:0:
64,192,121185,1,0,0:0:0:0:
192,192,121260,1,0,0:0:0:0:
320,192,121335,1,0,0:0:0:0:
448,192,121335,1,0,0:0:0:0:
64,192,121410,1,0,0:0:0:0:
192,192,121485,1,0,0:0:0:0:
448,192,121560,1,0,0:0:0:0:
320,192,121635,1,0,0:0:0:0:
64,192,121635,1,0,0:0:0:0:
192,192,121710,1,0,0:0:0:0:
448,192,121785,1,0,0:0:0:0:
64,192,121860,1,0,0:0:0:0:
192,192,121935,1,0,0:0:0:0:
448,192,121935,1,0,0:0:0:0:
320,192,122010,1,0,0:0:0:0:
192,192,122085,1,0,0:0:0:0:
64,192,122160,1,0,0:0:0:0:
192,192,122235,1,0,0:0:0:0:
320,192,122235,128,0,122272:0:0:0:0:
448,192,122235,128,0,122272:0:0:0:0:
64,192,122310,1,0,0:0:0:0:
320,192,122385,1,0,0:0:0:0:
192,192,122460,1,0,0:0:0:0:
64,192,122535,1,0,0:0:0:0:
448,192,122535,1,0,0:0:0:0:
320,192,122610,1,0,0:0:0:0:
192,192,122685,1,0,0:0:0:0:
448,192,122760,1,0,0:0:0:0:
320,192,122835,1,0,0:0:0:0:
64,192,122835,1,0,0:0:0:0:
192,192,122910,1,0,0:0:0:0:
320,192,122985,1,0,0:0:0:0:
64,192,123060,1,0,0:0:0:0:
192,192,123135,1,0,0:0:0:0:
448,192,123135,1,0,0:0:0:0:
320,192,123210,1,0,0:0:0:0:
64,192,123285,1,0,0:0:0:0:
192,192,123360,1,0,0:0:0:0:
320,192,123435,128,0,123472:0:0:0:0:
64,192,123435,128,0,123472:0:0:0:0:
448,192,123435,1,0,0:0:0:0:
192,192,123510,1,0,0:0:0:0:
448,192,123585,1,0,0:0:0:0:
320,192,123660,1,0,0:0:0:0:
192,192,123735,1,0,0:0:0:0:
64,192,123735,1,0,0:0:0:0:
448,192,123810,1,0,0:0:0:0:
64,192,123885,1,0,0:0:0:0:
192,192,123960,1,0,0:0:0:0:
320,192,124035,1,0,0:0:0:0:
64,192,124035,1,0,0:0:0:0:
192,192,124110,1,0,0:0:0:0:
448,192,124185,1,0,0:0:0:0:
320,192,124260,1,0,0:0:0:0:
192,192,124335,1,0,0:0:0:0:
64,192,124335,1,0,0:0:0:0:
320,192,124410,1,0,0:0:0:0:
64,192,124485,1,0,0:0:0:0:
448,192,124485,1,0,0:0:0:0:
320,192,124560,1,0,0:0:0:0:
448,192,124635,1,0,0:0:0:0:
192,192,124635,128,0,124672:0:0:0:0:
64,192,124635,128,0,124672:0:0:0:0:
320,192,124710,1,0,0:0:0:0:
64,192,124785,1,0,0:0:0:0:
192,192,124860,1,0,0:0:0:0:
320,192,124935,1,0,0:0:0:0:
448,192,124935,1,0,0:0:0:0:
64,192,125010,1,0,0:0:0:0:
320,192,125085,1,0,0:0:0:0:
192,192,125160,1,0,0:0:0:0:
64,192,125235,1,0,0:0:0:0:
448,192,125235,1,0,0:0:0:0:
320,192,125310,1,0,0:0:0:0:
192,192,125385,1,0,0:0:0:0:
320,192,125460,1,0,0:0:0:0:
448,192,125535,1,0,0:0:0:0:
64,192,125535,1,0,0:0:0:0:
192,192,125610,1,0,0:0:0:0:
448,192,125685,1,0,0:0:0:0:
320,192,125760,1,0,0:0:0:0:
192,192,125835,1,0,0:0:0:0:
64,192,125835,128,0,125872:0:0:0:0:
448,192,125835,128,0,125872:0:0:0:0:
320,192,125910,1,0,0:0:0:0:
64,192,125985,1,0,0:0:0:0:
192,192,126060,1,0,0:0:0:0:
320,192,126135,1,0,0:0:0:0:
448,192,126135,1,0,0:0:0:0:
64,192,126210,1,0,0:0:0:0:
448,192,126285,1,0,0:0:0:0:
320,192,126360,1,0,0:0:0:0:
192,192,126435,1,0,0:0:0:0:
448,192,126435,1,0,0:0:0:0:
320,192,126510,1,0,0:0:0:0:
64,192,126585,1,0,0:0:0:0:
448,192,126660,1,0,0:0:0:0:
320,192,126735,1,0,0:0:0:0:
192,192,126735,1,0,0:0:0:0:
64,192,126810,1,0,0:0:0:0:
448,192,126885,1,0,0:0:0:0:
192,192,126960,1,0,0:0:0:0:
64,192,127035,1,0,0:0:0:0:
448,192,127035,128,0,127072:0:0:0:0:
320,192,127035,128,0,127072:0:0:0:0:
192,192,127110,1,0,0:0:0:0:
320,192,127185,1,0,0:0:0:0:
64,192,127260,1,0,0:0:0:0:
192,192,127335,1,0,0:0:0:0:
448,192,127335,1,0,0:0:0:0:
320,192,127410,1,0,0:0:0:0:
192,192,127485,1,0,0:0:0:0:
64,192,127560,1,0,0:0:0:0:
448,192,127635,1,0,0:0:0:0:
320,192,127635,1,0,0:0:0:0:
192,192,127710,1,0,0:0:0:0:
448,192,127785,1,0,0:0:0:0:
64,192,127860,1,0,0:0:0:0:
192,192,127935,1,0,0:0:0:0:
320,192,127935,1,0,0:0:0:0:
448,192,128010,1,0,0:0:0:0:
64,192,128085,1,0,0:0:0:0:
192,192,128160,1,0,0:0:0:0:
448,192,128235,1,0,0:0:0:0:
64,192,128235,128,0,128272:0:0:0:0:
320,192,128235,128,0,128272:0:0:0:0:
192,192,128310,1,0,0:0:0:0:
448,192,128385,1,0,0:0:0:0:
320,192,128460,1,0,0:0:0:0:
192,192,128535,1,0,0:0:0:0:
64,192,128535,1,0,0:0:0:0:
192,192,128685,1,0,0:0:0:0:
448,192,128685,1,0,0:0:0:0:
64,192,128760,1,0,0:0:0:0:
192,192,128835,128,0,128872:0:0:0:0:
448,192,128835,1,0,0:0:0:0:
320,192,128910,1,0,0:0:0:0:
64,192,128985,1,0,0:0:0:0:
448,192,129060,1,0,0:0:0:0:
192,192,129135,1,0,0:0:0:0:
64,192,129135,1,0,0:0:0:0:
320,192,129210,1,0,0:0:0:0:
64,192,129285,1,0,0:0:0:0:
448,192,129285,1,0,0:0:0:0:
192,192,129360,1,0,0:0:0:0:
64,192,129435,1,0,0:0:0:0:
320,192,129435,128,0,129472:0:0:0:0:
448,192,129435,128,0,129472:0:0:0:0:
192,192,129510,1,0,0:0:0:0:
448,192,129585,1,0,0:0:0:0:
64,192,129660,1,0,0:0:0:0:
320,192,129735,1,0,0:0:0:0:
192,192,129735,1,0,0:0:0:0:
448,192,129810,1,0,0:0:0:0:
64,192,129885,1,0,0:0:0:0:
320,192,129960,1,0,0:0:0:0:
448,192,130035,1,0,0:0:0:0:
192,192,130035,1,0,0:0:0:0:
64,192,130110,1,0,0:0:0:0:
320,192,130185,1,0,0:0:0:0:
192,192,130260,1,0,0:0:0:0:
448,192,130335,1,0,0:0:0:0:
320,192,130335,1,0,0:0:0:0:
64,192,130410,1,0,0:0:0:0:
448,192,130485,1,0,0:0:0:0:
192,192,130560,1,0,0:0:0:0:
320,192,130635,1,0,0:0:0:0:
64,192,130635,1,0,0:0:0:0:
192,192,130710,1,0,0:0:0:0:
448,192,130785,1,0,0:0:0:0:
320,192,130860,1,0,0:0:0:0:
192,192,130935,1,0,0:0:0:0:
64,192,130935,1,0,0:0:0:0:
448,192,131010,1,0,0:0:0:0:
320,192,131085,1,0,0:0:0:0:
64,192,131085,1,0,0:0:0:0:
192,192,131160,1,0,0:0:0:0:
320,192,131235,1,0,0:0:0:0:
64,192,131235,128,0,131272:0:0:0:0:
448,192,131235,128,0,131272:0:0:0:0:
192,192,131310,1,0,0:0:0:0:
64,192,131385,1,0,0:0:0:0:
320,192,131460,1,0,0:0:0:0:
192,192,131535,1,0,0:0:0:0:
64,192,131535,1,0,0:0:0:0:
448,192,131610,1,0,0:0:0:0:
320,192,131685,1,0,0:0:0:0:
192,192,131685,1,0,0:0:0:0:
64,192,131760,1,0,0:0:0:0:
192,192,131835,1,0,0:0:0:0:
320,192,131835,128,0,131872:0:0:0:0:
448,192,131835,128,0,131872:0:0:0:0:
64,192,131910,1,0,0:0:0:0:
192,192,131985,1,0,0:0:0:0:
448,192,131985,1,0,0:0:0:0:
320,192,132060,1,0,0:0:0:0:
448,192,132135,1,0,0:0:0:0:
192,192,132135,1,0,0:0:0:0:
64,192,132135,1,0,0:0:0:0:
320,192,132210,1,0,0:0:0:0:
192,192,132285,1,0,0:0:0:0:
448,192,132285,1,0,0:0:0:0:
192,192,132360,1,0,0:0:0:0:
64,192,132435,1,0,0:0:0:0:
320,192,132435,1,0,0:0:0:0:
448,192,132435,1,0,0:0:0:0:
192,192,132510,1,0,0:0:0:0:
64,192,132585,1,0,0:0:0:0:
320,192,132585,1,0,0:0:0:0:
192,192,132660,1,0,0:0:0:0:
64,192,132735,1,0,0:0:0:0:
320,192,132735,1,0,0:0:0:0:
448,192,132735,1,0,0:0:0:0:
192,192,132810,1,0,0:0:0:0:
448,192,132885,1,0,0:0:0:0:
64,192,132885,1,0,0:0:0:0:
320,192,132960,1,0,0:0:0:0:
192,192,132960,1,0,0:0:0:0:
448,192,133035,1,0,0:0:0:0:
64,192,133035,128,0,133072:0:0:0:0:
192,192,133035,128,0,133072:0:0:0:0:
320,192,133110,1,0,0:0:0:0:
64,192,133185,1,0,0:0:0:0:
448,192,133185,1,0,0:0:0:0:
320,192,133260,1,0,0:0:0:0:
448,192,133335,1,0,0:0:0:0:
64,192,133335,1,0,0:0:0:0:
192,192,133335,1,0,0:0:0:0:
320,192,133410,1,0,0:0:0:0:
64,192,133485,1,0,0:0:0:0:
448,192,133485,1,0,0:0:0:0:
192,192,133535,1,0,0:0:0:0:
320,192,133585,1,0,0:0:0:0:
64,192,133635,1,0,0:0:0:0:
448,192,133635,1,0,0:0:0:0:
320,192,133710,1,0,0:0:0:0:
192,192,133710,1,0,0:0:0:0:
64,192,133785,1,0,0:0:0:0:
448,192,133785,1,0,0:0:0:0:
192,192,133822,1,0,0:0:0:0:
320,192,133860,1,0,0:0:0:0:
448,192,133897,1,0,0:0:0:0:
192,192,133935,1,0,0:0:0:0:
64,192,133935,1,0,0:0:0:0:
320,192,134010,1,0,0:0:0:0:
448,192,134010,1,0,0:0:0:0:
64,192,134085,1,0,0:0:0:0:
192,192,134085,1,0,0:0:0:0:
320,192,134160,1,0,0:0:0:0:
192,192,134160,1,0,0:0:0:0:
448,192,134235,1,0,0:0:0:0:
320,192,134235,1,0,0:0:0:0:
64,192,134235,128,0,134272:0:0:0:0:
192,192,134310,128,0,134347:0:0:0:0:
320,192,134385,128,0,134422:0:0:0:0:
64,192,134460,1,0,0:0:0:0:
192,192,134535,1,0,0:0:0:0:
320,192,134535,1,0,0:0:0:0:
448,192,134535,128,0,134572:0:0:0:0:
64,192,134610,128,0,134647:0:0:0:0:
320,192,134685,128,0,134722:0:0:0:0:
192,192,134760,1,0,0:0:0:0:
320,192,134835,1,0,0:0:0:0:
448,192,134835,1,0,0:0:0:0:
64,192,134835,128,0,134872:0:0:0:0:
192,192,134910,128,0,134947:0:0:0:0:
448,192,134985,128,0,135022:0:0:0:0:
320,192,135060,1,0,0:0:0:0:
192,192,135135,1,0,0:0:0:0:
448,192,135135,1,0,0:0:0:0:
64,192,135135,128,0,135172:0:0:0:0:
320,192,135210,128,0,135247:0:0:0:0:
192,192,135285,128,0,135322:0:0:0:0:
320,192,135360,1,0,0:0:0:0:
64,192,135435,128,0,135472:0:0:0:0:
448,192,135435,128,0,137835:0:0:0:0:
192,192,135435,128,0,135472:0:0:0:0:
320,192,135510,128,0,135547:0:0:0:0:
64,192,135585,128,0,135622:0:0:0:0:
192,192,135660,1,0,0:0:0:0:
64,192,135735,1,0,0:0:0:0:
320,192,135735,128,0,135772:0:0:0:0:
192,192,135810,128,0,135847:0:0:0:0:
64,192,135885,128,0,135922:0:0:0:0:
320,192,135960,1,0,0:0:0:0:
64,192,136035,1,0,0:0:0:0:
192,192,136035,128,0,136072:0:0:0:0:
320,192,136110,128,0,136147:0:0:0:0:
64,192,136185,128,0,136222:0:0:0:0:
192,192,136260,1,0,0:0:0:0:
64,192,136335,1,0,0:0:0:0:
320,192,136335,128,0,136372:0:0:0:0:
192,192,136410,128,0,136447:0:0:0:0:
64,192,136485,128,0,136522:0:0:0:0:
320,192,136560,1,0,0:0:0:0:
64,192,136635,128,0,136672:0:0:0:0:
192,192,136635,128,0,136672:0:0:0:0:
320,192,136710,128,0,136747:0:0:0:0:
192,192,136785,128,0,136822:0:0:0:0:
64,192,136860,1,0,0:0:0:0:
192,192,136935,128,0,136972:0:0:0:0:
320,192,136935,1,0,0:0:0:0:
64,192,137010,128,0,137047:0:0:0:0:
320,192,137085,128,0,137122:0:0:0:0:
192,192,137160,1,0,0:0:0:0:
320,192,137235,1,0,0:0:0:0:
64,192,137235,128,0,137272:0:0:0:0:
192,192,137310,128,0,137347:0:0:0:0:
320,192,137385,128,0,137422:0:0:0:0:
64,192,137460,1,0,0:0:0:0:
320,192,137535,1,0,0:0:0:0:
192,192,137535,128,0,137572:0:0:0:0:
64,192,137610,128,0,137647:0:0:0:0:
320,192,137685,128,0,137722:0:0:0:0:
64,192,137760,1,0,0:0:0:0:
64,192,137835,128,0,139035:0:0:0:0:
192,192,137835,128,0,137872:0:0:0:0:
320,192,137835,128,0,137872:0:0:0:0:
448,192,137910,128,0,137947:0:0:0:0:
192,192,137985,128,0,138022:0:0:0:0:
320,192,138060,1,0,0:0:0:0:
192,192,138135,1,0,0:0:0:0:
448,192,138135,128,0,138172:0:0:0:0:
320,192,138210,128,0,138247:0:0:0:0:
192,192,138285,128,0,138322:0:0:0:0:
320,192,138360,1,0,0:0:0:0:
192,192,138435,1,0,0:0:0:0:
448,192,138435,128,0,138472:0:0:0:0:
320,192,138510,128,0,138547:0:0:0:0:
448,192,138585,128,0,138622:0:0:0:0:
192,192,138660,1,0,0:0:0:0:
448,192,138735,1,0,0:0:0:0:
320,192,138735,128,0,138772:0:0:0:0:
192,192,138810,128,0,138847:0:0:0:0:
320,192,138885,128,0,138922:0:0:0:0:
448,192,138885,1,0,0:0:0:0:
192,192,138960,1,0,0:0:0:0:
192,192,139035,128,0,140235:0:0:0:0:
448,192,139035,128,0,139072:0:0:0:0:
320,192,139035,128,0,139072:0:0:0:0:
64,192,139110,128,0,139147:0:0:0:0:
448,192,139185,128,0,139222:0:0:0:0:
320,192,139260,1,0,0:0:0:0:
448,192,139335,1,0,0:0:0:0:
64,192,139335,128,0,139372:0:0:0:0:
320,192,139410,128,0,139447:0:0:0:0:
448,192,139485,128,0,139522:0:0:0:0:
64,192,139560,1,0,0:0:0:0:
448,192,139635,1,0,0:0:0:0:
320,192,139635,128,0,139672:0:0:0:0:
64,192,139710,128,0,139747:0:0:0:0:
448,192,139785,128,0,139822:0:0:0:0:
320,192,139860,1,0,0:0:0:0:
64,192,139935,128,0,139972:0:0:0:0:
448,192,139935,1,0,0:0:0:0:
320,192,140010,1,0,0:0:0:0:
64,192,140085,1,0,0:0:0:0:
320,192,140160,1,0,0:0:0:0:
448,192,140235,128,0,140272:0:0:0:0:
64,192,140235,128,0,140272:0:0:0:0:
320,192,140235,128,0,141435:0:0:0:0:
192,192,140310,128,0,140347:0:0:0:0:
448,192,140385,128,0,140422:0:0:0:0:
64,192,140460,1,0,0:0:0:0:
448,192,140535,1,0,0:0:0:0:
192,192,140535,128,0,140572:0:0:0:0:
64,192,140610,128,0,140647:0:0:0:0:
448,192,140685,128,0,140722:0:0:0:0:
192,192,140760,1,0,0:0:0:0:
448,192,140835,1,0,0:0:0:0:
64,192,140835,128,0,140872:0:0:0:0:
192,192,140910,128,0,140947:0:0:0:0:
448,192,140985,128,0,141022:0:0:0:0:
64,192,141060,1,0,0:0:0:0:
448,192,141135,1,0,0:0:0:0:
192,192,141135,128,0,141172:0:0:0:0:
64,192,141210,128,0,141247:0:0:0:0:
448,192,141285,128,0,141322:0:0:0:0:
192,192,141360,1,0,0:0:0:0:
192,192,141435,128,0,142485:0:0:0:0:
448,192,141435,128,0,141472:0:0:0:0:
64,192,141435,128,0,141472:0:0:0:0:
320,192,141510,128,0,141547:0:0:0:0:
64,192,141585,128,0,141622:0:0:0:0:
448,192,141660,1,0,0:0:0:0:
320,192,141735,128,0,141772:0:0:0:0:
64,192,141735,1,0,0:0:0:0:
448,192,141810,128,0,141847:0:0:0:0:
64,192,141885,128,0,141922:0:0:0:0:
320,192,141960,1,0,0:0:0:0:
64,192,142035,1,0,0:0:0:0:
448,192,142035,128,0,142072:0:0:0:0:
320,192,142110,128,0,142147:0:0:0:0:
448,192,142185,128,0,142222:0:0:0:0:
64,192,142260,1,0,0:0:0:0:
320,192,142335,1,0,0:0:0:0:
448,192,142335,1,0,0:0:0:0:
64,192,142410,1,0,0:0:0:0:
64,192,142485,128,0,142635:0:0:0:0:
448,192,142485,1,0,0:0:0:0:
320,192,142485,128,0,142522:0:0:0:0:
192,192,142560,1,0,0:0:0:0:
320,192,142635,128,0,144435:0:0:0:0:
448,192,142635,128,0,142672:0:0:0:0:
192,192,142635,128,0,142672:0:0:0:0:
64,192,142710,128,0,142747:0:0:0:0:
448,192,142785,128,0,142822:0:0:0:0:
192,192,142860,1,0,0:0:0:0:
448,192,142935,1,0,0:0:0:0:
64,192,142935,128,0,142972:0:0:0:0:
192,192,143010,128,0,143047:0:0:0:0:
448,192,143085,128,0,143122:0:0:0:0:
64,192,143160,1,0,0:0:0:0:
448,192,143235,1,0,0:0:0:0:
192,192,143235,128,0,143272:0:0:0:0:
64,192,143310,128,0,143347:0:0:0:0:
192,192,143385,128,0,143422:0:0:0:0:
448,192,143460,1,0,0:0:0:0:
192,192,143535,1,0,0:0:0:0:
64,192,143535,128,0,143572:0:0:0:0:
448,192,143610,128,0,143647:0:0:0:0:
64,192,143685,1,0,0:0:0:0:
192,192,143685,128,0,143722:0:0:0:0:
448,192,143760,1,0,0:0:0:0:
192,192,143835,1,0,0:0:0:0:
64,192,143835,128,0,143872:0:0:0:0:
448,192,143910,128,0,143947:0:0:0:0:
192,192,143985,128,0,144022:0:0:0:0:
64,192,144060,1,0,0:0:0:0:
448,192,144135,128,0,144172:0:0:0:0:
192,192,144135,1,0,0:0:0:0:
64,192,144210,128,0,144247:0:0:0:0:
448,192,144285,128,0,144322:0:0:0:0:
192,192,144360,1,0,0:0:0:0:
448,192,144435,128,0,145035:0:0:0:0:
192,192,144435,128,0,144472:0:0:0:0:
64,192,144435,128,0,144472:0:0:0:0:
320,192,144510,128,0,144547:0:0:0:0:
64,192,144585,128,0,144622:0:0:0:0:
320,192,144660,1,0,0:0:0:0:
64,192,144735,1,0,0:0:0:0:
192,192,144735,128,0,144772:0:0:0:0:
320,192,144810,128,0,144847:0:0:0:0:
64,192,144885,128,0,144922:0:0:0:0:
192,192,144960,1,0,0:0:0:0:
320,192,145035,128,0,145635:0:0:0:0:
192,192,145035,128,0,145072:0:0:0:0:
64,192,145035,128,0,145072:0:0:0:0:
448,192,145110,128,0,145147:0:0:0:0:
64,192,145185,128,0,145222:0:0:0:0:
192,192,145260,1,0,0:0:0:0:
64,192,145335,1,0,0:0:0:0:
448,192,145335,128,0,145372:0:0:0:0:
192,192,145410,128,0,145447:0:0:0:0:
64,192,145485,128,0,145522:0:0:0:0:
448,192,145560,1,0,0:0:0:0:
64,192,145635,128,0,146235:0:0:0:0:
192,192,145635,128,0,145672:0:0:0:0:
448,192,145635,128,0,145672:0:0:0:0:
320,192,145710,128,0,145747:0:0:0:0:
192,192,145785,128,0,145822:0:0:0:0:
448,192,145860,1,0,0:0:0:0:
320,192,145935,1,0,0:0:0:0:
192,192,145935,128,0,145972:0:0:0:0:
448,192,146010,128,0,146047:0:0:0:0:
320,192,146085,128,0,146122:0:0:0:0:
192,192,146160,1,0,0:0:0:0:
320,192,146235,128,0,147435:0:0:0:0:
448,192,146235,128,0,146272:0:0:0:0:
192,192,146235,128,0,146272:0:0:0:0:
64,192,146310,128,0,146347:0:0:0:0:
448,192,146385,128,0,146422:0:0:0:0:
192,192,146460,1,0,0:0:0:0:
64,192,146535,1,0,0:0:0:0:
448,192,146535,128,0,146572:0:0:0:0:
192,192,146610,128,0,146647:0:0:0:0:
64,192,146685,128,0,146722:0:0:0:0:
448,192,146760,1,0,0:0:0:0:
64,192,146835,1,0,0:0:0:0:
192,192,146835,128,0,146872:0:0:0:0:
448,192,146910,128,0,146947:0:0:0:0:
64,192,146985,128,0,147022:0:0:0:0:
192,192,147060,1,0,0:0:0:0:
64,192,147135,1,0,0:0:0:0:
448,192,147135,128,0,147172:0:0:0:0:
192,192,147210,128,0,147247:0:0:0:0:
448,192,147285,128,0,147322:0:0:0:0:
64,192,147360,1,0,0:0:0:0:
192,192,147435,128,0,148635:0:0:0:0:
448,192,147435,128,0,147472:0:0:0:0:
64,192,147435,128,0,147472:0:0:0:0:
320,192,147510,128,0,147547:0:0:0:0:
64,192,147585,128,0,147622:0:0:0:0:
448,192,147660,1,0,0:0:0:0:
64,192,147735,1,0,0:0:0:0:
320,192,147735,128,0,147772:0:0:0:0:
448,192,147810,128,0,147847:0:0:0:0:
64,192,147885,128,0,147922:0:0:0:0:
320,192,147960,1,0,0:0:0:0:
448,192,148035,1,0,0:0:0:0:
64,192,148035,128,0,148072:0:0:0:0:
320,192,148110,128,0,148147:0:0:0:0:
448,192,148185,128,0,148222:0:0:0:0:
64,192,148260,1,0,0:0:0:0:
448,192,148335,1,0,0:0:0:0:
320,192,148335,128,0,148410:0:0:0:0:
64,192,148410,1,0,0:0:0:0:
320,192,148485,1,0,0:0:0:0:
448,192,148485,128,0,148560:0:0:0:0:
64,192,148560,1,0,0:0:0:0:
320,192,148635,1,0,0:0:0:0:
448,192,148635,1,0,0:0:0:0:
64,192,148635,1,0,0:0:0:0:
192,192,148710,1,0,0:0:0:0:
448,192,148785,1,0,0:0:0:0:
192,192,148785,1,0,0:0:0:0:
320,192,148860,1,0,0:0:0:0:
448,192,148935,1,0,0:0:0:0:
64,192,148935,1,0,0:0:0:0:
192,192,148935,1,0,0:0:0:0:
64,192,149010,1,0,0:0:0:0:
448,192,149085,1,0,0:0:0:0:
320,192,149085,1,0,0:0:0:0:
192,192,149160,1,0,0:0:0:0:
448,192,149235,1,0,0:0:0:0:
320,192,149235,1,0,0:0:0:0:
64,192,149235,1,0,0:0:0:0:
64,192,149310,1,0,0:0:0:0:
320,192,149385,1,0,0:0:0:0:
192,192,149385,1,0,0:0:0:0:
320,192,149460,1,0,0:0:0:0:
448,192,149535,1,0,0:0:0:0:
64,192,149535,1,0,0:0:0:0:
192,192,149535,1,0,0:0:0:0:
320,192,149610,1,0,0:0:0:0:
192,192,149685,1,0,0:0:0:0:
64,192,149685,1,0,0:0:0:0:
320,192,149760,1,0,0:0:0:0:
448,192,149760,1,0,0:0:0:0:
64,192,149835,1,0,0:0:0:0:
448,192,149835,1,0,0:0:0:0:
320,192,149835,1,0,0:0:0:0:
64,192,149910,1,0,0:0:0:0:
192,192,149985,1,0,0:0:0:0:
448,192,149985,1,0,0:0:0:0:
320,192,150060,1,0,0:0:0:0:
64,192,150135,1,0,0:0:0:0:
448,192,150135,1,0,0:0:0:0:
192,192,150135,1,0,0:0:0:0:
192,192,150210,1,0,0:0:0:0:
64,192,150285,1,0,0:0:0:0:
448,192,150285,1,0,0:0:0:0:
320,192,150360,1,0,0:0:0:0:
448,192,150435,1,0,0:0:0:0:
64,192,150435,1,0,0:0:0:0:
192,192,150435,1,0,0:0:0:0:
448,192,150510,1,0,0:0:0:0:
320,192,150585,1,0,0:0:0:0:
64,192,150585,1,0,0:0:0:0:
192,192,150660,1,0,0:0:0:0:
64,192,150735,1,0,0:0:0:0:
320,192,150735,1,0,0:0:0:0:
448,192,150735,1,0,0:0:0:0:
320,192,150810,1,0,0:0:0:0:
192,192,150885,1,0,0:0:0:0:
64,192,150885,1,0,0:0:0:0:
448,192,150922,1,0,0:0:0:0:
320,192,150960,1,0,0:0:0:0:
192,192,150997,1,0,0:0:0:0:
64,192,151035,1,0,0:0:0:0:
448,192,151035,128,0,151185:0:0:0:0:
320,192,151110,128,0,151260:0:0:0:0:
64,192,151185,1,0,0:0:0:0:
192,192,151185,128,0,151335:0:0:0:0:
448,192,151260,128,0,151410:0:0:0:0:
64,192,151335,1,0,0:0:0:0:
320,192,151335,128,0,151485:0:0:0:0:
64,192,151410,128,0,151560:0:0:0:0:
192,192,151485,128,0,151635:0:0:0:0:
448,192,151485,1,0,0:0:0:0:
320,192,151560,128,0,151710:0:0:0:0:
448,192,151635,1,0,0:0:0:0:
64,192,151635,128,0,151785:0:0:0:0:
192,192,151710,128,0,151860:0:0:0:0:
448,192,151785,128,0,151935:0:0:0:0:
320,192,151785,1,0,0:0:0:0:
320,192,151860,128,0,152010:0:0:0:0:
192,192,151935,1,0,0:0:0:0:
64,192,151935,128,0,152085:0:0:0:0:
192,192,152010,128,0,152085:0:0:0:0:
448,192,152085,128,0,152160:0:0:0:0:
320,192,152122,128,0,152160:0:0:0:0:
192,192,152160,128,0,152272:0:0:0:0:
64,192,152197,128,0,152235:0:0:0:0:
448,192,152235,128,0,152385:0:0:0:0:
320,192,152235,128,0,152310:0:0:0:0:
64,192,152310,128,0,152385:0:0:0:0:
320,192,152385,128,0,152460:0:0:0:0:
192,192,152385,128,0,152460:0:0:0:0:
448,192,152460,128,0,152610:0:0:0:0:
64,192,152460,128,0,152535:0:0:0:0:
320,192,152535,128,0,152647:0:0:0:0:
192,192,152535,128,0,152685:0:0:0:0:
64,192,152610,128,0,152722:0:0:0:0:
448,192,152685,128,0,152760:0:0:0:0:
320,192,152722,128,0,152760:0:0:0:0:
192,192,152760,128,0,152910:0:0:0:0:
64,192,152797,128,0,152910:0:0:0:0:
320,192,152835,128,0,152985:0:0:0:0:
448,192,152835,1,0,0:0:0:0:
448,192,152910,128,0,152985:0:0:0:0:
192,192,152985,128,0,153097:0:0:0:0:
64,192,152985,128,0,153060:0:0:0:0:
320,192,153060,128,0,153135:0:0:0:0:
448,192,153060,128,0,153172:0:0:0:0:
64,192,153135,128,0,153210:0:0:0:0:
192,192,153172,128,0,153247:0:0:0:0:
320,192,153210,128,0,153285:0:0:0:0:
448,192,153247,128,0,153322:0:0:0:0:
64,192,153285,128,0,153360:0:0:0:0:
192,192,153322,128,0,153360:0:0:0:0:
320,192,153360,128,0,153435:0:0:0:0:
448,192,153397,128,0,153435:0:0:0:0:
64,192,153435,128,0,154035:0:0:0:0:
192,192,153435,128,0,153510:0:0:0:0:
320,192,153510,128,0,153585:0:0:0:0:
448,192,153585,128,0,153660:0:0:0:0:
320,192,153660,128,0,153735:0:0:0:0:
192,192,153735,128,0,153810:0:0:0:0:
448,192,153735,1,0,0:0:0:0:
320,192,153810,128,0,153885:0:0:0:0:
448,192,153885,128,0,153960:0:0:0:0:
320,192,153960,128,0,154035:0:0:0:0:
192,192,154035,128,0,155235:0:0:0:0:
448,192,154035,128,0,154110:0:0:0:0:
320,192,154110,128,0,154185:0:0:0:0:
64,192,154185,128,0,154260:0:0:0:0:
320,192,154260,128,0,154335:0:0:0:0:
448,192,154335,128,0,154410:0:0:0:0:
64,192,154335,1,0,0:0:0:0:
64,192,154410,128,0,154485:0:0:0:0:
320,192,154485,128,0,154560:0:0:0:0:
448,192,154560,128,0,154635:0:0:0:0:
64,192,154635,128,0,154710:0:0:0:0:
320,192,154635,1,0,0:0:0:0:
320,192,154710,128,0,154785:0:0:0:0:
448,192,154785,128,0,154860:0:0:0:0:
320,192,154860,128,0,154935:0:0:0:0:
448,192,154935,1,0,0:0:0:0:
64,192,154935,128,0,155010:0:0:0:0:
448,192,155010,128,0,155085:0:0:0:0:
320,192,155085,128,0,155160:0:0:0:0:
64,192,155160,128,0,155235:0:0:0:0:
448,192,155235,128,0,155435:0:0:0:0:
320,192,155235,128,0,155310:0:0:0:0:
192,192,155310,128,0,155385:0:0:0:0:
64,192,155385,128,0,155460:0:0:0:0:
320,192,155435,128,0,155635:0:0:0:0:
192,192,155460,128,0,155535:0:0:0:0:
448,192,155535,128,0,155610:0:0:0:0:
64,192,155535,1,0,0:0:0:0:
64,192,155610,128,0,155685:0:0:0:0:
192,192,155635,128,0,155835:0:0:0:0:
448,192,155685,128,0,155760:0:0:0:0:
320,192,155760,128,0,155835:0:0:0:0:
64,192,155835,128,0,156435:0:0:0:0:
448,192,155835,128,0,155910:0:0:0:0:
192,192,155910,128,0,155985:0:0:0:0:
320,192,155985,128,0,156060:0:0:0:0:
448,192,156060,128,0,156135:0:0:0:0:
192,192,156135,128,0,156210:0:0:0:0:
320,192,156135,1,0,0:0:0:0:
320,192,156210,128,0,156285:0:0:0:0:
448,192,156285,128,0,156360:0:0:0:0:
320,192,156360,128,0,156435:0:0:0:0:
192,192,156435,128,0,157635:0:0:0:0:
448,192,156435,128,0,156510:0:0:0:0:
64,192,156510,128,0,156585:0:0:0:0:
320,192,156585,128,0,156660:0:0:0:0:
448,192,156660,128,0,156735:0:0:0:0:
320,192,156735,1,0,0:0:0:0:
64,192,156735,128,0,156810:0:0:0:0:
448,192,156810,128,0,156885:0:0:0:0:
320,192,156885,128,0,157035:0:0:0:0:
64,192,156960,128,0,157110:0:0:0:0:
448,192,157035,128,0,157185:0:0:0:0:
320,192,157110,128,0,157260:0:0:0:0:
64,192,157185,128,0,157260:0:0:0:0:
448,192,157260,128,0,157485:0:0:0:0:
320,192,157335,128,0,157410:0:0:0:0:
64,192,157335,1,0,0:0:0:0:
64,192,157410,128,0,157560:0:0:0:0:
320,192,157485,128,0,157635:0:0:0:0:
448,192,157560,1,0,0:0:0:0:
448,192,157635,128,0,158235:0:0:0:0:
64,192,157635,128,0,157710:0:0:0:0:
192,192,157710,128,0,157785:0:0:0:0:
320,192,157785,128,0,157860:0:0:0:0:
192,192,157860,128,0,157935:0:0:0:0:
64,192,157935,128,0,158010:0:0:0:0:
320,192,157935,1,0,0:0:0:0:
192,192,158010,128,0,158085:0:0:0:0:
320,192,158085,1,0,0:0:0:0:
64,192,158085,128,0,158160:0:0:0:0:
192,192,158160,128,0,158235:0:0:0:0:
320,192,158235,128,0,158835:0:0:0:0:
64,192,158235,128,0,158310:0:0:0:0:
448,192,158310,128,0,158385:0:0:0:0:
192,192,158385,128,0,158460:0:0:0:0:
64,192,158460,128,0,158535:0:0:0:0:
448,192,158535,1,0,0:0:0:0:
192,192,158535,128,0,158610:0:0:0:0:
64,192,158610,128,0,158685:0:0:0:0:
448,192,158685,128,0,158760:0:0:0:0:
192,192,158760,128,0,158835:0:0:0:0:
64,192,158835,128,0,160035:0:0:0:0:
448,192,158835,128,0,158910:0:0:0:0:
320,192,158910,128,0,158985:0:0:0:0:
192,192,158985,128,0,159060:0:0:0:0:
448,192,159060,128,0,159135:0:0:0:0:
192,192,159135,1,0,0:0:0:0:
320,192,159135,128,0,159210:0:0:0:0:
448,192,159210,128,0,159285:0:0:0:0:
192,192,159285,128,0,159360:0:0:0:0:
320,192,159360,128,0,159435:0:0:0:0:
448,192,159435,128,0,159510:0:0:0:0:
192,192,159435,1,0,0:0:0:0:
320,192,159510,128,0,159585:0:0:0:0:
192,192,159585,128,0,159660:0:0:0:0:
448,192,159660,128,0,159735:0:0:0:0:
320,192,159735,128,0,159810:0:0:0:0:
192,192,159810,128,0,159885:0:0:0:0:
448,192,159885,128,0,159960:0:0:0:0:
320,192,159960,128,0,160035:0:0:0:0:
448,192,160035,128,0,160235:0:0:0:0:
192,192,160035,128,0,160110:0:0:0:0:
64,192,160110,128,0,160185:0:0:0:0:
192,192,160185,128,0,160260:0:0:0:0:
320,192,160235,128,0,160435:0:0:0:0:
64,192,160260,128,0,160335:0:0:0:0:
192,192,160335,128,0,160410:0:0:0:0:
448,192,160335,1,0,0:0:0:0:
448,192,160410,128,0,160485:0:0:0:0:
64,192,160435,128,0,160635:0:0:0:0:
192,192,160485,128,0,160560:0:0:0:0:
448,192,160560,128,0,160635:0:0:0:0:
192,192,160635,128,0,161235:0:0:0:0:
320,192,160635,128,0,160710:0:0:0:0:
448,192,160710,128,0,160785:0:0:0:0:
64,192,160785,128,0,160860:0:0:0:0:
320,192,160860,128,0,160935:0:0:0:0:
448,192,160935,128,0,161010:0:0:0:0:
64,192,160935,1,0,0:0:0:0:
320,192,161010,128,0,161085:0:0:0:0:
64,192,161085,128,0,161160:0:0:0:0:
320,192,161160,128,0,161235:0:0:0:0:
448,192,161235,128,0,163035:0:0:0:0:
64,192,161235,128,0,161310:0:0:0:0:
192,192,161310,128,0,161385:0:0:0:0:
320,192,161385,128,0,161460:0:0:0:0:
64,192,161460,128,0,161535:0:0:0:0:
320,192,161535,1,0,0:0:0:0:
192,192,161535,128,0,161610:0:0:0:0:
64,192,161610,128,0,161760:0:0:0:0:
320,192,161685,128,0,161760:0:0:0:0:
192,192,161760,128,0,161910:0:0:0:0:
64,192,161835,1,0,0:0:0:0:
320,192,161835,128,0,161985:0:0:0:0:
64,192,161910,128,0,162060:0:0:0:0:
192,192,161985,128,0,162060:0:0:0:0:
320,192,162060,128,0,162135:0:0:0:0:
64,192,162135,1,0,0:0:0:0:
192,192,162135,128,0,162285:0:0:0:0:
320,192,162210,128,0,162360:0:0:0:0:
64,192,162285,128,0,162360:0:0:0:0:
192,192,162360,128,0,162435:0:0:0:0:
64,192,162435,1,0,0:0:0:0:
320,192,162435,128,0,162510:0:0:0:0:
192,192,162510,128,0,162585:0:0:0:0:
64,192,162585,128,0,162810:0:0:0:0:
192,192,162660,128,0,162810:0:0:0:0:
320,192,162735,128,0,163035:0:0:0:0:
64,192,162885,1,0,0:0:0:0:
192,192,162885,1,0,0:0:0:0:
192,192,162960,1,0,0:0:0:0:
64,192,162960,1,0,0:0:0:0:
192,192,163035,128,0,163635:0:0:0:0:
64,192,163035,128,0,163110:0:0:0:0:
448,192,163110,128,0,163185:0:0:0:0:
320,192,163185,128,0,163260:0:0:0:0:
64,192,163260,128,0,163335:0:0:0:0:
448,192,163335,1,0,0:0:0:0:
320,192,163410,128,0,163485:0:0:0:0:
448,192,163485,128,0,163560:0:0:0:0:
64,192,163560,128,0,163635:0:0:0:0:
320,192,163635,128,0,164835:0:0:0:0:
448,192,163635,128,0,163710:0:0:0:0:
192,192,163710,128,0,163785:0:0:0:0:
64,192,163785,128,0,163860:0:0:0:0:
448,192,163860,128,0,163935:0:0:0:0:
192,192,163935,128,0,164010:0:0:0:0:
64,192,163935,1,0,0:0:0:0:
448,192,164010,128,0,164085:0:0:0:0:
64,192,164085,128,0,164160:0:0:0:0:
192,192,164160,128,0,164235:0:0:0:0:
64,192,164235,128,0,164310:0:0:0:0:
448,192,164235,1,0,0:0:0:0:
192,192,164310,128,0,164385:0:0:0:0:
448,192,164385,128,0,164460:0:0:0:0:
64,192,164460,128,0,164535:0:0:0:0:
448,192,164535,1,0,0:0:0:0:
192,192,164535,128,0,164610:0:0:0:0:
64,192,164610,128,0,164685:0:0:0:0:
448,192,164685,128,0,164760:0:0:0:0:
192,192,164760,128,0,164835:0:0:0:0:
64,192,164835,128,0,165035:0:0:0:0:
448,192,164835,128,0,164910:0:0:0:0:
320,192,164910,128,0,164985:0:0:0:0:
448,192,164985,128,0,165060:0:0:0:0:
192,192,165035,128,0,165235:0:0:0:0:
320,192,165060,128,0,165135:0:0:0:0:
64,192,165135,128,0,165210:0:0:0:0:
448,192,165135,1,0,0:0:0:0:
448,192,165210,128,0,165285:0:0:0:0:
320,192,165235,128,0,165435:0:0:0:0:
64,192,165285,128,0,165360:0:0:0:0:
192,192,165360,128,0,165435:0:0:0:0:
448,192,165435,128,0,166035:0:0:0:0:
64,192,165435,128,0,165510:0:0:0:0:
320,192,165510,128,0,165585:0:0:0:0:
192,192,165585,128,0,165660:0:0:0:0:
64,192,165660,128,0,165735:0:0:0:0:
320,192,165735,128,0,165810:0:0:0:0:
192,192,165735,1,0,0:0:0:0:
64,192,165810,128,0,165885:0:0:0:0:
192,192,165885,128,0,165960:0:0:0:0:
320,192,165960,128,0,166035:0:0:0:0:
192,192,166035,128,0,167235:0:0:0:0:
64,192,166035,128,0,166110:0:0:0:0:
448,192,166110,128,0,166185:0:0:0:0:
320,192,166185,128,0,166260:0:0:0:0:
64,192,166260,128,0,166335:0:0:0:0:
320,192,166335,128,0,166485:0:0:0:0:
448,192,166335,1,0,0:0:0:0:
64,192,166410,128,0,166560:0:0:0:0:
448,192,166485,128,0,166560:0:0:0:0:
320,192,166560,128,0,166635:0:0:0:0:
448,192,166635,128,0,166860:0:0:0:0:
64,192,166635,1,0,0:0:0:0:
320,192,166710,128,0,166785:0:0:0:0:
64,192,166785,128,0,166860:0:0:0:0:
320,192,166860,128,0,166935:0:0:0:0:
64,192,166935,128,0,167085:0:0:0:0:
448,192,166935,1,0,0:0:0:0:
320,192,167010,128,0,167085:0:0:0:0:
448,192,167085,128,0,167160:0:0:0:0:
64,192,167160,128,0,167235:0:0:0:0:
320,192,167235,128,0,167835:0:0:0:0:
448,192,167235,128,0,167310:0:0:0:0:
64,192,167310,128,0,167385:0:0:0:0:
192,192,167385,128,0,167460:0:0:0:0:
448,192,167460,128,0,167535:0:0:0:0:
64,192,167535,1,0,0:0:0:0:
192,192,167535,128,0,167610:0:0:0:0:
448,192,167610,128,0,167685:0:0:0:0:
64,192,167685,128,0,167760:0:0:0:0:
192,192,167685,1,0,0:0:0:0:
448,192,167760,128,0,167835:0:0:0:0:
64,192,167835,1,0,0:0:0:0:
192,192,167835,128,0,167910:0:0:0:0:
320,192,167910,128,0,167985:0:0:0:0:
192,192,167985,1,0,0:0:0:0:
64,192,167985,128,0,168060:0:0:0:0:
448,192,168060,128,0,168135:0:0:0:0:
320,192,168135,1,0,0:0:0:0:
192,192,168135,128,0,168210:0:0:0:0:
64,192,168210,128,0,168285:0:0:0:0:
448,192,168285,1,0,0:0:0:0:
320,192,168285,128,0,168360:0:0:0:0:
192,192,168360,128,0,168435:0:0:0:0:
448,192,168435,1,0,0:0:0:0:
64,192,168435,128,0,168510:0:0:0:0:
320,192,168510,128,0,168585:0:0:0:0:
448,192,168585,1,0,0:0:0:0:
192,192,168585,128,0,168660:0:0:0:0:
64,192,168660,128,0,168735:0:0:0:0:
448,192,168735,1,0,0:0:0:0:
320,192,168735,128,0,168810:0:0:0:0:
192,192,168810,128,0,168885:0:0:0:0:
64,192,168885,1,0,0:0:0:0:
448,192,168885,1,0,0:0:0:0:
320,192,168885,1,0,0:0:0:0:
320,192,168960,1,0,0:0:0:0:
192,192,168960,1,0,0:0:0:0:
64,192,169035,1,0,0:0:0:0:
192,192,169035,1,0,0:0:0:0:
448,192,169035,128,0,169110:0:0:0:0:
320,192,169110,128,0,169185:0:0:0:0:
192,192,169185,1,0,0:0:0:0:
64,192,169185,128,0,169260:0:0:0:0:
320,192,169260,128,0,169335:0:0:0:0:
192,192,169335,128,0,169410:0:0:0:0:
448,192,169335,1,0,0:0:0:0:
448,192,169410,128,0,169485:0:0:0:0:
64,192,169485,1,0,0:0:0:0:
320,192,169485,128,0,169560:0:0:0:0:
192,192,169560,128,0,169635:0:0:0:0:
64,192,169635,128,0,169785:0:0:0:0:
448,192,169635,1,0,0:0:0:0:
320,192,169710,128,0,169785:0:0:0:0:
192,192,169785,128,0,169935:0:0:0:0:
448,192,169785,1,0,0:0:0:0:
448,192,169860,128,0,169935:0:0:0:0:
320,192,169935,1,0,0:0:0:0:
64,192,169935,128,0,170010:0:0:0:0:
192,192,170010,128,0,170085:0:0:0:0:
320,192,170085,1,0,0:0:0:0:
448,192,170085,1,0,0:0:0:0:
64,192,170085,1,0,0:0:0:0:
192,192,170160,1,0,0:0:0:0:
320,192,170160,1,0,0:0:0:0:
192,192,170235,1,0,0:0:0:0:
64,192,170235,1,0,0:0:0:0:
448,192,170235,128,0,170385:0:0:0:0:
320,192,170310,128,0,170385:0:0:0:0:
192,192,170385,1,0,0:0:0:0:
64,192,170385,128,0,170535:0:0:0:0:
448,192,170460,128,0,170535:0:0:0:0:
320,192,170535,1,0,0:0:0:0:
192,192,170535,128,0,170685:0:0:0:0:
64,192,170610,128,0,170685:0:0:0:0:
320,192,170685,1,0,0:0:0:0:
448,192,170685,128,0,170760:0:0:0:0:
64,192,170760,1,0,0:0:0:0:
192,192,170760,128,0,170835:0:0:0:0:
320,192,170835,128,0,170910:0:0:0:0:
448,192,170835,128,0,170985:0:0:0:0:
64,192,170910,1,0,0:0:0:0:
320,192,170985,1,0,0:0:0:0:
192,192,170985,128,0,171060:0:0:0:0:
64,192,171060,128,0,171135:0:0:0:0:
448,192,171060,1,0,0:0:0:0:
192,192,171135,128,0,171210:0:0:0:0:
448,192,171135,128,0,171285:0:0:0:0:
320,192,171210,128,0,171285:0:0:0:0:
64,192,171285,1,0,0:0:0:0:
192,192,171322,1,0,0:0:0:0:
320,192,171360,1,0,0:0:0:0:
448,192,171397,1,0,0:0:0:0:
192,192,171435,128,0,171510:0:0:0:0:
64,192,171435,128,0,171585:0:0:0:0:
320,192,171510,1,0,0:0:0:0:
448,192,171585,1,0,0:0:0:0:
192,192,171622,1,0,0:0:0:0:
320,192,171660,1,0,0:0:0:0:
64,192,171697,1,0,0:0:0:0:
192,192,171735,1,0,0:0:0:0:
448,192,171735,128,0,171885:0:0:0:0:
320,192,171810,128,0,171885:0:0:0:0:
64,192,171885,1,0,0:0:0:0:
192,192,171922,1,0,0:0:0:0:
320,192,171960,1,0,0:0:0:0:
448,192,171997,1,0,0:0:0:0:
64,192,172035,128,0,172110:0:0:0:0:
192,192,172035,128,0,172110:0:0:0:0:
320,192,172110,1,0,0:0:0:0:
448,192,172110,128,0,172185:0:0:0:0:
64,192,172185,1,0,0:0:0:0:
192,192,172185,128,0,172260:0:0:0:0:
448,192,172260,1,0,0:0:0:0:
320,192,172260,128,0,172335:0:0:0:0:
192,192,172335,128,0,172410:0:0:0:0:
64,192,172335,128,0,172410:0:0:0:0:
320,192,172410,1,0,0:0:0:0:
448,192,172410,1,0,0:0:0:0:
64,192,172485,1,0,0:0:0:0:
192,192,172522,1,0,0:0:0:0:
320,192,172560,1,0,0:0:0:0:
448,192,172597,1,0,0:0:0:0:
192,192,172635,128,0,174435:0:0:0:0:
64,192,172635,128,0,175035:0:0:0:0:
448,192,173835,128,0,175035:0:0:0:0:
320,192,174435,128,0,175035:0:0:0:0:
192,192,175035,128,0,176235:0:0:0:0:
320,192,176235,128,0,176535:0:0:0:0:
64,192,176235,128,0,176835:0:0:0:0:
448,192,176535,128,0,176835:0:0:0:0:
320,192,176835,128,0,177435:0:0:0:0:
192,192,176835,128,0,177035:0:0:0:0:
64,192,177035,128,0,177235:0:0:0:0:
192,192,177235,128,0,178035:0:0:0:0:
448,192,177435,128,0,178935:0:0:0:0:
64,192,178035,128,0,179535:0:0:0:0:
192,192,178935,128,0,179235:0:0:0:0:
320,192,179235,128,0,179535:0:0:0:0:
192,192,179535,128,0,179835:0:0:0:0:
320,192,179835,128,0,181035:0:0:0:0:
64,192,179835,1,0,0:0:0:0:
448,192,179910,1,0,0:0:0:0:
64,192,179985,1,0,0:0:0:0:
448,192,180060,1,0,0:0:0:0:
64,192,180135,1,0,0:0:0:0:
448,192,180210,1,0,0:0:0:0:
64,192,180285,1,0,0:0:0:0:
448,192,180360,1,0,0:0:0:0:
64,192,180435,128,0,181035:0:0:0:0:
192,192,180435,1,0,0:0:0:0:
448,192,180510,1,0,0:0:0:0:
192,192,180585,1,0,0:0:0:0:
448,192,180660,1,0,0:0:0:0:
192,192,180735,1,0,0:0:0:0:
448,192,180810,1,0,0:0:0:0:
192,192,180885,1,0,0:0:0:0:
448,192,180960,1,0,0:0:0:0:
192,192,181035,128,0,181635:0:0:0:0:
448,192,181110,1,0,0:0:0:0:
64,192,181185,1,0,0:0:0:0:
320,192,181185,1,0,0:0:0:0:
448,192,181260,1,0,0:0:0:0:
320,192,181335,1,0,0:0:0:0:
64,192,181335,1,0,0:0:0:0:
448,192,181410,1,0,0:0:0:0:
320,192,181485,1,0,0:0:0:0:
64,192,181485,1,0,0:0:0:0:
448,192,181560,1,0,0:0:0:0:
320,192,181635,128,0,182235:0:0:0:0:
64,192,181635,1,0,0:0:0:0:
448,192,181710,1,0,0:0:0:0:
64,192,181785,1,0,0:0:0:0:
192,192,181785,1,0,0:0:0:0:
448,192,181860,1,0,0:0:0:0:
64,192,181935,1,0,0:0:0:0:
192,192,181935,1,0,0:0:0:0:
448,192,182010,1,0,0:0:0:0:
64,192,182085,1,0,0:0:0:0:
192,192,182085,1,0,0:0:0:0:
448,192,182160,1,0,0:0:0:0:
192,192,182235,1,0,0:0:0:0:
64,192,182235,128,0,182310:0:0:0:0:
320,192,182310,1,0,0:0:0:0:
64,192,182385,128,0,182460:0:0:0:0:
192,192,182385,1,0,0:0:0:0:
320,192,182460,1,0,0:0:0:0:
192,192,182535,128,0,182610:0:0:0:0:
448,192,182535,1,0,0:0:0:0:
320,192,182610,1,0,0:0:0:0:
192,192,182685,128,0,182760:0:0:0:0:
448,192,182685,1,0,0:0:0:0:
320,192,182760,1,0,0:0:0:0:
448,192,182835,128,0,182910:0:0:0:0:
64,192,182835,1,0,0:0:0:0:
192,192,182910,1,0,0:0:0:0:
448,192,182985,128,0,183060:0:0:0:0:
320,192,182985,1,0,0:0:0:0:
192,192,183060,1,0,0:0:0:0:
320,192,183135,128,0,183210:0:0:0:0:
64,192,183135,1,0,0:0:0:0:
192,192,183210,1,0,0:0:0:0:
320,192,183285,128,0,183360:0:0:0:0:
64,192,183285,1,0,0:0:0:0:
192,192,183360,1,0,0:0:0:0:
448,192,183435,1,0,0:0:0:0:
64,192,183435,128,0,183660:0:0:0:0:
320,192,183510,1,0,0:0:0:0:
192,192,183585,1,0,0:0:0:0:
448,192,183660,1,0,0:0:0:0:
64,192,183735,128,0,183960:0:0:0:0:
192,192,183735,1,0,0:0:0:0:
320,192,183810,1,0,0:0:0:0:
448,192,183885,1,0,0:0:0:0:
192,192,183960,1,0,0:0:0:0:
64,192,184035,128,0,184260:0:0:0:0:
448,192,184035,1,0,0:0:0:0:
192,192,184110,1,0,0:0:0:0:
320,192,184185,1,0,0:0:0:0:
448,192,184260,1,0,0:0:0:0:
64,192,184335,128,0,184560:0:0:0:0:
192,192,184335,1,0,0:0:0:0:
448,192,184410,1,0,0:0:0:0:
320,192,184485,1,0,0:0:0:0:
192,192,184560,1,0,0:0:0:0:
64,192,184635,1,0,0:0:0:0:
320,192,184635,1,0,0:0:0:0:
448,192,184635,1,0,0:0:0:0:
192,192,184710,1,0,0:0:0:0:
64,192,184785,1,0,0:0:0:0:
448,192,184785,1,0,0:0:0:0:
320,192,184860,1,0,0:0:0:0:
448,192,184935,1,0,0:0:0:0:
192,192,184935,1,0,0:0:0:0:
320,192,185010,1,0,0:0:0:0:
64,192,185085,1,0,0:0:0:0:
192,192,185085,1,0,0:0:0:0:
320,192,185160,1,0,0:0:0:0:
448,192,185235,1,0,0:0:0:0:
64,192,185235,1,0,0:0:0:0:
192,192,185310,1,0,0:0:0:0:
448,192,185385,1,0,0:0:0:0:
320,192,185385,1,0,0:0:0:0:
64,192,185460,1,0,0:0:0:0:
192,192,185535,1,0,0:0:0:0:
448,192,185535,1,0,0:0:0:0:
320,192,185610,1,0,0:0:0:0:
192,192,185685,1,0,0:0:0:0:
64,192,185685,1,0,0:0:0:0:
448,192,185760,1,0,0:0:0:0:
320,192,185835,1,0,0:0:0:0:
192,192,185835,128,0,185872:0:0:0:0:
64,192,185835,128,0,185872:0:0:0:0:
448,192,185910,1,0,0:0:0:0:
320,192,185985,1,0,0:0:0:0:
64,192,185985,1,0,0:0:0:0:
192,192,186060,1,0,0:0:0:0:
320,192,186135,1,0,0:0:0:0:
448,192,186135,1,0,0:0:0:0:
64,192,186210,1,0,0:0:0:0:
192,192,186285,1,0,0:0:0:0:
320,192,186285,1,0,0:0:0:0:
448,192,186360,1,0,0:0:0:0:
64,192,186435,1,0,0:0:0:0:
192,192,186435,1,0,0:0:0:0:
320,192,186510,1,0,0:0:0:0:
448,192,186585,1,0,0:0:0:0:
192,192,186585,1,0,0:0:0:0:
64,192,186660,1,0,0:0:0:0:
448,192,186735,1,0,0:0:0:0:
320,192,186735,1,0,0:0:0:0:
192,192,186810,1,0,0:0:0:0:
448,192,186885,1,0,0:0:0:0:
64,192,186885,1,0,0:0:0:0:
320,192,186960,1,0,0:0:0:0:
64,192,187035,128,0,187072:0:0:0:0:
192,192,187035,1,0,0:0:0:0:
448,192,187035,128,0,187072:0:0:0:0:
320,192,187110,1,0,0:0:0:0:
192,192,187185,1,0,0:0:0:0:
448,192,187185,1,0,0:0:0:0:
64,192,187260,1,0,0:0:0:0:
448,192,187335,1,0,0:0:0:0:
320,192,187335,1,0,0:0:0:0:
192,192,187410,1,0,0:0:0:0:
64,192,187485,1,0,0:0:0:0:
448,192,187485,1,0,0:0:0:0:
320,192,187560,1,0,0:0:0:0:
64,192,187635,1,0,0:0:0:0:
192,192,187635,1,0,0:0:0:0:
448,192,187710,1,0,0:0:0:0:
320,192,187785,1,0,0:0:0:0:
64,192,187785,1,0,0:0:0:0:
192,192,187860,1,0,0:0:0:0:
320,192,187935,1,0,0:0:0:0:
64,192,187935,1,0,0:0:0:0:
448,192,188010,1,0,0:0:0:0:
192,192,188085,1,0,0:0:0:0:
320,192,188085,1,0,0:0:0:0:
64,192,188160,1,0,0:0:0:0:
192,192,188235,1,0,0:0:0:0:
320,192,188235,128,0,188272:0:0:0:0:
448,192,188235,128,0,188272:0:0:0:0:
64,192,188310,1,0,0:0:0:0:
448,192,188385,1,0,0:0:0:0:
192,192,188385,1,0,0:0:0:0:
320,192,188460,1,0,0:0:0:0:
192,192,188535,1,0,0:0:0:0:
64,192,188535,1,0,0:0:0:0:
448,192,188610,1,0,0:0:0:0:
320,192,188685,1,0,0:0:0:0:
64,192,188685,1,0,0:0:0:0:
192,192,188760,1,0,0:0:0:0:
320,192,188835,1,0,0:0:0:0:
448,192,188835,1,0,0:0:0:0:
64,192,188910,1,0,0:0:0:0:
192,192,188985,1,0,0:0:0:0:
320,192,188985,1,0,0:0:0:0:
448,192,189060,1,0,0:0:0:0:
192,192,189135,1,0,0:0:0:0:
64,192,189135,1,0,0:0:0:0:
320,192,189210,1,0,0:0:0:0:
448,192,189285,1,0,0:0:0:0:
64,192,189285,1,0,0:0:0:0:
192,192,189360,1,0,0:0:0:0:
64,192,189435,128,0,189472:0:0:0:0:
448,192,189435,128,0,189472:0:0:0:0:
320,192,189435,1,0,0:0:0:0:
192,192,189510,1,0,0:0:0:0:
320,192,189585,1,0,0:0:0:0:
448,192,189585,1,0,0:0:0:0:
192,192,189660,1,0,0:0:0:0:
320,192,189735,1,0,0:0:0:0:
64,192,189735,1,0,0:0:0:0:
192,192,189810,1,0,0:0:0:0:
448,192,189885,1,0,0:0:0:0:
64,192,189885,1,0,0:0:0:0:
320,192,189960,1,0,0:0:0:0:
192,192,190035,1,0,0:0:0:0:
64,192,190035,1,0,0:0:0:0:
320,192,190110,1,0,0:0:0:0:
448,192,190185,1,0,0:0:0:0:
64,192,190185,1,0,0:0:0:0:
192,192,190260,1,0,0:0:0:0:
320,192,190335,1,0,0:0:0:0:
448,192,190335,1,0,0:0:0:0:
64,192,190410,1,0,0:0:0:0:
192,192,190485,1,0,0:0:0:0:
320,192,190485,1,0,0:0:0:0:
448,192,190560,1,0,0:0:0:0:
320,192,190635,1,0,0:0:0:0:
64,192,190635,128,0,190672:0:0:0:0:
192,192,190635,128,0,190672:0:0:0:0:
448,192,190710,1,0,0:0:0:0:
320,192,190785,1,0,0:0:0:0:
192,192,190785,1,0,0:0:0:0:
64,192,190860,1,0,0:0:0:0:
320,192,190935,1,0,0:0:0:0:
448,192,190935,1,0,0:0:0:0:
192,192,191010,1,0,0:0:0:0:
320,192,191085,1,0,0:0:0:0:
64,192,191085,1,0,0:0:0:0:
448,192,191160,1,0,0:0:0:0:
192,192,191235,1,0,0:0:0:0:
64,192,191235,1,0,0:0:0:0:
320,192,191310,1,0,0:0:0:0:
448,192,191385,1,0,0:0:0:0:
64,192,191385,1,0,0:0:0:0:
192,192,191460,1,0,0:0:0:0:
320,192,191535,1,0,0:0:0:0:
64,192,191535,1,0,0:0:0:0:
192,192,191610,1,0,0:0:0:0:
448,192,191685,1,0,0:0:0:0:
320,192,191685,1,0,0:0:0:0:
64,192,191760,1,0,0:0:0:0:
192,192,191835,128,0,191872:0:0:0:0:
320,192,191835,128,0,191872:0:0:0:0:
448,192,191835,1,0,0:0:0:0:
64,192,191910,1,0,0:0:0:0:
192,192,191985,1,0,0:0:0:0:
448,192,191985,1,0,0:0:0:0:
320,192,192060,1,0,0:0:0:0:
192,192,192135,1,0,0:0:0:0:
64,192,192135,1,0,0:0:0:0:
448,192,192210,1,0,0:0:0:0:
320,192,192285,1,0,0:0:0:0:
64,192,192285,1,0,0:0:0:0:
192,192,192360,1,0,0:0:0:0:
64,192,192435,1,0,0:0:0:0:
320,192,192435,1,0,0:0:0:0:
448,192,192510,1,0,0:0:0:0:
192,192,192585,1,0,0:0:0:0:
64,192,192585,1,0,0:0:0:0:
320,192,192660,1,0,0:0:0:0:
448,192,192735,1,0,0:0:0:0:
192,192,192735,1,0,0:0:0:0:
320,192,192810,1,0,0:0:0:0:
64,192,192885,1,0,0:0:0:0:
448,192,192885,1,0,0:0:0:0:
192,192,192960,1,0,0:0:0:0:
64,192,193035,1,0,0:0:0:0:
320,192,193035,128,0,193072:0:0:0:0:
448,192,193035,128,0,193072:0:0:0:0:
192,192,193110,1,0,0:0:0:0:
448,192,193185,1,0,0:0:0:0:
64,192,193185,1,0,0:0:0:0:
320,192,193260,1,0,0:0:0:0:
192,192,193335,1,0,0:0:0:0:
448,192,193335,1,0,0:0:0:0:
320,192,193410,1,0,0:0:0:0:
64,192,193485,1,0,0:0:0:0:
192,192,193485,1,0,0:0:0:0:
448,192,193560,1,0,0:0:0:0:
64,192,193635,1,0,0:0:0:0:
320,192,193635,1,0,0:0:0:0:
192,192,193710,1,0,0:0:0:0:
448,192,193785,1,0,0:0:0:0:
320,192,193785,1,0,0:0:0:0:
192,192,193860,1,0,0:0:0:0:
448,192,193935,1,0,0:0:0:0:
64,192,193935,1,0,0:0:0:0:
320,192,193935,1,0,0:0:0:0:
320,192,194010,1,0,0:0:0:0:
64,192,194085,1,0,0:0:0:0:
448,192,194085,1,0,0:0:0:0:
192,192,194085,1,0,0:0:0:0:
192,192,194160,1,0,0:0:0:0:
448,192,194235,1,0,0:0:0:0:
320,192,194235,128,0,194272:0:0:0:0:
64,192,194235,128,0,194272:0:0:0:0:
192,192,194310,1,0,0:0:0:0:
64,192,194385,1,0,0:0:0:0:
448,192,194385,1,0,0:0:0:0:
192,192,194460,1,0,0:0:0:0:
320,192,194535,1,0,0:0:0:0:
64,192,194535,1,0,0:0:0:0:
192,192,194610,1,0,0:0:0:0:
448,192,194685,1,0,0:0:0:0:
320,192,194685,1,0,0:0:0:0:
64,192,194760,1,0,0:0:0:0:
448,192,194835,1,0,0:0:0:0:
192,192,194835,1,0,0:0:0:0:
320,192,194910,1,0,0:0:0:0:
192,192,194985,1,0,0:0:0:0:
64,192,194985,1,0,0:0:0:0:
448,192,195060,1,0,0:0:0:0:
64,192,195135,1,0,0:0:0:0:
320,192,195135,1,0,0:0:0:0:
192,192,195210,1,0,0:0:0:0:
64,192,195285,1,0,0:0:0:0:
448,192,195285,1,0,0:0:0:0:
320,192,195360,1,0,0:0:0:0:
192,192,195435,1,0,0:0:0:0:
64,192,195435,128,0,195472:0:0:0:0:
448,192,195435,128,0,195472:0:0:0:0:
320,192,195510,1,0,0:0:0:0:
192,192,195585,1,0,0:0:0:0:
448,192,195585,1,0,0:0:0:0:
64,192,195660,1,0,0:0:0:0:
448,192,195735,1,0,0:0:0:0:
320,192,195735,1,0,0:0:0:0:
192,192,195810,1,0,0:0:0:0:
64,192,195885,1,0,0:0:0:0:
320,192,195885,1,0,0:0:0:0:
192,192,195960,1,0,0:0:0:0:
64,192,196035,1,0,0:0:0:0:
448,192,196035,1,0,0:0:0:0:
320,192,196110,1,0,0:0:0:0:
192,192,196185,1,0,0:0:0:0:
64,192,196185,1,0,0:0:0:0:
448,192,196260,1,0,0:0:0:0:
320,192,196335,1,0,0:0:0:0:
64,192,196335,1,0,0:0:0:0:
192,192,196410,1,0,0:0:0:0:
320,192,196485,1,0,0:0:0:0:
448,192,196485,1,0,0:0:0:0:
64,192,196560,1,0,0:0:0:0:
320,192,196635,1,0,0:0:0:0:
192,192,196635,1,0,0:0:0:0:
448,192,196635,128,0,197835:0:0:0:0:
64,192,196710,1,0,0:0:0:0:
320,192,196785,1,0,0:0:0:0:
192,192,196785,1,0,0:0:0:0:
64,192,196860,1,0,0:0:0:0:
320,192,196935,1,0,0:0:0:0:
64,192,196935,1,0,0:0:0:0:
192,192,197010,1,0,0:0:0:0:
320,192,197085,1,0,0:0:0:0:
64,192,197085,1,0,0:0:0:0:
192,192,197160,1,0,0:0:0:0:
192,192,197235,1,0,0:0:0:0:
64,192,197235,1,0,0:0:0:0:
320,192,197310,1,0,0:0:0:0:
192,192,197385,1,0,0:0:0:0:
64,192,197385,1,0,0:0:0:0:
320,192,197460,1,0,0:0:0:0:
192,192,197535,1,0,0:0:0:0:
320,192,197535,1,0,0:0:0:0:
64,192,197610,1,0,0:0:0:0:
192,192,197685,1,0,0:0:0:0:
320,192,197685,1,0,0:0:0:0:
64,192,197760,1,0,0:0:0:0:
64,192,197835,128,0,198435:0:0:0:0:
192,192,197835,1,0,0:0:0:0:
320,192,197835,1,0,0:0:0:0:
448,192,197910,1,0,0:0:0:0:
448,192,197985,1,0,0:0:0:0:
192,192,197985,1,0,0:0:0:0:
320,192,198060,1,0,0:0:0:0:
448,192,198135,1,0,0:0:0:0:
192,192,198135,1,0,0:0:0:0:
320,192,198210,1,0,0:0:0:0:
320,192,198285,1,0,0:0:0:0:
448,192,198285,1,0,0:0:0:0:
192,192,198360,1,0,0:0:0:0:
192,192,198435,128,0,198735:0:0:0:0:
320,192,198435,1,0,0:0:0:0:
448,192,198435,1,0,0:0:0:0:
64,192,198510,1,0,0:0:0:0:
320,192,198585,1,0,0:0:0:0:
448,192,198585,1,0,0:0:0:0:
64,192,198660,1,0,0:0:0:0:
448,192,198735,1,0,0:0:0:0:
64,192,198735,1,0,0:0:0:0:
320,192,198735,1,0,0:0:0:0:
448,192,198810,1,0,0:0:0:0:
320,192,198885,1,0,0:0:0:0:
64,192,198885,1,0,0:0:0:0:
192,192,198885,1,0,0:0:0:0:
192,192,198960,1,0,0:0:0:0:
320,192,199035,1,0,0:0:0:0:
64,192,199035,1,0,0:0:0:0:
448,192,199035,1,0,0:0:0:0:
192,192,199110,1,0,0:0:0:0:
448,192,199185,1,0,0:0:0:0:
64,192,199185,1,0,0:0:0:0:
320,192,199260,1,0,0:0:0:0:
192,192,199335,1,0,0:0:0:0:
448,192,199335,1,0,0:0:0:0:
320,192,199410,1,0,0:0:0:0:
192,192,199485,1,0,0:0:0:0:
64,192,199485,1,0,0:0:0:0:
448,192,199560,1,0,0:0:0:0:
320,192,199635,1,0,0:0:0:0:
64,192,199635,1,0,0:0:0:0:
192,192,199710,1,0,0:0:0:0:
64,192,199785,1,0,0:0:0:0:
320,192,199785,1,0,0:0:0:0:
448,192,199860,1,0,0:0:0:0:
320,192,199935,1,0,0:0:0:0:
192,192,199935,1,0,0:0:0:0:
64,192,200010,1,0,0:0:0:0:
320,192,200085,1,0,0:0:0:0:
448,192,200085,1,0,0:0:0:0:
192,192,200160,1,0,0:0:0:0:
64,192,200235,1,0,0:0:0:0:
320,192,200235,1,0,0:0:0:0:
448,192,200310,1,0,0:0:0:0:
64,192,200385,1,0,0:0:0:0:
320,192,200385,1,0,0:0:0:0:
192,192,200460,1,0,0:0:0:0:
448,192,200535,1,0,0:0:0:0:
320,192,200535,1,0,0:0:0:0:
192,192,200610,1,0,0:0:0:0:
320,192,200685,1,0,0:0:0:0:
64,192,200685,1,0,0:0:0:0:
192,192,200760,1,0,0:0:0:0:
64,192,200835,1,0,0:0:0:0:
448,192,200835,128,0,200872:0:0:0:0:
320,192,200835,128,0,200872:0:0:0:0:
192,192,200910,1,0,0:0:0:0:
448,192,200985,1,0,0:0:0:0:
64,192,200985,1,0,0:0:0:0:
320,192,201060,1,0,0:0:0:0:
448,192,201135,1,0,0:0:0:0:
64,192,201135,1,0,0:0:0:0:
192,192,201135,1,0,0:0:0:0:
448,192,201210,1,0,0:0:0:0:
320,192,201285,1,0,0:0:0:0:
192,192,201285,1,0,0:0:0:0:
64,192,201285,1,0,0:0:0:0:
64,192,201360,1,0,0:0:0:0:
320,192,201435,1,0,0:0:0:0:
448,192,201435,1,0,0:0:0:0:
192,192,201435,1,0,0:0:0:0:
320,192,201510,1,0,0:0:0:0:
64,192,201585,1,0,0:0:0:0:
192,192,201585,1,0,0:0:0:0:
448,192,201585,1,0,0:0:0:0:
320,192,201660,1,0,0:0:0:0:
320,192,201735,1,0,0:0:0:0:
448,192,201735,1,0,0:0:0:0:
64,192,201735,1,0,0:0:0:0:
192,192,201810,1,0,0:0:0:0:
64,192,201885,1,0,0:0:0:0:
192,192,201885,1,0,0:0:0:0:
448,192,201885,1,0,0:0:0:0:
320,192,201960,1,0,0:0:0:0:
448,192,202035,1,0,0:0:0:0:
320,192,202035,1,0,0:0:0:0:
192,192,202035,1,0,0:0:0:0:
64,192,202110,1,0,0:0:0:0:
64,192,202185,1,0,0:0:0:0:
320,192,202185,1,0,0:0:0:0:
192,192,202185,1,0,0:0:0:0:
448,192,202260,1,0,0:0:0:0:
448,192,202335,1,0,0:0:0:0:
320,192,202335,1,0,0:0:0:0:
64,192,202335,1,0,0:0:0:0:
192,192,202410,1,0,0:0:0:0:
64,192,202485,1,0,0:0:0:0:
448,192,202485,1,0,0:0:0:0:
320,192,202485,1,0,0:0:0:0:
448,192,202560,1,0,0:0:0:0:
320,192,202560,1,0,0:0:0:0:
64,192,202560,1,0,0:0:0:0:
192,192,202635,1,0,0:0:0:0:
64,192,202635,1,0,0:0:0:0:
448,192,202635,1,0,0:0:0:0:
192,192,202710,1,0,0:0:0:0:
64,192,202785,1,0,0:0:0:0:
320,192,202785,1,0,0:0:0:0:
448,192,202785,1,0,0:0:0:0:
448,192,202860,1,0,0:0:0:0:
320,192,202935,1,0,0:0:0:0:
192,192,202935,1,0,0:0:0:0:
64,192,202935,1,0,0:0:0:0:
64,192,203010,1,0,0:0:0:0:
192,192,203085,1,0,0:0:0:0:
320,192,203085,1,0,0:0:0:0:
448,192,203085,1,0,0:0:0:0:
320,192,203160,1,0,0:0:0:0:
448,192,203235,1,0,0:0:0:0:
192,192,203235,1,0,0:0:0:0:
64,192,203235,1,0,0:0:0:0:
448,192,203310,1,0,0:0:0:0:
192,192,203310,1,0,0:0:0:0:
64,192,203310,1,0,0:0:0:0:
320,192,203385,1,0,0:0:0:0:
64,192,203385,1,0,0:0:0:0:
192,192,203422,1,0,0:0:0:0:
448,192,203460,1,0,0:0:0:0:
320,192,203497,1,0,0:0:0:0:
192,192,203535,1,0,0:0:0:0:
448,192,203535,1,0,0:0:0:0:
64,192,203535,1,0,0:0:0:0:
320,192,203610,1,0,0:0:0:0:
192,192,203610,1,0,0:0:0:0:
64,192,203685,1,0,0:0:0:0:
448,192,203685,1,0,0:0:0:0:
320,192,203685,1,0,0:0:0:0:
448,192,203760,1,0,0:0:0:0:
64,192,203760,1,0,0:0:0:0:
320,192,203760,1,0,0:0:0:0:
64,192,203835,1,0,0:0:0:0:
448,192,203835,1,0,0:0:0:0:
192,192,203835,1,0,0:0:0:0:
320,192,203910,1,0,0:0:0:0:
192,192,203910,1,0,0:0:0:0:
64,192,203985,1,0,0:0:0:0:
448,192,203985,1,0,0:0:0:0:
192,192,204060,1,0,0:0:0:0:
448,192,204135,1,0,0:0:0:0:
320,192,204135,1,0,0:0:0:0:
192,192,204210,1,0,0:0:0:0:
64,192,204210,1,0,0:0:0:0:
448,192,204285,1,0,0:0:0:0:
320,192,204285,1,0,0:0:0:0:
192,192,204360,1,0,0:0:0:0:
320,192,204435,1,0,0:0:0:0:
64,192,204435,1,0,0:0:0:0:
192,192,204510,1,0,0:0:0:0:
448,192,204510,1,0,0:0:0:0:
320,192,204585,1,0,0:0:0:0:
64,192,204585,1,0,0:0:0:0:
448,192,204660,1,0,0:0:0:0:
192,192,204735,1,0,0:0:0:0:
64,192,204735,1,0,0:0:0:0:
320,192,204810,1,0,0:0:0:0:
448,192,204810,1,0,0:0:0:0:
192,192,204885,1,0,0:0:0:0:
64,192,204885,1,0,0:0:0:0:
320,192,204960,1,0,0:0:0:0:
448,192,205035,1,0,0:0:0:0:
192,192,205035,1,0,0:0:0:0:
64,192,205035,1,0,0:0:0:0:
320,192,205110,1,0,0:0:0:0:
64,192,205110,1,0,0:0:0:0:
192,192,205185,1,0,0:0:0:0:
448,192,205185,1,0,0:0:0:0:
64,192,205260,1,0,0:0:0:0:
192,192,205335,1,0,0:0:0:0:
320,192,205335,1,0,0:0:0:0:
448,192,205410,1,0,0:0:0:0:
64,192,205410,1,0,0:0:0:0:
320,192,205485,1,0,0:0:0:0:
192,192,205485,1,0,0:0:0:0:
448,192,205560,1,0,0:0:0:0:
64,192,205635,1,0,0:0:0:0:
192,192,205635,1,0,0:0:0:0:
448,192,205710,1,0,0:0:0:0:
320,192,205710,1,0,0:0:0:0:
64,192,205785,1,0,0:0:0:0:
192,192,205785,1,0,0:0:0:0:
320,192,205860,1,0,0:0:0:0:
448,192,205935,1,0,0:0:0:0:
64,192,205935,1,0,0:0:0:0:
320,192,206010,1,0,0:0:0:0:
192,192,206010,1,0,0:0:0:0:
448,192,206085,1,0,0:0:0:0:
64,192,206085,1,0,0:0:0:0:
192,192,206160,1,0,0:0:0:0:
448,192,206235,1,0,0:0:0:0:
64,192,206235,1,0,0:0:0:0:
320,192,206235,1,0,0:0:0:0:
320,192,206310,1,0,0:0:0:0:
192,192,206310,1,0,0:0:0:0:
448,192,206385,1,0,0:0:0:0:
64,192,206385,1,0,0:0:0:0:
192,192,206460,1,0,0:0:0:0:
320,192,206535,1,0,0:0:0:0:
64,192,206535,1,0,0:0:0:0:
192,192,206610,1,0,0:0:0:0:
448,192,206610,1,0,0:0:0:0:
320,192,206685,1,0,0:0:0:0:
64,192,206685,1,0,0:0:0:0:
448,192,206760,1,0,0:0:0:0:
320,192,206835,1,0,0:0:0:0:
192,192,206835,1,0,0:0:0:0:
64,192,206910,1,0,0:0:0:0:
448,192,206910,1,0,0:0:0:0:
320,192,206985,1,0,0:0:0:0:
192,192,206985,1,0,0:0:0:0:
64,192,207060,1,0,0:0:0:0:
448,192,207135,1,0,0:0:0:0:
320,192,207135,1,0,0:0:0:0:
192,192,207210,1,0,0:0:0:0:
64,192,207210,1,0,0:0:0:0:
320,192,207285,1,0,0:0:0:0:
448,192,207285,1,0,0:0:0:0:
192,192,207360,1,0,0:0:0:0:
64,192,207435,1,0,0:0:0:0:
320,192,207435,1,0,0:0:0:0:
448,192,207435,1,0,0:0:0:0:
448,192,207510,1,0,0:0:0:0:
192,192,207510,1,0,0:0:0:0:
64,192,207585,1,0,0:0:0:0:
320,192,207585,1,0,0:0:0:0:
192,192,207660,1,0,0:0:0:0:
64,192,207735,1,0,0:0:0:0:
448,192,207735,1,0,0:0:0:0:
320,192,207810,1,0,0:0:0:0:
192,192,207810,1,0,0:0:0:0:
448,192,207885,1,0,0:0:0:0:
64,192,207885,1,0,0:0:0:0:
320,192,207960,1,0,0:0:0:0:
192,192,208035,1,0,0:0:0:0:
64,192,208035,1,0,0:0:0:0:
320,192,208110,1,0,0:0:0:0:
448,192,208110,1,0,0:0:0:0:
192,192,208185,1,0,0:0:0:0:
64,192,208185,1,0,0:0:0:0:
320,192,208260,1,0,0:0:0:0:
448,192,208335,1,0,0:0:0:0:
192,192,208335,1,0,0:0:0:0:
64,192,208335,1,0,0:0:0:0:
320,192,208410,1,0,0:0:0:0:
192,192,208410,1,0,0:0:0:0:
448,192,208485,1,0,0:0:0:0:
64,192,208485,1,0,0:0:0:0:
320,192,208485,1,0,0:0:0:0:
192,192,208560,1,0,0:0:0:0:
320,192,208635,1,0,0:0:0:0:
64,192,208635,1,0,0:0:0:0:
448,192,208635,1,0,0:0:0:0:
448,192,208710,1,0,0:0:0:0:
64,192,208710,1,0,0:0:0:0:
192,192,208785,1,0,0:0:0:0:
320,192,208785,1,0,0:0:0:0:
448,192,208860,1,0,0:0:0:0:
64,192,208935,1,0,0:0:0:0:
320,192,208935,1,0,0:0:0:0:
192,192,209010,1,0,0:0:0:0:
448,192,209010,1,0,0:0:0:0:
320,192,209085,1,0,0:0:0:0:
64,192,209085,1,0,0:0:0:0:
192,192,209160,1,0,0:0:0:0:
64,192,209235,1,0,0:0:0:0:
448,192,209235,1,0,0:0:0:0:
320,192,209310,1,0,0:0:0:0:
192,192,209310,1,0,0:0:0:0:
64,192,209385,1,0,0:0:0:0:
448,192,209385,1,0,0:0:0:0:
320,192,209460,1,0,0:0:0:0:
192,192,209535,1,0,0:0:0:0:
64,192,209535,1,0,0:0:0:0:
320,192,209610,1,0,0:0:0:0:
448,192,209610,1,0,0:0:0:0:
192,192,209685,1,0,0:0:0:0:
64,192,209685,1,0,0:0:0:0:
320,192,209760,1,0,0:0:0:0:
192,192,209835,1,0,0:0:0:0:
64,192,209835,1,0,0:0:0:0:
448,192,209835,1,0,0:0:0:0:
320,192,209910,1,0,0:0:0:0:
192,192,209910,1,0,0:0:0:0:
64,192,209985,1,0,0:0:0:0:
448,192,209985,1,0,0:0:0:0:
192,192,210060,1,0,0:0:0:0:
320,192,210135,1,0,0:0:0:0:
64,192,210135,1,0,0:0:0:0:
192,192,210210,1,0,0:0:0:0:
448,192,210210,1,0,0:0:0:0:
320,192,210285,1,0,0:0:0:0:
64,192,210285,1,0,0:0:0:0:
448,192,210360,1,0,0:0:0:0:
320,192,210435,1,0,0:0:0:0:
192,192,210435,1,0,0:0:0:0:
64,192,210510,1,0,0:0:0:0:
448,192,210510,1,0,0:0:0:0:
320,192,210585,1,0,0:0:0:0:
192,192,210585,1,0,0:0:0:0:
64,192,210660,1,0,0:0:0:0:
448,192,210735,1,0,0:0:0:0:
320,192,210735,1,0,0:0:0:0:
192,192,210810,1,0,0:0:0:0:
64,192,210810,1,0,0:0:0:0:
320,192,210885,1,0,0:0:0:0:
448,192,210885,1,0,0:0:0:0:
192,192,210960,1,0,0:0:0:0:
64,192,211035,1,0,0:0:0:0:
320,192,211035,1,0,0:0:0:0:
448,192,211035,1,0,0:0:0:0:
192,192,211110,1,0,0:0:0:0:
448,192,211110,1,0,0:0:0:0:
320,192,211185,1,0,0:0:0:0:
64,192,211185,1,0,0:0:0:0:
192,192,211260,1,0,0:0:0:0:
320,192,211335,1,0,0:0:0:0:
448,192,211335,1,0,0:0:0:0:
192,192,211410,1,0,0:0:0:0:
64,192,211410,1,0,0:0:0:0:
320,192,211485,1,0,0:0:0:0:
448,192,211485,1,0,0:0:0:0:
192,192,211560,1,0,0:0:0:0:
448,192,211635,1,0,0:0:0:0:
64,192,211635,1,0,0:0:0:0:
320,192,211710,1,0,0:0:0:0:
192,192,211710,1,0,0:0:0:0:
448,192,211785,1,0,0:0:0:0:
64,192,211785,1,0,0:0:0:0:
320,192,211860,1,0,0:0:0:0:
192,192,211935,1,0,0:0:0:0:
448,192,211935,1,0,0:0:0:0:
320,192,212010,1,0,0:0:0:0:
64,192,212010,1,0,0:0:0:0:
448,192,212085,1,0,0:0:0:0:
192,192,212085,1,0,0:0:0:0:
64,192,212160,1,0,0:0:0:0:
192,192,212235,1,0,0:0:0:0:
320,192,212235,1,0,0:0:0:0:
448,192,212235,1,0,0:0:0:0:
64,192,212310,1,0,0:0:0:0:
448,192,212310,1,0,0:0:0:0:
192,192,212385,1,0,0:0:0:0:
320,192,212385,1,0,0:0:0:0:
64,192,212460,1,0,0:0:0:0:
320,192,212535,1,0,0:0:0:0:
448,192,212535,1,0,0:0:0:0:
192,192,212610,1,0,0:0:0:0:
64,192,212610,1,0,0:0:0:0:
320,192,212685,1,0,0:0:0:0:
448,192,212685,1,0,0:0:0:0:
192,192,212760,1,0,0:0:0:0:
64,192,212835,1,0,0:0:0:0:
320,192,212835,1,0,0:0:0:0:
192,192,212910,1,0,0:0:0:0:
448,192,212910,1,0,0:0:0:0:
320,192,212985,1,0,0:0:0:0:
64,192,212985,1,0,0:0:0:0:
192,192,213060,1,0,0:0:0:0:
320,192,213135,1,0,0:0:0:0:
448,192,213135,1,0,0:0:0:0:
64,192,213135,1,0,0:0:0:0:
320,192,213210,1,0,0:0:0:0:
192,192,213210,1,0,0:0:0:0:
64,192,213285,1,0,0:0:0:0:
192,192,213285,1,0,0:0:0:0:
448,192,213285,1,0,0:0:0:0:
320,192,213360,1,0,0:0:0:0:
448,192,213435,1,0,0:0:0:0:
192,192,213435,1,0,0:0:0:0:
64,192,213435,1,0,0:0:0:0:
64,192,213510,1,0,0:0:0:0:
448,192,213510,1,0,0:0:0:0:
320,192,213585,1,0,0:0:0:0:
192,192,213585,1,0,0:0:0:0:
64,192,213660,1,0,0:0:0:0:
320,192,213735,1,0,0:0:0:0:
448,192,213735,1,0,0:0:0:0:
192,192,213810,1,0,0:0:0:0:
64,192,213810,1,0,0:0:0:0:
320,192,213885,1,0,0:0:0:0:
448,192,213885,1,0,0:0:0:0:
64,192,213960,1,0,0:0:0:0:
192,192,214035,1,0,0:0:0:0:
448,192,214035,1,0,0:0:0:0:
320,192,214035,1,0,0:0:0:0:
64,192,214110,1,0,0:0:0:0:
320,192,214110,1,0,0:0:0:0:
192,192,214185,1,0,0:0:0:0:
448,192,214185,1,0,0:0:0:0:
320,192,214260,1,0,0:0:0:0:
64,192,214335,1,0,0:0:0:0:
448,192,214335,1,0,0:0:0:0:
192,192,214410,1,0,0:0:0:0:
320,192,214410,1,0,0:0:0:0:
64,192,214485,1,0,0:0:0:0:
448,192,214485,1,0,0:0:0:0:
192,192,214560,1,0,0:0:0:0:
320,192,214635,1,0,0:0:0:0:
64,192,214635,1,0,0:0:0:0:
448,192,214635,1,0,0:0:0:0:
192,192,214710,1,0,0:0:0:0:
320,192,214710,1,0,0:0:0:0:
448,192,214785,1,0,0:0:0:0:
64,192,214785,1,0,0:0:0:0:
320,192,214860,1,0,0:0:0:0:
192,192,214935,1,0,0:0:0:0:
448,192,214935,1,0,0:0:0:0:
320,192,215010,1,0,0:0:0:0:
64,192,215010,1,0,0:0:0:0:
192,192,215085,1,0,0:0:0:0:
448,192,215085,1,0,0:0:0:0:
320,192,215160,1,0,0:0:0:0:
64,192,215235,1,0,0:0:0:0:
448,192,215235,1,0,0:0:0:0:
192,192,215235,1,0,0:0:0:0:
64,192,215310,1,0,0:0:0:0:
320,192,215310,1,0,0:0:0:0:
192,192,215385,1,0,0:0:0:0:
448,192,215385,1,0,0:0:0:0:
320,192,215460,1,0,0:0:0:0:
192,192,215535,1,0,0:0:0:0:
64,192,215535,1,0,0:0:0:0:
320,192,215610,1,0,0:0:0:0:
448,192,215610,1,0,0:0:0:0:
192,192,215685,1,0,0:0:0:0:
64,192,215685,1,0,0:0:0:0:
448,192,215760,1,0,0:0:0:0:
320,192,215835,1,0,0:0:0:0:
192,192,215835,1,0,0:0:0:0:
64,192,215835,1,0,0:0:0:0:
320,192,215910,1,0,0:0:0:0:
448,192,215910,1,0,0:0:0:0:
192,192,215985,1,0,0:0:0:0:
64,192,215985,1,0,0:0:0:0:
448,192,216060,1,0,0:0:0:0:
320,192,216135,1,0,0:0:0:0:
192,192,216135,1,0,0:0:0:0:
64,192,216210,1,0,0:0:0:0:
448,192,216210,1,0,0:0:0:0:
320,192,216285,1,0,0:0:0:0:
192,192,216285,1,0,0:0:0:0:
64,192,216360,1,0,0:0:0:0:
192,192,216435,1,0,0:0:0:0:
448,192,216435,1,0,0:0:0:0:
320,192,216510,1,0,0:0:0:0:
64,192,216510,1,0,0:0:0:0:
192,192,216585,1,0,0:0:0:0:
448,192,216585,1,0,0:0:0:0:
320,192,216660,1,0,0:0:0:0:
448,192,216735,1,0,0:0:0:0:
64,192,216735,1,0,0:0:0:0:
192,192,216810,1,0,0:0:0:0:
320,192,216810,1,0,0:0:0:0:
64,192,216885,1,0,0:0:0:0:
448,192,216885,1,0,0:0:0:0:
192,192,216960,1,0,0:0:0:0:
320,192,217035,1,0,0:0:0:0:
448,192,217035,1,0,0:0:0:0:
64,192,217035,1,0,0:0:0:0:
192,192,217110,1,0,0:0:0:0:
320,192,217110,1,0,0:0:0:0:
448,192,217185,1,0,0:0:0:0:
64,192,217185,1,0,0:0:0:0:
192,192,217260,1,0,0:0:0:0:
320,192,217335,1,0,0:0:0:0:
448,192,217335,1,0,0:0:0:0:
192,192,217410,1,0,0:0:0:0:
64,192,217410,1,0,0:0:0:0:
448,192,217485,1,0,0:0:0:0:
320,192,217485,1,0,0:0:0:0:
64,192,217560,1,0,0:0:0:0:
192,192,217635,1,0,0:0:0:0:
320,192,217635,1,0,0:0:0:0:
448,192,217710,1,0,0:0:0:0:
64,192,217710,1,0,0:0:0:0:
192,192,217785,1,0,0:0:0:0:
320,192,217785,1,0,0:0:0:0:
448,192,217860,1,0,0:0:0:0:
192,192,217935,1,0,0:0:0:0:
64,192,217935,1,0,0:0:0:0:
320,192,217935,1,0,0:0:0:0:
64,192,218010,1,0,0:0:0:0:
320,192,218085,1,0,0:0:0:0:
448,192,218085,1,0,0:0:0:0:
192,192,218160,1,0,0:0:0:0:
64,192,218160,1,0,0:0:0:0:
64,192,218235,1,0,0:0:0:0:
320,192,218235,1,0,0:0:0:0:
448,192,218235,1,0,0:0:0:0:
192,192,218310,1,0,0:0:0:0:
320,192,218310,1,0,0:0:0:0:
64,192,218385,1,0,0:0:0:0:
448,192,218385,1,0,0:0:0:0:
192,192,218385,1,0,0:0:0:0:
320,192,218460,1,0,0:0:0:0:
192,192,218535,1,0,0:0:0:0:
448,192,218535,1,0,0:0:0:0:
64,192,218535,1,0,0:0:0:0:
64,192,218610,1,0,0:0:0:0:
320,192,218610,1,0,0:0:0:0:
448,192,218685,1,0,0:0:0:0:
192,192,218685,1,0,0:0:0:0:
320,192,218685,1,0,0:0:0:0:
448,192,218760,1,0,0:0:0:0:
192,192,218835,1,0,0:0:0:0:
320,192,218835,1,0,0:0:0:0:
64,192,218835,1,0,0:0:0:0:
64,192,218910,1,0,0:0:0:0:
448,192,218910,1,0,0:0:0:0:
192,192,218985,1,0,0:0:0:0:
320,192,218985,1,0,0:0:0:0:
448,192,218985,1,0,0:0:0:0:
64,192,219060,1,0,0:0:0:0:
320,192,219135,1,0,0:0:0:0:
192,192,219135,1,0,0:0:0:0:
448,192,219135,1,0,0:0:0:0:
192,192,219210,1,0,0:0:0:0:
64,192,219285,1,0,0:0:0:0:
448,192,219285,1,0,0:0:0:0:
320,192,219285,1,0,0:0:0:0:
448,192,219360,1,0,0:0:0:0:
64,192,219360,1,0,0:0:0:0:
320,192,219360,1,0,0:0:0:0:
448,192,219435,1,0,0:0:0:0:
64,192,219435,1,0,0:0:0:0:
192,192,219435,1,0,0:0:0:0:
320,192,219435,1,0,0:0:0:0:
192,192,219510,1,0,0:0:0:0:
64,192,219585,1,0,0:0:0:0:
448,192,219585,1,0,0:0:0:0:
320,192,219585,1,0,0:0:0:0:
320,192,219660,1,0,0:0:0:0:
448,192,219735,1,0,0:0:0:0:
64,192,219735,1,0,0:0:0:0:
192,192,219735,1,0,0:0:0:0:
320,192,219810,1,0,0:0:0:0:
192,192,219810,1,0,0:0:0:0:
64,192,219885,1,0,0:0:0:0:
448,192,219885,1,0,0:0:0:0:
320,192,219885,1,0,0:0:0:0:
192,192,219960,1,0,0:0:0:0:
192,192,220035,1,0,0:0:0:0:
64,192,220035,1,0,0:0:0:0:
448,192,220035,1,0,0:0:0:0:
320,192,220110,1,0,0:0:0:0:
448,192,220110,1,0,0:0:0:0:
192,192,220185,1,0,0:0:0:0:
64,192,220185,1,0,0:0:0:0:
320,192,220260,1,0,0:0:0:0:
448,192,220335,1,0,0:0:0:0:
192,192,220335,1,0,0:0:0:0:
64,192,220335,1,0,0:0:0:0:
320,192,220410,1,0,0:0:0:0:
192,192,220410,1,0,0:0:0:0:
320,192,220485,1,0,0:0:0:0:
448,192,220485,1,0,0:0:0:0:
64,192,220485,1,0,0:0:0:0:
192,192,220560,1,0,0:0:0:0:
320,192,220635,128,0,220710:0:0:0:0:
448,192,220635,1,0,0:0:0:0:
64,192,220635,1,0,0:0:0:0:
192,192,220710,128,0,220785:0:0:0:0:
64,192,220710,1,0,0:0:0:0:
320,192,220785,128,0,220860:0:0:0:0:
448,192,220785,1,0,0:0:0:0:
64,192,220860,128,0,220935:0:0:0:0:
448,192,220935,1,0,0:0:0:0:
320,192,220935,1,0,0:0:0:0:
192,192,220935,128,0,221010:0:0:0:0:
64,192,221010,1,0,0:0:0:0:
448,192,221010,128,0,221085:0:0:0:0:
192,192,221085,1,0,0:0:0:0:
64,192,221085,1,0,0:0:0:0:
320,192,221085,128,0,221160:0:0:0:0:
448,192,221160,128,0,221235:0:0:0:0:
320,192,221235,1,0,0:0:0:0:
192,192,221235,1,0,0:0:0:0:
64,192,221235,128,0,221310:0:0:0:0:
448,192,221310,1,0,0:0:0:0:
192,192,221310,128,0,221385:0:0:0:0:
448,192,221385,1,0,0:0:0:0:
320,192,221385,128,0,221460:0:0:0:0:
64,192,221385,1,0,0:0:0:0:
192,192,221460,128,0,221535:0:0:0:0:
64,192,221535,128,0,221610:0:0:0:0:
320,192,221535,1,0,0:0:0:0:
448,192,221535,1,0,0:0:0:0:
192,192,221610,1,0,0:0:0:0:
320,192,221610,128,0,221685:0:0:0:0:
192,192,221685,1,0,0:0:0:0:
64,192,221685,1,0,0:0:0:0:
448,192,221685,128,0,221760:0:0:0:0:
320,192,221760,128,0,221835:0:0:0:0:
64,192,221835,128,0,221910:0:0:0:0:
192,192,221835,128,0,221910:0:0:0:0:
448,192,221910,128,0,221985:0:0:0:0:
320,192,221910,128,0,221985:0:0:0:0:
192,192,221985,128,0,222060:0:0:0:0:
64,192,221985,128,0,222060:0:0:0:0:
320,192,222060,128,0,222135:0:0:0:0:
64,192,222135,1,0,0:0:0:0:
448,192,222135,1,0,0:0:0:0:
192,192,222135,128,0,222210:0:0:0:0:
320,192,222210,128,0,222285:0:0:0:0:
448,192,222210,128,0,222285:0:0:0:0:
192,192,222285,128,0,222360:0:0:0:0:
64,192,222285,128,0,222360:0:0:0:0:
448,192,222360,128,0,222435:0:0:0:0:
192,192,222435,1,0,0:0:0:0:
64,192,222435,1,0,0:0:0:0:
320,192,222435,128,0,222510:0:0:0:0:
192,192,222510,128,0,222585:0:0:0:0:
64,192,222510,128,0,222585:0:0:0:0:
448,192,222585,128,0,222660:0:0:0:0:
320,192,222585,128,0,222697:0:0:0:0:
192,192,222660,128,0,222735:0:0:0:0:
64,192,222660,128,0,222772:0:0:0:0:
448,192,222735,128,0,222810:0:0:0:0:
320,192,222772,128,0,222847:0:0:0:0:
192,192,222810,128,0,222922:0:0:0:0:
64,192,222847,128,0,222885:0:0:0:0:
448,192,222885,128,0,222960:0:0:0:0:
320,192,222922,128,0,222960:0:0:0:0:
64,192,222960,128,0,223035:0:0:0:0:
192,192,222997,128,0,223035:0:0:0:0:
448,192,223035,128,0,223110:0:0:0:0:
320,192,223035,128,0,223185:0:0:0:0:
64,192,223110,128,0,223185:0:0:0:0:
192,192,223185,128,0,223260:0:0:0:0:
448,192,223185,128,0,223335:0:0:0:0:
64,192,223260,128,0,223335:0:0:0:0:
192,192,223335,128,0,223410:0:0:0:0:
320,192,223335,128,0,223485:0:0:0:0:
448,192,223410,128,0,223485:0:0:0:0:
192,192,223485,128,0,223560:0:0:0:0:
64,192,223485,128,0,223635:0:0:0:0:
320,192,223560,128,0,223635:0:0:0:0:
448,192,223635,128,0,223785:0:0:0:0:
192,192,223635,128,0,223710:0:0:0:0:
320,192,223710,128,0,223785:0:0:0:0:
192,192,223785,128,0,223860:0:0:0:0:
64,192,223785,128,0,223935:0:0:0:0:
448,192,223860,128,0,223935:0:0:0:0:
320,192,223935,128,0,224085:0:0:0:0:
192,192,223935,128,0,224010:0:0:0:0:
64,192,224010,128,0,224085:0:0:0:0:
448,192,224085,128,0,224160:0:0:0:0:
192,192,224085,128,0,224235:0:0:0:0:
320,192,224160,128,0,224235:0:0:0:0:
448,192,224235,128,0,224310:0:0:0:0:
64,192,224235,128,0,224385:0:0:0:0:
320,192,224310,128,0,224385:0:0:0:0:
448,192,224385,128,0,224535:0:0:0:0:
192,192,224385,128,0,224460:0:0:0:0:
64,192,224460,128,0,224535:0:0:0:0:
320,192,224535,128,0,224685:0:0:0:0:
192,192,224535,128,0,224610:0:0:0:0:
448,192,224610,128,0,224685:0:0:0:0:
64,192,224685,128,0,224835:0:0:0:0:
192,192,224685,128,0,224760:0:0:0:0:
320,192,224760,128,0,224835:0:0:0:0:
192,192,224835,128,0,225035:0:0:0:0:
448,192,224835,128,0,224910:0:0:0:0:
320,192,224910,128,0,224985:0:0:0:0:
448,192,224985,128,0,225135:0:0:0:0:
64,192,225035,128,0,225235:0:0:0:0:
320,192,225060,128,0,225135:0:0:0:0:
192,192,225135,128,0,225210:0:0:0:0:
320,192,225210,128,0,225360:0:0:0:0:
448,192,225235,128,0,225435:0:0:0:0:
192,192,225285,128,0,225360:0:0:0:0:
64,192,225360,128,0,225435:0:0:0:0:
192,192,225435,128,0,225585:0:0:0:0:
320,192,225435,128,0,225510:0:0:0:0:
64,192,225510,128,0,225585:0:0:0:0:
448,192,225585,128,0,225735:0:0:0:0:
320,192,225585,128,0,225660:0:0:0:0:
192,192,225660,128,0,225735:0:0:0:0:
64,192,225735,128,0,225885:0:0:0:0:
320,192,225735,128,0,225810:0:0:0:0:
448,192,225810,128,0,225885:0:0:0:0:
192,192,225885,128,0,226035:0:0:0:0:
320,192,225885,128,0,225960:0:0:0:0:
448,192,225960,128,0,226035:0:0:0:0:
64,192,226035,128,0,226185:0:0:0:0:
320,192,226035,128,0,226110:0:0:0:0:
192,192,226110,128,0,226185:0:0:0:0:
320,192,226185,128,0,226335:0:0:0:0:
448,192,226185,128,0,226260:0:0:0:0:
64,192,226260,128,0,226335:0:0:0:0:
448,192,226335,128,0,226485:0:0:0:0:
192,192,226335,128,0,226485:0:0:0:0:
64,192,226410,128,0,226485:0:0:0:0:
320,192,226485,128,0,226635:0:0:0:0:
192,192,226560,128,0,226710:0:0:0:0:
448,192,226635,128,0,226785:0:0:0:0:
64,192,226635,128,0,226710:0:0:0:0:
320,192,226710,128,0,226860:0:0:0:0:
64,192,226785,128,0,226935:0:0:0:0:
192,192,226785,128,0,226860:0:0:0:0:
448,192,226860,128,0,227010:0:0:0:0:
320,192,226935,128,0,227010:0:0:0:0:
192,192,226935,128,0,227085:0:0:0:0:
64,192,227010,128,0,227160:0:0:0:0:
320,192,227085,128,0,227235:0:0:0:0:
448,192,227085,128,0,227160:0:0:0:0:
192,192,227160,128,0,227235:0:0:0:0:
64,192,227235,128,0,227385:0:0:0:0:
448,192,227235,128,0,227310:0:0:0:0:
320,192,227310,128,0,227385:0:0:0:0:
192,192,227385,128,0,227460:0:0:0:0:
448,192,227385,128,0,227460:0:0:0:0:
64,192,227460,128,0,227535:0:0:0:0:
448,192,227535,128,0,227610:0:0:0:0:
192,192,227535,128,0,227685:0:0:0:0:
320,192,227610,128,0,227685:0:0:0:0:
64,192,227685,128,0,227760:0:0:0:0:
448,192,227685,128,0,227835:0:0:0:0:
320,192,227760,128,0,227835:0:0:0:0:
192,192,227835,128,0,227985:0:0:0:0:
64,192,227835,128,0,227910:0:0:0:0:
448,192,227910,128,0,227985:0:0:0:0:
320,192,227985,128,0,228135:0:0:0:0:
64,192,227985,128,0,228060:0:0:0:0:
192,192,228060,128,0,228135:0:0:0:0:
64,192,228135,128,0,228285:0:0:0:0:
448,192,228135,128,0,228210:0:0:0:0:
320,192,228210,128,0,228285:0:0:0:0:
448,192,228285,128,0,228435:0:0:0:0:
192,192,228285,128,0,228360:0:0:0:0:
64,192,228360,128,0,228435:0:0:0:0:
320,192,228435,128,0,228510:0:0:0:0:
192,192,228435,128,0,228585:0:0:0:0:
448,192,228510,128,0,228585:0:0:0:0:
320,192,228585,128,0,228735:0:0:0:0:
64,192,228585,128,0,228660:0:0:0:0:
192,192,228660,128,0,228735:0:0:0:0:
64,192,228735,128,0,228885:0:0:0:0:
448,192,228735,128,0,228810:0:0:0:0:
320,192,228810,128,0,228885:0:0:0:0:
192,192,228885,128,0,229035:0:0:0:0:
448,192,228885,128,0,228960:0:0:0:0:
64,192,228960,128,0,229035:0:0:0:0:
320,192,229035,128,0,229185:0:0:0:0:
448,192,229035,128,0,229110:0:0:0:0:
192,192,229110,128,0,229185:0:0:0:0:
448,192,229185,128,0,229335:0:0:0:0:
64,192,229185,128,0,229260:0:0:0:0:
320,192,229260,128,0,229335:0:0:0:0:
192,192,229335,128,0,229485:0:0:0:0:
320,192,229410,128,0,229485:0:0:0:0:
64,192,229485,128,0,229635:0:0:0:0:
448,192,229485,128,0,229560:0:0:0:0:
192,192,229560,128,0,229635:0:0:0:0:
320,192,229635,128,0,229835:0:0:0:0:
448,192,229635,128,0,229710:0:0:0:0:
64,192,229710,128,0,229785:0:0:0:0:
192,192,229785,128,0,229935:0:0:0:0:
448,192,229835,128,0,230035:0:0:0:0:
64,192,229860,128,0,229935:0:0:0:0:
320,192,229935,128,0,230010:0:0:0:0:
192,192,230010,128,0,230160:0:0:0:0:
64,192,230035,128,0,230235:0:0:0:0:
320,192,230085,128,0,230160:0:0:0:0:
448,192,230160,128,0,230235:0:0:0:0:
192,192,230235,128,0,230385:0:0:0:0:
320,192,230235,128,0,230310:0:0:0:0:
448,192,230310,128,0,230385:0:0:0:0:
320,192,230385,128,0,230535:0:0:0:0:
64,192,230385,128,0,230460:0:0:0:0:
192,192,230460,128,0,230535:0:0:0:0:
448,192,230535,128,0,230685:0:0:0:0:
64,192,230535,128,0,230610:0:0:0:0:
320,192,230610,128,0,230685:0:0:0:0:
192,192,230685,128,0,230835:0:0:0:0:
64,192,230685,128,0,230760:0:0:0:0:
448,192,230760,128,0,230835:0:0:0:0:
320,192,230835,128,0,230985:0:0:0:0:
64,192,230835,128,0,230910:0:0:0:0:
192,192,230910,128,0,230985:0:0:0:0:
64,192,230985,128,0,231135:0:0:0:0:
448,192,230985,128,0,231060:0:0:0:0:
320,192,231060,128,0,231135:0:0:0:0:
192,192,231135,128,0,231285:0:0:0:0:
448,192,231135,128,0,231210:0:0:0:0:
320,192,231210,128,0,231285:0:0:0:0:
64,192,231285,128,0,231360:0:0:0:0:
448,192,231285,128,0,231360:0:0:0:0:
192,192,231360,128,0,231435:0:0:0:0:
320,192,231435,128,0,231510:0:0:0:0:
448,192,231435,128,0,231585:0:0:0:0:
64,192,231510,128,0,231660:0:0:0:0:
192,192,231585,128,0,231660:0:0:0:0:
320,192,231585,128,0,231735:0:0:0:0:
448,192,231660,128,0,231810:0:0:0:0:
64,192,231735,128,0,231810:0:0:0:0:
192,192,231735,128,0,231885:0:0:0:0:
320,192,231810,128,0,231960:0:0:0:0:
448,192,231885,128,0,231960:0:0:0:0:
64,192,231885,128,0,231960:0:0:0:0:
192,192,231960,128,0,232035:0:0:0:0:
320,192,232035,128,0,232110:0:0:0:0:
448,192,232035,128,0,232185:0:0:0:0:
64,192,232035,128,0,232110:0:0:0:0:
192,192,232110,128,0,232185:0:0:0:0:
64,192,232185,128,0,232335:0:0:0:0:
320,192,232185,128,0,232260:0:0:0:0:
448,192,232260,128,0,232410:0:0:0:0:
192,192,232335,128,0,232635:0:0:0:0:
320,192,232335,128,0,232410:0:0:0:0:
64,192,232410,128,0,232485:0:0:0:0:
320,192,232485,1,0,0:0:0:0:
448,192,232485,1,0,0:0:0:0:
320,192,232560,1,0,0:0:0:0:
448,192,232560,1,0,0:0:0:0:
64,192,232635,128,0,232710:0:0:0:0:
320,192,232635,128,0,232710:0:0:0:0:
448,192,232635,128,0,232710:0:0:0:0:
192,192,232710,128,0,232785:0:0:0:0:
320,192,232785,128,0,232860:0:0:0:0:
64,192,232785,128,0,232860:0:0:0:0:
448,192,232860,128,0,232935:0:0:0:0:
320,192,232935,128,0,233010:0:0:0:0:
192,192,232935,128,0,233010:0:0:0:0:
64,192,232935,128,0,233010:0:0:0:0:
448,192,233010,128,0,233085:0:0:0:0:
320,192,233085,128,0,233160:0:0:0:0:
192,192,233085,128,0,233160:0:0:0:0:
64,192,233160,128,0,233235:0:0:0:0:
192,192,233235,128,0,233310:0:0:0:0:
320,192,233235,128,0,233310:0:0:0:0:
448,192,233235,128,0,233310:0:0:0:0:
64,192,233310,128,0,233385:0:0:0:0:
192,192,233385,128,0,233460:0:0:0:0:
448,192,233385,128,0,233460:0:0:0:0:
320,192,233460,128,0,233535:0:0:0:0:
448,192,233535,128,0,233610:0:0:0:0:
192,192,233535,128,0,233610:0:0:0:0:
64,192,233535,128,0,233610:0:0:0:0:
320,192,233610,128,0,233685:0:0:0:0:
192,192,233685,128,0,233760:0:0:0:0:
64,192,233685,128,0,233760:0:0:0:0:
448,192,233760,128,0,233835:0:0:0:0:
320,192,233835,128,0,233910:0:0:0:0:
192,192,233835,128,0,233910:0:0:0:0:
64,192,233835,128,0,233910:0:0:0:0:
448,192,233910,128,0,233985:0:0:0:0:
320,192,233985,128,0,234060:0:0:0:0:
64,192,233985,128,0,234060:0:0:0:0:
192,192,234060,128,0,234135:0:0:0:0:
64,192,234135,128,0,234210:0:0:0:0:
320,192,234135,128,0,234210:0:0:0:0:
448,192,234135,128,0,234210:0:0:0:0:
192,192,234210,128,0,234285:0:0:0:0:
448,192,234285,128,0,234360:0:0:0:0:
320,192,234285,128,0,234360:0:0:0:0:
64,192,234360,128,0,234435:0:0:0:0:
192,192,234435,128,0,234510:0:0:0:0:
320,192,234435,128,0,234510:0:0:0:0:
448,192,234435,128,0,234510:0:0:0:0:
64,192,234510,128,0,234660:0:0:0:0:
448,192,234585,128,0,234660:0:0:0:0:
192,192,234585,128,0,234660:0:0:0:0:
320,192,234660,128,0,234735:0:0:0:0:
64,192,234735,128,0,234810:0:0:0:0:
192,192,234735,128,0,234810:0:0:0:0:
448,192,234735,128,0,234810:0:0:0:0:
320,192,234810,128,0,234960:0:0:0:0:
64,192,234885,128,0,234960:0:0:0:0:
448,192,234885,128,0,234960:0:0:0:0:
192,192,234960,128,0,235035:0:0:0:0:
64,192,235035,128,0,235110:0:0:0:0:
320,192,235035,128,0,235110:0:0:0:0:
448,192,235035,128,0,235110:0:0:0:0:
192,192,235110,128,0,235185:0:0:0:0:
320,192,235185,128,0,235260:0:0:0:0:
64,192,235185,128,0,235260:0:0:0:0:
448,192,235260,128,0,235335:0:0:0:0:
320,192,235335,128,0,235410:0:0:0:0:
192,192,235335,128,0,235410:0:0:0:0:
64,192,235335,128,0,235410:0:0:0:0:
448,192,235410,128,0,235485:0:0:0:0:
320,192,235485,128,0,235560:0:0:0:0:
192,192,235485,128,0,235560:0:0:0:0:
64,192,235560,128,0,235635:0:0:0:0:
192,192,235635,128,0,235710:0:0:0:0:
320,192,235635,128,0,235710:0:0:0:0:
448,192,235635,128,0,235710:0:0:0:0:
64,192,235710,128,0,235785:0:0:0:0:
448,192,235785,128,0,235860:0:0:0:0:
192,192,235785,128,0,235860:0:0:0:0:
320,192,235860,128,0,235935:0:0:0:0:
448,192,235935,128,0,236010:0:0:0:0:
192,192,235935,128,0,236010:0:0:0:0:
64,192,235935,128,0,236085:0:0:0:0:
320,192,236010,128,0,236085:0:0:0:0:
192,192,236085,128,0,236160:0:0:0:0:
448,192,236085,128,0,236160:0:0:0:0:
64,192,236160,128,0,236235:0:0:0:0:
192,192,236235,128,0,236310:0:0:0:0:
448,192,236235,128,0,236310:0:0:0:0:
320,192,236235,128,0,236385:0:0:0:0:
64,192,236310,128,0,236460:0:0:0:0:
192,192,236385,128,0,236460:0:0:0:0:
448,192,236385,128,0,236460:0:0:0:0:
320,192,236460,128,0,236535:0:0:0:0:
64,192,236535,128,0,236610:0:0:0:0:
192,192,236535,128,0,236610:0:0:0:0:
448,192,236535,128,0,236685:0:0:0:0:
320,192,236610,128,0,236760:0:0:0:0:
192,192,236685,128,0,236760:0:0:0:0:
64,192,236685,128,0,236760:0:0:0:0:
448,192,236760,128,0,236835:0:0:0:0:
320,192,236835,128,0,236910:0:0:0:0:
64,192,236835,128,0,236910:0:0:0:0:
192,192,236835,128,0,236910:0:0:0:0:
448,192,236910,128,0,237060:0:0:0:0:
64,192,236985,128,0,237060:0:0:0:0:
320,192,236985,128,0,237135:0:0:0:0:
192,192,237060,128,0,237210:0:0:0:0:
64,192,237135,128,0,237210:0:0:0:0:
448,192,237135,128,0,237210:0:0:0:0:
320,192,237210,128,0,237360:0:0:0:0:
64,192,237285,128,0,237360:0:0:0:0:
448,192,237285,128,0,237360:0:0:0:0:
192,192,237360,128,0,237435:0:0:0:0:
448,192,237435,128,0,237510:0:0:0:0:
320,192,237435,128,0,237510:0:0:0:0:
64,192,237435,128,0,237585:0:0:0:0:
192,192,237510,128,0,237660:0:0:0:0:
320,192,237585,128,0,237660:0:0:0:0:
448,192,237585,128,0,237660:0:0:0:0:
64,192,237660,128,0,237810:0:0:0:0:
448,192,237735,128,0,237810:0:0:0:0:
192,192,237735,128,0,237810:0:0:0:0:
320,192,237810,128,0,237885:0:0:0:0:
448,192,237885,128,0,237960:0:0:0:0:
192,192,237885,128,0,237960:0:0:0:0:
64,192,237885,128,0,237960:0:0:0:0:
320,192,237960,128,0,238110:0:0:0:0:
192,192,238035,128,0,238110:0:0:0:0:
448,192,238035,128,0,238110:0:0:0:0:
64,192,238110,128,0,238260:0:0:0:0:
192,192,238185,128,0,238260:0:0:0:0:
320,192,238185,128,0,238335:0:0:0:0:
448,192,238260,128,0,238410:0:0:0:0:
64,192,238335,128,0,238410:0:0:0:0:
192,192,238335,128,0,238410:0:0:0:0:
320,192,238410,128,0,238485:0:0:0:0:
192,192,238485,1,0,0:0:0:0:
64,192,238485,1,0,0:0:0:0:
448,192,238485,1,0,0:0:0:0:
448,192,238560,1,0,0:0:0:0:
192,192,238560,1,0,0:0:0:0:
64,192,238560,1,0,0:0:0:0:
320,192,238635,128,0,238710:0:0:0:0:
448,192,238635,128,0,238710:0:0:0:0:
64,192,238635,128,0,238785:0:0:0:0:
192,192,238710,128,0,238935:0:0:0:0:
320,192,238785,128,0,238860:0:0:0:0:
448,192,238785,128,0,238860:0:0:0:0:
64,192,238860,128,0,239010:0:0:0:0:
448,192,238935,128,0,239010:0:0:0:0:
320,192,238935,128,0,239085:0:0:0:0:
192,192,239010,128,0,239085:0:0:0:0:
448,192,239085,128,0,239160:0:0:0:0:
64,192,239085,128,0,239160:0:0:0:0:
320,192,239160,128,0,239235:0:0:0:0:
192,192,239235,128,0,239385:0:0:0:0:
64,192,239235,128,0,239310:0:0:0:0:
448,192,239235,128,0,239310:0:0:0:0:
320,192,239310,128,0,239460:0:0:0:0:
448,192,239385,128,0,239460:0:0:0:0:
64,192,239385,128,0,239460:0:0:0:0:
192,192,239460,128,0,239610:0:0:0:0:
448,192,239535,128,0,239610:0:0:0:0:
64,192,239535,128,0,239610:0:0:0:0:
320,192,239610,128,0,239685:0:0:0:0:
192,192,239685,1,0,0:0:0:0:
64,192,239685,1,0,0:0:0:0:
448,192,239685,1,0,0:0:0:0:
448,192,239760,1,0,0:0:0:0:
64,192,239760,1,0,0:0:0:0:
192,192,239760,1,0,0:0:0:0:
64,192,239835,128,0,239985:0:0:0:0:
320,192,239835,128,0,239910:0:0:0:0:
448,192,239835,128,0,239910:0:0:0:0:
192,192,239910,128,0,240060:0:0:0:0:
448,192,239985,1,0,0:0:0:0:
320,192,239985,128,0,240135:0:0:0:0:
64,192,240060,128,0,240210:0:0:0:0:
448,192,240135,1,0,0:0:0:0:
192,192,240135,128,0,240210:0:0:0:0:
320,192,240210,128,0,240285:0:0:0:0:
448,192,240285,128,0,240360:0:0:0:0:
192,192,240285,1,0,0:0:0:0:
64,192,240285,1,0,0:0:0:0:
320,192,240360,1,0,0:0:0:0:
192,192,240360,128,0,240435:0:0:0:0:
64,192,240435,128,0,240585:0:0:0:0:
320,192,240435,128,0,240510:0:0:0:0:
448,192,240435,128,0,240510:0:0:0:0:
192,192,240510,128,0,240585:0:0:0:0:
320,192,240585,128,0,240660:0:0:0:0:
448,192,240585,128,0,240735:0:0:0:0:
64,192,240660,128,0,240735:0:0:0:0:
192,192,240660,1,0,0:0:0:0:
192,192,240735,128,0,240885:0:0:0:0:
320,192,240810,128,0,240885:0:0:0:0:
448,192,240810,1,0,0:0:0:0:
64,192,240885,1,0,0:0:0:0:
448,192,240885,1,0,0:0:0:0:
192,192,240922,1,0,0:0:0:0:
320,192,240960,1,0,0:0:0:0:
448,192,240997,1,0,0:0:0:0:
192,192,241035,128,0,241110:0:0:0:0:
320,192,241035,128,0,241110:0:0:0:0:
64,192,241035,128,0,241185:0:0:0:0:
448,192,241110,128,0,241185:0:0:0:0:
320,192,241185,1,0,0:0:0:0:
192,192,241185,1,0,0:0:0:0:
448,192,241222,1,0,0:0:0:0:
64,192,241260,1,0,0:0:0:0:
192,192,241297,1,0,0:0:0:0:
448,192,241335,128,0,241485:0:0:0:0:
64,192,241335,128,0,241410:0:0:0:0:
320,192,241335,128,0,241410:0:0:0:0:
192,192,241410,128,0,241485:0:0:0:0:
320,192,241485,1,0,0:0:0:0:
64,192,241485,1,0,0:0:0:0:
448,192,241522,1,0,0:0:0:0:
192,192,241560,1,0,0:0:0:0:
320,192,241597,1,0,0:0:0:0:
448,192,241635,1,0,0:0:0:0:
64,192,241635,1,0,0:0:0:0:
192,192,241635,1,0,0:0:0:0:
192,192,241710,1,0,0:0:0:0:
320,192,241710,1,0,0:0:0:0:
64,192,241785,1,0,0:0:0:0:
448,192,241785,1,0,0:0:0:0:
320,192,241860,1,0,0:0:0:0:
192,192,241860,1,0,0:0:0:0:
320,192,241935,1,0,0:0:0:0:
64,192,241935,1,0,0:0:0:0:
448,192,241935,1,0,0:0:0:0:
192,192,242010,1,0,0:0:0:0:
320,192,242010,1,0,0:0:0:0:
448,192,242085,1,0,0:0:0:0:
64,192,242085,1,0,0:0:0:0:
192,192,242122,1,0,0:0:0:0:
320,192,242160,1,0,0:0:0:0:
448,192,242197,1,0,0:0:0:0:
64,192,242235,128,0,243435:0:0:0:0:
192,192,242235,128,0,244635:0:0:0:0:
320,192,242235,128,0,244035:0:0:0:0:
448,192,243435,128,0,244635:0:0:0:0:
64,192,244035,128,0,244635:0:0:0:0:
320,192,244635,128,0,245835:0:0:0:0:
192,192,245835,128,0,246135:0:0:0:0:
448,192,245835,128,0,246635:0:0:0:0:
320,192,246135,128,0,246435:0:0:0:0:
64,192,246135,128,0,246435:0:0:0:0:
192,192,246435,128,0,247035:0:0:0:0:
320,192,246635,128,0,247635:0:0:0:0:
448,192,246835,128,0,247635:0:0:0:0:
64,192,247035,128,0,248235:0:0:0:0:
192,192,247635,128,0,253035:0:0:0:0:
320,192,248235,1,0,0:0:0:0:
448,192,248235,1,0,0:0:0:0:
