osu file format v14

[General]
AudioFilename: audio.mp3
AudioLeadIn: 0
PreviewTime: 41252
Countdown: 0
SampleSet: Soft
StackLeniency: 0.3
Mode: 0
LetterboxInBreaks: 0
WidescreenStoryboard: 1

[Editor]
Bookmarks: 1252,2752,19252,41252,57752,68752,79752,107252,110002,112752
DistanceSpacing: 0.7
BeatDivisor: 6
GridSize: 32
TimelineZoom: 1.7

[Metadata]
Title:Beatrice
TitleUnicode:Beatrice
Artist:xi
ArtistUnicode:xi
Creator:Gordon
Version:Lince's Expert
Source:SPRING 9KEYS ROAD 2011
Tags:Featured Artist FA MPG Mappers_Guild マジックジャズ magic jazz Instrumental Parousia BMS PMS Lazarus Xoul -_ascended_- Ascended -ascended- PaRaDoGi Seolv Lukas [_l_u_k_a_s_] Down PotatoDew Lince Cosmico Chekito Allice CallieCube Obamacube
BeatmapID:3493597
BeatmapSetID:1664961

[Difficulty]
HPDrainRate:6
CircleSize:4
OverallDifficulty:8
ApproachRate:9
SliderMultiplier:2
SliderTickRate:1

[Events]
//Background and Video events
0,0,"beatricebg.jpg",0,0
//Break Periods
//Storyboard Layer 0 (Background)
//Storyboard Layer 1 (Fail)
//Storyboard Layer 2 (Pass)
//Storyboard Layer 3 (Foreground)
//Storyboard Layer 4 (Overlay)
//Storyboard Sound Samples

[TimingPoints]
1252,250,11,2,0,40,1,0
2752,250,11,2,0,60,1,0
2877,-125,11,2,0,60,0,0
15188,-125,11,2,0,5,0,0
15252,-125,11,2,0,60,0,0
17502,-250,11,2,0,60,0,0
17752,-100,11,2,0,60,0,0
18502,-200,11,2,0,60,0,0
18752,-166.666666666667,11,2,0,60,0,0
19002,-100,11,2,0,60,0,0
19439,-100,11,2,0,5,0,0
19502,-100,11,2,0,60,0,0
19752,-125,11,2,0,60,0,0
24189,-125,11,2,0,5,0,0
24252,-125,11,2,0,60,0,0
25689,-125,11,2,0,5,0,0
25752,-125,11,2,0,60,0,0
27189,-125,11,2,0,5,0,0
27252,-125,11,2,0,60,0,0
27689,-125,11,2,0,5,0,0
27752,-125,11,2,0,60,0,0
28252,-250,11,2,0,60,0,0
28627,-125,11,2,0,60,0,0
29627,-250,11,2,0,60,0,0
29877,-125,11,2,0,60,0,0
31189,-125,11,2,0,5,0,0
31252,-125,11,2,0,60,0,0
34439,-125,11,2,0,5,0,0
34502,-125,11,2,0,60,0,0
35939,-125,11,2,0,5,0,0
36002,-125,11,2,0,60,0,0
36689,-125,11,2,0,5,0,0
36752,-125,11,2,0,60,0,0
37002,-125,11,2,0,5,0,0
37017,-125,11,2,0,60,0,0
37189,-125,11,2,0,5,0,0
37252,-125,11,2,0,60,0,0
38689,-125,11,2,0,5,0,0
38752,-125,11,2,0,60,0,0
39939,-125,11,2,0,5,0,0
40002,-125,11,2,0,60,0,0
41252,-100,11,2,0,60,0,0
41502,-125,11,2,0,60,0,0
44189,-125,11,2,0,5,0,0
44252,-100,11,2,0,60,0,0
46939,-100,11,2,0,5,0,0
47002,-100,11,2,0,60,0,0
48502,-333.333333333333,11,2,0,60,0,0
49127,-100,11,2,0,60,0,0
49689,-100,11,2,0,5,0,0
49752,-100,11,2,0,60,0,0
50939,-100,11,2,0,5,0,0
51002,-333.333333333333,11,2,0,60,0,0
51210,-100,11,2,0,60,0,0
52939,-100,11,2,0,5,0,0
53002,-100,11,2,0,60,0,0
56002,-250,11,2,0,60,0,0
56189,-250,11,2,0,5,0,0
56252,-83.3333333333333,11,2,0,60,0,0
56502,-100,11,2,0,60,0,0
57752,-125,11,2,0,60,0,0
59939,-125,11,2,0,5,0,0
60002,-125,11,2,0,60,0,0
61439,-125,11,2,0,5,0,0
61502,-125,11,2,0,60,0,0
64189,-125,11,2,0,5,0,0
64252,-125,11,2,0,60,0,0
66189,-125,11,2,0,5,0,0
66252,-125,11,2,0,60,0,0
66939,-125,11,2,0,5,0,0
67002,-125,11,2,0,60,0,0
68752,-111.111111111111,11,2,0,60,0,0
69689,-111.111111111111,11,2,0,5,0,0
69752,-111.111111111111,11,2,0,60,0,0
70939,-111.111111111111,11,2,0,5,0,0
71002,-111.111111111111,11,2,0,60,0,0
71689,-111.111111111111,11,2,0,5,0,0
71752,-111.111111111111,11,2,0,60,0,0
72439,-111.111111111111,11,2,0,5,0,0
72502,-111.111111111111,11,2,0,60,0,0
74439,-111.111111111111,11,2,0,5,0,0
74502,-111.111111111111,11,2,0,60,0,0
75189,-111.111111111111,11,2,0,5,0,0
75252,-111.111111111111,11,2,0,60,0,0
77189,-111.111111111111,11,2,0,5,0,0
77252,-111.111111111111,11,2,0,60,0,0
77877,-333.333333333332,11,2,0,60,0,0
78127,-111.111111111111,11,2,0,60,0,0
79752,-100,11,2,0,80,0,0
80689,-100,11,2,0,5,0,0
80752,-100,11,2,0,80,0,0
82377,-125,11,2,0,80,0,0
82689,-125,11,2,0,5,0,0
82752,-100,11,2,0,80,0,0
82939,-100,11,2,0,5,0,0
83002,-100,11,2,0,80,0,0
85439,-100,11,2,0,5,0,0
85502,-100,11,2,0,80,0,0
86189,-100,11,2,0,5,0,0
86252,-100,11,2,0,80,0,0
87689,-100,11,2,0,5,0,0
87752,-100,11,2,0,80,0,0
88189,-100,11,2,0,5,0,0
88252,-100,11,2,0,80,0,0
88439,-100,11,2,0,5,0,0
88502,-100,11,2,0,80,0,0
89314,-100,11,2,0,5,0,0
89377,-100,11,2,0,80,0,0
89689,-100,11,2,0,5,0,0
89752,-100,11,2,0,80,0,0
90189,-100,11,2,0,5,0,0
90252,-100,11,2,0,80,0,0
90939,-100,11,2,0,5,0,0
91002,-100,11,2,0,80,0,0
91689,-100,11,2,0,5,0,0
91752,-100,11,2,0,80,0,0
93689,-100,11,2,0,5,0,0
93752,-100,11,2,0,80,0,0
93939,-100,11,2,0,5,0,0
94002,-100,11,2,0,80,0,0
96439,-100,11,2,0,5,0,0
96502,-100,11,2,0,80,0,0
97189,-100,11,2,0,5,0,0
97252,-100,11,2,0,80,0,0
99002,-100,11,2,0,60,0,0
99189,-100,11,2,0,5,0,0
99252,-100,11,2,0,60,0,0
102127,-111.111111111111,11,2,0,60,0,0
103127,-99.9999999999999,11,2,0,60,0,0
107252,-111.111111111111,11,2,0,60,0,0
107689,-111.111111111111,11,2,0,5,0,0
107752,-111.111111111111,11,2,0,60,0,0
109189,-111.111111111111,11,2,0,5,0,0
109252,-166.666666666666,11,2,0,40,0,0
110002,-166.666666666666,11,2,0,60,0,0
112752,-166.666666666666,11,2,0,60,0,0
113252,-166.666666666666,11,2,0,5,0,0

[Colours]
Combo1 : 128,174,202
Combo2 : 236,198,155

[HitObjects]
427,269,1252,5,2,0:3:0:0:
499,251,1377,1,2,0:3:0:0:
498,263,1627,5,2,0:3:0:0:
426,281,1752,1,2,0:3:0:0:
348,361,2002,1,2,0:3:0:0:
268,252,2252,5,2,0:3:0:0:
255,242,2335,5,2,0:3:0:0:
234,243,2418,5,2,0:3:0:0:
221,231,2502,5,2,0:3:0:0:
150,262,2627,1,2,0:3:0:0:
57,131,2752,5,6,0:3:0:0:
15,194,2877,2,0,B|31:226|132:222|131:130,1,160,0|2,0:0|0:3,0:0:0:0:
195,95,3252,1,2,0:3:0:0:
195,95,3502,6,0,B|196:53|228:29|272:-2|312:62,1,160,6|0,0:3|0:0,0:0:0:0:
435,172,3877,1,2,0:3:0:0:
381,119,4002,2,0,P|345:125|301:144,1,80,2|0,0:3|0:0,0:0:0:0:
435,172,4377,5,2,0:3:0:0:
381,119,4502,1,2,0:3:0:0:
364,87,4627,1,2,0:3:0:0:
304,141,4752,1,2,0:3:0:0:
293,148,4877,1,2,0:3:0:0:
241,207,5002,6,0,P|170:191|68:173,1,160,4|2,0:2|0:3,0:0:0:0:
212,97,5377,1,2,0:3:0:0:
161,156,5502,6,0,P|123:169|84:175,1,80,6|0,0:3|0:0,0:0:0:0:
395,246,5752,2,0,P|315:218|234:206,1,160,2|2,1:2|0:0,0:0:0:0:
182,254,6127,1,2,0:0:0:0:
122,299,6252,2,0,B|113:325|50:349|-11:245|56:221,1,160,2|0,1:2|0:0,0:0:0:0:
84,174,6627,5,2,0:0:0:0:
138,117,6752,2,0,P|142:85|153:36,1,80,6|2,0:3|0:2,0:0:0:0:
37,233,7127,1,0,0:0:0:0:
42,253,7252,1,2,0:3:0:0:
38,260,7502,5,2,0:2:0:0:
138,117,7752,5,2,0:3:0:0:
137,90,7835,5,2,0:3:0:0:
151,63,7918,5,2,0:3:0:0:
152,38,8001,5,2,0:3:0:0:
109,104,8127,1,2,0:3:0:0:
185,180,8252,5,6,0:3:0:0:
256,146,8377,2,0,P|339:132|422:125,1,160,0|2,0:0|0:2,0:0:0:0:
481,48,8752,2,0,B|483:38|491:20|491:20|471:42|453:60,1,80,2|2,0:2|0:2,0:0:0:0:
352,208,9002,2,0,B|348:261|391:268|405:260|445:279|444:329,1,160,6|0,0:3|0:0,0:0:0:0:
500,255,9377,1,2,0:2:0:0:
371,340,9502,2,0,P|334:348|286:363,1,80,6|2,0:3|0:3,0:0:0:0:
500,255,9877,5,2,0:3:0:0:
482,241,10002,1,2,0:3:0:0:
293,360,10252,1,2,0:3:0:0:
437,177,10502,5,2,0:3:0:0:
355,107,10627,1,2,0:3:0:0:
279,153,10752,1,10,0:3:0:0:
239,229,10877,1,10,0:3:0:0:
159,199,11002,5,4,0:0:0:0:
143,189,11127,1,0,0:0:0:0:
81,240,11252,2,0,P|41:248|-7:264,1,80,0|2,0:0|0:0,0:0:0:0:
201,117,11502,2,0,P|161:108|113:93,1,80,2|0,0:3|0:0,0:0:0:0:
66,39,11752,5,2,0:0:0:0:
47,32,11814,1,0,0:0:0:0:
28,38,11877,1,0,0:0:0:0:
17,54,11939,1,0,0:0:0:0:
17,73,12002,1,2,0:0:0:0:
54,148,12127,1,0,0:0:0:0:
122,101,12252,2,0,P|160:113|200:122,1,80,6|0,0:3|0:0,0:0:0:0:
322,71,12502,6,0,P|341:63|356:45,3,40,2|2|2|0,0:2|0:2|0:2|0:0,0:0:0:0:
310,79,12752,2,0,L|302:133,2,53.3333333333333
258,22,13002,5,0,0:0:0:0:
249,1,13127,1,0,0:0:0:0:
375,168,13252,1,2,0:0:0:0:
303,210,13377,1,0,0:0:0:0:
294,211,13439,1,0,0:0:0:0:
286,213,13502,2,0,P|259:225|225:233,2,53.3333333333333,10|0|0,0:3|0:0|0:0,0:0:0:0:
179,291,13752,5,6,0:3:0:0:
129,342,13877,2,0,P|63:327|65:243,1,160,0|2,0:0|0:0,0:0:0:0:
239,342,14252,2,0,P|315:362|398:386,2,160,2|2|2,0:0|0:0|0:0,0:0:0:0:
179,291,14877,1,0,0:0:0:0:
153,222,15002,5,6,0:3:0:0:
151,215,15127,2,0,L|165:124,1,80,0|2,0:0|0:0,0:0:0:0:
221,87,15377,1,2,0:0:0:0:
0,26,15627,1,8,0:2:0:0:
52,77,15752,2,0,P|89:61|132:52,1,80,8|8,0:2|0:2,0:0:0:0:
221,87,16002,5,8,0:3:0:0:
246,53,16085,5,0,0:0:0:0:
284,61,16168,5,0,0:0:0:0:
355,103,16252,5,4,0:3:0:0:
320,90,16335,5,0,0:0:0:0:
302,102,16418,5,0,0:0:0:0:
296,118,16502,6,0,P|303:161|308:197,1,80,4|0,0:2|0:0,0:0:0:0:
474,284,16877,1,2,0:0:0:0:
445,351,17002,2,0,P|403:371|368:355,1,80,2|0,0:0|0:0,0:0:0:0:
228,281,17252,1,0,0:0:0:0:
211,209,17377,1,8,0:3:0:0:
230,291,17502,6,0,P|225:316|223:338,1,40,4|0,0:2|0:0,0:0:0:0:
294,384,17752,2,0,L|323:159,1,200,0|8,0:0|0:2,0:0:0:0:
396,159,18127,1,8,0:3:0:0:
289,92,18252,1,8,0:2:0:0:
385,63,18377,1,8,0:3:0:0:
336,0,18502,6,0,P|326:20|303:32,2,33.3333333333333,4|4|4,0:3|0:3|0:3,0:0:0:0:
385,63,18752,2,0,P|399:82|427:91,2,39.9999987792969,8|8|8,0:3|0:3|0:3,0:0:0:0:
289,92,19002,5,12,0:3:0:0:
285,100,19085,1,12,0:3:0:0:
277,107,19168,1,12,0:3:0:0:
266,113,19252,6,0,P|165:90|63:74,1,200,4|8,0:2|0:2,0:0:0:0:
182,15,19627,1,2,0:0:0:0:
58,151,19752,2,0,P|13:135|-1:95,1,80,0|8,0:0|0:2,0:0:0:0:
182,15,20002,2,0,P|163:98|149:184,1,160,12|8,0:3|0:2,0:0:0:0:
234,282,20377,5,2,0:0:0:0:
284,335,20502,2,0,P|325:338|348:304,1,80,6|0,0:3|0:0,0:0:0:0:
151,171,20752,5,8,0:2:0:0:
103,228,20877,2,0,P|66:246|28:233,1,80,2|0,0:0|0:0,0:0:0:0:
284,59,21127,5,8,0:2:0:0:
246,121,21252,2,0,P|233:155|227:202,1,80,0|2,0:0|0:0,0:0:0:0:
59,338,21502,6,0,P|112:356|157:278,1,160,10|10,0:3|0:2,0:0:0:0:
48,342,21877,1,10,0:3:0:0:
155,265,22002,6,0,P|195:276|237:282,1,80,6|0,0:3|0:0,0:0:0:0:
297,372,22252,2,0,P|362:358|446:315,1,160,8|0,0:0|0:0,0:0:0:0:
351,257,22627,1,8,0:2:0:0:
444,315,22752,5,10,0:3:0:0:
493,297,22877,1,2,0:3:0:0:
507,224,23002,1,10,0:2:0:0:
432,179,23127,1,2,0:3:0:0:
351,257,23252,5,6,0:3:0:0:
290,209,23377,2,0,P|254:204|204:191,1,80,0|8,0:0|0:2,0:0:0:0:
507,52,23627,5,2,0:0:0:0:
446,100,23752,2,0,P|410:104|360:118,1,80,2|8,0:0|0:2,0:0:0:0:
193,310,24002,2,0,P|144:303|75:285,1,120,6|0,0:3|0:0,0:0:0:0:
28,228,24252,6,0,B|5:210|5:210|21:236,2,53.3333333333333,2|2|2,0:3|0:3|0:3,0:0:0:0:
75,285,24502,5,8,0:3:0:0:
98,262,24585,5,8,0:3:0:0:
135,253,24668,5,8,0:3:0:0:
159,227,24752,6,0,P|167:182|192:70,1,160,4|8,0:2|0:2,0:0:0:0:
100,105,25127,1,2,0:0:0:0:
237,8,25252,2,0,P|272:36|264:78,1,80,2|8,0:3|0:2,0:0:0:0:
316,134,25502,2,0,P|330:212|348:290,1,160,6|8,0:3|0:2,0:0:0:0:
408,341,25877,1,0,0:0:0:0:
512,250,26002,5,2,0:3:0:0:
475,189,26127,2,0,P|439:186|409:216,1,80,2|8,0:2|0:2,0:0:0:0:
287,330,26377,1,2,0:0:0:0:
222,362,26502,2,0,P|187:345|140:329,1,80,0|8,0:2|0:2,0:0:0:0:
409,215,26752,2,0,P|372:224|325:242,1,80,0|8,0:0|0:2,0:0:0:0:
79,366,27002,2,0,P|20:349|38:259,1,160,6|4,0:2|0:3,0:0:0:0:
257,51,27502,5,6,0:3:0:0:
257,51,27752,5,10,0:1:0:0:
214,111,27877,1,2,0:1:0:0:
272,158,28002,1,2,0:1:0:0:
249,226,28127,1,10,0:1:0:0:
270,304,28252,6,0,L|277:330,4,20,2|2|2|2|8,0:0|0:0|0:0|0:0|0:2,0:0:0:0:
203,355,28627,2,0,P|160:362|121:382,1,80,2|6,0:0|0:3,0:0:0:0:
270,304,28877,5,2,0:0:0:0:
342,246,29002,1,8,0:2:0:0:
282,161,29127,1,2,0:0:0:0:
189,195,29252,1,6,0:3:0:0:
103,150,29377,1,8,0:2:0:0:
123,55,29502,5,2,0:0:0:0:
128,49,29564,1,2,0:0:0:0:
134,43,29627,2,0,L|152:24,2,20,2|2|4,0:0|0:0|0:3,0:0:0:0:
32,195,29877,5,0,0:0:0:0:
282,161,30002,2,0,P|330:154|390:133,1,80,8|0,0:3|0:0,0:0:0:0:
32,195,30252,6,0,P|8:235|88:297,1,160,4|8,0:2|0:2,0:0:0:0:
145,345,30627,1,2,0:0:0:0:
182,283,30752,2,0,P|212:256|250:252,1,80,0|8,0:0|0:2,0:0:0:0:
32,195,31002,2,0,P|36:144|132:80,1,160,6|8,0:3|0:0,0:0:0:0:
116,80,31377,5,0,0:0:0:0:
243,154,31502,1,6,0:3:0:0:
317,138,31627,1,0,0:0:0:0:
391,122,31752,1,8,0:0:0:0:
205,80,31877,6,0,P|197:57|233:11,1,80,2|2,0:3|0:0,0:0:0:0:
460,164,32127,2,0,P|461:195|427:228,1,80,10|2,0:2|0:0,0:0:0:0:
204,79,32377,5,2,0:3:0:0:
204,79,32502,2,0,P|197:41|224:13,1,80,8|8,0:3|0:3,0:0:0:0:
391,122,32752,1,12,0:3:0:0:
243,154,32877,1,12,0:3:0:0:
317,138,33002,5,6,0:3:0:0:
317,138,33252,1,8,0:3:0:0:
368,198,33377,1,2,0:0:0:0:
312,269,33502,1,2,0:0:0:0:
303,278,33627,1,8,0:2:0:0:
356,340,33752,6,0,P|379:346|403:358,4,40,2|2|2|2|8,0:2|0:2|0:2|0:2|0:2,0:0:0:0:
262,198,34127,5,0,0:0:0:0:
208,250,34252,2,0,P|131:229|44:215,1,160,6|8,0:2|0:2,0:0:0:0:
0,269,34627,1,0,0:0:0:0:
262,198,34752,5,2,0:2:0:0:
265,178,34814,1,2,0:2:0:0:
271,159,34877,1,2,0:2:0:0:
278,140,34939,1,2,0:2:0:0:
288,123,35002,5,6,0:3:0:0:
352,80,35127,1,0,0:0:0:0:
410,128,35252,5,8,0:3:0:0:
419,135,35377,1,0,0:0:0:0:
351,187,35502,5,12,0:3:0:0:
278,21,35627,1,0,0:0:0:0:
123,114,35752,6,0,P|109:185|98:277,1,160,4|8,0:2|0:0,0:0:0:0:
28,226,36127,1,0,0:0:0:0:
101,348,36252,2,0,P|141:342|166:303,1,80,2|8,0:0|0:0,0:0:0:0:
236,278,36502,2,0,P|246:215|262:151,1,120,6|0,0:3|0:0,0:0:0:0:
265,147,36752,5,14,0:2:0:0:
265,147,37252,5,10,0:1:0:0:
444,289,37502,1,2,0:0:0:0:
415,218,37627,1,8,0:0:0:0:
474,167,37752,2,0,P|480:151|498:125,4,40,8|2|2|2|8,0:3|0:0|0:0|0:0|0:3,0:0:0:0:
283,236,38127,1,4,0:3:0:0:
280,243,38189,1,4,0:3:0:0:
277,250,38252,2,0,P|277:273|284:302,3,40,12|8|8|8,0:3|0:3|0:3|0:3,0:0:0:0:
229,345,38502,6,0,P|181:361|140:308,1,120,4|0,0:2|0:0,0:0:0:0:
140,313,38752,2,0,P|147:275|161:235,1,80,8|0,0:2|0:0,0:0:0:0:
66,95,39002,5,2,0:0:0:0:
61,88,39064,1,2,0:0:0:0:
58,95,39127,1,8,0:2:0:0:
137,129,39252,5,2,0:0:0:0:
21,162,39377,1,8,0:0:0:0:
222,89,39502,5,8,0:1:0:0:
226,69,39564,1,2,0:1:0:0:
230,49,39627,1,2,0:1:0:0:
235,30,39689,1,2,0:1:0:0:
241,11,39752,6,0,P|250:100|266:191,1,160,6|8,0:2|0:2,0:0:0:0:
416,270,40127,1,8,0:2:0:0:
311,240,40252,5,4,0:3:0:0:
411,278,40377,1,0,0:0:0:0:
483,223,40502,1,8,0:3:0:0:
260,308,40627,5,0,0:0:0:0:
360,178,40752,2,0,P|372:162|387:145,2,40,4|0|0,0:3|0:0|0:0,0:0:0:0:
188,359,41002,5,12,0:3:0:0:
177,333,41085,5,12,0:3:0:0:
179,306,41168,5,12,0:3:0:0:
168,281,41252,6,0,P|161:185|148:71,1,200,6|8,0:2|0:0,0:0:0:0:
92,27,41627,1,0,0:0:0:0:
226,99,41752,2,0,P|215:129|176:156,1,80,2|8,0:2|0:2,0:0:0:0:
28,218,42002,6,0,B|123:219|71:271|168:281,1,160,6|8,0:0|0:2,0:0:0:0:
167,280,42377,1,2,0:0:0:0:
236,342,42502,2,0,P|312:321|411:304,1,160,6|10,0:3|0:0,0:0:0:0:
469,320,42877,1,0,0:0:0:0:
342,240,43002,5,2,0:0:0:0:
297,167,43127,1,8,0:2:0:0:
363,102,43252,1,8,0:3:0:0:
440,163,43377,1,2,0:0:0:0:
342,240,43502,5,6,0:3:0:0:
332,241,43564,1,2,0:0:0:0:
322,244,43627,1,2,0:0:0:0:
312,246,43689,1,2,0:0:0:0:
304,249,43752,2,0,P|265:238|209:232,1,80,8|0,0:2|0:0,0:0:0:0:
346,322,44002,1,6,0:3:0:0:
346,322,44252,6,0,P|408:349|417:244,1,200,4|8,0:2|0:2,0:0:0:0:
297,167,44627,1,6,0:3:0:0:
297,167,44752,2,0,P|291:80|377:94,1,200,4|8,0:0|0:2,0:0:0:0:
512,219,45127,1,2,0:0:0:0:
496,144,45252,2,0,P|406:175|331:248,1,200,4|8,0:2|0:2,0:0:0:0:
248,373,45627,1,2,0:0:0:0:
190,322,45752,5,2,0:1:0:0:
177,295,45835,5,2,0:1:0:0:
174,253,45918,5,2,0:1:0:0:
154,205,46002,5,6,0:3:0:0:
376,93,46252,1,12,0:3:0:0:
55,52,46502,5,10,0:3:0:0:
45,34,46585,5,10,0:3:0:0:
79,11,46668,5,10,0:3:0:0:
125,44,46752,6,0,P|206:105|307:109,1,200,4|8,0:2|0:2,0:0:0:0:
417,160,47127,1,0,0:0:0:0:
320,37,47252,2,0,P|343:8|407:16,1,100,2|8,0:0|0:2,0:0:0:0:
301,110,47502,2,2,P|204:126|90:163,1,200,6|8,0:2|0:2,0:0:0:0:
171,210,47877,1,2,0:0:0:0:
112,166,48002,2,0,P|27:165|31:263,1,200,6|8,0:2|0:2,0:0:0:0:
26,259,48377,1,0,0:0:0:0:
171,210,48502,6,0,P|173:204|179:195,2,14.9999995422363,2|2|8,0:0|0:0|0:2,0:0:0:0:
237,241,48752,1,2,0:0:0:0:
117,281,48877,6,0,P|114:275|113:264,2,14.9999995422363,8|0|8,0:2|0:0|0:3,0:0:0:0:
241,157,49127,1,0,0:0:0:0:
144,94,49252,1,12,0:3:0:0:
205,35,49377,1,0,0:0:0:0:
187,7,49502,5,4,0:2:0:0:
0,175,49627,1,0,0:0:0:0:
46,113,49752,2,0,P|106:98|169:92,1,100,8|0,0:2|0:0,0:0:0:0:
389,125,50002,1,2,0:0:0:0:
266,81,50127,5,8,0:2:0:0:
343,60,50252,1,2,0:2:0:0:
346,56,50314,1,2,0:2:0:0:
349,52,50377,1,2,0:2:0:0:
352,48,50439,1,2,0:2:0:0:
355,44,50502,1,8,0:2:0:0:
256,86,50627,1,0,0:0:0:0:
454,171,50752,1,6,0:3:0:0:
373,211,50877,1,0,0:0:0:0:
337,282,51002,6,0,L|343:300,2,14.9999995422363,8|2|2,0:2|0:0|0:0,0:0:0:0:
392,350,51210,5,2,0:0:0:0:
421,363,51293,5,0,0:0:0:0:
473,336,51377,5,0,0:0:0:0:
459,267,51502,5,8,0:2:0:0:
373,211,51627,2,0,P|310:201|272:189,1,100,8|6,0:2|0:3,0:0:0:0:
196,342,51877,1,0,0:0:0:0:
191,343,51939,1,0,0:0:0:0:
186,344,52002,5,8,0:2:0:0:
139,327,52085,5,8,0:3:0:0:
92,340,52168,5,8,0:3:0:0:
41,307,52252,5,6,0:2:0:0:
319,369,52502,5,8,0:2:0:0:
392,350,52627,2,0,P|388:314|333:291,1,100,2|6,0:0|0:3,0:0:0:0:
186,344,52877,1,0,0:0:0:0:
290,231,53002,5,8,0:3:0:0:
302,214,53127,1,8,0:3:0:0:
232,180,53252,1,12,0:3:0:0:
217,147,53377,1,12,0:3:0:0:
312,88,53502,1,6,0:2:0:0:
380,47,53627,1,0,0:0:0:0:
457,120,53752,5,8,0:2:0:0:
312,88,53877,2,0,P|217:70|84:51,1,200,2|8,0:0|0:2,0:0:0:0:
43,83,54252,1,2,0:3:0:0:
225,27,54377,1,0,0:0:0:0:
6,146,54502,5,8,0:3:0:0:
12,157,54585,5,8,0:3:0:0:
15,176,54668,5,8,0:3:0:0:
25,200,54752,5,12,0:3:0:0:
91,243,54877,1,0,0:0:0:0:
15,305,55002,5,4,0:2:0:0:
64,366,55127,2,0,P|100:367|129:312,1,100,0|8,0:0|0:2,0:0:0:0:
184,238,55377,1,2,0:0:0:0:
145,171,55503,2,0,P|163:127|210:122,1,100,2|8,0:0|0:2,0:0:0:0:
130,317,55752,1,8,0:3:0:0:
184,238,55877,1,8,0:3:0:0:
285,281,56002,6,0,P|319:277|348:268,1,60,6|0,0:2|0:0,0:0:0:0:
375,344,56252,6,0,P|390:264|435:158,1,179.999994506836,4|0,0:2|0:0,0:0:0:0:
426,172,56502,1,8,0:2:0:0:
478,241,56627,1,8,0:3:0:0:
359,138,56752,2,0,P|346:80|332:35,1,100,8|8,0:2|0:3,0:0:0:0:
270,3,56939,1,8,0:3:0:0:
270,3,57002,6,0,P|233:19|221:58,2,66.6666666666667,8|8|8,0:2|0:3|0:3,0:0:0:0:
145,24,57252,2,0,P|140:64|168:93,2,66.6666666666667,4|4|4,0:3|0:3|0:3,0:0:0:0:
99,142,57502,2,0,P|56:146|26:100,1,100,12|0,0:3|0:0,0:0:0:0:
6,14,57752,5,4,0:2:0:0:
6,14,58002,1,8,0:2:0:0:
81,39,58127,2,0,P|122:51|158:66,2,80,2|0|8,0:2|0:0|0:2,0:0:0:0:
248,84,58502,2,0,P|184:102|96:143,1,160,6|8,0:3|0:2,0:0:0:0:
99,141,59002,6,0,P|171:106|248:84,1,160,6|8,0:3|0:2,0:0:0:0:
217,12,59377,2,0,P|299:58|355:118,1,160,2|8,0:0|0:2,0:0:0:0:
432,76,59752,2,0,P|421:128|401:157,1,80,6|0,0:3|0:0,0:0:0:0:
346,209,60002,5,10,0:3:0:0:
333,238,60127,1,10,0:3:0:0:
342,293,60252,1,14,0:3:0:0:
404,325,60377,1,14,0:3:0:0:
485,281,60502,6,0,P|411:251|332:237,1,160,6|8,0:2|0:2,0:0:0:0:
266,282,60877,2,0,P|230:297|194:320,2,80,6|6|8,0:3|0:3|0:2,0:0:0:0:
222,384,61252,2,0,P|155:340|82:309,1,160,6|8,0:3|0:2,0:0:0:0:
22,263,61627,5,2,0:0:0:0:
152,175,61752,2,0,P|100:196|20:265,1,160,6|8,0:3|0:2,0:0:0:0:
22,263,62252,2,0,P|60:236|98:223,1,80,6|8,0:3|0:2,0:0:0:0:
113,111,62502,2,0,P|175:129|254:185,2,160,6|2|8,0:3|0:3|0:2,0:0:0:0:
50,65,63085,5,8,0:2:0:0:
27,34,63168,5,8,0:2:0:0:
37,18,63252,6,0,P|120:27|214:53,1,160,6|8,0:2|0:2,0:0:0:0:
255,93,63627,1,2,0:0:0:0:
325,79,63752,2,0,P|370:68|403:56,1,80,2|8,0:0|0:2,0:0:0:0:
211,163,64002,2,0,P|199:147|126:140,1,80,6|0,0:3|0:0,0:0:0:0:
291,170,64252,6,0,P|237:199|226:300,1,160,8|2,0:2|0:0,0:0:0:0:
221,290,64627,1,2,0:0:0:0:
421,322,64752,2,0,P|382:256|305:257,1,160,10|2,0:2|0:0,0:0:0:0:
159,336,65127,1,8,0:2:0:0:
113,280,65252,2,0,P|76:254|38:262,1,80,6|10,0:3|0:2,0:0:0:0:
242,376,65502,6,0,P|323:357|372:355,1,120,4|0,0:3|0:0,0:0:0:0:
359,354,65752,2,0,P|387:320|423:323,1,80,8|8,0:2|0:3,0:0:0:0:
497,331,66002,2,0,P|515:291|452:260,1,120,4|0,0:2|0:0,0:0:0:0:
460,256,66252,6,0,P|392:239|297:196,1,160,8|2,0:2|0:0,0:0:0:0:
252,158,66627,1,8,0:2:0:0:
388,190,66752,2,0,P|433:179|466:163,1,80,6|0,0:3|0:0,0:0:0:0:
214,222,67002,5,8,0:2:0:0:
183,202,67085,5,8,0:3:0:0:
157,208,67168,5,8,0:3:0:0:
124,184,67252,5,6,0:3:0:0:
124,184,67502,5,8,0:2:0:0:
61,224,67627,1,8,0:2:0:0:
53,232,67752,1,4,0:3:0:0:
218,83,67877,1,0,0:0:0:0:
137,100,68002,5,8,0:2:0:0:
104,79,68085,5,8,0:2:0:0:
85,82,68168,5,8,0:2:0:0:
71,76,68252,6,0,P|31:58|-4:37,1,80,8|0,0:3|0:0,0:0:0:0:
124,184,68502,1,12,0:3:0:0:
195,163,68627,1,0,0:0:0:0:
267,148,68752,6,0,P|298:213|335:322,1,179.999994506836,4|8,0:2|0:2,0:0:0:0:
397,374,69127,1,2,0:3:0:0:
432,309,69252,2,0,P|443:262|457:220,1,89.9999972534181,0|8,0:0|0:2,0:0:0:0:
394,165,69502,6,0,P|368:104|301:2,2,179.999994506836,6|8|2,0:3|0:2|0:3,0:0:0:0:
394,165,70127,1,2,0:3:0:0:
329,217,70252,1,8,0:2:0:0:
329,217,70377,2,0,P|280:169|175:106,1,179.999994506836,2|8,0:3|0:2,0:0:0:0:
298,294,70752,2,0,P|231:276|182:272,1,89.9999972534181,6|0,0:3|0:0,0:0:0:0:
68,273,71002,5,10,0:3:0:0:
17,324,71127,1,10,0:3:0:0:
81,378,71252,1,6,0:3:0:0:
147,317,71377,1,6,0:3:0:0:
85,197,71502,6,0,P|67:147|54:5,1,179.999994506836,6|8,0:2|0:2,0:0:0:0:
161,159,71877,2,0,P|179:109|260:-8,1,179.999994506836,2|8,0:2|0:2,0:0:0:0:
243,178,72252,2,0,P|269:162|347:141,1,89.9999972534181,6|0,0:3|0:0,0:0:0:0:
400,129,72502,5,8,0:2:0:0:
439,61,72627,1,0,0:0:0:0:
399,139,72752,2,0,P|415:202|475:323,1,179.999994506836,6|8,0:3|0:2,0:0:0:0:
389,356,73127,1,6,0:3:0:0:
389,356,73252,6,0,P|346:337|307:311,1,89.9999972534181,6|8,0:3|0:2,0:0:0:0:
232,382,73502,2,0,P|226:335|230:288,1,89.9999972534181,8|8,0:2|0:2,0:0:0:0:
130,259,73752,2,0,P|167:231|209:210,1,89.9999972534181,8|8,0:2|0:2,0:0:0:0:
185,109,74002,2,0,P|218:123|247:143,3,44.999998626709,8|0|0|0,0:2|0:0|0:0|0:0,0:0:0:0:
173,107,74252,6,0,P|115:96|7:34,1,179.999994506836,6|8,0:2|0:2,0:0:0:0:
178,0,74627,1,0,0:0:0:0:
178,0,74752,2,0,P|125:45|89:55,1,89.9999972534181,2|8,0:0|0:2,0:0:0:0:
303,183,75002,2,0,P|217:180|172:106,2,179.999994506836,6|8|2,0:3|0:2|0:2,0:0:0:0:
447,106,75752,5,4,0:3:0:0:
451,91,75835,5,4,0:3:0:0:
460,82,75918,5,4,0:3:0:0:
461,69,76002,6,0,P|466:42|463:2,2,59.9999981689454,4|4|4,0:3|0:3|0:3,0:0:0:0:
367,106,76252,6,0,P|352:93|338:53,2,59.9999981689454,8|8|8,0:3|0:3|0:3,0:0:0:0:
418,175,76502,5,12,0:3:0:0:
441,190,76585,5,12,0:3:0:0:
460,231,76668,5,12,0:3:0:0:
449,280,76752,5,12,0:3:0:0:
409,309,76835,5,12,0:3:0:0:
339,304,76918,5,12,0:3:0:0:
292,242,77002,6,0,P|252:214|198:215,1,89.9999972534181,6|0,0:2|0:0,0:0:0:0:
230,328,77252,2,0,P|202:269|107:185,1,179.999994506836,8|2,0:2|0:0,0:0:0:0:
49,162,77627,1,8,0:2:0:0:
175,46,77752,1,8,0:2:0:0:
110,101,77877,6,0,L|103:78,2,14.9999995422363,2|2|10,0:2|0:2|0:2,0:0:0:0:
174,264,78127,1,8,0:2:0:0:
174,264,78252,5,4,0:2:0:0:
296,213,78377,1,8,0:2:0:0:
304,200,78502,1,8,0:2:0:0:
188,274,78627,5,6,0:3:0:0:
353,320,78752,1,8,0:3:0:0:
360,332,78877,1,0,0:0:0:0:
174,264,79002,6,0,L|156:242,6,22.4999993133545,2|0|2|0|2|0|2,0:1|0:0|0:1|0:0|0:1|0:0|0:1,0:0:0:0:
188,274,79252,5,8,0:2:0:0:
228,289,79335,5,0,0:0:0:0:
254,278,79418,5,0,0:0:0:0:
281,285,79502,5,8,0:2:0:0:
394,260,79627,1,6,0:3:0:0:
511,232,79752,6,0,P|456:160|347:149,1,200,6|8,0:2|0:2,0:0:0:0:
216,97,80127,1,2,0:2:0:0:
163,48,80252,2,0,P|198:2|248:15,1,100,6|8,0:3|0:2,0:0:0:0:
273,161,80502,2,0,B|271:246|214:209|210:308,1,150,4|0,0:2|0:0,0:0:0:0:
214,306,80752,5,8,0:2:0:0:
248,334,80835,5,2,0:3:0:0:
292,331,80918,5,2,0:3:0:0:
337,355,81002,6,0,P|393:337|441:329,1,100,4|0,0:2|0:0,0:0:0:0:
191,169,81252,2,0,P|138:146|-18:112,1,200,10|2,0:2|0:0,0:0:0:0:
163,48,81627,1,8,0:2:0:0:
89,58,81752,6,0,P|34:75|-7:104,1,100,6|0,0:0|0:0,0:0:0:0:
214,306,82002,1,6,0:3:0:0:
214,306,82252,1,6,0:0:0:0:
162,253,82377,2,0,P|122:235|7:210,1,160,6|0,0:3|0:0,0:0:0:0:
70,266,82752,6,0,P|154:173|219:184,1,200,12|2,0:2|0:0,0:0:0:0:
280,135,83127,1,8,0:2:0:0:
317,302,83252,2,4,P|365:339|459:253,1,200,4|8,0:2|0:2,0:0:0:0:
410,206,83627,1,2,0:0:0:0:
245,327,83752,2,0,P|156:338|43:366,1,200,4|0,0:2|0:0,0:0:0:0:
162,253,84127,1,0,0:0:0:0:
102,206,84252,5,2,0:3:0:0:
74,185,84335,5,2,0:3:0:0:
33,194,84418,5,2,0:3:0:0:
17,178,84502,6,0,P|10:129|-2:69,1,100,10|8,0:3|0:3,0:0:0:0:
140,336,84752,5,2,0:3:0:0:
159,302,84835,5,2,0:3:0:0:
156,270,84918,5,2,0:3:0:0:
162,253,85002,6,0,P|172:204|181:144,1,100,10|8,0:2|0:3,0:0:0:0:
272,373,85252,6,0,P|298:330|363:187,1,200,4|8,0:2|0:2,0:0:0:0:
512,151,85627,1,0,0:0:0:0:
472,90,85752,2,0,P|443:81|399:134,1,100,2|8,0:0|0:2,0:0:0:0:
496,366,86002,2,0,P|425:339|363:299,1,150,4|0,0:2|0:0,0:0:0:0:
351,286,86252,5,8,0:2:0:0:
314,266,86335,5,2,0:3:0:0:
281,272,86418,5,2,0:3:0:0:
266,262,86502,6,0,P|202:277|159:295,1,100,4|0,0:2|0:0,0:0:0:0:
360,194,86752,2,0,P|301:161|167:121,1,200,10|2,0:2|0:2,0:0:0:0:
174,122,87127,1,8,0:2:0:0:
34,38,87252,1,2,0:2:0:0:
111,64,87377,6,0,L|96:123,4,50,2|2|2|2|2,0:2|0:2|0:2|0:2|0:0,0:0:0:0:
171,15,87752,1,8,0:2:0:0:
38,164,87877,1,8,0:3:0:0:
97,220,88002,1,6,0:3:0:0:
97,220,88252,6,0,P|188:200|307:188,1,200,4|6,0:2|0:3,0:0:0:0:
470,129,88627,1,8,0:2:0:0:
449,56,88752,2,0,P|405:27|348:132,1,200,4|8,0:2|0:2,0:0:0:0:
315,281,89127,1,2,0:0:0:0:
371,220,89252,6,0,P|430:200|468:317,1,200,4|8,0:2|0:2,0:0:0:0:
394,327,89627,2,0,P|484:311|478:220,1,200,4|8,0:2|0:3,0:0:0:0:
399,340,90002,2,0,P|361:310|364:263,1,100,4|0,0:2|0:0,0:0:0:0:
290,167,90252,6,0,P|270:139|271:102,2,66.6666666666667,8|8|8,0:3|0:3|0:3,0:0:0:0:
392,67,90502,2,0,P|412:95|411:132,2,66.6666666666667,12|12|12,0:3|0:3|0:3,0:0:0:0:
341,118,90752,5,6,0:2:0:0:
341,118,91002,6,0,P|254:148|183:73,1,200,8|2,0:2|0:2,0:0:0:0:
195,6,91377,1,8,0:2:0:0:
120,141,91502,2,0,P|99:214|83:287,1,150,4|0,0:2|0:0,0:0:0:0:
79,302,91752,5,8,0:2:0:0:
106,333,91835,5,2,0:3:0:0:
146,329,91918,5,2,0:3:0:0:
166,344,92002,6,0,P|225:328|276:321,1,100,4|0,0:2|0:0,0:0:0:0:
502,307,92252,2,0,P|407:274|308:258,1,200,8|2,0:2|0:2,0:0:0:0:
182,188,92627,1,8,0:2:0:0:
120,141,92752,6,0,P|90:100|75:46,1,100,6|0,0:3|0:0,0:0:0:0:
249,144,93002,1,6,0:3:0:0:
249,144,93252,2,0,P|269:97|308:57,1,100,8|2,0:2|0:2,0:0:0:0:
182,188,93502,5,6,0:3:0:0:
182,188,93752,2,0,P|217:265|316:323,1,200,6|2,0:2|0:0,0:0:0:0:
370,378,94127,1,8,0:2:0:0:
287,222,94252,2,0,P|334:166|466:149,1,200,4|8,0:2|0:2,0:0:0:0:
511,195,94627,1,2,0:0:0:0:
288,90,94752,2,0,P|346:136|402:250,1,200,4|8,0:2|0:2,0:0:0:0:
454,302,95127,1,2,0:0:0:0:
313,322,95252,5,8,0:3:0:0:
278,342,95335,5,8,0:3:0:0:
249,337,95418,5,8,0:3:0:0:
235,347,95502,6,0,P|174:359|123:358,1,100,8|0,0:3|0:0,0:0:0:0:
224,257,95752,5,8,0:3:0:0:
189,236,95835,5,8,0:3:0:0:
179,209,95918,5,8,0:3:0:0:
163,201,96002,6,0,P|122:154|97:109,1,100,14|0,0:3|0:0,0:0:0:0:
58,24,96252,1,6,0:2:0:0:
58,24,96502,6,0,P|100:4|188:102,1,200,8|2,0:2|0:2,0:0:0:0:
80,305,96877,1,8,0:2:0:0:
136,359,97002,2,0,P|199:327|292:317,1,150,4|0,0:2|0:0,0:0:0:0:
294,319,97252,5,8,0:2:0:0:
337,298,97335,5,2,0:3:0:0:
371,298,97418,5,2,0:3:0:0:
391,282,97502,6,0,P|454:251|486:222,1,100,4|0,0:2|0:0,0:0:0:0:
277,239,97752,2,0,P|313:190|358:48,1,200,8|6,0:2|0:3,0:0:0:0:
302,3,98127,1,8,0:2:0:0:
428,146,98252,1,8,0:2:0:0:
505,122,98377,1,8,0:2:0:0:
279,80,98502,5,8,0:3:0:0:
234,59,98585,5,8,0:3:0:0:
203,65,98668,5,8,0:3:0:0:
183,53,98752,6,0,P|155:41|133:24,1,50,12|0,0:3|0:0,0:0:0:0:
104,94,98877,2,0,P|74:104|52:118,1,50
4,50,99002,5,6,0:2:0:0:
4,50,99252,5,8,0:2:0:0:
66,0,99377,1,2,0:0:0:0:
109,108,99502,1,6,0:3:0:0:
76,174,99627,1,8,0:2:0:0:
78,186,99752,1,2,0:0:0:0:
10,130,99877,5,2,0:0:0:0:
109,108,100002,1,8,0:2:0:0:
163,173,100127,1,2,0:0:0:0:
239,144,100252,2,0,P|290:138|353:124,1,100,6|0,0:2|0:0,0:0:0:0:
502,51,100502,5,8,0:2:0:0:
368,16,100627,1,8,0:3:0:0:
363,22,100689,1,0,0:0:0:0:
358,28,100752,6,0,P|325:35|284:40,2,66.6666666666667
415,118,101002,2,0,P|467:126|519:140,1,100,8|8,0:2|0:2,0:0:0:0:
277,164,101252,5,6,0:3:0:0:
316,180,101335,5,6,0:3:0:0:
327,202,101418,5,6,0:3:0:0:
355,225,101502,5,8,0:2:0:0:
363,265,101585,5,12,0:3:0:0:
383,292,101668,5,12,0:3:0:0:
382,315,101752,5,6,0:2:0:0:
315,344,101877,1,0,0:0:0:0:
512,273,102127,5,2,0:2:0:0:
443,246,102252,2,0,P|404:238|333:218,1,89.9999972534181,2|8,0:0|0:2,0:0:0:0:
235,350,102502,1,6,0:3:0:0:
157,228,102627,1,8,0:3:0:0:
85,224,102752,1,12,0:3:0:0:
37,282,102877,1,12,0:3:0:0:
52,355,103002,5,6,0:2:0:0:
52,355,103127,2,0,P|114:340|169:311,1,100,0|8,0:0|0:2,0:0:0:0:
279,172,103377,1,6,0:3:0:0:
225,125,103502,2,0,P|211:100|253:47,1,100,0|2,0:0|0:0,0:0:0:0:
345,208,103752,5,12,0:3:0:0:
335,227,103835,5,0,0:0:0:0:
318,241,103918,5,0,0:0:0:0:
296,246,104002,6,0,P|264:239|214:234,2,66.6666666666667,8|8|8,0:3|0:3|0:3,0:0:0:0:
362,313,104252,2,0,P|421:304|476:303,1,100,12|0,0:3|0:0,0:0:0:0:
299,371,104502,5,6,0:2:0:0:
299,371,104752,2,0,P|251:354|245:306,1,100,8|2,0:2|0:2,0:0:0:0:
350,133,105002,1,0,0:0:0:0:
484,232,105127,1,8,0:2:0:0:
423,191,105252,1,6,0:3:0:0:
318,241,105377,5,6,0:3:0:0:
257,197,105502,2,0,P|247:142|234:94,1,100,6|0,0:2|0:0,0:0:0:0:
88,311,105752,2,0,P|110:257|129:113,1,200,4|8,0:2|0:2,0:0:0:0:
86,49,106127,1,8,0:2:0:0:
161,21,106252,5,8,0:2:0:0:
13,77,106377,1,12,0:3:0:0:
129,117,106502,6,0,P|159:124|199:129,2,66.6666666666667,8|8|8,0:3|0:3|0:3,0:0:0:0:
76,181,106752,2,0,P|100:203|126:223,2,66.6666666666667,4|4|4,0:3|0:3|0:3,0:0:0:0:
3,208,107002,2,0,P|17:255|36:301,1,100,12|0,0:3|0:0,0:0:0:0:
81,366,107252,5,4,0:2:0:0:
3,208,107752,1,2,0:2:0:0:
3,208,109252,5,2,0:3:0:0:
18,202,109335,5,2,0:3:0:0:
30,204,109418,5,2,0:3:0:0:
55,191,109502,5,2,0:3:0:0:
130,220,109627,1,2,0:3:0:0:
134,227,109752,1,2,0:3:0:0:
201,158,109877,1,2,0:3:0:0:
346,192,110002,5,6,0:2:0:0:
256,192,110064,12,0,112752,0:0:0:0:
