osu file format v14

[General]
AudioFilename: audio.mp3
AudioLeadIn: 0
PreviewTime: 41252
Countdown: 0
SampleSet: Soft
StackLeniency: 0.7
Mode: 0
LetterboxInBreaks: 0
WidescreenStoryboard: 1

[Editor]
Bookmarks: 19252,41252,57752,79752,99002
DistanceSpacing: 5
BeatDivisor: 4
GridSize: 32
TimelineZoom: 2.999999

[Metadata]
Title:Beatrice
TitleUnicode:Beatrice
Artist:xi
ArtistUnicode:xi
Creator:Esutarosa
Version:esu x moph's Extra
Source:SPRING 9KEYS ROAD 2011
Tags:Featured Artist FA iljaaz Keqing pepekcz l1ght_u light_u -hitomi Soraka gazimal moph ponbot マジックジャズ magic jazz Instrumental Parousia
BeatmapID:3698097
BeatmapSetID:1801967

[Difficulty]
HPDrainRate:5.4
CircleSize:4.2
OverallDifficulty:8.2
ApproachRate:9.2
SliderMultiplier:1.6
SliderTickRate:1

[Events]
//Background and Video events
0,0,"bg.jpg",0,0
//Break Periods
//Storyboard Layer 0 (Background)
//Storyboard Layer 1 (Fail)
//Storyboard Layer 2 (Pass)
//Storyboard Layer 3 (Foreground)
//Storyboard Layer 4 (Overlay)
//Storyboard Sound Samples

[TimingPoints]
3,250,11,2,1,35,1,0
2753,-166.666666666667,11,2,1,40,0,0
3377,-166.666666666667,11,2,1,42,0,0
3503,-166.666666666667,11,2,1,40,0,0
5753,-125,11,2,1,40,0,0
7378,-125,11,2,1,42,0,0
7503,-125,11,2,1,40,0,0
8253,-125,11,2,1,45,0,0
11003,-125,11,2,1,50,0,0
13003,-125,11,2,1,50,0,0
13336,-125,11,2,1,42,0,0
13503,-125,11,2,1,50,0,0
13753,-125,11,2,1,50,0,0
14315,-125,11,2,1,42,0,0
14503,-125,11,2,1,50,0,0
14565,-125,11,2,1,42,0,0
14753,-125,11,2,1,50,0,0
14878,-125,11,2,1,42,0,0
15003,-125,11,2,1,50,0,0
17628,-125,11,2,1,42,0,0
17753,-125,11,2,1,50,0,0
19253,-90.9090909090909,11,2,1,60,0,0
19753,-100,11,2,1,60,0,0
20190,-100,11,2,1,42,0,0
20253,-100,11,2,1,60,0,0
20440,-100,11,2,1,42,0,0
20503,-111.111111111111,11,2,1,60,0,0
24753,-90.9090909090909,11,2,1,60,0,0
25253,-100,11,2,1,60,0,0
26003,-111.111111111111,11,2,1,60,0,0
30253,-90.9090909090909,11,2,1,60,0,0
30753,-100,11,2,1,60,0,0
31190,-100,11,2,1,42,0,0
31253,-166.666666666667,11,2,1,60,0,0
31440,-166.666666666667,11,2,1,42,0,0
31503,-111.111111111111,11,2,1,60,0,0
35753,-90.9090909090909,11,2,1,60,0,0
36253,-100,11,2,1,60,0,0
36690,-100,11,2,1,42,0,0
36753,-83.3333333333333,11,2,1,60,0,0
36940,-83.3333333333333,11,2,1,42,0,0
37003,-111.111111111111,11,2,1,60,0,0
41253,-90.9090909090909,11,2,1,60,0,0
42003,-76.9230769230769,11,2,1,60,0,0
42503,-111.111111111111,11,2,1,60,0,0
44253,-90.9090909090909,11,2,1,60,0,0
44753,-76.9230769230769,11,2,1,60,0,0
45253,-111.111111111111,11,2,1,60,0,0
46753,-90.9090909090909,11,2,1,60,0,0
47503,-76.9230769230769,11,2,1,60,0,0
48003,-111.111111111111,11,2,1,60,0,0
49065,-111.111111111111,11,2,1,60,0,0
49128,-111.111111111111,11,2,1,60,0,0
49190,-111.111111111111,11,2,1,42,0,0
49253,-90.9090909090909,11,2,1,60,0,0
51086,-90.9090909090909,11,2,1,42,0,0
51128,-90.9090909090909,11,2,1,60,0,0
51503,-90.9090909090909,11,2,1,60,0,0
56878,-166.666666666667,11,2,1,60,0,0
57003,-90.9090909090909,11,2,1,60,0,0
57753,-111.111111111111,11,2,1,60,0,0
64003,-125,11,2,1,60,0,0
64190,-125,11,2,1,42,0,0
64253,-111.111111111111,11,2,1,60,0,0
65836,-111.111111111111,11,2,1,42,0,0
66003,-111.111111111111,11,2,1,60,0,0
68003,-111.111111111111,11,2,1,60,0,0
68753,-90.9090909090908,11,2,1,60,0,0
69253,-111.111111111111,11,2,1,60,0,0
70940,-111.111111111111,11,2,1,42,0,0
71003,-111.111111111111,11,2,1,60,0,0
78253,-90.9090909090908,11,2,1,60,0,0
79753,-76.9230769230769,11,2,1,60,0,0
82503,-200,11,2,1,60,0,0
82753,-76.9230769230769,11,2,1,60,0,0
85190,-76.9230769230769,11,2,1,42,0,0
85253,-76.9230769230769,11,2,1,60,0,0
90253,-62.5,11,2,1,60,0,0
90503,-76.9230769230769,11,2,1,60,0,0
93503,-200,11,2,1,60,0,0
93753,-76.9230769230769,11,2,1,60,0,0
93940,-76.9230769230769,11,2,1,42,0,0
94003,-76.9230769230769,11,2,1,60,0,0
94440,-76.9230769230769,11,2,1,42,0,0
94503,-76.9230769230769,11,2,1,60,0,0
96190,-76.9230769230769,11,2,1,42,0,0
96253,-76.9230769230769,11,2,1,60,0,0
98440,-76.9230769230769,11,2,1,42,0,0
98503,-76.9230769230769,11,2,1,60,0,0
99003,-83.3333333333333,11,2,1,60,0,0
100440,-83.3333333333333,11,2,1,42,0,0
100503,-83.3333333333333,11,2,1,60,0,0
100711,-142.857142857143,11,2,1,60,0,0
101003,-83.3333333333333,11,2,1,60,0,0
107253,-83.3333333333333,11,2,1,50,0,0
107315,-83.3333333333333,11,2,1,42,0,0
109940,-83.3333333333333,11,2,1,5,0,0
110003,-83.3333333333333,11,2,1,40,0,0
113253,-83.3333333333333,11,2,1,5,0,0

[Colours]
Combo1 : 157,157,255
Combo2 : 163,203,252

[HitObjects]
190,266,1253,5,0,3:0:0:0:
203,269,1378,1,0,3:0:0:0:
328,302,1628,1,0,3:0:0:0:
315,305,1753,1,0,3:0:0:0:
256,368,2003,5,0,3:0:0:0:
257,160,2253,1,0,3:0:0:0:
256,154,2336,1,0,3:0:0:0:
255,149,2419,1,0,3:0:0:0:
254,143,2503,1,0,3:0:0:0:
205,79,2628,1,0,3:0:0:0:
324,91,2753,6,0,B|297:52|248:57|227:99|227:99|231:140|169:173|139:129,1,239.999992675781,6|0,1:0|0:0,0:0:0:0:
76,67,3503,2,0,B|79:55|46:43|46:43|160:59,1,143.999995605469,2|2,1:0|3:2,0:0:0:0:
158,45,4003,5,2,1:0:0:0:
192,190,4128,1,2,3:2:0:0:
73,323,4378,5,0,3:0:0:0:
56,317,4503,1,0,3:0:0:0:
127,274,4628,5,0,3:0:0:0:
150,347,4753,1,0,3:0:0:0:
215,300,4878,5,0,3:0:0:0:
198,294,5003,1,0,3:0:0:0:
404,276,5253,5,0,3:0:0:0:
421,282,5378,1,0,3:0:0:0:
433,356,5503,5,6,1:0:0:0:
465,221,5753,2,0,B|358:236|358:236|324:226,1,128,2|0,1:0|3:0,0:0:0:0:
324,222,6128,1,2,1:0:0:0:
279,122,6253,2,0,B|330:53|330:53|339:50|339:50|369:142,1,192,2|0,1:0|3:0,0:0:0:0:
357,150,6753,5,2,1:0:0:0:
217,200,6878,1,0,3:0:0:0:
300,370,7128,5,0,3:0:0:0:
327,324,7253,1,0,3:0:0:0:
283,297,7378,1,0,3:0:0:0:
256,342,7503,1,0,3:0:0:0:
100,292,7753,5,0,3:0:0:0:
101,287,7836,1,0,3:0:0:0:
102,282,7919,1,0,3:0:0:0:
103,277,8003,1,0,3:0:0:0:
38,228,8128,1,0,3:0:0:0:
137,170,8253,5,6,1:0:0:0:
77,117,8378,2,0,B|186:134|186:134|204:127,1,128,0|0,3:0|3:0,0:0:0:0:
213,118,8753,1,0,3:0:0:0:
284,13,8878,1,2,1:0:0:0:
216,34,9003,2,0,B|229:45|229:45|338:62,1,128,2|0,1:0|3:0,0:0:0:0:
352,55,9378,1,0,3:0:0:0:
407,132,9503,1,2,1:0:0:0:
343,163,9628,2,0,B|359:156|359:156|468:173,1,128,0|0,3:0|3:0,0:0:0:0:
512,231,10003,5,0,3:0:0:0:
420,18,10253,1,0,3:0:0:0:
345,303,10503,5,2,3:0:0:0:
301,366,10628,1,6,3:0:0:0:
225,352,10753,1,10,3:0:0:0:
205,277,10878,1,10,3:0:0:0:
105,342,11003,5,6,1:0:0:0:
105,342,11128,2,0,L|36:353,1,64,2|2,3:2|3:2,0:0:0:0:
37,154,11378,5,2,3:2:0:0:
81,91,11503,1,2,3:2:0:0:
157,105,11628,1,2,2:0:0:0:
177,180,11753,2,0,L|138:190,3,32,0|2|2|2,3:2|2:0|2:0|2:0,0:0:0:0:
190,189,12003,5,2,3:2:0:0:
234,252,12128,1,2,3:2:0:0:
308,230,12253,2,0,L|335:93,1,128,6|2,1:0|3:2,0:0:0:0:
330,90,12586,1,0,3:0:0:0:
270,37,12711,2,0,L|230:53,2,42.6666666666667,0|0|2,3:0|3:0|3:0,0:0:0:0:
356,11,13003,5,10,3:0:0:0:
399,84,13128,1,4,3:0:0:0:
463,41,13253,1,4,3:0:0:0:
466,37,13336,1,4,3:0:0:0:
469,33,13419,1,2,3:0:0:0:
472,29,13503,2,0,L|513:20,2,42.6666666666667,8|4|2,3:0|3:0|3:0,0:0:0:0:
433,181,13753,1,6,1:0:0:0:
455,251,13878,6,0,B|465:233|465:233|473:147|473:147|487:131,1,128,0|0,3:0|3:0,0:0:0:0:
472,29,14253,2,0,L|480:77,1,32,2|0,2:0|0:0,0:0:0:0:
470,328,14503,2,0,L|478:376,1,32,0|0,3:0|0:0,0:0:0:0:
237,299,14753,5,2,1:2:0:0:
219,301,14878,1,2,1:2:0:0:
177,363,15003,5,6,1:0:0:0:
108,348,15128,1,2,3:2:0:0:
19,276,15253,5,2,3:0:0:0:
117,254,15378,1,10,3:2:0:0:
123,242,15503,6,0,L|118:176,1,64,8|8,2:0|2:0,0:0:0:0:
51,136,15753,5,8,3:2:0:0:
187,88,15878,1,8,3:2:0:0:
119,54,16003,5,8,3:2:0:0:
103,50,16086,1,12,3:0:0:0:
86,48,16169,1,4,3:0:0:0:
70,45,16253,1,8,3:0:0:0:
53,43,16336,1,8,3:0:0:0:
37,40,16419,1,2,3:0:0:0:
23,37,16503,6,0,L|92:31,1,64,6|0,1:0|3:0,0:0:0:0:
298,18,16753,5,2,2:0:0:0:
348,76,16878,1,2,3:2:0:0:
284,119,17003,1,2,3:2:0:0:
275,110,17253,5,0,3:0:0:0:
211,153,17378,1,8,2:0:0:0:
261,211,17503,2,0,L|332:206,1,64,4|0,1:2|0:0,0:0:0:0:
508,190,17753,1,6,1:0:0:0:
496,180,18003,5,8,2:0:0:0:
447,113,18128,1,8,3:0:0:0:
363,122,18253,1,4,3:0:0:0:
330,197,18378,1,2,3:0:0:0:
379,265,18503,5,2,3:0:0:0:
391,279,18586,1,8,3:0:0:0:
402,295,18669,1,8,3:0:0:0:
411,312,18752,1,4,3:0:0:0:
417,330,18836,1,4,3:0:0:0:
421,349,18919,1,2,3:0:0:0:
422,363,19003,6,0,P|442:356|462:352,2,42.6666666666667,8|8|4,3:0|3:0|3:0,0:0:0:0:
345,384,19253,6,0,P|364:299|427:239,1,176.000005371094,6|8,1:0|2:0,0:0:0:0:
499,232,19628,1,2,2:0:0:0:
431,112,19753,2,0,P|468:121|489:154,1,80,2|8,3:1|2:0,0:0:0:0:
344,272,20003,6,0,B|306:272|278:240|278:240|301:271|292:315,1,120,0|0,1:0|0:0,0:0:0:0:
220,287,20253,2,0,B|179:274|179:274|118:280|131:341,1,120,8|0,2:0|0:0,0:0:0:0:
178,372,20503,5,0,1:0:0:0:
186,377,20628,2,0,L|255:357,1,71.9999978027344,0|8,3:0|2:0,0:0:0:0:
344,272,20878,2,0,B|372:279|372:279|376:282|376:282|413:291,2,71.9999978027344,2|0|8,3:2|3:0|2:0,0:0:0:0:
255,357,21253,2,0,L|186:377,1,71.9999978027344,0|0,1:0|3:0,0:0:0:0:
128,320,21503,5,2,1:2:0:0:
250,159,21753,5,8,2:0:0:0:
111,63,22003,5,4,1:0:0:0:
233,58,22253,6,0,P|129:85|44:150,1,215.999993408203,10|10,2:0|2:0,0:0:0:0:
26,221,22753,1,2,1:0:0:0:
85,268,22878,1,2,3:1:0:0:
144,218,23003,1,10,2:0:0:0:
138,200,23128,1,2,3:1:0:0:
188,139,23253,6,0,P|233:156|209:258,2,143.999995605469,6|2|0,1:0|1:2|3:0,0:0:0:0:
143,81,23878,1,8,2:0:0:0:
233,0,24003,1,2,1:0:0:0:
233,0,24253,6,0,P|222:21|202:34,2,47.9999985351563,8|8|4,2:0|3:0|3:0,0:0:0:0:
143,81,24503,6,0,P|119:81|98:70,2,47.9999985351563,8|4|4,2:0|3:0|3:0,0:0:0:0:
188,139,24753,6,0,P|316:169|440:213,1,264.000008056641,6|0,1:0|3:0,0:0:0:0:
512,194,25253,5,2,3:1:0:0:
281,335,25503,5,2,1:2:0:0:
153,189,25753,5,8,2:0:0:0:
0,346,26003,5,2,1:2:0:0:
11,352,26128,2,0,P|43:337|78:327,1,71.9999978027344,0|8,3:0|2:0,0:0:0:0:
141,252,26378,2,0,P|160:220|150:185,2,71.9999978027344,2|0|8,1:2|3:0|2:0,0:0:0:0:
43,206,26753,2,0,P|54:172|86:157,1,71.9999978027344,0|0,1:0|3:0,0:0:0:0:
147,117,27003,5,0,1:2:0:0:
29,14,27253,5,8,2:0:0:0:
147,117,27503,6,0,B|184:125|229:95|229:95|195:124|204:177,1,143.999995605469,4|2,1:0|2:1,0:0:0:0:
276,152,27878,1,2,2:1:0:0:
325,208,28003,1,2,3:1:0:0:
269,259,28128,1,2,3:1:0:0:
225,321,28253,5,2,3:1:0:0:
227,327,28315,1,2,3:1:0:0:
229,334,28378,1,2,3:1:0:0:
231,341,28440,1,2,3:1:0:0:
233,348,28503,1,2,3:1:0:0:
172,266,28628,5,2,2:1:0:0:
306,336,28753,1,2,1:0:0:0:
403,233,28878,6,0,B|437:222|437:222|437:221|437:221|470:208,2,71.9999978027344,2|2|2,3:1|3:1|3:1,0:0:0:0:
412,154,29253,1,2,1:0:0:0:
370,302,29378,1,2,3:1:0:0:
253,191,29503,6,0,L|220:174,3,35.9999989013672,2|2|2|2,3:1|3:1|3:1|3:1,0:0:0:0:
312,142,29753,6,0,L|344:125,3,35.9999989013672,6|0|2|0,3:1|3:0|2:1|3:0,0:0:0:0:
292,68,30003,5,10,3:2:0:0:
276,30,30086,1,0,3:0:0:0:
303,0,30169,1,0,3:0:0:0:
314,7,30253,6,0,P|291:91|277:178,1,176.000005371094,4|8,1:0|2:0,0:0:0:0:
310,248,30628,1,2,2:0:0:0:
198,345,30753,6,0,P|225:316|263:310,1,80,2|8,3:1|2:0,0:0:0:0:
378,210,31003,2,0,P|433:230|460:282,1,120,0|0,1:0|0:0,0:0:0:0:
500,348,31253,2,0,B|510:360|525:368|525:368|495:362|483:338,1,71.9999978027344,8|0,2:0|0:0,0:0:0:0:
460,282,31503,5,2,1:0:0:0:
313,366,31628,1,0,3:0:0:0:
263,310,31753,6,0,L|193:289,1,71.9999978027344,8|0,2:0|3:0,0:0:0:0:
145,235,32003,2,0,P|121:208|125:174,2,71.9999978027344,2|8|0,3:1|2:0|1:0,0:0:0:0:
194,149,32378,1,0,3:0:0:0:
118,310,32503,5,2,1:0:0:0:
103,322,32628,1,8,3:0:0:0:
36,294,32753,1,8,2:0:0:0:
0,356,32878,1,0,1:0:0:0:
40,286,33003,5,6,1:0:0:0:
5,108,33253,5,8,2:0:0:0:
64,62,33378,1,0,3:0:0:0:
89,130,33503,1,2,1:0:0:0:
30,176,33628,1,8,2:0:0:0:
66,54,33753,6,0,L|76:19,4,35.9999989013672,2|2|2|2|10,1:0|2:0|2:0|2:0|2:0,0:0:0:0:
97,133,34128,5,2,3:1:0:0:
28,183,34253,1,14,2:0:0:0:
194,355,34503,5,2,1:0:0:0:
268,358,34628,1,2,1:0:0:0:
308,293,34753,1,2,1:0:0:0:
304,282,34815,1,2,2:0:0:0:
301,272,34878,1,2,3:1:0:0:
297,262,34940,1,2,2:0:0:0:
292,250,35003,6,0,L|312:181,1,71.9999978027344,10|2,1:2|1:1,0:0:0:0:
238,64,35253,2,0,P|233:98|255:125,1,71.9999978027344,8|2,3:2|2:1,0:0:0:0:
389,216,35503,1,10,2:0:0:0:
460,189,35628,1,10,0:0:0:0:
510,243,35753,6,0,B|530:189|465:159|487:189|414:160|440:104,1,176.000005371094,4|8,1:0|2:0,0:0:0:0:
496,56,36128,1,0,3:0:0:0:
428,8,36253,2,0,B|421:-6|402:-13|402:-13|428:-12|446:16,1,80,2|0,3:1|3:0,0:0:0:0:
440,105,36503,6,0,P|388:135|331:151,1,120,2|0,1:2|0:0,0:0:0:0:
264,221,36753,6,0,B|301:214|319:186|319:186|300:229|333:266,1,143.999995605469,10|0,2:0|0:0,0:0:0:0:
425,268,37003,6,0,P|418:233|388:215,1,71.9999978027344,2|2,1:2|2:0,0:0:0:0:
326,258,37253,1,2,3:1:0:0:
136,361,37503,5,2,3:1:0:0:
72,313,37628,1,10,3:2:0:0:
107,244,37753,5,2,1:0:0:0:
109,237,37815,1,0,3:0:0:0:
112,230,37878,1,2,3:1:0:0:
114,223,37940,1,0,3:0:0:0:
117,217,38003,1,2,1:0:0:0:
83,149,38128,5,8,2:0:0:0:
129,85,38253,2,0,P|145:75|162:70,1,35.9999989013672,8|8,2:0|2:0,0:0:0:0:
167,60,38378,2,0,P|184:62|200:70,1,35.9999989013672,8|8,2:0|2:0,0:0:0:0:
259,145,38503,6,0,B|292:208|394:168|359:111|316:143,1,143.999995605469,6|8,1:0|2:0,0:0:0:0:
221,215,38878,1,0,3:0:0:0:
279,270,39003,5,2,3:1:0:0:
301,243,39065,1,2,3:1:0:0:
301,209,39128,1,2,3:1:0:0:
200,70,39253,5,2,1:0:0:0:
256,19,39378,1,2,3:1:0:0:
342,93,39503,2,0,L|331:128,3,35.9999989013672,8|0|2|0,3:2|3:0|3:1|3:0,0:0:0:0:
256,19,39753,6,0,P|311:64|381:78,1,143.999995605469,6|8,1:0|2:0,0:0:0:0:
441,121,40128,1,0,3:0:0:0:
507,11,40253,2,0,P|472:19|447:44,1,71.9999978027344,8|0,2:0|3:0,0:0:0:0:
510,83,40503,5,6,1:0:0:0:
387,176,40628,1,0,3:0:0:0:
469,214,40753,6,0,L|501:197,3,35.9999989013672,2|2|2|2,3:1|2:0|2:0|2:0,0:0:0:0:
462,234,41003,5,2,1:0:0:0:
458,244,41086,1,0,3:0:0:0:
454,254,41169,1,0,3:0:0:0:
450,265,41253,6,0,L|273:291,1,176.000005371094,6|8,1:0|2:0,0:0:0:0:
270,302,41628,1,0,3:0:0:0:
234,365,41753,1,2,2:0:0:0:
173,326,41878,1,0,3:0:0:0:
218,176,42003,6,0,B|169:167|158:99|158:99|161:167|99:192,1,207.999990478516,6|8,1:0|2:0,0:0:0:0:
33,208,42378,1,0,3:0:0:0:
173,242,42503,2,0,L|33:208,1,143.999995605469,6|8,1:0|2:0,0:0:0:0:
357,381,43003,5,2,3:1:0:0:
409,331,43128,1,8,2:0:0:0:
365,274,43253,1,2,1:0:0:0:
418,225,43378,1,2,3:1:0:0:
368,173,43503,5,2,1:0:0:0:
361,168,43565,1,2,3:1:0:0:
355,164,43628,1,2,3:1:0:0:
348,160,43690,1,2,3:1:0:0:
342,155,43753,2,0,L|422:146,1,71.9999978027344,8|2,2:0|1:0,0:0:0:0:
280,73,44003,1,4,1:0:0:0:
280,73,44253,6,0,B|260:24|210:23|192:42|192:42|224:85|182:141,1,176.000005371094,12|0,2:0|3:0,0:0:0:0:
53,107,44628,5,2,1:2:0:0:
230,183,44753,2,0,B|232:128|165:94|130:121|130:121|123:168|71:179,1,207.999990478516,12|8,2:0|2:0,0:0:0:0:
116,45,45128,5,2,3:1:0:0:
98,244,45253,2,0,P|45:274|61:200,1,143.999995605469,4|8,1:0|2:0,0:0:0:0:
280,74,45753,1,2,3:1:0:0:
316,61,45836,1,2,3:1:0:0:
343,87,45919,1,2,3:1:0:0:
337,97,46003,6,0,P|320:127|324:172,1,71.9999978027344,2|0,1:0|2:0,0:0:0:0:
490,222,46253,2,0,P|507:192|503:147,1,71.9999978027344,2|0,1:0|3:0,0:0:0:0:
258,229,46503,5,8,2:0:0:0:
244,264,46586,1,2,3:1:0:0:
265,295,46669,1,2,3:1:0:0:
195,332,46753,6,0,P|269:315|361:366,1,176.000005371094,6|8,1:0|2:0,0:0:0:0:
362,374,47128,1,0,3:0:0:0:
424,341,47253,1,0,3:0:0:0:
386,281,47378,1,0,1:0:0:0:
481,157,47503,6,0,P|401:190|410:104,1,207.999990478516,6|8,1:0|2:0,0:0:0:0:
486,76,47878,1,2,3:1:0:0:
360,44,48003,2,0,P|416:85|486:76,1,143.999995605469,6|8,1:0|2:0,0:0:0:0:
259,157,48503,5,2,3:1:0:0:
251,155,48565,1,2,3:1:0:0:
243,153,48628,1,2,1:0:0:0:
187,201,48753,1,2,1:0:0:0:
132,156,48878,1,10,2:0:0:0:
124,154,48940,1,0,3:0:0:0:
116,151,49003,6,0,L|102:113,1,35.9999989013672,10|8,1:2|0:0,0:0:0:0:
110,100,49128,2,0,L|96:62,1,35.9999989013672,8|0,2:0|0:0,0:0:0:0:
88,55,49253,6,0,L|202:66,1,88.000002685547,2|8,1:2|2:0,0:0:0:0:
330,16,49503,5,6,1:0:0:0:
398,31,49628,1,0,3:0:0:0:
416,98,49753,1,8,2:0:0:0:
369,150,49878,1,0,3:0:0:0:
286,116,50003,5,0,3:0:0:0:
276,119,50128,1,2,3:2:0:0:
233,186,50253,2,0,L|190:179,3,44.0000013427735,2|2|2|2,1:2|3:2|3:2|3:2,0:0:0:0:
281,248,50503,2,0,L|382:229,1,88.000002685547,8|0,2:0|3:0,0:0:0:0:
486,326,50753,5,4,1:0:0:0:
427,370,50878,2,0,L|340:353,1,88.000002685547,0|8,3:0|2:0,0:0:0:0:
195,287,51128,6,0,B|175:287|175:287|140:266,2,58.6666684570313,0|0|0,1:0|3:0|3:0,0:0:0:0:
208,280,51378,1,2,1:2:0:0:
96,337,51503,6,0,B|114:338|114:338|136:350,2,44.0000013427735,8|0|0,2:0|3:0|3:0,0:0:0:0:
83,213,51753,5,2,1:2:0:0:
93,192,51836,1,0,3:0:0:0:
74,177,51919,1,0,3:0:0:0:
16,131,52003,5,8,2:0:0:0:
6,110,52086,1,0,3:0:0:0:
25,95,52169,1,0,3:0:0:0:
84,59,52253,6,0,P|133:66|179:71,1,88.000002685547,6|2,1:0|2:0,0:0:0:0:
181,56,52503,1,8,2:0:0:0:
229,131,52628,1,0,3:0:0:0:
329,73,52753,2,0,P|325:116|318:160,1,88.000002685547,0|2,3:0|1:2,0:0:0:0:
360,327,53003,2,0,B|321:344|321:344|276:306,1,88.000002685547,2|0,1:0|3:0,0:0:0:0:
274,307,53253,1,8,2:0:0:0:
333,259,53378,1,8,2:0:0:0:
268,215,53503,6,0,P|224:221|180:226,1,88.000002685547,6|0,1:0|3:0,0:0:0:0:
353,117,53753,1,10,2:0:0:0:
411,265,53878,2,0,P|454:258|498:253,1,88.000002685547,2|0,1:0|3:0,0:0:0:0:
509,263,54128,1,2,1:2:0:0:
442,182,54253,5,6,1:0:0:0:
386,345,54378,1,2,3:2:0:0:
326,303,54503,5,8,2:0:0:0:
312,284,54586,1,8,2:0:0:0:
289,294,54669,1,8,2:0:0:0:
234,348,54753,5,8,2:0:0:0:
211,358,54836,1,8,2:0:0:0:
197,339,54919,1,8,2:0:0:0:
141,289,55003,6,0,L|46:298,1,88.000002685547,6|0,1:0|3:0,0:0:0:0:
35,156,55253,1,8,2:0:0:0:
86,108,55378,2,0,B|129:96|129:96|174:156,1,88.000002685547,0|0,3:0|3:0,0:0:0:0:
159,145,55628,1,8,2:0:0:0:
103,208,55753,5,2,1:0:0:0:
103,208,55878,1,2,1:2:0:0:
225,250,56003,2,0,B|265:241|265:241|268:238|268:238|321:228,1,88.000002685547,12|0,2:0|3:0,0:0:0:0:
293,38,56253,2,0,B|252:29|252:29|249:26|249:26|196:16,1,88.000002685547,6|0,1:0|2:0,0:0:0:0:
305,114,56503,1,8,2:0:0:0:
382,91,56628,2,0,B|401:52|401:52|370:19,1,88.000002685547,0|8,1:0|2:0,0:0:0:0:
296,193,56878,6,0,L|307:227,1,23.9999992675781,8|8,2:0|2:0,0:0:0:0:
309,230,57003,5,8,2:0:0:0:
335,219,57086,1,0,3:0:0:0:
364,217,57169,1,0,3:0:0:0:
393,223,57253,1,8,2:0:0:0:
418,236,57336,1,0,3:0:0:0:
440,256,57419,1,0,3:0:0:0:
447,282,57503,6,0,L|465:180,1,88.000002685547,8|8,2:0|2:0,0:0:0:0:
489,128,57690,1,8,2:0:0:0:
489,128,57753,6,0,P|418:113|356:78,1,143.999995605469,6|8,1:0|2:0,0:0:0:0:
356,78,58253,6,0,P|390:78|411:51,1,71.9999978027344,2|8,3:1|2:0,0:0:0:0:
298,125,58503,2,0,P|237:161|166:167,1,143.999995605469,0|4,1:0|3:0,0:0:0:0:
298,125,58878,1,0,2:0:0:0:
364,217,59003,6,0,B|402:232|402:232|421:257|421:257|487:283,2,143.999995605469,0|8|0,1:0|2:0|2:0,0:0:0:0:
474,199,59628,1,8,2:0:0:0:
350,293,59753,1,0,1:0:0:0:
350,293,60003,5,8,1:2:0:0:
294,343,60128,1,0,1:0:0:0:
231,302,60253,1,12,1:2:0:0:
287,252,60378,1,0,1:0:0:0:
217,134,60503,6,0,B|179:119|151:145|151:145|140:188|89:193,2,143.999995605469,6|8|2,1:0|2:0|2:0,0:0:0:0:
283,94,61128,1,8,2:0:0:0:
110,55,61253,2,0,L|130:124,1,71.9999978027344,0|2,1:0|2:0,0:0:0:0:
64,272,61503,5,8,2:0:0:0:
118,324,61628,1,2,1:0:0:0:
180,275,61753,6,0,L|320:307,2,143.999995605469,4|2|2,1:2|3:2|3:1,0:0:0:0:
118,324,62378,1,8,2:0:0:0:
64,272,62503,5,2,1:0:0:0:
192,96,62753,5,8,2:0:0:0:
362,198,63003,5,2,1:0:0:0:
375,202,63086,1,8,2:0:0:0:
387,195,63169,1,8,2:0:0:0:
365,123,63253,6,0,P|400:185|415:255,1,143.999995605469,6|8,1:0|2:0,0:0:0:0:
471,302,63628,1,0,1:0:0:0:
355,378,63753,2,0,P|390:375|416:352,1,71.9999978027344,0|8,3:0|2:0,0:0:0:0:
270,225,64003,2,0,B|249:275|249:275|254:248|246:220,1,96,2|0,1:2|0:0,0:0:0:0:
250,237,64253,6,0,B|289:226|314:255|314:255|319:299|369:311,2,143.999995605469,10|0|8,2:0|1:0|2:0,0:0:0:0:
125,141,64878,1,0,1:0:0:0:
152,213,65003,6,0,L|130:281,1,71.9999978027344,2|8,2:0|2:0,0:0:0:0:
289,145,65253,2,0,B|307:166|307:166|316:209,1,71.9999978027344,0|2,1:0|3:2,0:0:0:0:
166,49,65503,5,4,1:2:0:0:
231,11,65628,1,8,2:0:0:0:
158,55,65753,2,0,L|113:37,2,47.9999985351563,8|0|0,2:0|0:0|0:0,0:0:0:0:
206,118,66003,6,0,P|275:128|336:91,2,143.999995605469,4|8|2,1:0|2:0|2:0,0:0:0:0:
45,230,66628,1,2,3:2:0:0:
108,269,66753,2,0,P|134:245|135:210,1,71.9999978027344,8|2,2:0|2:0,0:0:0:0:
33,79,67003,1,8,2:0:0:0:
48,81,67086,1,8,3:0:0:0:
57,92,67169,1,4,3:0:0:0:
63,104,67253,1,4,1:0:0:0:
215,288,67503,5,8,2:0:0:0:
286,323,67628,1,8,1:2:0:0:
338,266,67753,1,8,2:0:0:0:
341,252,67836,1,0,3:0:0:0:
345,238,67919,1,0,3:0:0:0:
346,218,68003,6,0,P|331:201|309:192,2,47.9999985351563,4|8|8,1:0|2:0|2:0,0:0:0:0:
417,252,68253,5,4,1:2:0:0:
463,226,68336,1,8,2:0:0:0:
466,173,68419,1,8,2:0:0:0:
422,141,68503,1,2,1:2:0:0:
375,116,68586,1,8,2:0:0:0:
371,63,68669,1,8,2:0:0:0:
413,33,68753,6,0,P|329:57|249:93,1,176.000005371094,6|8,1:0|2:0,0:0:0:0:
146,47,69128,1,0,1:0:0:0:
80,12,69253,6,0,P|114:21|147:35,1,71.9999978027344,2|8,3:2|2:0,0:0:0:0:
0,170,69503,2,0,P|67:159|82:93,1,143.999995605469,0|8,1:0|2:0,0:0:0:0:
82,93,70003,6,0,P|87:128|98:162,1,71.9999978027344,2|0,1:0|3:0,0:0:0:0:
109,171,70253,1,8,2:0:0:0:
69,283,70378,1,0,1:0:0:0:
0,329,70503,6,0,P|33:316|64:297,1,71.9999978027344,2|8,2:0|2:0,0:0:0:0:
194,205,70753,6,0,P|247:204|289:236,1,107.999996704102,0|0,1:0|0:0,0:0:0:0:
295,249,71003,5,8,2:0:0:0:
212,124,71128,1,8,2:0:0:0:
158,273,71253,5,2,1:0:0:0:
311,149,71378,1,8,2:0:0:0:
368,282,71503,6,0,P|427:319|495:302,1,143.999995605469,6|8,1:0|2:0,0:0:0:0:
495,301,72003,6,0,P|462:315|438:341,1,71.9999978027344,8|8,2:0|2:0,0:0:0:0:
507,227,72253,1,0,1:0:0:0:
507,227,72378,1,0,3:0:0:0:
379,117,72503,5,8,2:0:0:0:
436,246,72628,1,0,3:0:0:0:
282,384,72753,6,0,P|295:313|312:243,1,143.999995605469,4|8,1:0|2:0,0:0:0:0:
285,170,73128,1,8,2:0:0:0:
223,119,73253,2,0,B|245:135|245:135|253:137|253:137|285:162,1,71.9999978027344,2|8,3:2|2:0,0:0:0:0:
490,112,73503,2,0,B|471:132|471:132|468:139|468:139|440:169,1,71.9999978027344,4|8,1:0|2:0,0:0:0:0:
341,11,73753,6,0,L|366:152,1,143.999995605469,8|2,2:0|1:2,0:0:0:0:
403,226,74086,5,8,2:0:0:0:
398,239,74169,1,8,2:0:0:0:
394,250,74253,2,0,P|451:286|443:354,1,143.999995605469,4|8,1:0|2:0,0:0:0:0:
452,360,74753,6,0,P|421:377|385:374,1,71.9999978027344,0|8,3:0|2:0,0:0:0:0:
274,270,75003,2,0,P|206:247|136:233,1,143.999995605469,2|8,1:2|2:0,0:0:0:0:
0,373,75503,6,0,P|34:366|60:341,1,71.9999978027344,4|2,1:0|2:0,0:0:0:0:
99,167,75753,6,0,P|85:148|66:135,2,47.9999985351563,0|0|0,1:0|3:0|3:0,0:0:0:0:
163,207,76003,6,0,P|173:185|176:161,2,47.9999985351563,0|0|0,1:0|3:0|3:0,0:0:0:0:
155,283,76253,6,0,P|178:282|201:273,2,47.9999985351563,8|0|0,3:0|3:0|3:0,0:0:0:0:
93,246,76503,5,4,3:0:0:0:
42,235,76586,1,0,3:0:0:0:
2,266,76669,1,0,3:0:0:0:
5,323,76753,1,8,2:0:0:0:
57,357,76836,1,8,2:0:0:0:
122,345,76919,1,8,2:0:0:0:
155,283,77003,6,0,P|135:217|102:148,1,143.999995605469,4|10,1:0|2:0,0:0:0:0:
127,17,77378,1,2,1:2:0:0:
0,35,77503,6,0,P|29:56|63:65,1,71.9999978027344,2|8,3:2|2:0,0:0:0:0:
218,169,77753,1,8,2:0:0:0:
313,63,77878,5,0,1:0:0:0:
316,56,77940,1,0,3:0:0:0:
319,49,78003,1,8,2:0:0:0:
385,6,78128,1,8,2:0:0:0:
442,212,78253,5,6,1:0:0:0:
302,283,78378,1,10,2:0:0:0:
218,169,78503,1,8,2:0:0:0:
182,232,78628,5,8,1:2:0:0:
330,142,78753,1,8,1:2:0:0:
406,275,78878,1,8,2:0:0:0:
442,212,79003,6,0,B|451:200|451:200|456:190|456:190|466:176,4,44.0000013427735,2|2|2|2|10,1:0|3:1|3:1|3:1|3:2,0:0:0:0:
490,343,79378,5,2,1:0:0:0:
421,375,79503,1,10,3:2:0:0:
381,312,79628,1,10,3:2:0:0:
298,291,79753,6,0,L|513:270,1,207.999990478516,6|8,1:0|2:0,0:0:0:0:
510,259,80128,1,0,1:0:0:0:
457,199,80253,5,0,3:0:0:0:
387,356,80378,1,8,2:0:0:0:
351,202,80503,2,0,B|370:144|388:175|407:115,1,103.999995239258,4|2,1:0|2:0,0:0:0:0:
243,0,80753,5,8,2:0:0:0:
205,21,80836,1,0,3:0:0:0:
202,62,80919,1,0,3:0:0:0:
235,88,81003,2,0,P|286:80|338:104,1,103.999995239258,4|0,1:0|3:0,0:0:0:0:
387,356,81253,1,8,2:0:0:0:
343,290,81379,2,0,P|390:309|441:302,2,103.999995239258,0|0|8,1:0|3:0|2:0,0:0:0:0:
333,100,81753,6,0,P|285:80|234:87,1,103.999995239258,0|0,1:0|3:0,0:0:0:0:
77,173,82003,1,0,1:0:0:0:
77,173,82253,5,8,2:0:0:0:
173,134,82378,1,0,1:0:0:0:
157,248,82503,2,0,L|149:295,1,40,4|2,1:0|2:0,0:0:0:0:
150,287,82753,6,0,B|94:292|123:324|58:329,1,103.999995239258,12|0,2:0|1:0,0:0:0:0:
44,318,83003,1,8,2:0:0:0:
234,241,83128,1,0,1:0:0:0:
182,377,83253,2,0,B|194:275|194:275|189:270|189:270|204:154,1,207.999990478516,12|8,2:0|2:0,0:0:0:0:
250,21,83628,1,0,1:0:0:0:
136,129,83753,2,0,B|108:110|68:103|68:103|223:90,1,207.999990478516,4|8,1:0|2:0,0:0:0:0:
373,99,84128,5,0,1:0:0:0:
442,58,84253,1,0,3:0:0:0:
462,85,84336,1,0,3:0:0:0:
461,119,84419,1,0,3:0:0:0:
437,145,84503,1,0,1:0:0:0:
365,184,84628,5,0,3:0:0:0:
301,138,84753,1,8,2:0:0:0:
276,163,84837,1,0,3:0:0:0:
275,197,84920,1,0,3:0:0:0:
296,225,85003,1,8,2:0:0:0:
349,293,85128,6,0,L|330:348,1,51.999997619629,2|0,1:2|0:0,0:0:0:0:
325,356,85253,2,0,L|448:340,1,103.999995239258,6|2,1:0|2:0,0:0:0:0:
439,351,85503,1,8,2:0:0:0:
484,285,85628,1,0,1:0:0:0:
413,249,85753,5,0,3:0:0:0:
490,123,85878,1,8,2:0:0:0:
317,140,86003,2,0,L|437:160,1,103.999995239258,4|0,1:0|2:0,0:0:0:0:
184,59,86253,5,8,2:0:0:0:
213,27,86336,1,0,3:0:0:0:
255,33,86419,1,0,3:0:0:0:
270,71,86503,2,0,P|239:117|240:171,1,103.999995239258,4|0,1:0|3:0,0:0:0:0:
56,215,86753,2,0,P|86:261|85:315,1,103.999995239258,10|0,2:0|1:0,0:0:0:0:
23,346,87003,5,0,3:0:0:0:
170,234,87128,1,8,2:0:0:0:
229,373,87253,2,0,P|282:354|339:353,1,103.999995239258,2|0,1:0|3:0,0:0:0:0:
336,356,87440,1,0,3:0:0:0:
343,361,87503,2,0,P|334:322|335:306,2,51.999997619629,2|0|0,1:0|3:0|3:0,0:0:0:0:
400,268,87753,5,10,2:0:0:0:
459,315,87878,1,0,1:0:0:0:
417,378,88003,1,6,1:0:0:0:
393,114,88253,6,0,P|334:112|348:52,1,103.999995239258,12|0,2:0|1:0,0:0:0:0:
371,19,88503,1,8,2:0:0:0:
356,203,88628,1,2,1:2:0:0:
235,70,88753,2,0,L|472:44,1,207.999990478516,4|0,1:0|1:0,0:0:0:0:
170,16,89128,1,8,2:0:0:0:
235,178,89253,5,4,1:0:0:0:
70,123,89378,2,0,L|16:117,2,51.999997619629,8|8|8,3:0|2:0|2:0,0:0:0:0:
223,78,89628,5,6,1:0:0:0:
70,130,89753,2,0,L|16:124,2,51.999997619629,8|8|8,2:0|2:0|2:0,0:0:0:0:
165,247,90003,6,0,B|144:193|75:213|75:257|75:257|89:274|89:306,1,155.999992858887,6|8,1:0|2:0,0:0:0:0:
15,309,90253,2,0,B|74:321|74:321|76:327|76:327|143:342,1,128,6|0,1:0|1:0,0:0:0:0:
206,315,90503,1,4,1:0:0:0:
250,296,90586,1,8,3:0:0:0:
288,325,90669,1,8,3:0:0:0:
280,373,90753,1,4,1:0:0:0:
440,110,91003,6,0,B|446:61|446:61|449:59|449:59|456:-1,2,103.999995239258,8|0|2,2:0|1:0|3:2,0:0:0:0:
363,177,91378,1,8,2:0:0:0:
501,197,91503,2,0,B|443:192|466:238|403:235,1,103.999995239258,4|0,1:0|2:0,0:0:0:0:
269,137,91753,5,8,2:0:0:0:
235,110,91836,1,0,3:0:0:0:
236,68,91919,1,0,3:0:0:0:
273,47,92003,2,0,P|319:63|380:52,1,103.999995239258,4|0,1:0|3:0,0:0:0:0:
299,242,92253,1,12,2:0:0:0:
341,302,92378,2,0,P|292:285|241:293,2,103.999995239258,0|0|10,1:0|3:0|2:0,0:0:0:0:
372,55,92753,6,0,P|323:38|272:46,1,103.999995239258,2|0,1:2|3:0,0:0:0:0:
120,116,93003,1,2,1:2:0:0:
120,116,93253,5,8,2:0:0:0:
235,155,93378,1,2,1:2:0:0:
150,229,93503,2,0,L|98:210,1,40,6|0,1:0|2:0,0:0:0:0:
112,215,93753,6,0,B|172:204|172:204|182:164|182:164|248:153,1,155.999992858887,12|0,2:0|0:0,0:0:0:0:
245,168,94003,1,0,3:0:0:0:
120,116,94128,1,0,1:0:0:0:
149,299,94253,6,0,B|112:305|98:352|98:352|100:304|64:287,1,155.999992858887,4|0,1:0|0:0,0:0:0:0:
49,287,94503,1,8,2:0:0:0:
224,264,94628,1,8,2:0:0:0:
119,115,94753,2,0,B|115:67|115:67|110:66|110:66|103:16,2,103.999995239258,4|0|8,1:0|3:0|2:0,0:0:0:0:
149,299,95128,5,0,1:0:0:0:
205,367,95253,1,8,2:0:0:0:
227,341,95336,1,0,3:0:0:0:
259,333,95419,1,0,3:0:0:0:
289,353,95503,1,4,1:0:0:0:
324,277,95628,5,2,3:1:0:0:
377,341,95753,1,8,2:0:0:0:
407,361,95837,1,0,3:0:0:0:
439,353,95920,1,0,3:0:0:0:
461,327,96003,1,4,1:0:0:0:
493,254,96128,6,0,L|415:243,1,51.999997619629,2|0,3:1|0:0,0:0:0:0:
431,257,96253,2,0,B|444:208|444:208|443:207|443:207|461:131,1,103.999995239258,6|0,1:0|2:0,0:0:0:0:
322,35,96503,5,8,2:0:0:0:
273,102,96628,1,0,1:0:0:0:
341,149,96753,5,0,3:0:0:0:
248,7,96878,1,2,1:2:0:0:
144,121,97003,2,0,B|94:112|94:112|91:106|91:106|24:96,1,103.999995239258,4|0,1:0|2:0,0:0:0:0:
122,306,97253,5,8,2:0:0:0:
153,336,97336,1,0,3:0:0:0:
193,327,97419,1,0,3:0:0:0:
208,287,97503,2,0,P|186:239|193:182,1,103.999995239258,4|0,1:0|3:0,0:0:0:0:
477,116,97753,2,0,P|498:163|491:220,1,103.999995239258,8|0,2:0|1:0,0:0:0:0:
433,262,98003,5,2,2:0:0:0:
265,226,98128,1,2,1:2:0:0:
333,373,98253,2,0,B|342:321|342:321|340:317|340:317|351:254,1,103.999995239258,2|2,1:0|3:2,0:0:0:0:
363,202,98440,1,0,3:0:0:0:
363,202,98503,5,8,2:0:0:0:
398,168,98586,1,0,3:0:0:0:
377,124,98669,1,0,3:0:0:0:
304,116,98753,5,8,2:0:0:0:
283,72,98836,1,8,2:0:0:0:
318,38,98919,1,8,2:0:0:0:
379,0,99003,6,0,P|360:94|344:188,1,191.999994140625,6|8,1:0|2:0,0:0:0:0:
436,268,99378,5,0,1:0:0:0:
310,355,99503,2,0,B|340:344|340:344|370:342|370:342|401:329,1,95.9999970703126,0|8,3:0|2:0,0:0:0:0:
222,207,99753,1,0,1:0:0:0:
268,267,99878,1,0,3:0:0:0:
227,330,100003,1,8,2:0:0:0:
181,270,100128,1,0,3:0:0:0:
101,230,100253,6,0,B|71:230|51:251|51:251|74:203|141:214,1,143.999995605469,4|0,1:0|0:0,0:0:0:0:
181,270,100504,2,0,P|227:266|250:226,1,95.9999970703126,8|0,2:0|1:0,0:0:0:0:
307,183,100711,2,0,P|301:166|297:148,2,37.3333321940105,2|2|8,2:0|2:0|2:0,0:0:0:0:
182,35,101004,6,0,P|158:40|138:52,3,47.9999985351563,8|2|0|2,2:0|3:2|3:0|3:2,0:0:0:0:
212,54,101253,5,2,1:2:0:0:
241,79,101336,1,0,3:0:0:0:
280,80,101419,1,0,3:0:0:0:
317,48,101503,1,8,2:0:0:0:
305,3,101586,1,0,3:0:0:0:
273,0,101669,1,0,3:0:0:0:
258,11,101753,6,0,B|204:52|259:117|253:76|300:139|253:180,1,191.999994140625,6|8,1:0|2:0,0:0:0:0:
184,203,102128,1,0,1:0:0:0:
264,329,102253,1,0,3:0:0:0:
310,266,102378,1,8,2:0:0:0:
188,315,102503,2,0,B|168:336|168:336|103:355,1,95.9999970703126,0|2,1:0|1:0,0:0:0:0:
395,336,102753,5,10,2:0:0:0:
445,280,102878,1,10,2:0:0:0:
399,219,103003,6,0,B|379:140|379:140|377:138|377:138|351:33,1,191.999994140625,4|8,1:0|2:0,0:0:0:0:
269,188,103378,1,2,1:2:0:0:
343,130,103503,2,0,B|297:150|325:168|254:195,1,95.9999970703126,2|2,2:1|1:2,0:0:0:0:
115,88,103753,5,4,1:0:0:0:
101,45,103836,1,10,2:0:0:0:
133,14,103919,1,10,2:0:0:0:
162,9,104003,6,0,P|185:29|190:60,2,63.9999980468751,10|10|10,2:0|2:0|2:0,0:0:0:0:
247,116,104253,5,10,2:0:0:0:
247,116,104378,1,8,2:0:0:0:
69,204,104503,6,0,P|161:230|248:270,1,191.999994140625,6|8,1:0|2:0,0:0:0:0:
297,326,104878,1,0,1:0:0:0:
420,192,105003,2,0,P|374:201|345:239,1,95.9999970703126,2|8,3:2|2:0,0:0:0:0:
227,359,105253,5,0,1:0:0:0:
169,314,105378,1,2,1:2:0:0:
315,154,105503,5,12,2:0:0:0:
247,183,105628,1,0,1:0:0:0:
69,204,105753,6,0,P|161:230|248:270,1,191.999994140625,4|8,1:0|2:0,0:0:0:0:
123,135,106128,1,8,3:0:0:0:
251,279,106253,1,8,2:0:0:0:
381,193,106378,2,0,B|393:184|393:184|425:179,2,47.9999985351563,8|8|8,2:0|2:0|1:2,0:0:0:0:
347,261,106586,5,8,2:0:0:0:
346,321,106669,1,8,2:0:0:0:
392,362,106753,1,0,1:0:0:0:
448,355,106836,1,8,2:0:0:0:
470,322,106919,1,8,2:0:0:0:
460,299,107003,1,2,3:0:0:0:
425,179,107129,6,0,B|393:184|393:184|381:193,2,47.9999985351563,8|8|6,2:0|0:0|1:0,0:0:0:0:
256,192,107315,12,6,110003,1:0:0:0:
