osu file format v14

[General]
AudioFilename: audio.mp3
AudioLeadIn: 0
PreviewTime: 41252
Countdown: 0
SampleSet: Soft
StackLeniency: 0.8
Mode: 0
LetterboxInBreaks: 0
WidescreenStoryboard: 1

[Editor]
Bookmarks: 30752,79752
DistanceSpacing: 0.3
BeatDivisor: 5
GridSize: 32
TimelineZoom: 2.3

[Metadata]
Title:Beatrice
TitleUnicode:Beatrice
Artist:xi
ArtistUnicode:xi
Creator:Esutarosa
Version:esu x iljaaz's Extreme
Source:SPRING 9KEYS ROAD 2011
Tags:Featured Artist FA iljaaz Keqing pepekcz l1ght_u light_u -hitomi Soraka gazimal moph ponbot マジックジャズ magic jazz Instrumental Parousia
BeatmapID:3698095
BeatmapSetID:1801967

[Difficulty]
HPDrainRate:5.8
CircleSize:4.2
OverallDifficulty:8.6
ApproachRate:9.4
SliderMultiplier:1.74
SliderTickRate:1

[Events]
//Background and Video events
0,0,"bg.jpg",0,0
//Break Periods
//Storyboard Layer 0 (Background)
//Storyboard Layer 1 (Fail)
//Storyboard Layer 2 (Pass)
//Storyboard Layer 3 (Foreground)
//Storyboard Layer 4 (Overlay)
//Storyboard Sound Samples

[TimingPoints]
3,250,11,2,1,35,1,0
2753,-200,11,2,1,40,0,0
3315,-200,11,2,1,42,0,0
3503,-142.857142857143,11,2,1,40,0,0
3690,-142.857142857143,11,2,1,42,0,0
3753,-142.857142857143,11,2,1,40,0,0
6940,-142.857142857143,11,2,1,42,0,0
7128,-142.857142857143,11,2,1,40,0,0
7315,-142.857142857143,11,2,1,42,0,0
7503,-142.857142857143,11,2,1,40,0,0
8253,-142.857142857143,11,2,1,45,0,0
10065,-142.857142857143,11,2,1,42,0,0
10253,-142.857142857143,11,2,1,45,0,0
11003,-125,11,2,1,50,0,0
14377,-125,11,2,1,42,0,0
14503,-125,11,2,1,50,0,0
14627,-125,11,2,1,42,0,0
14753,-125,11,2,1,50,0,0
14878,-125,11,2,1,42,0,0
15003,-125,11,2,1,50,0,0
17190,-125,11,2,1,42,0,0
17253,-125,11,2,1,50,0,0
17690,-125,11,2,1,42,0,0
17753,-125,11,2,1,50,0,0
17940,-125,11,2,1,42,0,0
18003,-125,11,2,1,50,0,0
19253,-125,11,2,1,60,0,0
20190,-125,11,2,1,42,0,0
20253,-125,11,2,1,60,0,0
24190,-125,11,2,1,42,0,0
24253,-125,11,2,1,60,0,0
25440,-125,11,2,1,42,0,0
25503,-125,11,2,1,60,0,0
25690,-125,11,2,1,42,0,0
25753,-125,11,2,1,60,0,0
27190,-125,11,2,1,42,0,0
27253,-125,11,2,1,60,0,0
27440,-125,11,2,1,42,0,0
27503,-125,11,2,1,60,0,0
27690,-125,11,2,1,42,0,0
27753,-125,11,2,1,60,0,0
32440,-125,11,2,1,42,0,0
32503,-125,11,2,1,60,0,0
33190,-125,11,2,1,42,0,0
33253,-125,11,2,1,60,0,0
35940,-125,11,2,1,42,0,0
36003,-125,11,2,1,60,0,0
38690,-125,11,2,1,42,0,0
38753,-125,11,2,1,60,0,0
41253,-100,11,2,1,60,0,0
42690,-100,11,2,1,42,0,0
42753,-100,11,2,1,60,0,0
44190,-100,11,2,1,42,0,0
44253,-100,11,2,1,60,0,0
44440,-100,11,2,1,42,0,0
44503,-100,11,2,1,60,0,0
44940,-100,11,2,1,42,0,0
45003,-100,11,2,1,60,0,0
45440,-100,11,2,1,42,0,0
45503,-100,11,2,1,60,0,0
46190,-100,11,2,1,42,0,0
46253,-100,11,2,1,60,0,0
46440,-100,11,2,1,42,0,0
46503,-100,11,2,1,60,0,0
46940,-100,11,2,1,42,0,0
47003,-100,11,2,1,60,0,0
47690,-100,11,2,1,42,0,0
47753,-100,11,2,1,60,0,0
48190,-100,11,2,1,42,0,0
48253,-100,11,2,1,60,0,0
49503,-111.111111111111,11,2,1,60,0,0
49690,-111.111111111111,11,2,1,42,0,0
49753,-111.111111111111,11,2,1,60,0,0
50940,-111.111111111111,11,2,1,42,0,0
51003,-111.111111111111,11,2,1,60,0,0
52440,-111.111111111111,11,2,1,42,0,0
52503,-111.111111111111,11,2,1,60,0,0
53190,-111.111111111111,11,2,1,42,0,0
53253,-111.111111111111,11,2,1,60,0,0
53690,-111.111111111111,11,2,1,42,0,0
53753,-111.111111111111,11,2,1,60,0,0
55190,-111.111111111111,11,2,1,42,0,0
55253,-111.111111111111,11,2,1,60,0,0
56190,-111.111111111111,11,2,1,42,0,0
56253,-111.111111111111,11,2,1,60,0,0
56440,-111.111111111111,11,2,1,42,0,0
56503,-111.111111111111,11,2,1,60,0,0
58690,-111.111111111111,11,2,1,42,0,0
58753,-111.111111111111,11,2,1,60,0,0
58940,-111.111111111111,11,2,1,42,0,0
59003,-111.111111111111,11,2,1,60,0,0
59940,-111.111111111111,11,2,1,42,0,0
60003,-111.111111111111,11,2,1,60,0,0
61440,-111.111111111111,11,2,1,42,0,0
61503,-111.111111111111,11,2,1,60,0,0
63440,-111.111111111111,11,2,1,42,0,0
63503,-111.111111111111,11,2,1,60,0,0
64190,-111.111111111111,11,2,1,42,0,0
64253,-111.111111111111,11,2,1,60,0,0
66190,-111.111111111111,11,2,1,42,0,0
66253,-111.111111111111,11,2,1,60,0,0
66940,-111.111111111111,11,2,1,42,0,0
67003,-111.111111111111,11,2,1,60,0,0
67440,-111.111111111111,11,2,1,42,0,0
67503,-111.111111111111,11,2,1,60,0,0
68753,-83.3333333333333,11,2,1,60,0,0
69253,-111.111111111111,11,2,1,60,0,0
69690,-111.111111111111,11,2,1,42,0,0
69753,-111.111111111111,11,2,1,60,0,0
70940,-111.111111111111,11,2,1,42,0,0
71003,-111.111111111111,11,2,1,60,0,0
72940,-111.111111111111,11,2,1,42,0,0
73003,-111.111111111111,11,2,1,60,0,0
73940,-111.111111111111,11,2,1,42,0,0
74003,-111.111111111111,11,2,1,60,0,0
74440,-111.111111111111,11,2,1,42,0,0
74503,-111.111111111111,11,2,1,60,0,0
75190,-111.111111111111,11,2,1,42,0,0
75253,-111.111111111111,11,2,1,60,0,0
75440,-111.111111111111,11,2,1,42,0,0
75503,-111.111111111111,11,2,1,60,0,0
77003,-83.3333333333333,11,2,1,60,0,0
77190,-83.3333333333333,11,2,1,42,0,0
77253,-83.3333333333333,11,2,1,60,0,0
77503,-100,11,2,1,60,0,0
78253,-83.3333333333333,11,2,1,60,0,0
78565,-83.3333333333333,11,2,1,42,0,0
78628,-83.3333333333333,11,2,1,60,0,0
79753,-90.9090909090909,11,2,1,60,0,0
79940,-90.9090909090909,11,2,1,42,0,0
80003,-90.9090909090909,11,2,1,60,0,0
80690,-90.9090909090909,11,2,1,42,0,0
80753,-90.9090909090909,11,2,1,60,0,0
81440,-90.9090909090909,11,2,1,42,0,0
81503,-90.9090909090909,11,2,1,60,0,0
82190,-90.9090909090909,11,2,1,42,0,0
82253,-90.9090909090909,11,2,1,60,0,0
82690,-90.9090909090909,11,2,1,42,0,0
82753,-90.9090909090909,11,2,1,60,0,0
82940,-90.9090909090909,11,2,1,42,0,0
83003,-90.9090909090909,11,2,1,60,0,0
83440,-90.9090909090909,11,2,1,42,0,0
83503,-90.9090909090909,11,2,1,60,0,0
83940,-90.9090909090909,11,2,1,42,0,0
84003,-90.9090909090909,11,2,1,60,0,0
85440,-90.9090909090909,11,2,1,42,0,0
85503,-90.9090909090909,11,2,1,60,0,0
86190,-90.9090909090909,11,2,1,42,0,0
86253,-90.9090909090909,11,2,1,60,0,0
86690,-90.9090909090909,11,2,1,42,0,0
86753,-90.9090909090909,11,2,1,60,0,0
88190,-90.9090909090909,11,2,1,42,0,0
88253,-90.9090909090909,11,2,1,60,0,0
88440,-90.9090909090909,11,2,1,42,0,0
88503,-90.9090909090909,11,2,1,60,0,0
88940,-90.9090909090909,11,2,1,42,0,0
89003,-90.9090909090909,11,2,1,60,0,0
90940,-90.9090909090909,11,2,1,42,0,0
91003,-90.9090909090909,11,2,1,60,0,0
91190,-90.9090909090909,11,2,1,42,0,0
91253,-90.9090909090909,11,2,1,60,0,0
91690,-90.9090909090909,11,2,1,42,0,0
91753,-90.9090909090909,11,2,1,60,0,0
92440,-90.9090909090909,11,2,1,42,0,0
92503,-90.9090909090909,11,2,1,60,0,0
92940,-90.9090909090909,11,2,1,42,0,0
93003,-90.9090909090909,11,2,1,60,0,0
93190,-90.9090909090909,11,2,1,42,0,0
93253,-90.9090909090909,11,2,1,60,0,0
93690,-90.9090909090909,11,2,1,42,0,0
93753,-90.9090909090909,11,2,1,60,0,0
93940,-90.9090909090909,11,2,1,42,0,0
94003,-90.9090909090909,11,2,1,60,0,0
94440,-90.9090909090909,11,2,1,42,0,0
94503,-90.9090909090909,11,2,1,60,0,0
94940,-90.9090909090909,11,2,1,42,0,0
95003,-90.9090909090909,11,2,1,60,0,0
96440,-90.9090909090909,11,2,1,42,0,0
96503,-90.9090909090909,11,2,1,60,0,0
97190,-90.9090909090909,11,2,1,42,0,0
97253,-90.9090909090909,11,2,1,60,0,0
97690,-90.9090909090909,11,2,1,42,0,0
97753,-90.9090909090909,11,2,1,60,0,0
99190,-90.9090909090909,11,2,1,42,0,0
99253,-90.9090909090909,11,2,1,60,0,0
105690,-90.9090909090909,11,2,1,42,0,0
105753,-90.9090909090909,11,2,1,60,0,0
105940,-90.9090909090909,11,2,1,42,0,0
106003,-90.9090909090909,11,2,1,60,0,0
107253,-90.9090909090909,11,2,1,50,0,0
107752,-90.9090909090909,11,2,1,40,0,0
109253,-125,11,2,1,30,0,0
110003,-125,11,2,1,40,0,0
110034,-125,11,2,1,5,0,0
110065,-125,11,2,1,42,0,0
113253,-125,11,2,1,5,0,0

[Colours]
Combo1 : 157,157,255
Combo2 : 163,203,252

[HitObjects]
496,87,2753,6,0,L|311:122,1,174,6|0,1:0|3:0,0:0:0:0:
254,91,3378,1,0,0:0:0:0:
340,204,3503,2,0,P|254:218|200:149,1,182.699994424439,2|2,1:0|3:2,0:0:0:0:
416,136,4003,6,0,P|448:188|456:258,1,121.799996282959,2|0,1:0|0:0,0:0:0:0:
407,301,4378,1,0,3:0:0:0:
476,331,4503,2,0,L|417:313,1,60.8999981414796,0|0,3:0|3:0,0:0:0:0:
268,176,4753,2,0,B|252:204|252:204|255:242,1,60.8999981414796,0|0,3:0|3:0,0:0:0:0:
131,384,5003,6,0,B|178:370|178:370|200:338|200:338|300:308,1,182.699994424439,0|0,3:0|3:0,0:0:0:0:
290,310,5503,1,6,1:0:0:0:
85,199,5753,6,0,B|96:165|96:165|93:119|93:119|109:80,1,121.799996282959,2|0,1:0|3:0,0:0:0:0:
76,13,6128,1,2,1:0:0:0:
188,94,6253,2,0,B|190:65|190:65|172:30,1,60.8999981414796,2|0,1:0|0:0,0:0:0:0:
13,159,6503,1,0,3:0:0:0:
13,159,6628,1,0,3:0:0:0:
128,268,6753,5,2,1:0:0:0:
128,268,6878,2,0,B|236:246|224:325|302:312,1,182.699994424439,0|0,3:0|3:0,0:0:0:0:
367,281,7503,1,0,3:0:0:0:
436,372,7753,6,0,L|423:333,2,40.5999987609864,0|0|0,3:0|3:0|3:0,0:0:0:0:
367,281,8003,1,0,3:0:0:0:
336,384,8128,1,0,3:0:0:0:
440,232,8253,5,6,1:0:0:0:
440,232,8378,2,0,P|495:251|491:329,1,121.799996282959,0|0,3:0|3:0,0:0:0:0:
358,183,8753,2,0,P|348:155|341:112,1,60.8999981414796,0|2,3:0|1:0,0:0:0:0:
172,288,9003,2,0,L|28:320,1,121.799996282959,2|0,1:0|3:0,0:0:0:0:
16,378,9378,1,0,3:0:0:0:
235,215,9503,5,2,1:0:0:0:
157,155,9628,2,0,B|138:183|138:183|142:222,1,60.8999981414796,0|0,3:0|0:0,0:0:0:0:
237,355,9878,5,0,3:0:0:0:
314,296,10003,2,0,L|378:320,1,60.8999981414796,0|0,3:0|0:0,0:0:0:0:
143,363,10253,2,0,L|161:305,1,60.8999981414796,0|0,3:0|0:0,0:0:0:0:
244,217,10503,5,2,3:0:0:0:
208,85,10628,1,6,3:0:0:0:
288,111,10753,5,10,3:0:0:0:
167,164,10878,1,10,3:0:0:0:
167,164,10940,1,2,3:0:0:0:
167,164,11003,2,0,P|106:145|56:66,1,139.2,6|2,1:0|3:2,0:0:0:0:
1,255,11378,1,2,3:2:0:0:
21,178,11503,2,0,P|4:209|0:251,1,69.6,2|2,3:2|2:0,0:0:0:0:
151,368,11753,1,0,3:2:0:0:
151,368,11815,1,2,2:0:0:0:
151,368,11878,2,0,P|136:341|132:297,1,69.6,2|2,2:0|3:2,0:0:0:0:
244,217,12128,1,2,3:2:0:0:
327,273,12253,6,0,B|373:292|373:292|394:321|394:321|450:344,1,139.2,6|2,1:0|3:2,0:0:0:0:
512,312,12586,1,0,3:0:0:0:
383,214,12711,6,0,B|378:195|378:195|363:172,2,46.4,0|0|2,3:0|3:0|3:0,0:0:0:0:
453,368,13003,5,10,3:0:0:0:
499,210,13128,1,4,3:0:0:0:
512,303,13253,1,4,3:0:0:0:
416,182,13378,5,4,3:0:0:0:
416,169,13441,1,8,3:0:0:0:
423,160,13503,1,8,3:0:0:0:
478,116,13586,1,4,3:0:0:0:
462,50,13669,1,2,3:0:0:0:
388,21,13753,6,0,L|238:60,1,139.2,6|2,1:0|2:0,0:0:0:0:
55,169,14128,1,0,3:0:0:0:
7,67,14253,2,0,P|42:71|76:109,1,69.6,2|0,2:0|0:0,0:0:0:0:
292,160,14503,2,0,P|219:161|163:104,1,139.2,0|2,3:0|1:2,0:0:0:0:
136,52,14878,1,0,0:0:0:0:
0,234,15003,6,0,B|26:241|43:259|43:259|151:232,1,139.2,6|2,1:0|3:0,0:0:0:0:
292,160,15378,1,10,3:2:0:0:
226,149,15503,2,0,B|248:143|248:143|305:165,1,69.6,8|8,2:0|2:0,0:0:0:0:
436,240,15753,5,8,3:2:0:0:
312,276,15878,5,8,3:2:0:0:
304,272,15940,1,8,3:2:0:0:
314,268,16003,1,8,3:2:0:0:
381,294,16086,1,12,3:0:0:0:
436,240,16169,1,4,3:0:0:0:
497,190,16253,5,8,3:0:0:0:
501,145,16336,1,8,3:0:0:0:
463,117,16419,1,2,3:0:0:0:
402,167,16503,6,0,L|375:308,1,139.2,6|2,1:0|2:0,0:0:0:0:
226,149,16878,1,2,3:2:0:0:
159,190,17003,2,0,P|144:158|139:120,1,69.6,2|0,3:2|0:0,0:0:0:0:
265,224,17253,2,0,P|214:270|146:285,1,139.2,0|4,3:0|1:2,0:0:0:0:
146,285,17753,6,0,L|218:307,1,69.6,6|0,1:0|0:0,0:0:0:0:
244,373,18003,1,8,2:0:0:0:
374,315,18128,1,8,3:0:0:0:
478,371,18253,5,4,3:0:0:0:
422,226,18378,1,2,3:0:0:0:
345,243,18503,5,2,3:0:0:0:
337,168,18586,1,8,3:0:0:0:
387,116,18669,1,8,3:0:0:0:
421,69,18753,1,4,3:0:0:0:
413,40,18836,1,4,3:0:0:0:
372,11,18919,1,2,3:0:0:0:
318,4,19003,1,8,3:0:0:0:
250,31,19086,1,8,3:0:0:0:
217,100,19169,1,4,3:0:0:0:
217,100,19253,6,0,P|152:127|53:123,1,139.2,6|8,1:0|2:0,0:0:0:0:
203,244,19628,1,2,2:0:0:0:
100,314,19753,2,0,P|110:282|116:243,1,69.6,2|8,3:1|2:0,0:0:0:0:
281,189,20003,2,0,P|293:261|315:343,1,139.2,0|8,1:0|2:0,0:0:0:0:
309,325,20503,5,0,1:0:0:0:
246,364,20628,1,0,3:0:0:0:
328,253,20753,1,8,2:0:0:0:
372,384,20878,2,0,P|406:379|436:363,1,69.6,2|0,3:2|3:0,0:0:0:0:
313,330,21128,5,8,2:0:0:0:
386,187,21253,2,0,P|357:171|319:162,1,69.6,0|0,1:0|3:0,0:0:0:0:
167,296,21503,6,0,L|85:317,1,69.6,2|2,1:2|1:2,0:0:0:0:
6,372,21753,1,8,2:0:0:0:
6,372,21878,1,0,3:0:0:0:
102,278,22003,6,0,B|137:277|137:277|173:299,1,69.6,4|0,1:0|3:0,0:0:0:0:
466,384,22253,2,0,B|453:340|453:340|427:309|427:309|409:244,1,139.2,10|2,2:0|3:2,0:0:0:0:
287,35,22628,5,10,2:0:0:0:
380,77,22753,1,2,1:0:0:0:
452,44,22878,1,2,3:1:0:0:
392,5,23003,5,10,2:0:0:0:
289,53,23128,1,2,3:1:0:0:
348,168,23253,1,6,1:0:0:0:
348,168,23378,6,0,P|313:178|273:196,1,69.6,0|2,3:0|1:2,0:0:0:0:
216,168,23628,2,0,P|248:177|294:197,1,69.6,2|0,1:2|3:0,0:0:0:0:
413,254,23878,5,8,2:0:0:0:
340,384,24003,2,0,B|360:324|303:325|340:239,1,139.2,2|8,1:0|2:0,0:0:0:0:
228,179,24336,5,8,3:0:0:0:
228,179,24419,5,4,3:0:0:0:
228,179,24503,5,8,2:0:0:0:
187,235,24586,5,4,3:0:0:0:
122,201,24669,5,4,3:0:0:0:
158,137,24753,6,0,L|183:-23,1,139.2,6|8,1:0|2:0,0:0:0:0:
316,165,25128,1,0,3:0:0:0:
403,121,25253,2,0,P|433:136|478:151,1,69.6,2|0,3:1|3:0,0:0:0:0:
254,271,25503,6,0,L|106:308,1,139.2,2|8,1:2|2:0,0:0:0:0:
118,304,26003,6,0,P|154:313|202:340,1,69.6,2|0,1:2|3:0,0:0:0:0:
360,250,26253,1,8,2:0:0:0:
444,363,26378,2,0,P|395:347|372:263,1,139.2,2|8,1:2|2:0,0:0:0:0:
229,174,26753,2,0,P|260:168|303:149,1,69.6,0|0,1:0|3:0,0:0:0:0:
467,51,27003,6,0,B|442:46|442:46|391:58|391:58|360:53,1,104.4,0|0,1:2|0:0,0:0:0:0:
364,48,27253,2,0,B|389:43|389:43|440:55|440:55|471:50,1,104.4,8|0,2:0|0:0,0:0:0:0:
473,50,27503,5,4,1:0:0:0:
479,46,27753,5,2,2:1:0:0:
402,17,27878,1,2,2:1:0:0:
302,77,28003,1,2,3:1:0:0:
313,163,28128,1,2,3:1:0:0:
381,199,28253,5,2,3:1:0:0:
390,197,28315,1,2,3:1:0:0:
402,195,28378,1,2,3:1:0:0:
412,193,28440,1,2,3:1:0:0:
421,191,28503,1,2,3:1:0:0:
502,251,28628,1,2,2:1:0:0:
464,344,28753,1,2,1:0:0:0:
390,361,28878,1,2,3:1:0:0:
336,300,29003,5,2,3:1:0:0:
233,239,29128,1,2,3:1:0:0:
136,280,29253,1,2,1:0:0:0:
116,352,29378,1,2,3:1:0:0:
48,377,29503,5,2,3:1:0:0:
38,376,29565,1,2,3:1:0:0:
28,372,29628,1,2,3:1:0:0:
21,366,29690,1,2,3:1:0:0:
17,357,29753,6,0,L|33:316,1,34.8,6|0,3:1|3:0,0:0:0:0:
238,232,29878,2,0,L|222:191,1,34.8,2|0,2:1|3:0,0:0:0:0:
64,176,30003,6,0,B|50:197|50:197|53:214,1,34.8,10|0,3:2|3:0,0:0:0:0:
203,321,30128,2,0,B|214:340|214:340|206:356,1,34.8,2|0,2:1|3:0,0:0:0:0:
133,252,30253,6,0,L|170:85,1,139.2,4|8,1:0|2:0,0:0:0:0:
99,5,30628,1,2,2:0:0:0:
0,118,30753,6,0,B|5:94|5:94|47:77,1,69.6,2|8,3:1|2:0,2:0:0:0:
218,3,31003,2,0,L|352:37,1,139.2,0|8,1:0|2:0,0:0:0:0:
353,38,31503,6,0,P|319:45|289:62,1,69.6,2|0,1:0|3:0,0:0:0:0:
188,201,31753,1,8,2:0:0:0:
126,140,31878,5,0,3:0:0:0:
163,73,32003,2,0,B|190:89|190:89|201:125,1,69.6,2|8,3:1|2:0,0:0:0:0:
330,297,32253,2,0,P|263:309|225:365,1,139.2,0|2,1:0|1:0,0:0:0:0:
330,297,32628,5,8,3:0:0:0:
200,236,32753,1,8,2:0:0:0:
141,287,32878,5,0,1:0:0:0:
16,332,33003,1,6,1:0:0:0:
0,29,33253,5,8,2:0:0:0:
77,0,33378,1,0,3:0:0:0:
177,60,33503,1,2,1:0:0:0:
166,146,33628,1,8,2:0:0:0:
98,182,33753,5,2,1:0:0:0:
89,180,33815,1,2,2:0:0:0:
77,178,33878,1,2,2:0:0:0:
67,176,33940,1,2,2:0:0:0:
58,174,34003,1,10,2:0:0:0:
3,109,34128,5,2,3:1:0:0:
144,250,34253,2,0,B|163:258|163:258|165:262|165:262|206:277,1,69.6,14|0,2:0|3:0,0:0:0:0:
328,367,34503,1,2,1:0:0:0:
389,322,34628,1,2,1:0:0:0:
362,249,34753,5,2,1:0:0:0:
367,236,34816,1,2,2:0:0:0:
372,223,34878,1,2,3:1:0:0:
377,210,34941,1,2,2:0:0:0:
379,196,35003,6,0,P|375:180|367:164,1,34.8,10|0,1:2|0:0,0:0:0:0:
228,132,35128,2,0,P|220:116|215:99,1,34.8,2|0,1:1|0:0,0:0:0:0:
351,46,35253,6,0,B|359:63|359:63|353:78,1,34.8,8|2,3:2|0:0,0:0:0:0:
251,237,35378,2,0,B|245:252|245:252|253:269,1,34.8,2|2,2:1|0:0,0:0:0:0:
432,384,35503,5,10,2:0:0:0:
465,379,35565,1,8,0:0:0:0:
486,353,35628,1,10,0:0:0:0:
481,319,35690,1,8,0:0:0:0:
474,308,35753,6,0,B|427:304|427:304|330:341,1,139.2,4|8,1:0|2:0,0:0:0:0:
283,383,36128,1,0,3:0:0:0:
158,286,36253,2,0,L|90:268,1,69.6,2|0,3:1|3:0,0:0:0:0:
26,307,36503,1,2,1:2:0:0:
291,80,36753,6,0,B|312:109|312:109|303:145,1,69.6,10|0,2:0|3:0,0:0:0:0:
226,37,37003,1,2,1:2:0:0:
86,121,37128,1,2,2:0:0:0:
27,69,37253,6,0,B|89:88|89:88|91:92|91:92|157:113,1,139.2,2|2,3:1|3:1,0:0:0:0:
277,297,37628,1,10,3:2:0:0:
395,258,37753,5,2,1:0:0:0:
383,231,37815,1,0,3:0:0:0:
360,214,37878,1,2,3:1:0:0:
331,211,37940,1,0,3:0:0:0:
305,224,38003,1,2,1:0:0:0:
199,314,38128,1,8,2:0:0:0:
119,244,38253,6,0,B|134:250|134:250|137:253|137:253|150:258,1,34.8,8|8,2:0|2:0,0:0:0:0:
299,368,38378,2,0,B|314:361|314:361|317:358|317:358|330:353,1,34.8,8|8,2:0|2:0,0:0:0:0:
432,248,38503,1,6,1:0:0:0:
286,24,38753,6,0,B|280:45|280:45|289:71|289:71|283:90,1,69.6,8|0,2:0|3:0,0:0:0:0:
235,145,39003,2,0,L|206:164,2,34.8,2|2|2,3:1|3:1|3:1,0:0:0:0:
310,160,39253,1,2,1:0:0:0:
202,61,39378,1,2,3:1:0:0:
126,187,39503,5,8,3:2:0:0:
109,203,39565,1,0,3:0:0:0:
78,215,39628,1,2,3:1:0:0:
29,206,39690,1,0,3:0:0:0:
11,164,39753,6,0,B|95:172|46:216|146:226,1,139.2,6|8,1:0|2:0,0:0:0:0:
185,274,40128,1,0,3:0:0:0:
302,152,40253,6,0,B|282:156|282:156|272:166,1,34.8,8|0,2:0|3:0,0:0:0:0:
183,285,40378,2,0,L|192:318,1,34.8,0|0,3:0|3:0,0:0:0:0:
291,381,40503,5,6,1:0:0:0:
440,244,40628,1,0,3:0:0:0:
382,326,40753,6,0,P|372:310|357:302,3,34.8,2|2|2|2,3:1|3:0|3:0|3:0,3:0:0:0:
349,299,41003,5,2,1:0:0:0:
340,297,41086,5,0,3:0:0:0:
331,299,41169,5,0,3:0:0:0:
322,300,41253,6,0,B|261:275|229:314|229:314|219:365|160:366,1,174,6|8,1:0|2:0,0:0:0:0:
0,248,41628,1,0,3:0:0:0:
56,288,41753,6,0,B|62:268|62:268|-1:247,1,87,2|0,2:0|3:0,0:0:0:0:
210,24,42003,2,0,P|153:48|152:110,1,130.5,6|0,1:0|2:0,0:0:0:0:
111,171,42253,2,0,P|121:190|127:210,1,43.5,8|0,2:0|3:0,0:0:0:0:
129,225,42378,1,0,3:0:0:0:
262,344,42503,6,0,B|291:344|291:344|311:322|311:322|191:359,1,174,6|8,1:0|2:0,0:0:0:0:
353,238,42878,1,0,3:0:0:0:
226,131,43003,6,0,B|256:140|256:140|258:142|258:142|308:157,1,87,2|8,3:1|2:0,0:0:0:0:
434,333,43253,1,2,1:0:0:0:
512,240,43378,6,0,P|490:243|471:254,1,43.5,2|0,3:1|3:0,0:0:0:0:
318,363,43503,1,2,1:0:0:0:
329,373,43565,1,2,3:1:0:0:
341,363,43628,1,2,3:1:0:0:
330,354,43690,1,2,3:1:0:0:
330,354,43753,6,0,L|307:293,1,43.5,8|2,2:0|2:0,0:0:0:0:
392,125,43878,1,2,1:0:0:0:
500,95,44003,6,0,B|421:42|387:138|387:138,1,130.5,4|0,1:0|0:0,0:0:0:0:
269,234,44253,6,0,P|213:266|148:268,1,130.5,12|0,2:0|0:0,0:0:0:0:
102,207,44503,1,0,3:0:0:0:
226,84,44628,2,0,B|243:99|243:99|241:119,1,43.5,2|0,1:2|0:0,0:0:0:0:
0,39,44753,6,0,B|50:53|50:53|51:55|51:55|124:75,1,130.5,12|0,2:0|0:0,0:0:0:0:
209,183,45003,1,8,2:0:0:0:
340,8,45128,2,0,P|320:16|302:27,1,43.5,2|0,3:1|0:0,0:0:0:0:
206,193,45253,6,0,P|244:265|324:252,1,174,4|8,1:0|2:0,0:0:0:0:
497,226,45628,1,0,3:0:0:0:
381,102,45753,5,2,3:1:0:0:
365,110,45836,1,2,3:1:0:0:
343,156,45919,1,2,3:1:0:0:
377,197,46003,1,2,1:0:0:0:
228,384,46253,6,0,B|236:351|236:351|215:292|215:292|227:260,1,130.5,2|0,1:0|0:0,0:0:0:0:
199,190,46503,6,0,B|177:200|177:200|168:217,1,43.5,8|0,2:0|0:0,0:0:0:0:
311,356,46628,2,0,L|352:367,1,43.5,2|0,1:2|0:0,0:0:0:0:
143,291,46753,6,0,B|111:301|111:301|101:309|101:309|20:333,1,130.5,6|0,1:0|0:0,0:0:0:0:
10,326,47003,1,8,2:0:0:0:
110,164,47128,1,0,3:0:0:0:
110,164,47253,1,0,3:0:0:0:
0,88,47378,6,0,B|2:104|2:104|13:128,1,43.5,0|0,1:0|0:0,0:0:0:0:
186,1,47503,2,0,B|209:36|209:36|217:92|173:122|173:122,1,130.5,6|0,1:0|0:0,0:0:0:0:
133,57,47753,1,8,2:0:0:0:
280,226,47878,1,2,3:1:0:0:
91,347,48003,6,0,B|119:263|210:299|210:299,1,130.5,6|0,1:0|0:0,0:0:0:0:
279,225,48253,2,0,P|316:246|359:254,1,87,8|0,2:0|3:0,0:0:0:0:
412,357,48503,5,2,3:1:0:0:
433,348,48565,1,2,3:1:0:0:
445,329,48628,1,2,1:0:0:0:
512,270,48753,5,2,1:0:0:0:
411,167,48878,1,10,2:0:0:0:
450,0,49003,5,10,1:2:0:0:
480,15,49065,1,8,0:0:0:0:
496,45,49128,1,8,2:0:0:0:
491,79,49190,1,8,2:0:0:0:
457,90,49253,5,2,1:2:0:0:
434,111,49336,5,8,2:0:0:0:
430,126,49419,5,8,2:0:0:0:
436,137,49503,6,0,L|454:213,1,78.2999976104737,6|0,1:0|3:0,0:0:0:0:
343,89,49753,1,8,2:0:0:0:
343,89,49878,1,0,3:0:0:0:
240,222,50003,5,0,3:0:0:0:
328,161,50128,1,2,3:2:0:0:
227,57,50253,5,2,1:2:0:0:
208,52,50315,1,2,3:2:0:0:
183,59,50378,1,2,3:2:0:0:
171,73,50440,1,2,3:2:0:0:
171,87,50503,1,8,2:0:0:0:
108,192,50628,5,0,3:0:0:0:
252,305,50753,2,0,B|257:280|257:280|228:234,1,78.2999976104737,4|0,1:0|3:0,0:0:0:0:
124,358,51003,1,8,2:0:0:0:
73,302,51128,6,0,L|17:283,2,52.1999984069825,0|0|0,1:0|3:0|3:0,0:0:0:0:
199,378,51378,1,2,1:2:0:0:
331,302,51503,5,8,2:0:0:0:
345,296,51565,1,0,3:0:0:0:
360,291,51628,1,0,3:0:0:0:
375,286,51690,1,0,3:0:0:0:
390,281,51753,5,2,1:2:0:0:
418,266,51836,5,0,3:0:0:0:
434,207,51919,5,0,3:0:0:0:
397,162,52003,5,8,2:0:0:0:
359,166,52086,5,0,3:0:0:0:
345,188,52169,5,0,3:0:0:0:
353,205,52253,6,0,L|500:257,1,156.599995220947,6|8,1:0|2:0,0:0:0:0:
325,94,52628,1,0,3:0:0:0:
463,5,52753,1,0,3:0:0:0:
409,81,52878,5,2,1:2:0:0:
281,27,53003,2,0,B|250:14|250:14|243:15|243:15|204:1,1,78.2999976104737,2|0,1:0|3:0,0:0:0:0:
372,157,53253,5,8,2:0:0:0:
378,173,53315,1,8,2:0:0:0:
383,194,53378,1,8,2:0:0:0:
389,212,53440,1,8,2:0:0:0:
395,231,53503,1,6,1:0:0:0:
189,369,53753,5,10,2:0:0:0:
230,308,53878,2,0,L|309:278,1,78.2999976104737,2|0,1:0|3:0,0:0:0:0:
124,194,54128,1,2,1:2:0:0:
210,123,54253,6,0,B|170:186|226:177|180:247,1,117.449996415711,6|0,1:0|0:0,0:0:0:0:
122,318,54503,5,8,2:0:0:0:
67,336,54586,5,8,2:0:0:0:
22,297,54669,5,8,2:0:0:0:
36,253,54753,5,8,2:0:0:0:
26,220,54836,5,8,2:0:0:0:
6,219,54919,5,8,2:0:0:0:
0,248,55003,6,0,B|72:269|72:269|62:273|167:299,1,156.599995220947,6|8,1:0|2:0,0:0:0:0:
195,357,55378,1,0,3:0:0:0:
274,311,55503,2,0,B|242:319|242:319|201:340,1,78.2999976104737,0|8,3:0|2:0,0:0:0:0:
284,199,55753,1,2,1:0:0:0:
284,199,55878,1,2,1:2:0:0:
190,130,56003,6,0,P|178:165|204:192,1,78.2999976104737,12|0,2:0|3:0,0:0:0:0:
346,358,56253,2,0,P|390:335|369:218,1,156.599995220947,6|8,1:0|2:0,0:0:0:0:
336,78,56628,6,0,P|301:96|263:103,1,78.2999976104737,0|8,1:0|2:0,0:0:0:0:
168,211,56878,5,8,2:0:0:0:
155,208,56941,1,8,2:0:0:0:
148,199,57003,1,8,2:0:0:0:
117,135,57086,5,0,3:0:0:0:
49,136,57169,1,0,3:0:0:0:
0,185,57253,1,8,2:0:0:0:
27,240,57336,1,0,3:0:0:0:
68,252,57419,1,0,3:0:0:0:
87,288,57503,1,8,2:0:0:0:
20,323,57628,5,8,2:0:0:0:
20,323,57690,1,8,2:0:0:0:
20,323,57753,6,0,P|40:247|57:171,1,156.599995220947,6|8,1:0|2:0,0:0:0:0:
130,81,58128,1,0,1:0:0:0:
0,0,58253,6,0,B|4:34|4:34|40:58,1,78.2999976104737,2|8,3:1|2:0,0:0:0:0:
160,209,58503,2,0,B|185:192|194:167|194:167|307:140,1,156.599995220947,0|4,1:0|3:0,0:0:0:0:
293,144,59003,6,0,P|254:140|218:125,1,78.2999976104737,0|2,1:0|2:0,0:0:0:0:
356,107,59253,1,8,2:0:0:0:
330,39,59378,1,0,1:0:0:0:
260,52,59503,1,0,2:0:0:0:
341,205,59628,2,0,P|360:239|375:275,1,78.2999976104737,8|0,2:0|1:0,0:0:0:0:
375,275,60003,5,8,1:2:0:0:
269,220,60128,1,0,1:0:0:0:
413,176,60253,5,12,1:2:0:0:
272,316,60378,1,0,1:0:0:0:
430,384,60503,6,0,B|445:310|445:310|447:311|447:311|462:233,1,156.599995220947,6|8,1:0|2:0,0:0:0:0:
334,118,60878,1,0,1:0:0:0:
481,37,61003,6,0,B|454:54|454:54|408:63,1,78.2999976104737,2|8,2:0|2:0,0:0:0:0:
269,220,61253,2,0,L|183:192,1,78.2999976104737,0|2,1:0|2:0,0:0:0:0:
76,88,61503,1,8,2:0:0:0:
132,35,61628,1,2,1:0:0:0:
201,69,61753,1,4,1:2:0:0:
51,270,62003,5,2,3:2:0:0:
117,235,62128,1,2,2:0:0:0:
47,280,62253,6,0,B|31:313|31:313|17:352,1,78.2999976104737,2|8,3:1|2:0,0:0:0:0:
126,241,62503,2,0,B|163:261|163:261|231:292,1,117.449996415711,2|0,1:0|0:0,0:0:0:0:
219,363,62753,2,0,P|257:362|287:338,1,78.2999976104737,8|0,2:0|1:0,0:0:0:0:
324,189,63003,5,2,1:0:0:0:
358,155,63086,5,8,2:0:0:0:
391,152,63169,5,8,2:0:0:0:
404,169,63253,6,0,P|329:143|253:125,1,156.599995220947,6|8,1:0|2:0,0:0:0:0:
220,61,63628,1,0,1:0:0:0:
102,168,63753,6,0,P|139:159|169:134,1,78.2999976104737,0|8,3:0|2:0,0:0:0:0:
334,0,64003,2,0,B|309:15|309:15|306:38|294:61,1,78.2999976104737,2|0,1:2|2:0,0:0:0:0:
173,0,64253,1,10,2:0:0:0:
324,189,64503,6,0,B|347:200|347:200|357:203|357:203|402:224,1,78.2999976104737,0|2,1:0|2:0,0:0:0:0:
473,191,64753,1,8,2:0:0:0:
339,287,64878,1,0,1:0:0:0:
383,348,65003,1,2,2:0:0:0:
452,314,65128,1,8,2:0:0:0:
290,354,65253,6,0,B|262:365|262:365|256:365|256:365|216:379,1,78.2999976104737,0|2,1:0|3:2,0:0:0:0:
111,208,65503,1,4,1:2:0:0:
191,271,65628,1,8,2:0:0:0:
57,377,65753,1,8,2:0:0:0:
84,305,65878,1,0,1:0:0:0:
207,183,66003,6,0,B|167:120|223:129|177:59,1,117.449996415711,4|0,1:0|0:0,0:0:0:0:
170,70,66253,6,0,B|201:104|201:104|232:109,1,78.2999976104737,8|0,2:0|1:0,0:0:0:0:
138,0,66503,1,2,2:0:0:0:
28,98,66628,1,2,3:2:0:0:
0,22,66753,6,0,P|52:44|66:99,1,117.449996415711,8|0,2:0|0:0,0:0:0:0:
106,161,67003,5,8,2:0:0:0:
96,172,67086,5,8,3:0:0:0:
92,188,67169,5,4,3:0:0:0:
120,259,67253,6,0,L|232:293,1,117.449996415711,4|0,1:0|0:0,0:0:0:0:
298,262,67503,6,0,B|308:246|308:246|298:227,1,39.1499988052369,8|0,2:0|3:0,0:0:0:0:
245,179,67628,1,8,1:2:0:0:
331,57,67753,5,8,2:0:0:0:
380,47,67836,1,0,3:0:0:0:
417,84,67919,1,0,3:0:0:0:
416,123,68003,1,4,1:0:0:0:
401,139,68086,1,8,2:0:0:0:
386,138,68169,1,8,2:0:0:0:
376,127,68253,5,4,1:2:0:0:
372,137,68336,5,8,2:0:0:0:
364,158,68419,5,8,2:0:0:0:
356,190,68503,5,2,1:2:0:0:
340,255,68586,5,8,2:0:0:0:
341,332,68669,5,8,2:0:0:0:
369,384,68753,6,0,P|278:332|176:315,1,208.79999362793,6|8,1:0|2:0,0:0:0:0:
74,230,69128,1,0,1:0:0:0:
229,169,69253,6,0,P|215:204|181:222,1,78.2999976104737,2|8,3:2|2:0,0:0:0:0:
13,384,69503,2,0,B|17:362|17:362|20:357|20:357|32:304,1,78.2999976104737,0|0,1:0|2:0,0:0:0:0:
26,302,69753,1,8,2:0:0:0:
30,17,70003,6,0,P|85:70|161:80,1,156.599995220947,2|8,1:0|2:0,0:0:0:0:
217,33,70378,1,0,1:0:0:0:
368,148,70503,1,2,2:0:0:0:
371,73,70628,2,0,B|332:76|332:76|305:106,1,78.2999976104737,8|0,2:0|1:0,0:0:0:0:
125,274,71003,5,8,2:0:0:0:
301,180,71128,1,8,2:0:0:0:
349,244,71253,5,2,1:0:0:0:
481,318,71378,1,8,2:0:0:0:
356,383,71503,6,0,B|313:370|313:370|293:341|293:341|201:313,1,156.599995220947,6|8,1:0|2:0,0:0:0:0:
220,319,72003,6,0,B|251:326|251:326|294:309,1,78.2999976104737,8|8,2:0|2:0,0:0:0:0:
192,249,72253,1,0,1:0:0:0:
320,117,72503,5,8,2:0:0:0:
432,233,72628,1,0,3:0:0:0:
361,365,72753,1,4,1:0:0:0:
426,326,72878,1,0,3:0:0:0:
349,201,73003,6,0,B|339:178|339:178|337:153|337:153|324:127,1,78.2999976104737,8|8,2:0|2:0,0:0:0:0:
373,65,73253,1,2,3:2:0:0:
310,23,73378,1,8,2:0:0:0:
207,114,73503,1,4,1:0:0:0:
109,69,73628,1,8,2:0:0:0:
61,131,73753,6,0,B|73:203|108:159|118:227,1,117.449996415711,8|0,2:0|0:0,0:0:0:0:
184,270,74003,5,2,1:2:0:0:
176,282,74086,5,8,2:0:0:0:
163,292,74169,5,8,2:0:0:0:
118,354,74253,6,0,B|55:364|15:325|15:325|1:280,1,156.599995220947,4|8,1:0|2:0,0:0:0:0:
2,281,74753,5,0,3:0:0:0:
35,355,74878,1,8,2:0:0:0:
118,227,75003,5,2,1:2:0:0:
275,357,75253,5,8,2:0:0:0:
447,226,75503,6,0,B|442:193|404:190|404:190|334:217,1,117.449996415711,4|0,1:0|0:0,0:0:0:0:
297,255,75753,5,0,1:0:0:0:
251,237,75836,1,0,3:0:0:0:
242,190,75919,1,0,3:0:0:0:
269,153,76003,1,0,1:0:0:0:
316,135,76086,1,0,3:0:0:0:
342,93,76169,1,0,3:0:0:0:
330,51,76253,1,8,3:0:0:0:
290,21,76336,1,0,3:0:0:0:
245,24,76419,1,0,3:0:0:0:
220,63,76503,5,4,3:0:0:0:
240,96,76586,5,0,3:0:0:0:
227,115,76669,5,0,3:0:0:0:
252,153,76753,5,8,2:0:0:0:
233,199,76836,5,8,2:0:0:0:
263,248,76919,5,8,2:0:0:0:
241,306,77003,6,0,B|201:249|267:195|251:237|326:183|282:126,1,208.79999362793,4|10,1:0|2:0,0:0:0:0:
162,0,77378,1,2,1:2:0:0:
237,0,77503,6,0,B|234:28|234:28|218:84,1,87,2|8,3:2|2:0,0:0:0:0:
88,237,77753,1,8,2:0:0:0:
0,125,77878,5,0,1:0:0:0:
35,122,77940,1,0,3:0:0:0:
60,149,78003,1,8,2:0:0:0:
181,259,78128,1,8,2:0:0:0:
63,367,78253,6,0,P|88:362|111:350,1,52.1999984069825,6|2,1:0|2:0,0:0:0:0:
252,187,78378,1,10,2:0:0:0:
252,187,78503,1,8,2:0:0:0:
20,273,78628,5,8,1:2:0:0:
247,384,78753,1,8,1:2:0:0:
260,379,78836,5,0,0:0:0:0:
267,364,78919,5,0,0:0:0:0:
269,341,79003,5,2,1:0:0:0:
234,307,79065,1,2,3:1:0:0:
184,316,79128,1,2,3:1:0:0:
161,358,79190,1,2,3:1:0:0:
171,380,79253,6,0,P|184:358|189:333,1,52.1999984069825,10|2,3:2|3:1,0:0:0:0:
353,217,79378,2,0,P|358:191|371:169,1,52.1999984069825,2|2,1:0|3:1,0:0:0:0:
207,116,79503,6,0,P|220:138|226:164,1,52.1999984069825,10|2,3:2|3:1,0:0:0:0:
353,294,79628,2,0,P|358:319|372:342,1,52.1999984069825,10|2,3:2|3:1,0:0:0:0:
217,243,79753,6,0,L|25:279,1,191.400005841065,6|8,1:0|2:0,0:0:0:0:
147,165,80128,1,0,1:0:0:0:
92,222,80253,5,0,3:0:0:0:
27,62,80378,1,8,2:0:0:0:
27,62,80503,2,0,P|70:80|130:91,1,95.7000029205323,4|2,1:0|2:0,0:0:0:0:
31,165,80753,5,8,2:0:0:0:
0,216,80836,1,0,3:0:0:0:
28,278,80919,1,0,3:0:0:0:
97,310,81003,6,0,P|149:324|197:353,1,95.7000029205323,4|0,1:0|3:0,0:0:0:0:
480,193,81253,2,0,B|516:219|521:156|418:148|341:228,1,191.400005841065,8|0,2:0|3:0,0:0:0:0:
307,280,81628,1,8,2:0:0:0:
414,363,81753,5,0,1:0:0:0:
352,216,81878,1,0,3:0:0:0:
207,270,82003,1,0,1:0:0:0:
414,363,82253,5,8,2:0:0:0:
190,176,82378,2,0,B|199:211|199:211|198:235|198:235|206:270,1,95.7000029205323,0|4,1:0|1:0,0:0:0:0:
209,277,82753,6,0,B|111:238|111:238|97:245|97:245|84:290|44:309,1,191.400005841065,12|8,2:0|2:0,0:0:0:0:
195,159,83128,1,0,1:0:0:0:
106,97,83253,2,0,B|117:110|121:129|121:129|182:155,1,95.7000029205323,12|0,2:0|2:0,0:0:0:0:
353,237,83503,5,8,2:0:0:0:
209,277,83628,1,0,1:0:0:0:
445,327,83753,6,0,P|371:334|365:225,1,191.400005841065,4|8,1:0|2:0,0:0:0:0:
270,68,84128,1,0,1:0:0:0:
365,236,84253,5,0,3:0:0:0:
404,195,84336,1,0,3:0:0:0:
396,125,84419,1,0,3:0:0:0:
344,68,84503,5,0,1:0:0:0:
252,153,84628,1,0,3:0:0:0:
159,128,84753,5,8,2:0:0:0:
110,74,84836,1,0,3:0:0:0:
123,18,84919,1,0,3:0:0:0:
155,0,85003,5,8,2:0:0:0:
252,153,85128,1,2,1:2:0:0:
208,277,85253,6,0,B|95:317|95:317|93:325|93:325|137:326|164:362,1,191.400005841065,6|8,1:0|2:0,0:0:0:0:
298,233,85628,1,0,1:0:0:0:
279,310,85753,5,0,3:0:0:0:
126,224,85878,1,8,2:0:0:0:
323,378,86003,2,0,P|362:338|338:284,1,95.7000029205323,4|0,1:0|2:0,0:0:0:0:
252,151,86253,5,8,2:0:0:0:
219,98,86336,1,0,3:0:0:0:
244,31,86419,1,0,3:0:0:0:
318,24,86503,6,0,B|327:77|283:121|284:95|249:138|256:172,1,143.550004380798,4|0,1:0|0:0,0:0:0:0:
239,164,86753,2,0,L|349:200,1,95.7000029205323,10|0,2:0|1:0,0:0:0:0:
102,314,87003,6,0,B|123:270|123:270|126:221,1,95.7000029205323,0|8,3:0|2:0,0:0:0:0:
300,362,87253,1,2,1:0:0:0:
219,257,87378,6,0,B|227:275|227:275|225:293|225:293|232:311,1,47.8500014602662,0|0,3:0|3:0,0:0:0:0:
200,370,87503,1,2,1:0:0:0:
188,375,87566,1,0,3:0:0:0:
188,364,87628,1,0,3:0:0:0:
313,282,87753,1,10,2:0:0:0:
413,365,87878,1,0,1:0:0:0:
498,331,88003,5,6,1:0:0:0:
500,340,88253,6,0,L|279:287,1,191.400005841065,12|8,2:0|2:0,0:0:0:0:
205,108,88628,1,2,1:2:0:0:
142,170,88753,2,0,P|119:133|112:63,1,95.7000029205323,4|0,1:0|2:0,0:0:0:0:
279,169,89003,1,0,1:0:0:0:
209,210,89128,1,8,2:0:0:0:
389,129,89253,6,0,P|379:180|356:225,1,95.7000029205323,4|8,1:0|3:0,0:0:0:0:
263,37,89503,1,8,2:0:0:0:
426,271,89628,6,0,P|388:304|331:323,1,95.7000029205323,6|8,1:0|2:0,0:0:0:0:
211,108,89878,1,8,2:0:0:0:
280,384,90003,6,0,P|217:370|136:311,1,143.550004380798,6|8,1:0|2:0,0:0:0:0:
87,290,90253,5,6,1:0:0:0:
132,250,90336,1,8,2:0:0:0:
181,258,90419,1,8,3:0:0:0:
237,304,90503,5,4,1:0:0:0:
242,312,90586,1,8,3:0:0:0:
236,316,90669,1,8,3:0:0:0:
197,379,90753,5,4,1:0:0:0:
197,379,91003,6,0,B|216:323|187:273|187:273|212:177,1,191.400005841065,8|2,2:0|3:2,0:0:0:0:
384,71,91378,1,8,2:0:0:0:
464,133,91503,2,0,P|488:90|491:29,1,95.7000029205323,4|0,1:0|2:0,0:0:0:0:
330,144,91753,5,8,2:0:0:0:
269,147,91836,1,0,3:0:0:0:
227,94,91919,1,0,3:0:0:0:
238,26,92003,6,0,P|287:16|339:-3,1,95.7000029205323,4|0,1:0|3:0,0:0:0:0:
512,295,92253,2,0,P|466:240|346:227,1,191.400005841065,12|0,2:0|3:0,0:0:0:0:
464,133,92628,5,10,2:0:0:0:
352,224,92753,1,2,1:2:0:0:
261,170,92878,1,0,3:0:0:0:
169,200,93003,5,2,1:2:0:0:
162,205,93253,6,0,L|89:222,1,47.8500014602662,8|0,2:0|0:0,0:0:0:0:
54,221,93378,2,0,L|-8:235,1,47.8500014602662,2|0,1:2|0:0,0:0:0:0:
0,242,93503,5,6,1:0:0:0:
0,242,93753,6,0,B|51:213|101:257|101:257|106:314|166:335,1,191.400005841065,12|0,2:0|3:0,0:0:0:0:
356,231,94128,1,0,1:0:0:0:
346,332,94253,6,0,P|373:292|358:233,1,95.7000029205323,4|0,1:0|2:0,0:0:0:0:
191,118,94503,1,8,2:0:0:0:
221,190,94628,1,8,2:0:0:0:
114,61,94753,6,0,L|313:107,1,191.400005841065,4|8,1:0|2:0,0:0:0:0:
221,190,95128,1,0,1:0:0:0:
456,55,95253,5,8,2:0:0:0:
389,35,95336,1,0,3:0:0:0:
333,65,95419,1,0,3:0:0:0:
306,109,95503,5,4,1:0:0:0:
221,190,95628,1,2,3:1:0:0:
69,109,95753,5,8,2:0:0:0:
137,94,95836,1,0,3:0:0:0:
197,129,95919,1,0,3:0:0:0:
226,182,96003,1,4,1:0:0:0:
351,278,96128,1,2,3:1:0:0:
292,369,96253,5,6,1:0:0:0:
301,362,96503,6,0,B|224:345|254:389|147:363,1,143.550004380798,8|0,2:0|0:0,0:0:0:0:
152,362,96753,1,0,3:0:0:0:
252,271,96878,1,2,1:2:0:0:
221,190,97003,6,0,P|269:179|323:156,1,95.7000029205323,4|0,1:0|2:0,0:0:0:0:
155,279,97253,1,8,2:0:0:0:
102,227,97336,1,0,3:0:0:0:
111,159,97419,1,0,3:0:0:0:
161,103,97503,6,0,P|115:91|61:69,1,95.7000029205323,4|0,1:0|3:0,0:0:0:0:
336,245,97753,2,0,P|409:266|476:294,1,143.550004380798,8|0,2:0|0:0,0:0:0:0:
481,298,98003,5,2,2:0:0:0:
301,362,98128,1,2,1:2:0:0:
260,168,98253,1,2,1:0:0:0:
300,371,98378,1,2,3:2:0:0:
461,206,98503,5,8,2:0:0:0:
389,196,98586,1,0,3:0:0:0:
336,245,98669,1,0,3:0:0:0:
264,288,98753,5,8,2:0:0:0:
220,294,98836,1,8,2:0:0:0:
191,265,98919,1,8,2:0:0:0:
141,209,99003,6,0,B|256:192|233:270|342:260,1,191.400005841065,6|8,1:0|2:0,0:0:0:0:
267,59,99378,1,0,1:0:0:0:
370,91,99503,2,0,L|269:65,1,95.7000029205323,0|8,3:0|2:0,0:0:0:0:
188,119,99753,5,0,1:0:0:0:
303,179,99878,2,0,P|279:191|241:197,1,47.8500014602662,0|0,3:0|3:0,0:0:0:0:
125,53,100003,2,0,P|111:73|104:101,1,47.8500014602662,8|0,2:0|0:0,0:0:0:0:
35,293,100128,2,0,P|56:283|77:261,1,47.8500014602662,0|0,3:0|0:0,0:0:0:0:
191,128,100253,6,0,L|231:333,1,191.400005841065,4|8,1:0|2:0,0:0:0:0:
66,157,100628,1,0,1:0:0:0:
120,207,100711,6,0,P|146:227|176:236,2,63.8000019470215,2|2|8,2:0|2:0|2:0,0:0:0:0:
364,221,101003,6,0,P|376:266|398:314,1,95.7000029205323,8|0,2:0|3:0,0:0:0:0:
396,310,101190,1,2,3:2:0:0:
396,310,101253,1,2,1:2:0:0:
195,146,101378,6,0,L|207:89,1,47.8500014602662,0|2,3:0|0:0,0:0:0:0:
202,22,101503,5,8,2:0:0:0:
224,20,101586,1,0,3:0:0:0:
243,35,101669,1,0,3:0:0:0:
314,59,101753,6,0,P|219:89|92:106,1,191.400005841065,6|8,1:0|2:0,0:0:0:0:
249,238,102128,1,0,1:0:0:0:
276,167,102253,1,0,3:0:0:0:
161,228,102378,1,8,2:0:0:0:
275,350,102503,1,0,1:0:0:0:
188,354,102628,6,0,B|188:331|188:331|201:309,1,47.8500014602662,2|0,1:0|0:0,0:0:0:0:
353,227,102753,2,0,B|368:248|368:248|369:276,1,47.8500014602662,10|2,2:0|2:0,0:0:0:0:
415,369,102878,6,0,L|361:353,1,47.8500014602662,10|2,2:0|2:0,0:0:0:0:
60,191,103003,2,0,L|252:238,1,191.400005841065,4|8,1:0|2:0,0:0:0:0:
432,112,103378,6,0,P|454:69|446:20,1,95.7000029205323,2|2,1:2|2:1,0:0:0:0:
327,81,103628,1,2,1:2:0:0:
266,27,103753,5,4,1:0:0:0:
206,21,103836,1,10,2:0:0:0:
168,59,103919,1,10,2:0:0:0:
172,115,104003,5,10,2:0:0:0:
171,129,104086,1,10,2:0:0:0:
160,124,104169,1,10,2:0:0:0:
90,114,104253,5,10,2:0:0:0:
241,228,104378,1,8,2:0:0:0:
80,373,104503,6,0,B|71:346|71:346|76:310|76:310|61:266,1,95.7000029205323,6|0,1:0|3:0,0:0:0:0:
308,169,104753,2,0,P|363:202|411:277,1,143.550004380798,8|0,2:0|0:0,0:0:0:0:
431,288,105003,6,0,P|382:298|331:318,1,95.7000029205323,2|8,3:2|2:0,0:0:0:0:
173,140,105253,1,0,1:0:0:0:
145,214,105378,5,2,1:2:0:0:
308,169,105503,1,12,2:0:0:0:
141,223,105628,1,0,1:0:0:0:
228,5,105753,6,0,P|250:48|248:104,1,95.7000029205323,4|0,1:0|2:0,0:0:0:0:
176,300,106003,1,8,2:0:0:0:
6,207,106128,6,0,P|49:165|101:167,1,95.7000029205323,8|8,3:0|2:0,0:0:0:0:
272,298,106378,1,8,2:0:0:0:
272,298,106440,1,8,2:0:0:0:
272,298,106503,5,8,1:2:0:0:
222,333,106586,1,8,2:0:0:0:
176,300,106669,1,8,2:0:0:0:
150,229,106753,5,0,1:0:0:0:
154,217,106836,1,8,2:0:0:0:
160,203,106919,1,8,2:0:0:0:
150,128,107003,6,0,L|137:76,1,47.8500014602662,2|8,3:0|0:0,0:0:0:0:
314,187,107128,2,0,L|249:209,1,47.8500014602662,8|8,2:0|0:0,0:0:0:0:
32,348,107253,6,0,B|126:373|94:321|242:358,1,191.400005841065,6|0,1:0|0:0,0:0:0:0:
226,358,107753,5,2,2:1:0:0:
414,44,109253,6,0,B|431:43|431:43|455:27,3,46.4,0|0|0|0,3:0|3:0|3:0|3:0,0:0:0:0:
377,107,109628,1,0,3:0:0:0:
297,42,109753,1,0,3:0:0:0:
228,78,109878,1,0,3:0:0:0:
130,208,110003,5,6,1:0:0:0:
256,192,110065,12,0,113253,2:0:0:0:
