osu file format v14

[General]
AudioFilename: audio.mp3
AudioLeadIn: 0
PreviewTime: 41252
Countdown: 0
SampleSet: Soft
StackLeniency: 0.8
Mode: 0
LetterboxInBreaks: 0
WidescreenStoryboard: 0

[Editor]
DistanceSpacing: 0.3
BeatDivisor: 4
GridSize: 32
TimelineZoom: 3.899998

[Metadata]
Title:Beatrice
TitleUnicode:Beatrice
Artist:xi
ArtistUnicode:xi
Creator:Esutarosa
Version:Viatrix
Source:SPRING 9KEYS ROAD 2011
Tags:Featured Artist FA iljaaz Keqing pepekcz l1ght_u light_u -hitomi Soraka gazimal moph ponbot マジックジャズ magic jazz Instrumental Parousia
BeatmapID:3694974
BeatmapSetID:1801967

[Difficulty]
HPDrainRate:5.8
CircleSize:4.2
OverallDifficulty:8.8
ApproachRate:9.7
SliderMultiplier:1.74
SliderTickRate:1

[Events]
//Background and Video events
0,0,"bg.jpg",0,0
//Break Periods
//Storyboard Layer 0 (Background)
//Storyboard Layer 1 (Fail)
//Storyboard Layer 2 (Pass)
//Storyboard Layer 3 (Foreground)
//Storyboard Layer 4 (Overlay)
//Storyboard Sound Samples

[TimingPoints]
3,250,11,2,1,35,1,0
1253,-156.25,11,2,1,35,0,0
2753,-106.382978723404,11,2,1,40,0,0
3315,-106.382978723404,11,2,1,42,0,0
3503,-106.382978723404,11,2,1,40,0,0
3690,-106.382978723404,11,2,1,42,0,0
3753,-106.382978723404,11,2,1,40,0,0
6940,-106.382978723404,11,2,1,42,0,0
7128,-106.382978723404,11,2,1,40,0,0
7315,-106.382978723404,11,2,1,42,0,0
7503,-106.382978723404,11,2,1,40,0,0
8253,-106.382978723404,11,2,1,45,0,0
10065,-106.382978723404,11,2,1,42,0,0
10253,-106.382978723404,11,2,1,45,0,0
11003,-87.7192982456139,11,2,1,50,0,0
14377,-87.7192982456139,11,2,1,42,0,0
14503,-87.7192982456139,11,2,1,50,0,0
14627,-87.7192982456139,11,2,1,42,0,0
14753,-87.7192982456139,11,2,1,50,0,0
14878,-87.7192982456139,11,2,1,42,0,0
15003,-87.7192982456139,11,2,1,50,0,0
16503,-87.719298245614,11,2,1,50,0,0
17190,-87.719298245614,11,2,1,42,0,0
17253,-87.719298245614,11,2,1,50,0,0
17690,-87.719298245614,11,2,1,42,0,0
17753,-87.719298245614,11,2,1,50,0,0
17940,-87.719298245614,11,2,1,42,0,0
18003,-87.719298245614,11,2,1,50,0,0
19253,-87.719298245614,11,2,1,60,0,0
19753,-96.1538461538461,11,2,1,60,0,0
20190,-96.1538461538461,11,2,1,42,0,0
20253,-96.1538461538461,11,2,1,60,0,0
24190,-96.1538461538461,11,2,1,42,0,0
24253,-96.1538461538461,11,2,1,60,0,0
25440,-96.1538461538461,11,2,1,42,0,0
25503,-96.1538461538461,11,2,1,60,0,0
25690,-96.1538461538461,11,2,1,42,0,0
25753,-96.1538461538461,11,2,1,60,0,0
27190,-96.1538461538461,11,2,1,42,0,0
27253,-96.1538461538461,11,2,1,60,0,0
27440,-96.1538461538461,11,2,1,42,0,0
27503,-96.1538461538461,11,2,1,60,0,0
27690,-96.1538461538461,11,2,1,42,0,0
27753,-96.1538461538461,11,2,1,60,0,0
30253,-87.719298245614,11,2,1,60,0,0
31503,-96.1538461538461,11,2,1,60,0,0
32440,-96.1538461538461,11,2,1,42,0,0
32503,-96.1538461538461,11,2,1,60,0,0
33190,-96.1538461538461,11,2,1,42,0,0
33253,-96.1538461538461,11,2,1,60,0,0
35753,-87.719298245614,11,2,1,60,0,0
35940,-87.719298245614,11,2,1,42,0,0
36003,-96.1538461538461,11,2,1,60,0,0
38503,-74.6268656716418,11,2,1,60,0,0
38690,-74.6268656716418,11,2,1,42,0,0
38753,-96.1538461538461,11,2,1,60,0,0
39753,-80.6451612903226,11,2,1,60,0,0
40003,-96.1538461538461,11,2,1,60,0,0
41253,-57.4712643678161,11,2,1,60,0,0
41628,-74.6268656716418,11,2,1,60,0,0
42003,-57.4712643678161,11,2,1,60,0,0
42378,-74.6268656716418,11,2,1,60,0,0
42503,-57.4712643678161,11,2,1,60,0,0
42690,-57.4712643678161,11,2,1,42,0,0
42753,-57.4712643678161,11,2,1,60,0,0
42878,-74.6268656716418,11,2,1,60,0,0
43253,-60.9756097560976,11,2,1,60,0,0
43378,-74.6268656716418,11,2,1,60,0,0
44003,-135.135135135135,11,2,1,60,0,0
44190,-135.135135135135,11,2,1,42,0,0
44253,-57.4712643678161,11,2,1,60,0,0
44440,-57.4712643678161,11,2,1,42,0,0
44503,-57.4712643678161,11,2,1,60,0,0
44628,-74.6268656716418,11,2,1,60,0,0
44753,-57.4712643678161,11,2,1,60,0,0
44940,-57.4712643678161,11,2,1,42,0,0
45003,-57.4712643678161,11,2,1,60,0,0
45128,-74.6268656716418,11,2,1,60,0,0
45253,-51.5463917525773,11,2,1,60,0,0
45440,-51.5463917525773,11,2,1,42,0,0
45503,-57.4712643678161,11,2,1,60,0,0
45628,-74.6268656716418,11,2,1,60,0,0
46003,-185.185185185185,11,2,1,60,0,0
46190,-185.185185185185,11,2,1,42,0,0
46253,-87.719298245614,11,2,1,60,0,0
46440,-87.719298245614,11,2,1,42,0,0
46503,-87.719298245614,11,2,1,60,0,0
46753,-60.9756097560976,11,2,1,60,0,0
46940,-60.9756097560976,11,2,1,42,0,0
47003,-60.9756097560976,11,2,1,60,0,0
47128,-74.6268656716418,11,2,1,60,0,0
47503,-57.4712643678161,11,2,1,60,0,0
47690,-57.4712643678161,11,2,1,42,0,0
47753,-57.4712643678161,11,2,1,60,0,0
47878,-74.6268656716418,11,2,1,60,0,0
48003,-57.4712643678161,11,2,1,60,0,0
48190,-57.4712643678161,11,2,1,42,0,0
48253,-57.4712643678161,11,2,1,60,0,0
48378,-74.6268656716418,11,2,1,60,0,0
49503,-64.9350649350649,11,2,1,60,0,0
49690,-64.9350649350649,11,2,1,42,0,0
49753,-64.9350649350649,11,2,1,60,0,0
49878,-80.6451612903226,11,2,1,60,0,0
50940,-80.6451612903226,11,2,1,42,0,0
51003,-80.6451612903226,11,2,1,60,0,0
52440,-80.6451612903226,11,2,1,42,0,0
52503,-80.6451612903226,11,2,1,60,0,0
53190,-80.6451612903226,11,2,1,42,0,0
53253,-80.6451612903226,11,2,1,60,0,0
53503,-87.719298245614,11,2,1,60,0,0
53690,-87.719298245614,11,2,1,42,0,0
53753,-87.719298245614,11,2,1,60,0,0
53878,-80.6451612903226,11,2,1,60,0,0
55003,-64.9350649350649,11,2,1,60,0,0
55190,-64.9350649350649,11,2,1,42,0,0
55253,-64.9350649350649,11,2,1,60,0,0
55378,-74.6268656716418,11,2,1,60,0,0
56003,-135.135135135135,11,2,1,60,0,0
56190,-135.135135135135,11,2,1,42,0,0
56253,-57.4712643678161,11,2,1,60,0,0
56440,-57.4712643678161,11,2,1,42,0,0
56503,-57.4712643678161,11,2,1,60,0,0
56628,-74.6268656716418,11,2,1,60,0,0
57753,-57.4712643678161,11,2,1,60,0,0
58003,-106.382978723404,11,2,1,60,0,0
58378,-74.6268656716418,11,2,1,60,0,0
58503,-106.382978723404,11,2,1,60,0,0
58690,-106.382978723404,11,2,1,42,0,0
58753,-106.382978723404,11,2,1,60,0,0
58940,-106.382978723404,11,2,1,42,0,0
59003,-106.382978723404,11,2,1,60,0,0
59940,-106.382978723404,11,2,1,42,0,0
60003,-106.382978723404,11,2,1,60,0,0
61440,-106.382978723404,11,2,1,42,0,0
61503,-106.382978723404,11,2,1,60,0,0
63253,-74.6268656716417,11,2,1,60,0,0
63440,-74.6268656716417,11,2,1,42,0,0
63503,-87.719298245614,11,2,1,60,0,0
63753,-106.382978723404,11,2,1,60,0,0
63878,-74.6268656716418,11,2,1,60,0,0
64003,-135.135135135135,11,2,1,60,0,0
64190,-135.135135135135,11,2,1,42,0,0
64253,-106.382978723404,11,2,1,60,0,0
66190,-106.382978723404,11,2,1,42,0,0
66253,-106.382978723404,11,2,1,60,0,0
66940,-106.382978723404,11,2,1,42,0,0
67003,-106.382978723404,11,2,1,60,0,0
67253,-96.153846153846,11,2,1,60,0,0
67440,-96.153846153846,11,2,1,42,0,0
67503,-74.6268656716418,11,2,1,60,0,0
68753,-64.9350649350649,11,2,1,60,0,0
69253,-87.719298245614,11,2,1,60,0,0
69503,-96.1538461538461,11,2,1,60,0,0
69690,-96.1538461538461,11,2,1,42,0,0
69753,-96.1538461538461,11,2,1,60,0,0
70940,-96.1538461538461,11,2,1,42,0,0
71003,-96.1538461538461,11,2,1,60,0,0
72753,-80.6451612903226,11,2,1,60,0,0
72940,-80.6451612903226,11,2,1,42,0,0
73003,-96.1538461538461,11,2,1,60,0,0
73940,-96.1538461538461,11,2,1,42,0,0
74003,-96.1538461538461,11,2,1,60,0,0
74440,-96.1538461538461,11,2,1,42,0,0
74503,-96.1538461538461,11,2,1,60,0,0
75190,-96.1538461538461,11,2,1,42,0,0
75253,-96.1538461538461,11,2,1,60,0,0
75440,-96.1538461538461,11,2,1,42,0,0
75503,-96.1538461538461,11,2,1,60,0,0
77003,-64.9350649350649,11,2,1,60,0,0
77190,-64.9350649350649,11,2,1,42,0,0
77253,-64.9350649350649,11,2,1,60,0,0
77878,-74.6268656716418,11,2,1,60,0,0
78253,-57.4712643678161,11,2,1,60,0,0
78565,-57.4712643678161,11,2,1,42,0,0
78628,-57.4712643678161,11,2,1,60,0,0
79253,-74.6268656716418,11,2,1,60,0,0
79753,-49.0196078431373,11,2,1,60,0,0
79940,-49.0196078431373,11,2,1,42,0,0
80003,-57.4712643678161,11,2,1,60,0,0
80128,-74.6268656716418,11,2,1,60,0,0
80503,-57.4712643678161,11,2,1,60,0,0
80690,-57.4712643678161,11,2,1,42,0,0
80753,-57.4712643678161,11,2,1,60,0,0
81253,-74.6268656716418,11,2,1,60,0,0
81440,-74.6268656716418,11,2,1,42,0,0
81503,-74.6268656716418,11,2,1,60,0,0
82003,-106.382978723404,11,2,1,60,0,0
82190,-106.382978723404,11,2,1,42,0,0
82253,-74.6268656716418,11,2,1,60,0,0
82503,-96.1538461538461,11,2,1,60,0,0
82690,-96.1538461538461,11,2,1,42,0,0
82753,-57.4712643678161,11,2,1,60,0,0
82940,-57.4712643678161,11,2,1,42,0,0
83003,-57.4712643678161,11,2,1,60,0,0
83440,-57.4712643678161,11,2,1,42,0,0
83503,-57.4712643678161,11,2,1,60,0,0
83940,-57.4712643678161,11,2,1,42,0,0
84003,-74.6268656716418,11,2,1,60,0,0
85253,-57.4712643678161,11,2,1,60,0,0
85440,-57.4712643678161,11,2,1,42,0,0
85503,-57.4712643678161,11,2,1,60,0,0
85628,-64.9350649350649,11,2,1,60,0,0
86003,-57.4712643678161,11,2,1,60,0,0
86190,-57.4712643678161,11,2,1,42,0,0
86253,-57.4712643678161,11,2,1,60,0,0
86690,-57.4712643678161,11,2,1,42,0,0
86753,-135.135135135135,11,2,1,60,0,0
87003,-74.6268656716418,11,2,1,60,0,0
88003,-135.135135135135,11,2,1,60,0,0
88190,-135.135135135135,11,2,1,42,0,0
88253,-54.3478260869565,11,2,1,60,0,0
88440,-54.3478260869565,11,2,1,42,0,0
88503,-54.3478260869565,11,2,1,60,0,0
88628,-57.4712643678161,11,2,1,60,0,0
88940,-57.4712643678161,11,2,1,42,0,0
89003,-57.4712643678161,11,2,1,60,0,0
89253,-51.5463917525773,11,2,1,60,0,0
89503,-106.382978723404,11,2,1,60,0,0
89628,-51.5463917525773,11,2,1,60,0,0
89878,-106.382978723404,11,2,1,60,0,0
90003,-51.5463917525773,11,2,1,60,0,0
90753,-57.4712643678161,11,2,1,60,0,0
90940,-57.4712643678161,11,2,1,42,0,0
91003,-74.6268656716418,11,2,1,60,0,0
91190,-74.6268656716418,11,2,1,42,0,0
91253,-74.6268656716418,11,2,1,60,0,0
91503,-57.4712643678161,11,2,1,60,0,0
91690,-57.4712643678161,11,2,1,42,0,0
91753,-57.4712643678161,11,2,1,60,0,0
92440,-57.4712643678161,11,2,1,42,0,0
92503,-57.4712643678161,11,2,1,60,0,0
92753,-74.6268656716418,11,2,1,60,0,0
92940,-74.6268656716418,11,2,1,42,0,0
93003,-74.6268656716418,11,2,1,60,0,0
93190,-74.6268656716418,11,2,1,42,0,0
93253,-74.6268656716418,11,2,1,60,0,0
93503,-135.135135135135,11,2,1,60,0,0
93690,-135.135135135135,11,2,1,42,0,0
93753,-57.4712643678161,11,2,1,60,0,0
93940,-57.4712643678161,11,2,1,42,0,0
94003,-57.4712643678161,11,2,1,60,0,0
94128,-74.6268656716418,11,2,1,60,0,0
94253,-57.4712643678161,11,2,1,60,0,0
94440,-57.4712643678161,11,2,1,42,0,0
94503,-57.4712643678161,11,2,1,60,0,0
94940,-57.4712643678161,11,2,1,42,0,0
95003,-57.4712643678161,11,2,1,60,0,0
95253,-74.6268656716418,11,2,1,60,0,0
95503,-106.382978723404,11,2,1,60,0,0
96253,-135.135135135135,11,2,1,60,0,0
96440,-135.135135135135,11,2,1,42,0,0
96503,-74.6268656716418,11,2,1,60,0,0
97003,-57.4712643678161,11,2,1,60,0,0
97190,-57.4712643678161,11,2,1,42,0,0
97253,-57.4712643678161,11,2,1,60,0,0
97690,-57.4712643678161,11,2,1,42,0,0
97753,-106.382978723404,11,2,1,60,0,0
99003,-57.471264367816,11,2,1,60,0,0
99190,-57.471264367816,11,2,1,42,0,0
99253,-57.471264367816,11,2,1,60,0,0
99503,-74.6268656716418,11,2,1,60,0,0
105690,-74.6268656716418,11,2,1,42,0,0
105753,-74.6268656716418,11,2,1,60,0,0
105940,-74.6268656716418,11,2,1,42,0,0
106003,-74.6268656716418,11,2,1,60,0,0
107253,-96.153846153846,11,2,1,50,0,0
107752,-96.153846153846,11,2,1,40,0,0
109253,-96.153846153846,11,2,1,30,0,0
110003,-96.153846153846,11,2,1,40,0,0
110034,-96.153846153846,11,2,1,5,0,0
110065,-416.666666666665,11,2,1,42,0,0
113253,-416.666666666665,11,2,1,5,0,0

[Colours]
Combo1 : 157,157,255
Combo2 : 163,203,252

[HitObjects]
371,55,1253,5,0,3:0:0:0:
359,54,1378,1,0,3:0:0:0:
374,139,1628,5,0,3:0:0:0:
365,146,1753,1,0,3:0:0:0:
445,180,2003,5,0,3:0:0:0:
444,192,2253,5,0,3:0:0:0:
443,199,2336,5,0,3:0:0:0:
442,206,2419,5,0,3:0:0:0:
441,213,2503,5,0,3:0:0:0:
386,293,2628,5,0,3:0:0:0:
506,380,2753,5,6,1:0:0:0:
483,311,2878,2,0,B|447:282|406:310|406:310|394:363|324:353,1,163.559997504273,0|0,3:0|3:0,0:0:0:0:
293,308,3253,2,0,P|299:288|306:269,1,40.8899993760681,0|0,3:0|0:0,0:0:0:0:
151,119,3503,6,0,P|180:171|239:175,1,122.669998128204,2|0,1:0|0:0,0:0:0:0:
245,167,3753,1,0,3:0:0:0:
325,77,3878,6,0,P|317:57|312:38,1,40.8899993760681,2|2,3:2|3:2,0:0:0:0:
325,40,4003,6,0,P|319:59|312:78,1,40.8899993760681,2|2,1:0|3:2,0:0:0:0:
238,175,4128,6,0,B|207:185|173:193|173:193|120:234|172:272,1,163.559997504273,2|0,3:2|3:0,0:0:0:0:
238,175,4503,1,0,3:0:0:0:
164,150,4628,1,0,3:0:0:0:
120,211,4753,1,0,3:0:0:0:
170,270,4878,1,0,3:0:0:0:
107,208,5003,5,0,3:0:0:0:
426,25,5253,5,0,3:0:0:0:
426,25,5378,1,0,3:0:0:0:
382,81,5503,6,0,P|350:106|310:110,1,81.7799987521363,6|0,1:0|3:0,0:0:0:0:
198,52,5753,2,0,B|169:46|169:46|143:36|143:36|118:32,1,81.7799987521363,2|0,1:0|3:0,0:0:0:0:
108,30,6003,1,0,3:0:0:0:
0,134,6128,5,2,1:0:0:0:
0,56,6253,2,0,P|68:96|80:174,1,163.559997504273,2|0,1:0|3:0,0:0:0:0:
134,227,6628,1,0,3:0:0:0:
9,350,6753,5,2,1:0:0:0:
56,295,6878,2,0,P|49:275|45:255,1,40.8899993760681,0|0,3:0|0:0,0:0:0:0:
216,121,7128,5,0,3:0:0:0:
221,132,7253,2,0,P|214:151|210:171,1,40.8899993760681,0|0,3:0|0:0,0:0:0:0:
270,327,7503,5,0,3:0:0:0:
378,224,7753,5,0,3:0:0:0:
375,216,7836,5,0,3:0:0:0:
373,208,7919,5,0,3:0:0:0:
371,200,8003,5,0,3:0:0:0:
403,125,8128,5,0,3:0:0:0:
337,291,8253,5,6,1:0:0:0:
436,346,8378,2,0,B|458:346|475:324|475:324|458:379|395:380|364:330,1,163.559997504273,0|0,3:0|3:0,0:0:0:0:
337,291,8753,1,0,3:0:0:0:
465,168,8878,1,2,1:0:0:0:
403,125,9003,6,0,B|358:110|330:151|330:151|338:205|269:221,1,163.559997504273,2|0,1:0|3:0,0:0:0:0:
403,125,9378,1,0,3:0:0:0:
206,30,9503,5,2,1:0:0:0:
274,66,9628,2,0,B|314:40|351:73|351:73|356:127|427:126,1,163.559997504273,0|0,3:0|3:0,0:0:0:0:
460,75,10003,6,0,P|454:56|450:36,1,40.8899993760681,0|0,3:0|0:0,0:0:0:0:
468,83,10253,5,0,3:0:0:0:
228,297,10503,5,2,3:0:0:0:
159,331,10628,1,6,3:0:0:0:
106,278,10753,1,10,3:0:0:0:
109,267,10878,1,10,3:0:0:0:
52,133,11003,5,6,1:0:0:0:
102,78,11128,2,0,P|162:78|188:158,1,148.76999818396,2|0,3:2|3:0,0:0:0:0:
180,157,11378,2,0,P|165:137|158:113,1,49.5899993946533,2|0,3:2|3:0,0:0:0:0:
229,0,11503,5,2,3:2:0:0:
300,26,11628,1,2,2:0:0:0:
284,100,11753,5,0,3:2:0:0:
282,104,11815,1,2,2:0:0:0:
280,108,11878,1,2,2:0:0:0:
278,112,11940,1,2,2:0:0:0:
276,116,12003,5,2,3:2:0:0:
287,190,12128,1,2,3:2:0:0:
397,278,12253,5,6,1:0:0:0:
506,179,12378,2,0,P|458:173|425:208,1,99.1799987893067,0|2,3:0|3:2,0:0:0:0:
392,290,12586,5,0,3:0:0:0:
442,346,12711,2,0,P|474:345|499:325,2,66.1199991928711,0|0|2,3:0|3:0|3:0,0:0:0:0:
425,207,13003,5,10,3:0:0:0:
488,168,13128,1,4,3:0:0:0:
414,193,13253,1,4,3:0:0:0:
307,274,13378,5,4,3:0:0:0:
259,269,13440,1,8,3:0:0:0:
241,226,13503,1,8,3:0:0:0:
190,163,13586,5,4,3:0:0:0:
143,151,13669,5,2,3:0:0:0:
111,185,13753,6,0,B|175:169|216:222|175:217|225:279|289:251,1,198.359997578613,6|2,1:0|2:0,0:0:0:0:
369,132,14128,1,0,3:0:0:0:
321,78,14253,6,0,P|281:105|278:152,1,99.1799987893067,2|0,2:0|0:0,0:0:0:0:
391,284,14503,2,0,B|425:295|425:295|426:298|426:298|491:321,1,99.1799987893067,0|0,3:0|0:0,0:0:0:0:
385,293,14753,5,2,1:2:0:0:
325,326,14878,1,0,0:0:0:0:
150,192,15003,6,0,B|168:144|225:151|225:151|224:149|224:149|250:177|244:204,1,148.76999818396,6|2,1:0|2:0,0:0:0:0:
262,271,15253,2,0,P|251:293|243:316,1,49.5899993946533,2|2,3:0|2:0,0:0:0:0:
240,327,15378,1,10,3:2:0:0:
365,218,15503,5,8,2:0:0:0:
164,330,15628,1,8,2:0:0:0:
41,231,15753,6,0,P|64:238|80:257,1,49.5899993946533,8|8,3:2|3:2,0:0:0:0:
88,246,15878,2,0,P|101:268|99:292,1,49.5899993946533,8|8,3:2|3:2,0:0:0:0:
61,352,16003,6,0,P|32:368|1:366,2,66.1199991928711,8|12|4,3:2|3:0|3:0,0:0:0:0:
150,192,16253,5,8,3:0:0:0:
146,179,16336,5,8,3:0:0:0:
142,166,16419,5,2,3:0:0:0:
114,69,16503,6,0,B|51:94|64:157|64:157|72:107|123:90,1,198.359997578613,6|2,1:0|2:0,0:0:0:0:
142,166,16878,1,2,3:2:0:0:
236,242,17003,2,0,B|294:282|364:208|294:152|275:209,1,148.76999818396,2|0,3:2|0:0,0:0:0:0:
304,259,17253,6,0,L|317:306,1,49.5899993946533,0|0,3:0|3:0,0:0:0:0:
320,314,17378,1,8,2:0:0:0:
287,58,17503,6,0,P|221:72|233:138,1,148.76999818396,4|0,1:2|0:0,0:0:0:0:
286,191,17753,2,0,B|372:179|333:245|437:231,1,148.76999818396,6|0,1:0|0:0,0:0:0:0:
474,181,18003,5,8,2:0:0:0:
383,262,18128,1,8,3:0:0:0:
337,118,18253,5,4,3:0:0:0:
491,261,18378,1,2,3:0:0:0:
310,384,18503,5,2,3:0:0:0:
237,381,18586,5,8,3:0:0:0:
214,311,18669,5,8,3:0:0:0:
262,255,18753,5,4,3:0:0:0:
290,218,18836,5,4,3:0:0:0:
265,178,18919,5,2,3:0:0:0:
196,156,19003,6,0,P|168:172|137:182,1,66.1199991928711,8|8,3:0|3:0,0:0:0:0:
196,148,19169,1,4,3:0:0:0:
310,384,19253,6,0,B|353:336|297:278|308:319|243:259|293:210,1,198.359997578613,6|8,1:0|2:0,0:0:0:0:
355,167,19628,1,2,2:0:0:0:
237,45,19753,6,0,B|220:57|227:74|227:74|291:107,1,90.4799994477539,2|8,3:1|2:0,0:0:0:0:
446,219,20003,2,0,B|414:201|431:170|431:170|504:143,1,135.719999171631,0|0,1:0|0:0,0:0:0:0:
512,150,20253,5,8,2:0:0:0:
401,37,20378,1,2,2:0:0:0:
490,0,20503,6,0,P|500:42|472:75,1,90.4799994477539,0|0,1:0|3:0,0:0:0:0:
294,209,20753,2,0,P|252:191|207:184,1,90.4799994477539,8|2,2:0|3:2,0:0:0:0:
107,58,21003,5,0,3:0:0:0:
166,100,21128,1,8,2:0:0:0:
71,253,21253,5,0,1:0:0:0:
20,194,21378,1,0,3:0:0:0:
67,136,21503,1,2,1:2:0:0:
118,195,21628,1,2,1:2:0:0:
24,320,21753,6,0,B|9:320|-13:336|-13:336|4:308|51:311,1,90.4799994477539,8|0,2:0|3:0,0:0:0:0:
78,260,22003,2,0,P|122:267|157:295,1,90.4799994477539,4|0,1:0|3:0,0:0:0:0:
261,373,22253,6,0,P|349:370|414:310,1,180.959998895508,10|2,2:0|3:2,0:0:0:0:
291,239,22628,5,10,2:0:0:0:
235,292,22753,2,0,P|231:335|263:364,1,90.4799994477539,2|2,1:0|3:1,0:0:0:0:
361,263,23003,5,10,2:0:0:0:
228,192,23128,1,2,3:1:0:0:
364,41,23253,6,0,B|327:142|327:142|342:97|316:61,1,180.959998895508,6|2,1:0|1:2,0:0:0:0:
433,8,23628,1,2,1:2:0:0:
489,54,23753,2,0,P|496:98|512:140,1,90.4799994477539,0|8,3:0|2:0,0:0:0:0:
361,263,24003,6,0,B|323:255|302:286|302:286|293:329|243:327,1,135.719999171631,2|0,1:0|0:0,0:0:0:0:
192,384,24253,5,8,2:0:0:0:
137,335,24336,5,8,3:0:0:0:
165,266,24419,5,4,3:0:0:0:
234,233,24503,5,8,2:0:0:0:
267,180,24586,5,4,3:0:0:0:
247,147,24669,5,4,3:0:0:0:
221,149,24753,6,0,P|241:237|254:326,1,180.959998895508,6|8,1:0|2:0,0:0:0:0:
109,149,25128,5,0,3:0:0:0:
49,201,25253,2,0,B|33:228|-1:234|-1:234|42:242|63:208,1,135.719999171631,2|0,3:1|0:0,0:0:0:0:
109,149,25503,2,0,B|119:76|63:109|74:23,1,135.719999171631,2|0,1:2|0:0,0:0:0:0:
73,24,25753,2,0,B|126:91|61:91|108:148,1,135.719999171631,8|0,2:0|3:0,0:0:0:0:
159,200,26003,5,2,1:2:0:0:
70,327,26128,2,0,P|97:293|141:293,1,90.4799994477539,0|8,3:0|2:0,0:0:0:0:
300,195,26378,5,2,1:2:0:0:
241,237,26503,1,0,3:0:0:0:
271,305,26628,1,8,2:0:0:0:
330,263,26753,1,0,1:0:0:0:
268,313,26878,1,0,3:0:0:0:
303,186,27003,6,0,B|265:140|302:78|364:88|342:138,1,135.719999171631,0|0,1:2|0:0,0:0:0:0:
248,65,27253,6,0,P|287:119|302:184,1,135.719999171631,8|0,2:0|0:0,0:0:0:0:
419,324,27503,6,0,B|435:342|462:344|462:344|403:359|377:296,1,135.719999171631,4|0,1:0|0:0,0:0:0:0:
336,266,27753,5,2,2:1:0:0:
468,164,27878,1,2,2:1:0:0:
424,239,28003,5,2,3:1:0:0:
222,153,28128,1,2,3:1:0:0:
123,254,28253,5,2,3:1:0:0:
114,257,28315,1,2,3:1:0:0:
105,260,28378,1,2,3:1:0:0:
97,263,28440,1,2,3:1:0:0:
88,266,28503,1,2,3:1:0:0:
25,315,28628,5,2,2:1:0:0:
160,195,28753,1,2,1:0:0:0:
10,90,28878,5,2,3:1:0:0:
62,36,29003,2,0,P|99:58|103:102,1,90.4799994477539,2|2,3:1|3:1,0:0:0:0:
0,245,29253,1,2,1:0:0:0:
101,369,29378,5,2,3:1:0:0:
161,320,29503,2,0,B|169:342|169:342|170:344|170:344|177:362,3,45.239999723877,2|2|2|2,3:1|3:1|3:1|3:1,0:0:0:0:
203,259,29753,5,6,3:1:0:0:
272,238,29836,5,0,3:0:0:0:
316,298,29919,5,0,3:0:0:0:
376,353,30003,5,10,3:2:0:0:
436,339,30086,5,0,3:0:0:0:
447,294,30169,5,0,3:0:0:0:
430,273,30253,6,0,P|334:297|262:364,1,198.359997578613,4|8,1:0|2:0,0:0:0:0:
434,187,30628,1,2,2:0:0:0:
388,125,30753,2,0,B|378:103|357:90|357:90|388:91|405:133,1,99.1799987893067,2|8,3:1|2:0,2:0:0:0:
434,187,31003,6,0,B|470:246|393:289|413:252|345:294|375:351,1,198.359997578613,0|8,1:0|2:0,0:0:0:0:
439,384,31378,1,0,3:0:0:0:
281,240,31503,5,2,1:0:0:0:
220,285,31628,1,0,3:0:0:0:
281,229,31753,5,8,2:0:0:0:
160,108,31878,1,0,3:0:0:0:
283,26,32003,6,0,B|300:38|293:55|293:55|229:88,1,90.4799994477539,2|8,3:1|2:0,0:0:0:0:
83,201,32253,2,0,B|115:183|98:152|98:152|25:125,1,135.719999171631,0|0,1:0|0:0,0:0:0:0:
17,132,32503,5,2,1:0:0:0:
182,32,32628,5,8,3:0:0:0:
113,3,32753,1,8,2:0:0:0:
67,63,32878,1,0,1:0:0:0:
125,259,33003,6,0,B|198:283|198:283|161:270|141:232,1,135.719999171631,6|0,1:0|0:0,0:0:0:0:
83,201,33253,5,8,2:0:0:0:
163,355,33378,1,0,3:0:0:0:
222,297,33503,5,2,1:0:0:0:
300,129,33628,1,8,2:0:0:0:
381,224,33753,5,2,1:0:0:0:
389,227,33815,1,2,2:0:0:0:
397,230,33878,1,2,2:0:0:0:
406,233,33940,1,2,2:0:0:0:
414,236,34003,1,10,2:0:0:0:
476,198,34128,5,2,3:1:0:0:
288,340,34253,1,14,2:0:0:0:
383,384,34378,6,0,L|360:296,1,90.4799994477539,0|2,3:0|1:0,0:0:0:0:
226,140,34628,1,2,1:0:0:0:
360,55,34753,6,0,P|336:56|317:65,1,45.239999723877,2|2,1:0|2:0,0:0:0:0:
301,54,34878,2,0,P|285:70|279:91,1,45.239999723877,2|2,3:1|2:0,0:0:0:0:
199,209,35003,2,0,P|213:251|221:296,1,90.4799994477539,10|2,1:2|1:1,0:0:0:0:
85,312,35253,5,8,3:2:0:0:
40,292,35315,1,2,0:0:0:0:
43,243,35378,1,2,2:1:0:0:
123,85,35503,5,10,0:0:0:0:
152,104,35566,1,8,0:0:0:0:
141,152,35628,1,10,2:0:0:0:
57,166,35753,6,0,P|129:181|198:208,1,148.76999818396,4|0,1:0|0:0,0:0:0:0:
254,261,36003,6,0,P|238:276|216:284,1,45.239999723877,8|0,2:0|3:0,0:0:0:0:
203,284,36128,1,0,3:0:0:0:
181,95,36253,5,2,3:1:0:0:
210,27,36378,1,0,3:0:0:0:
186,102,36503,1,2,1:2:0:0:
386,358,36753,6,0,P|411:322|396:281,1,90.4799994477539,10|0,2:0|3:0,0:0:0:0:
386,278,37003,1,2,1:2:0:0:
480,140,37128,5,2,2:0:0:0:
403,126,37253,2,0,P|414:169|423:214,1,90.4799994477539,2|0,3:1|3:0,0:0:0:0:
311,376,37503,5,2,3:1:0:0:
245,345,37628,1,10,3:2:0:0:
149,301,37753,5,2,1:0:0:0:
136,305,37815,1,0,3:0:0:0:
123,309,37878,1,2,3:1:0:0:
110,314,37940,1,0,3:0:0:0:
97,318,38003,1,2,1:0:0:0:
225,242,38128,6,0,P|233:221|233:198,1,45.239999723877,8|8,2:0|2:0,0:0:0:0:
244,196,38253,2,0,P|237:174|222:157,1,45.239999723877,8|8,2:0|2:0,0:0:0:0:
163,77,38378,5,8,2:0:0:0:
150,73,38440,1,8,2:0:0:0:
139,69,38503,6,0,B|105:73|88:98|88:98|106:35|196:43,1,174.869991728257,6|0,1:0|0:0,0:0:0:0:
241,6,38753,6,0,P|261:14|278:30,1,45.239999723877,8|0,2:0|3:0,0:0:0:0:
282,41,38878,1,0,3:0:0:0:
389,150,39003,5,2,3:1:0:0:
384,167,39065,1,2,3:1:0:0:
379,184,39128,1,2,3:1:0:0:
415,256,39253,5,2,1:0:0:0:
297,336,39378,1,2,3:1:0:0:
191,240,39503,5,8,3:2:0:0:
237,204,39565,1,0,3:0:0:0:
297,213,39628,1,2,3:1:0:0:
323,268,39690,1,0,3:0:0:0:
297,336,39753,6,0,B|205:323|246:393|138:379,1,161.819993580139,6|0,1:0|2:0,0:0:0:0:
77,369,40003,6,0,B|79:346|79:346|95:330,1,45.239999723877,8|0,2:0|3:0,0:0:0:0:
191,240,40128,2,0,L|234:252,1,45.239999723877,0|0,3:0|3:0,0:0:0:0:
63,88,40253,6,0,P|74:108|92:122,1,45.239999723877,8|0,2:0|3:0,0:0:0:0:
90,138,40378,2,0,P|111:145|133:143,1,45.239999723877,0|0,3:0|3:0,0:0:0:0:
241,56,40503,6,0,B|247:38|247:38|250:34|250:34|256:13,1,45.239999723877,6|0,1:0|3:0,0:0:0:0:
242,13,40628,2,0,B|248:31|248:31|251:35|251:35|257:55,1,45.239999723877,0|0,3:0|3:0,0:0:0:0:
290,119,40753,5,2,3:1:0:0:
342,169,40836,5,0,3:0:0:0:
311,237,40919,5,0,3:0:0:0:
234,252,41003,5,2,1:0:0:0:
197,305,41086,5,0,3:0:0:0:
223,340,41169,5,0,3:0:0:0:
248,336,41253,6,0,B|285:328|298:293|298:293|296:353|226:390|165:347,1,227.070001905647,6|0,1:0|2:0,0:0:0:0:
115,322,41503,2,0,B|102:308|86:302|86:302|114:301|141:337,1,75.6900006352158,8|0,2:0|3:0,0:0:0:0:
235,175,41628,1,0,3:0:0:0:
115,100,41753,6,0,P|110:155|155:187,1,116.579994485504,2|0,2:0|3:0,0:0:0:0:
405,223,42003,6,0,B|355:226|324:170|324:170|348:251|294:291,1,227.070001905647,6|0,1:0|2:0,0:0:0:0:
379,308,42253,6,0,P|384:323|382:302,1,75.6900006352158,8|0,2:0|3:0,0:0:0:0:
317,155,42378,1,0,3:0:0:0:
473,50,42503,6,0,B|488:16|529:16|529:16|466:3|418:51|439:108,1,227.070001905647,6|0,1:0|0:0,0:0:0:0:
462,174,42753,6,0,P|495:158|508:124,1,75.6900006352158,8|0,2:0|3:0,0:0:0:0:
379,2,42878,6,0,P|359:23|357:51,1,58.2899972427522,0|0,3:0|3:0,0:0:0:0:
363,59,43003,5,2,3:1:0:0:
208,155,43128,1,8,2:0:0:0:
174,76,43253,6,0,B|168:65|153:59|153:59|180:58|197:101,1,71.340001088562,2|0,1:0|3:0,0:0:0:0:
253,219,43378,2,0,P|242:246|235:274,1,58.2899972427522,2|0,3:1|3:0,0:0:0:0:
136,376,43503,5,2,1:0:0:0:
86,378,43565,1,2,3:1:0:0:
57,338,43628,1,2,3:1:0:0:
78,293,43690,1,2,3:1:0:0:
95,286,43753,6,0,P|122:296|150:304,1,58.2899972427522,8|2,2:0|2:0,0:0:0:0:
322,187,43878,1,2,1:0:0:0:
450,317,44003,6,0,P|494:323|513:282,1,96.5700023576661,4|0,1:0|0:0,0:0:0:0:
512,281,44253,2,0,P|408:274|385:376,1,227.070001905647,12|0,2:0|0:0,0:0:0:0:
392,384,44503,2,0,P|405:349|391:314,1,75.6900006352158,0|0,3:0|3:0,0:0:0:0:
322,187,44628,5,2,1:2:0:0:
354,118,44753,2,0,B|394:21|523:58|483:175|396:138,1,227.070001905647,12|0,2:0|0:0,0:0:0:0:
316,34,45003,6,0,B|301:26|295:3|295:3|306:22|347:42,1,75.6900006352158,8|0,2:0|3:0,0:0:0:0:
421,144,45128,1,2,3:1:0:0:
512,67,45253,6,0,P|390:100|275:153,1,253.170005987755,4|0,1:0|0:0,0:0:0:0:
216,199,45503,6,0,B|201:207|195:230|195:230|206:211|247:191,1,75.6900006352158,8|0,2:0|3:0,0:0:0:0:
275,153,45628,1,0,3:0:0:0:
121,28,45753,5,2,3:1:0:0:
172,1,45836,5,2,3:1:0:0:
213,47,45919,5,2,3:1:0:0:
206,56,46003,6,0,B|197:82|197:82|195:86|195:86|182:126,1,70.470001720459,2|0,1:0|0:0,0:0:0:0:
126,196,46253,6,0,B|88:161|108:120|108:120|106:158|137:183,1,148.76999818396,2|0,1:0|0:0,0:0:0:0:
195,231,46503,5,8,2:0:0:0:
252,278,46586,5,2,3:1:0:0:
243,337,46669,5,2,3:1:0:0:
201,356,46753,6,0,B|146:367|97:300|97:300|90:298|90:298|133:347|99:404,1,214.020003265686,6|0,1:0|0:0,0:0:0:0:
38,353,47003,6,0,B|24:364|6:368|6:368|35:368|59:352,1,71.340001088562,8|0,2:0|3:0,0:0:0:0:
195,231,47128,1,0,3:0:0:0:
90,109,47253,6,0,B|80:88|52:80|52:80|97:81|118:122,1,116.579994485504,0|0,3:0|1:0,0:0:0:0:
319,189,47503,6,0,B|385:203|404:99|283:84|246:177,1,227.070001905647,6|0,1:0|0:0,0:0:0:0:
195,231,47753,2,0,P|213:265|220:302,1,75.6900006352158,8|0,2:0|3:0,0:0:0:0:
111,373,47878,6,0,P|138:363|160:344,1,58.2899972427522,2|0,3:1|3:0,0:0:0:0:
290,382,48003,6,0,P|193:323|82:303,1,227.070001905647,6|0,1:0|0:0,0:0:0:0:
30,254,48253,6,0,B|12:247|0:234|0:234|4:255|25:262,1,75.6900006352158,8|0,2:0|3:0,0:0:0:0:
82,303,48378,1,0,3:0:0:0:
247,174,48503,5,2,3:1:0:0:
274,145,48565,1,2,3:1:0:0:
278,105,48628,1,2,1:0:0:0:
256,71,48690,1,0,3:0:0:0:
243,68,48753,6,0,P|214:73|191:90,1,58.2899972427522,2|0,1:0|3:0,0:0:0:0:
181,81,48878,2,0,P|163:103|157:132,1,58.2899972427522,10|0,2:0|3:0,0:0:0:0:
29,245,49003,5,10,1:2:0:0:
51,227,49065,1,8,0:0:0:0:
79,221,49128,1,8,2:0:0:0:
107,230,49190,1,2,0:0:0:0:
126,251,49253,5,2,1:2:0:0:
132,328,49336,5,8,2:0:0:0:
213,339,49419,5,8,2:0:0:0:
216,327,49503,6,0,B|190:261|100:278|100:278|138:301|133:353,1,200.969996013474,6|0,1:0|0:0,0:0:0:0:
59,339,49753,6,0,B|44:340|34:361|34:361|53:349|77:341,1,66.9899986711579,8|0,2:0|3:0,0:0:0:0:
237,231,49878,1,0,3:0:0:0:
236,156,50003,1,0,3:0:0:0:
161,147,50128,1,2,3:2:0:0:
291,295,50253,5,2,1:2:0:0:
301,299,50315,1,2,3:2:0:0:
311,303,50378,1,2,3:2:0:0:
321,307,50440,1,2,3:2:0:0:
331,311,50503,1,8,2:0:0:0:
411,248,50628,5,0,3:0:0:0:
460,382,50753,6,0,B|484:335|428:300|445:330|381:295|411:247,1,161.819993580139,4|0,1:0|0:0,0:0:0:0:
448,182,51003,6,0,P|470:196|482:220,1,53.9399978600465,8|0,2:0|3:0,0:0:0:0:
404,326,51128,6,0,B|430:317|430:317|435:317|435:317|473:304,2,71.9199971467286,0|0|0,1:0|3:0|3:0,0:0:0:0:
358,384,51378,1,2,1:2:0:0:
268,223,51503,5,8,2:0:0:0:
243,202,51565,1,0,3:0:0:0:
236,171,51628,1,0,3:0:0:0:
248,142,51690,1,0,3:0:0:0:
267,133,51753,5,2,1:2:0:0:
308,191,51836,5,0,3:0:0:0:
259,246,51919,5,0,3:0:0:0:
191,265,52003,5,8,2:0:0:0:
155,328,52086,5,0,3:0:0:0:
206,379,52169,5,0,3:0:0:0:
233,369,52253,6,0,B|252:306|358:306|346:384|303:377,1,161.819993580139,6|0,1:0|0:0,0:0:0:0:
273,297,52503,6,0,L|258:245,1,53.9399978600465,8|0,2:0|3:0,0:0:0:0:
349,116,52628,1,0,3:0:0:0:
311,51,52753,6,0,P|262:66|257:117,1,107.879995720093,0|2,3:0|1:2,0:0:0:0:
424,261,53003,2,0,B|467:237|453:187|453:187|447:234|392:256,1,161.819993580139,2|0,1:0|0:0,0:0:0:0:
362,303,53253,5,8,2:0:0:0:
346,308,53315,1,8,2:0:0:0:
331,313,53378,1,8,2:0:0:0:
316,319,53440,1,8,2:0:0:0:
233,369,53503,6,0,B|168:355|168:355|126:304|197:271,1,148.76999818396,6|0,1:0|0:0,0:0:0:0:
167,213,53753,1,10,2:0:0:0:
311,51,53878,2,0,P|333:96|298:132,1,107.879995720093,2|0,1:0|3:0,0:0:0:0:
119,52,54128,2,0,L|134:0,1,53.9399978600465,2|2,1:2|1:2,0:0:0:0:
133,0,54253,6,0,B|124:67|169:40|161:99,1,107.879995720093,6|2,1:0|3:2,0:0:0:0:
0,211,54503,5,8,2:0:0:0:
60,169,54586,5,8,2:0:0:0:
131,199,54669,5,8,2:0:0:0:
160,267,54753,5,8,2:0:0:0:
202,299,54836,5,8,2:0:0:0:
239,281,54919,5,8,2:0:0:0:
233,252,55003,6,0,P|138:243|87:324,1,200.969996013474,6|0,1:0|0:0,0:0:0:0:
37,375,55253,2,0,B|25:387|1:383|1:383|19:376|28:366,1,66.9899986711579,8|0,2:0|3:0,0:0:0:0:
222,150,55378,2,0,B|261:150|276:180|276:180|258:161|223:159,1,116.579994485504,0|0,3:0|3:0,0:0:0:0:
94,29,55628,5,8,2:0:0:0:
131,92,55753,2,0,B|119:120|119:120|142:167|142:167|130:198,1,116.579994485504,2|2,1:0|1:2,0:0:0:0:
265,339,56003,6,0,P|247:297|201:299,1,96.5700023576661,12|0,2:0|0:0,0:0:0:0:
87,323,56253,6,0,B|137:323|165:265|165:265|168:271|168:271|145:347|201:385,1,227.070001905647,6|0,1:0|0:0,0:0:0:0:
201,383,56503,5,8,2:0:0:0:
385,241,56628,1,0,1:0:0:0:
230,159,56753,5,8,2:0:0:0:
409,316,56878,1,8,2:0:0:0:
423,326,56940,1,8,2:0:0:0:
434,334,57003,5,8,2:0:0:0:
366,372,57086,5,0,3:0:0:0:
324,309,57169,5,0,3:0:0:0:
258,273,57253,5,8,2:0:0:0:
201,298,57336,5,0,3:0:0:0:
192,336,57419,5,0,3:0:0:0:
214,360,57503,5,8,2:0:0:0:
86,233,57628,6,0,P|91:261|112:280,1,58.2899972427522,8|8,2:0|2:0,0:0:0:0:
227,359,57753,1,6,1:0:0:0:
467,12,58003,6,0,P|440:41|401:48,1,81.7799987521363,8|0,2:0|1:0,0:0:0:0:
274,125,58253,5,2,3:1:0:0:
223,64,58378,2,0,B|219:53|205:43|205:43|227:47|233:67,1,58.2899972427522,8|0,2:0|3:0,0:0:0:0:
274,125,58503,6,0,B|340:132|298:174|376:183,1,122.669998128204,0|0,1:0|0:0,0:0:0:0:
462,151,58753,6,0,B|452:118|419:120|419:120|456:144|451:202,1,122.669998128204,4|0,3:0|0:0,0:0:0:0:
375,182,59003,5,0,1:0:0:0:
486,340,59128,1,2,2:0:0:0:
461,268,59253,6,0,P|422:276|401:309,2,81.7799987521363,8|0|0,2:0|1:0|2:0,0:0:0:0:
512,211,59628,5,8,2:0:0:0:
398,319,59753,2,0,P|342:338|294:303,1,122.669998128204,0|0,1:0|0:0,0:0:0:0:
293,288,60003,5,8,1:2:0:0:
162,172,60128,1,0,1:0:0:0:
254,127,60253,5,12,1:2:0:0:
163,336,60378,1,0,1:0:0:0:
31,121,60503,6,0,B|70:141|122:105|122:105|80:132|91:172,1,163.559997504273,6|8,1:0|2:0,0:0:0:0:
224,287,60878,1,0,1:0:0:0:
283,243,61003,2,0,P|272:205|234:193,1,81.7799987521363,2|8,2:0|2:0,0:0:0:0:
37,354,61253,6,0,B|70:342|70:342|120:354|120:354|153:341,1,122.669998128204,0|0,1:0|0:0,0:0:0:0:
163,336,61503,1,8,2:0:0:0:
314,384,61628,1,2,1:0:0:0:
385,358,61753,6,0,P|428:293|391:224,1,163.559997504273,4|2,1:2|3:2,0:0:0:0:
371,154,62128,1,2,2:0:0:0:
265,186,62253,5,2,3:1:0:0:
406,84,62378,1,8,2:0:0:0:
282,0,62503,6,0,P|301:34|338:51,1,81.7799987521363,2|2,1:0|2:0,0:0:0:0:
485,185,62753,5,8,2:0:0:0:
495,187,62836,5,8,2:0:0:0:
505,184,62919,5,8,2:0:0:0:
512,175,63003,5,2,1:0:0:0:
445,144,63086,5,8,2:0:0:0:
390,194,63169,5,8,2:0:0:0:
424,257,63253,6,0,B|445:241|470:251|470:251|437:223|384:242|378:295,1,174.869991728257,6|0,1:0|0:0,0:0:0:0:
405,361,63503,2,0,B|416:381|439:387|439:387|405:392|390:360,1,99.1799987893067,8|0,2:0|1:0,0:0:0:0:
273,211,63753,5,0,3:0:0:0:
224,149,63878,2,0,B|217:141|202:135|202:135|225:134|235:152,1,58.2899972427522,8|2,2:0|2:0,0:0:0:0:
273,211,64003,6,0,B|273:272|236:244|237:296,1,96.5700023576661,2|0,1:2|0:0,0:0:0:0:
298,367,64253,6,0,P|230:322|149:312,1,163.559997504273,10|0,2:0|1:0,0:0:0:0:
101,256,64628,1,2,2:0:0:0:
11,374,64753,6,0,P|50:367|72:334,1,81.7799987521363,8|0,2:0|1:0,0:0:0:0:
156,192,65003,1,2,2:0:0:0:
64,124,65128,6,0,P|73:142|89:154,1,40.8899993760681,8|0,2:0|3:0,0:0:0:0:
236,295,65253,1,0,1:0:0:0:
416,186,65378,5,2,3:2:0:0:
338,176,65503,2,0,P|349:215|359:254,1,81.7799987521363,4|8,1:2|2:0,0:0:0:0:
210,368,65753,1,8,2:0:0:0:
236,295,65878,1,0,1:0:0:0:
458,338,66003,6,0,B|484:338|503:360|503:360|490:325|443:322,1,122.669998128204,4|0,1:0|0:0,0:0:0:0:
381,355,66253,2,0,B|355:362|355:362|354:366|354:366|295:382,1,81.7799987521363,8|0,2:0|1:0,0:0:0:0:
477,234,66503,5,2,2:0:0:0:
337,168,66628,1,2,3:2:0:0:
340,94,66753,6,0,B|370:90|394:54|394:54|378:86|381:116,1,122.669998128204,8|0,2:0|0:0,0:0:0:0:
337,168,67003,5,8,2:0:0:0:
358,206,67086,5,8,3:0:0:0:
400,209,67169,5,4,3:0:0:0:
406,191,67253,6,0,P|340:208|278:234,1,135.719999171631,4|0,1:0|0:0,0:0:0:0:
232,292,67503,6,0,B|226:305|215:314|215:314|237:309|252:280,1,58.2899972427522,8|0,2:0|3:0,0:0:0:0:
278,234,67628,1,8,1:2:0:0:
160,30,67753,5,8,2:0:0:0:
93,58,67836,5,0,3:0:0:0:
98,132,67919,5,0,3:0:0:0:
157,171,68003,5,4,1:0:0:0:
185,162,68086,5,8,2:0:0:0:
192,140,68169,5,8,2:0:0:0:
185,129,68253,5,4,1:2:0:0:
181,142,68336,5,8,2:0:0:0:
170,169,68419,5,8,2:0:0:0:
160,210,68503,5,2,1:2:0:0:
142,287,68586,5,8,2:0:0:0:
137,375,68669,5,8,2:0:0:0:
146,384,68753,6,0,P|114:253|80:124,1,267.959994684631,6|8,1:0|2:0,0:0:0:0:
14,81,69128,5,0,1:0:0:0:
118,27,69253,2,0,B|121:10|141:-1|141:-1|86:28,1,99.1799987893067,2|8,3:2|2:0,0:0:0:0:
181,142,69503,6,0,B|232:164|232:164|296:145|259:89,1,135.719999171631,0|0,1:0|0:0,0:0:0:0:
281,36,69753,2,0,B|258:29|240:2|240:2|253:23|246:48,1,90.4799994477539,8|2,2:0|2:0,0:0:0:0:
341,204,70003,6,0,B|358:241|402:248|402:248|336:263|309:184,1,180.959998895508,2|8,1:0|2:0,0:0:0:0:
449,104,70378,2,0,B|457:85|479:81|479:81|446:74|433:113,1,90.4799994477539,0|2,1:0|2:0,0:0:0:0:
411,170,70628,1,8,2:0:0:0:
512,313,70753,2,0,P|446:306|401:354,1,135.719999171631,0|0,1:0|0:0,0:0:0:0:
381,360,71003,6,0,P|361:371|338:372,1,45.239999723877,8|8,2:0|2:0,0:0:0:0:
216,273,71128,1,8,2:0:0:0:
272,219,71253,6,0,B|290:232|290:232|289:255,1,45.239999723877,2|8,1:0|2:0,0:0:0:0:
155,384,71378,2,0,L|166:340,1,45.239999723877,8|8,2:0|2:0,0:0:0:0:
7,163,71503,6,0,B|46:156|80:192|73:237|73:237|58:198|15:191,1,180.959998895508,6|8,1:0|2:0,0:0:0:0:
3,267,71878,1,0,1:0:0:0:
86,126,72003,2,0,B|60:135|60:135|45:152|45:152|6:163,1,90.4799994477539,8|8,2:0|2:0,0:0:0:0:
101,40,72253,5,0,1:0:0:0:
169,78,72378,1,0,3:0:0:0:
236,188,72503,5,8,2:0:0:0:
305,160,72628,1,0,3:0:0:0:
474,103,72753,6,0,B|451:52|384:64|384:64|419:76|424:112,1,161.819993580139,4|0,1:0|0:0,0:0:0:0:
357,134,73003,2,0,L|304:161,1,45.239999723877,8|8,2:0|2:0,0:0:0:0:
473,0,73128,5,8,2:0:0:0:
421,176,73253,2,0,P|441:214|484:215,1,90.4799994477539,2|8,3:2|2:0,0:0:0:0:
368,338,73503,1,4,1:0:0:0:
484,214,73628,1,8,2:0:0:0:
361,342,73753,6,0,B|310:356|310:356|327:356|235:377,1,135.719999171631,8|0,2:0|0:0,0:0:0:0:
166,353,74003,5,2,1:2:0:0:
126,318,74086,5,8,2:0:0:0:
138,268,74169,5,8,2:0:0:0:
167,248,74253,6,0,B|200:231|230:254|230:254|244:294|298:289,1,135.719999171631,4|0,1:0|0:0,0:0:0:0:
343,248,74503,1,8,2:0:0:0:
220,123,74628,1,0,1:0:0:0:
316,105,74753,6,0,L|287:190,1,90.4799994477539,0|8,3:0|2:0,0:0:0:0:
122,70,75003,2,0,B|144:144|144:144|139:109|155:81,1,135.719999171631,2|0,1:2|0:0,0:0:0:0:
151,86,75253,6,0,B|114:81|94:114|94:114|95:156|43:171,1,135.719999171631,8|0,2:0|0:0,0:0:0:0:
0,121,75503,1,4,1:0:0:0:
167,248,75628,1,2,2:0:0:0:
116,342,75753,5,0,1:0:0:0:
61,366,75836,5,0,3:0:0:0:
16,330,75919,5,0,3:0:0:0:
22,290,76003,5,0,1:0:0:0:
56,270,76086,5,0,3:0:0:0:
80,274,76169,5,0,3:0:0:0:
111,306,76253,5,8,3:0:0:0:
139,351,76336,5,0,3:0:0:0:
177,356,76419,5,0,3:0:0:0:
209,343,76503,5,4,3:0:0:0:
230,297,76586,5,0,3:0:0:0:
294,265,76669,5,0,3:0:0:0:
360,295,76753,5,8,2:0:0:0:
406,356,76836,5,8,2:0:0:0:
477,326,76919,5,8,2:0:0:0:
443,256,77003,6,0,P|345:278|250:312,1,200.969996013474,4|0,1:0|0:0,0:0:0:0:
201,250,77253,6,0,B|187:256|186:276|186:276|194:260|224:244,1,66.9899986711579,10|2,2:0|3:2,0:0:0:0:
367,303,77378,6,0,B|381:309|381:329|381:329|374:313|344:297,1,66.9899986711579,2|2,1:2|3:2,0:0:0:0:
248,384,77503,6,0,B|270:325|270:325|270:321|270:321|294:258,1,133.979997342316,2|8,3:2|2:0,0:0:0:0:
399,144,77753,1,8,2:0:0:0:
326,130,77878,5,0,1:0:0:0:
315,170,77940,1,0,3:0:0:0:
347,197,78003,1,8,2:0:0:0:
488,97,78128,1,8,2:0:0:0:
344,19,78253,6,0,P|363:49|399:48,1,75.6900006352158,6|2,1:0|2:0,0:0:0:0:
399,47,78378,6,0,P|306:-1|239:80,1,227.070001905647,10|0,2:0|0:0,0:0:0:0:
194,142,78628,6,0,B|183:156|160:159|160:159|182:148|198:120,1,75.6900006352158,8|8,1:2|1:2,0:0:0:0:
293,258,78753,6,0,P|201:191|93:161,1,227.070001905647,8|8,1:2|2:0,0:0:0:0:
70,88,79003,5,2,1:0:0:0:
27,97,79065,1,2,3:1:0:0:
0,132,79128,1,2,3:1:0:0:
2,177,79190,1,2,3:1:0:0:
16,189,79253,6,0,P|39:172|67:165,1,58.2899972427522,10|2,3:2|3:1,0:0:0:0:
164,298,79378,2,0,P|135:291|112:274,1,58.2899972427522,2|2,1:0|3:1,0:0:0:0:
0,363,79503,6,0,P|15:338|25:310,1,58.2899972427522,10|2,3:2|3:1,0:0:0:0:
187,135,79628,2,0,P|175:108|168:80,1,58.2899972427522,10|2,3:2|3:1,0:0:0:0:
26,20,79753,6,0,P|128:103|256:132,1,266.220001624878,6|0,1:0|0:0,0:0:0:0:
308,80,80003,2,0,B|321:66|337:60|337:60|309:59|282:95,1,75.6900006352158,8|0,2:0|3:0,0:0:0:0:
169,226,80128,1,0,1:0:0:0:
317,357,80253,6,0,P|309:329|288:310,1,58.2899972427522,0|0,3:0|3:0,0:0:0:0:
281,310,80378,1,8,2:0:0:0:
431,272,80503,6,0,P|356:354|246:375,1,227.070001905647,4|0,1:0|0:0,0:0:0:0:
164,298,80753,5,8,2:0:0:0:
185,299,80836,5,0,3:0:0:0:
199,314,80919,5,0,3:0:0:0:
76,384,81003,6,0,P|111:386|145:369,1,75.6900006352158,4|0,1:0|3:0,0:0:0:0:
247,184,81128,2,0,B|239:167|219:161|219:161|235:175|244:202,1,75.6900006352158,0|0,3:0|3:0,0:0:0:0:
169,226,81253,6,0,P|242:179|327:161,1,174.869991728257,8|0,2:0|0:0,0:0:0:0:
376,108,81503,1,0,3:0:0:0:
254,4,81628,6,0,P|280:15|299:37,1,58.2899972427522,8|0,2:0|3:0,0:0:0:0:
298,45,81753,1,0,1:0:0:0:
398,182,81878,1,0,3:0:0:0:
470,131,82003,6,0,B|481:109|511:103|511:103|470:97|446:137,1,122.669998128204,0|0,1:0|0:0,0:0:0:0:
398,182,82253,6,0,P|407:209|428:229,1,58.2899972427522,8|0,2:0|3:0,0:0:0:0:
499,245,82378,1,0,1:0:0:0:
312,349,82503,6,0,B|361:324|361:324|421:331|402:398,1,135.719999171631,4|0,1:0|0:0,0:0:0:0:
400,382,82753,6,0,B|343:332|399:257|393:306|459:228|397:180,1,227.070001905647,12|0,2:0|0:0,0:0:0:0:
446,57,83003,6,0,P|458:91|438:121,1,75.6900006352158,8|0,2:0|3:0,0:0:0:0:
305,239,83128,1,0,1:0:0:0:
207,135,83253,6,0,B|180:107|144:115|144:115|195:85|264:125|260:199,1,227.070001905647,12|0,2:0|0:0,0:0:0:0:
305,239,83503,2,0,B|318:253|334:259|334:259|306:260|279:224,1,75.6900006352158,8|0,2:0|3:0,0:0:0:0:
285,37,83628,1,0,1:0:0:0:
154,188,83753,6,0,B|114:285|-15:248|25:131|112:168,1,227.070001905647,4|0,1:0|0:0,0:0:0:0:
205,297,84003,6,0,P|188:320|181:348,1,58.2899972427522,8|0,2:0|3:0,0:0:0:0:
185,356,84128,1,0,1:0:0:0:
36,358,84253,5,0,3:0:0:0:
53,351,84336,5,0,3:0:0:0:
82,327,84419,5,0,3:0:0:0:
92,282,84503,5,0,1:0:0:0:
15,187,84628,1,0,3:0:0:0:
176,75,84753,5,8,2:0:0:0:
115,67,84836,5,0,3:0:0:0:
78,105,84919,5,0,3:0:0:0:
82,144,85003,5,8,2:0:0:0:
0,279,85128,1,2,1:2:0:0:
183,353,85253,6,0,B|205:272|314:281|314:281|276:303|271:354,1,227.070001905647,6|0,1:0|0:0,0:0:0:0:
354,345,85503,2,0,B|363:358|381:370|381:370|356:365|348:350,1,75.6900006352158,8|0,2:0|3:0,0:0:0:0:
229,156,85628,6,0,B|194:145|192:111|192:111|212:153|276:156,1,133.979997342316,0|0,1:0|3:0,0:0:0:0:
296,208,85878,1,8,2:0:0:0:
455,68,86003,6,0,B|474:36|514:41|514:41|453:20|400:62|414:121,1,227.070001905647,4|0,1:0|0:0,0:0:0:0:
431,187,86253,5,8,2:0:0:0:
452,186,86336,5,0,3:0:0:0:
466,171,86419,5,0,3:0:0:0:
329,84,86503,6,0,P|418:151|462:254,1,227.070001905647,4|0,1:0|0:0,0:0:0:0:
512,309,86753,6,0,P|495:336|466:349,1,64.3800015717774,10|0,2:0|1:0,0:0:0:0:
406,305,87003,5,0,3:0:0:0:
509,114,87128,1,8,2:0:0:0:
455,68,87253,6,0,P|428:80|414:104,1,58.2899972427522,2|0,1:0|3:0,0:0:0:0:
301,273,87378,5,0,3:0:0:0:
263,286,87440,1,0,3:0:0:0:
224,270,87503,1,2,1:0:0:0:
208,232,87565,1,0,3:0:0:0:
224,194,87628,1,0,3:0:0:0:
104,314,87753,6,0,P|131:310|154:291,1,58.2899972427522,10|0,2:0|3:0,0:0:0:0:
313,151,87878,1,0,1:0:0:0:
208,40,88003,6,0,P|235:79|246:126,1,96.5700023576661,6|0,1:0|0:0,0:0:0:0:
246,126,88253,6,0,B|316:141|336:31|208:15|169:114,1,240.119991939331,12|0,2:0|0:0,0:0:0:0:
119,163,88503,2,0,B|109:174|87:181|87:181|113:182|127:168,1,80.0399973131104,8|0,2:0|3:0,0:0:0:0:
34,22,88628,6,0,P|70:30|93:58,1,75.6900006352158,2|0,1:2|3:0,0:0:0:0:
121,251,88753,6,0,B|171:254|202:198|202:198|178:279|232:319,1,227.070001905647,4|0,1:0|0:0,0:0:0:0:
279,364,89003,6,0,P|308:341|314:305,1,75.6900006352158,0|0,1:0|3:0,0:0:0:0:
206,384,89128,2,0,P|169:379|145:350,1,75.6900006352158,8|0,2:0|3:0,0:0:0:0:
212,182,89253,6,0,B|245:107|341:82|393:137|341:201|246:135,1,253.170005987755,4|8,1:0|2:0,0:0:0:0:
202,39,89503,6,0,L|212:0,1,40.8899993760681,8|8,2:0|2:0,0:0:0:0:
118,245,89628,6,0,B|85:170|-11:145|-63:200|-11:264|84:198,1,253.170005987755,6|8,1:0|2:0,0:0:0:0:
93,59,89878,6,0,L|83:20,1,40.8899993760681,8|8,2:0|0:0,0:0:0:0:
206,273,90003,6,0,B|265:309|352:264|352:264|357:265|357:265|297:286|300:357,1,253.170005987755,6|8,1:0|2:0,0:0:0:0:
380,340,90253,5,6,1:0:0:0:
452,313,90336,5,8,2:0:0:0:
452,233,90419,5,8,3:0:0:0:
385,200,90503,5,4,1:0:0:0:
356,126,90586,5,8,3:0:0:0:
414,74,90669,5,8,3:0:0:0:
477,115,90753,6,0,P|365:136|261:181,1,227.070001905647,4|0,1:0|0:0,0:0:0:0:
189,171,91003,6,0,B|135:144|145:92|145:92|154:135|197:153,1,174.869991728257,8|0,2:0|0:0,0:0:0:0:
261,181,91253,1,2,3:2:0:0:
167,333,91378,1,8,2:0:0:0:
279,297,91503,6,0,B|316:305|329:340|329:340|327:280|257:243|196:286,1,227.070001905647,4|0,1:0|0:0,0:0:0:0:
167,333,91753,5,8,2:0:0:0:
146,332,91836,5,0,3:0:0:0:
132,317,91919,5,0,3:0:0:0:
42,165,92003,6,0,P|77:175|101:204,1,75.6900006352158,4|0,1:0|3:0,0:0:0:0:
97,209,92128,1,0,3:0:0:0:
218,83,92253,6,0,P|150:173|114:280,1,227.070001905647,12|0,2:0|0:0,0:0:0:0:
0,379,92503,6,0,P|37:376|65:352,1,75.6900006352158,0|0,3:0|3:0,0:0:0:0:
202,260,92628,1,10,2:0:0:0:
131,54,92753,6,0,B|116:99|151:126|151:126|121:74|165:4,1,174.869991728257,2|0,1:2|0:0,0:0:0:0:
283,151,93003,6,0,B|318:119|301:78|301:78|301:138|228:177,1,174.869991728257,2|0,1:2|0:0,0:0:0:0:
218,83,93253,5,8,2:0:0:0:
358,183,93378,1,2,1:2:0:0:
265,296,93503,6,0,P|221:302|202:261,1,96.5700023576661,6|0,1:0|0:0,0:0:0:0:
202,260,93753,2,0,P|306:253|329:355,1,227.070001905647,12|0,2:0|0:0,0:0:0:0:
318,360,94003,1,0,3:0:0:0:
483,205,94128,6,0,P|463:226|436:237,1,58.2899972427522,0|0,1:0|3:0,0:0:0:0:
218,83,94253,2,0,B|198:51|158:56|158:56|219:35|272:77|258:136,1,227.070001905647,4|0,1:0|0:0,0:0:0:0:
239,202,94503,6,0,P|205:185|190:151,1,75.6900006352158,8|8,2:0|2:0,0:0:0:0:
274,0,94628,1,8,2:0:0:0:
115,147,94753,6,0,P|211:87|322:70,1,227.070001905647,4|0,1:0|0:0,0:0:0:0:
389,41,95003,6,0,B|406:27|408:6|408:6|395:28|363:41,1,75.6900006352158,8|0,2:0|3:0,0:0:0:0:
322,70,95128,1,0,1:0:0:0:
496,186,95253,5,8,2:0:0:0:
483,169,95336,5,0,3:0:0:0:
463,165,95419,5,0,3:0:0:0:
406,118,95503,6,0,P|368:131|349:167,1,81.7799987521363,4|2,1:0|3:1,0:0:0:0:
219,280,95753,5,8,2:0:0:0:
206,297,95836,5,0,3:0:0:0:
186,301,95919,5,0,3:0:0:0:
129,348,96003,6,0,P|91:334|72:298,1,81.7799987521363,4|2,1:0|3:1,0:0:0:0:
0,132,96253,6,0,B|37:144|37:144|37:146|37:146|89:161,1,96.5700023576661,6|0,1:0|0:0,0:0:0:0:
195,64,96503,6,0,P|168:74|149:96,1,58.2899972427522,8|0,2:0|3:0,0:0:0:0:
147,105,96628,1,0,1:0:0:0:
219,280,96753,1,0,3:0:0:0:
161,232,96878,2,0,P|172:206|176:177,1,58.2899972427522,2|0,1:2|3:0,0:0:0:0:
340,278,97003,6,0,P|228:294|128:347,1,227.070001905647,4|0,1:0|0:0,0:0:0:0:
67,307,97253,5,8,2:0:0:0:
54,322,97336,5,0,3:0:0:0:
55,343,97419,5,0,3:0:0:0:
208,352,97503,6,0,B|312:365|344:235|223:211|211:305,1,227.070001905647,4|0,1:0|0:0,0:0:0:0:
56,168,97753,6,0,P|59:207|89:233,1,81.7799987521363,8|0,2:0|1:0,0:0:0:0:
161,233,98003,1,2,2:0:0:0:
314,112,98128,1,2,1:2:0:0:
177,66,98253,5,2,1:0:0:0:
301,299,98378,1,2,3:2:0:0:
109,364,98503,5,8,2:0:0:0:
44,361,98586,5,0,3:0:0:0:
16,313,98669,5,0,3:0:0:0:
32,258,98753,5,8,2:0:0:0:
89,233,98836,5,8,2:0:0:0:
105,180,98919,5,8,2:0:0:0:
94,168,99003,6,0,B|52:110|-36:178|47:275|143:228,1,227.070001905647,6|0,1:0|0:0,0:0:0:0:
182,180,99253,2,0,B|187:166|213:160|213:160|194:173|179:208,1,75.6900006352158,8|0,2:0|3:0,0:0:0:0:
127,234,99378,1,0,1:0:0:0:
229,351,99503,2,0,B|252:381|286:370|286:370|257:368|239:342,1,116.579994485504,0|8,3:0|2:0,0:0:0:0:
288,201,99753,5,0,1:0:0:0:
313,214,99815,1,0,3:0:0:0:
326,239,99878,1,0,3:0:0:0:
324,268,99940,1,0,3:0:0:0:
306,290,100003,1,8,2:0:0:0:
160,369,100128,1,0,3:0:0:0:
38,189,100253,6,0,P|94:188|127:233,1,116.579994485504,4|0,1:0|3:0,0:0:0:0:
318,367,100503,6,0,P|344:379|373:378,1,58.2899972427522,8|2,2:0|0:0,0:0:0:0:
382,374,100628,1,0,1:0:0:0:
433,314,100711,6,0,P|461:287|499:285,2,77.7199963236696,2|2|8,2:0|2:0|2:0,0:0:0:0:
421,203,101003,5,8,2:0:0:0:
416,168,101065,1,2,3:2:0:0:
436,140,101128,1,0,3:0:0:0:
470,132,101190,1,2,3:2:0:0:
493,128,101253,5,2,1:2:0:0:
506,90,101336,5,0,3:0:0:0:
487,53,101419,5,0,3:0:0:0:
469,49,101503,6,0,P|442:74|441:112,2,77.7199963236696,8|0|0,2:0|3:0|3:0,0:0:0:0:
512,200,101753,2,0,P|415:136|301:117,1,233.159988971009,6|8,1:0|2:0,0:0:0:0:
249,58,102128,1,0,1:0:0:0:
151,173,102253,6,0,B|128:173|108:194|108:194|120:159|174:152,1,116.579994485504,0|8,3:0|2:0,0:0:0:0:
66,7,102503,6,0,P|93:15|115:34,1,58.2899972427522,0|0,1:0|3:0,0:0:0:0:
118,44,102628,1,2,1:0:0:0:
229,201,102753,5,10,2:0:0:0:
234,229,102815,1,2,2:0:0:0:
226,257,102878,1,10,2:0:0:0:
208,279,102940,1,2,2:0:0:0:
188,290,103003,6,0,P|161:277|133:269,1,58.2899972427522,4|2,1:0|2:0,0:0:0:0:
67,299,103128,1,2,2:0:0:0:
6,136,103253,6,0,P|21:160|48:171,1,58.2899972427522,8|0,2:0|3:0,0:0:0:0:
58,171,103378,1,2,1:2:0:0:
136,348,103503,1,2,2:1:0:0:
274,145,103628,6,0,P|246:153|228:175,1,58.2899972427522,2|2,1:2|2:0,0:0:0:0:
273,339,103753,5,4,1:0:0:0:
340,371,103836,5,10,2:0:0:0:
394,319,103919,5,10,2:0:0:0:
388,243,104003,5,10,2:0:0:0:
331,196,104086,5,10,2:0:0:0:
347,140,104169,5,10,2:0:0:0:
384,125,104253,5,10,2:0:0:0:
497,221,104378,1,8,2:0:0:0:
440,171,104503,6,0,B|336:184|304:54|425:30|437:121,1,233.159988971009,6|8,1:0|2:0,0:0:0:0:
299,0,104878,1,0,1:0:0:0:
429,112,105003,2,0,B|397:173|444:156|409:230,1,116.579994485504,2|8,3:2|2:0,0:0:0:0:
265,324,105253,6,0,P|288:307|316:301,1,58.2899972427522,0|0,1:0|3:0,0:0:0:0:
327,305,105378,1,2,1:2:0:0:
512,352,105503,6,0,B|508:316|477:285|433:291|433:291|474:309|475:366,1,174.869991728257,12|0,2:0|0:0,0:0:0:0:
401,361,105753,2,0,B|342:428|248:364|311:280|372:332,1,174.869991728257,4|0,1:0|0:0,0:0:0:0:
338,325,106003,5,8,2:0:0:0:
512,224,106128,1,8,3:0:0:0:
349,125,106253,1,8,2:0:0:0:
453,43,106378,6,0,P|446:70|424:89,1,58.2899972427522,8|8,2:0|2:0,0:0:0:0:
347,200,106503,5,8,1:2:0:0:
289,229,106586,5,8,2:0:0:0:
235,190,106669,5,8,2:0:0:0:
232,121,106753,5,0,1:0:0:0:
172,84,106836,5,8,2:0:0:0:
102,111,106919,5,8,2:0:0:0:
70,177,107003,6,0,P|82:202|108:215,1,58.2899972427522,2|8,3:0|0:0,0:0:0:0:
142,215,107128,5,8,2:0:0:0:
155,210,107190,1,8,0:0:0:0:
158,200,107253,2,0,B|108:194|79:223|96:225|73:265|16:266|16:266|100:236|98:116|-32:140|6:212,1,361.919997791016,6|2,1:0|2:1,0:0:0:0:
386,39,109253,5,0,3:0:0:0:
398,45,109336,5,0,3:0:0:0:
404,55,109419,5,0,3:0:0:0:
406,68,109503,5,0,3:0:0:0:
356,144,109628,5,0,3:0:0:0:
421,244,109753,5,0,3:0:0:0:
358,347,109878,5,0,3:0:0:0:
216,229,110003,6,0,L|195:239,1,22.6199998619385,6|0,1:0|0:0,0:0:0:0:
189,244,110065,6,0,B|257:235|297:275|274:277|305:332|382:333|382:333|268:292|271:130|435:151|411:244,1,532.440012999024,0|0,0:0|2:0,0:0:0:0:
