osu file format v14

[General]
AudioFilename: audio.mp3
AudioLeadIn: 0
PreviewTime: 41252
Countdown: 0
SampleSet: Soft
StackLeniency: 0.8
Mode: 0
LetterboxInBreaks: 0
WidescreenStoryboard: 1

[Editor]
Bookmarks: 46002,79752,110064
DistanceSpacing: 0.9
BeatDivisor: 4
GridSize: 32
TimelineZoom: 7.899995

[Metadata]
Title:Beatrice
TitleUnicode:Beatrice
Artist:xi
ArtistUnicode:xi
Creator:Esutarosa
Version:Soraka's Insane
Source:SPRING 9KEYS ROAD 2011
Tags:Featured Artist FA iljaaz Keqing pepekcz l1ght_u light_u -hitomi Soraka gazimal moph ponbot マジックジャズ magic jazz Instrumental Parousia
BeatmapID:3698101
BeatmapSetID:1801967

[Difficulty]
HPDrainRate:4.8
CircleSize:4
OverallDifficulty:8.2
ApproachRate:9
SliderMultiplier:1.6
SliderTickRate:1

[Events]
//Background and Video events
0,0,"bg.jpg",0,0
//Break Periods
//Storyboard Layer 0 (Background)
//Storyboard Layer 1 (Fail)
//Storyboard Layer 2 (Pass)
//Storyboard Layer 3 (Foreground)
//Storyboard Layer 4 (Overlay)
//Storyboard Sound Samples

[TimingPoints]
3,250,11,2,1,35,1,0
1253,-142.857142857143,11,2,1,35,0,0
2753,-142.857142857143,11,2,1,40,0,0
4003,-166.666666666667,11,2,1,40,0,0
5503,-142.857142857143,11,2,1,40,0,0
6753,-166.666666666667,11,2,1,40,0,0
8253,-142.857142857143,11,2,1,45,0,0
9503,-166.666666666667,11,2,1,45,0,0
10503,-142.857142857143,11,2,1,45,0,0
11003,-125,11,2,1,50,0,0
12586,-125,11,2,1,50,0,0
12752,-125,11,2,1,50,0,0
12836,-125,11,2,1,42,0,0
12877,-125,11,2,1,50,0,0
13003,-125,11,2,1,50,0,0
13586,-125,11,2,1,50,0,0
13753,-125,11,2,1,50,0,0
14628,-125,11,2,1,42,0,0
14753,-125,11,2,1,50,0,0
14878,-125,11,2,1,42,0,0
15003,-125,11,2,1,50,0,0
17628,-125,11,2,1,42,0,0
17753,-125,11,2,1,50,0,0
17878,-125,11,2,1,42,0,0
18003,-125,11,2,1,50,0,0
19253,-125,11,2,1,60,0,0
24190,-125,11,2,1,42,0,0
24253,-125,11,2,1,60,0,0
24503,-125,11,2,1,60,0,0
24565,-125,11,2,1,42,0,0
24753,-125,11,2,1,60,0,0
34440,-125,11,2,1,5,0,0
34503,-125,11,2,1,60,0,0
38690,-125,11,2,1,5,0,0
38753,-125,11,2,1,60,0,0
39940,-125,11,2,1,60,0,0
40003,-125,11,2,1,60,0,0
44003,-166.666666666667,11,2,1,60,0,0
44190,-250,11,2,1,5,0,0
44253,-125,11,2,1,60,0,0
46190,-125,11,2,1,5,0,0
46253,-125,11,2,1,60,0,0
46586,-125,11,2,1,60,0,0
46669,-125,11,2,1,60,0,0
51377,-125,11,2,1,60,0,0
52086,-125,11,2,1,60,0,0
52169,-125,11,2,1,60,0,0
52253,-125,11,2,1,60,0,0
75690,-125,11,2,1,5,0,0
75753,-125,11,2,1,60,0,0
79034,-125,11,2,1,42,0,0
79065,-125,11,2,1,60,0,0
79096,-125,11,2,1,42,0,0
79128,-125,11,2,1,60,0,0
79159,-125,11,2,1,42,0,0
79190,-125,11,2,1,60,0,0
79753,-100,11,2,1,60,0,1
90190,-100,11,2,1,60,0,1
90253,-100,11,2,1,60,0,1
91690,-100,11,2,1,42,0,1
91753,-100,11,2,1,60,0,1
97190,-100,11,2,1,42,0,1
97253,-100,11,2,1,60,0,1
100461,-100,11,2,1,5,0,1
100503,-100,11,2,1,60,0,1
100565,-100,11,2,1,42,0,1
100627,-100,11,2,1,60,0,1
100690,-100,11,2,1,42,0,1
100752,-100,11,2,1,60,0,1
100815,-100,11,2,1,42,0,1
100877,-100,11,2,1,60,0,1
101565,-100,11,2,1,60,0,1
101628,-100,11,2,1,60,0,1
102690,-100,11,2,1,42,0,1
102753,-100,11,2,1,60,0,1
103190,-100,11,2,1,5,0,1
103253,-100,11,2,1,60,0,1
104690,-100,11,2,1,5,0,1
104753,-100,11,2,1,60,0,1
105940,-100,11,2,1,5,0,1
106003,-100,11,2,1,60,0,1
107253,-166.666666666667,11,2,1,50,0,0
107690,-166.666666666667,11,2,1,5,0,0
107753,-250.000000000001,11,2,1,40,0,0
109128,-250.000000000001,11,2,1,42,0,0
109253,-125,11,2,1,30,0,0
110003,-125,11,2,1,40,0,0
110065,-100,11,2,1,42,0,0
113253,-100,11,2,1,5,0,0

[Colours]
Combo1 : 157,157,255
Combo2 : 163,203,252

[HitObjects]
115,10,1253,5,0,3:0:0:0:
114,21,1378,1,0,3:0:0:0:
41,82,1628,1,0,3:0:0:0:
43,93,1753,1,0,3:0:0:0:
115,154,2003,1,0,3:0:0:0:
40,225,2253,2,1,P|15:218|-7:212,2,37.3333321940105,0|0|0,3:0|3:0|3:0,0:0:0:0:
91,277,2503,2,1,P|122:283|153:292,1,55.9999982910157,0|0,3:0|3:0,0:0:0:0:
290,381,2753,6,1,B|322:328|255:294|282:326|214:286|247:231,1,167.999994873047,6|0,1:0|3:0,0:0:0:0:
243,237,3253,1,0,3:0:0:0:
204,359,3503,2,1,P|148:370|92:386,1,111.999996582031,2|0,1:0|3:0,0:0:0:0:
24,217,4003,6,1,B|-46:148|1:13|102:-21|175:56|163:117|96:143,1,383.99998828125,2|0,1:0|3:0,0:0:0:0:
99,141,5503,5,6,1:0:0:0:
217,20,5753,2,0,P|244:66|299:61,1,111.999996582031,2|0,1:0|3:0,0:0:0:0:
296,62,6128,1,2,1:0:0:0:
366,20,6253,2,0,P|337:68|316:120,1,111.999996582031,2|0,1:0|3:0,0:0:0:0:
348,301,6753,6,1,B|313:188|385:96|500:71|597:161|551:258|483:289|419:224,1,479.999985351563,2|0,1:0|3:0,0:0:0:0:
284,0,8253,6,1,B|239:-12|213:30|213:30|209:84|162:86,1,167.999994873047,6|0,1:0|3:0,0:0:0:0:
162,86,8753,1,0,3:0:0:0:
87,35,9003,2,0,P|143:95|162:176,1,167.999994873047,2|0,1:0|3:0,0:0:0:0:
95,304,9503,6,1,B|86:345|18:364|-5:297|18:237|88:211|135:239|181:301,1,287.999991210938,2|0,1:0|3:0,0:0:0:0:
415,382,10503,5,2,3:0:0:0:
457,355,10628,1,6,3:0:0:0:
477,308,10753,1,10,3:0:0:0:
461,259,10878,1,10,3:0:0:0:
397,213,11003,5,6,1:0:0:0:
387,220,11128,2,1,B|351:210|330:243|330:243|327:287|289:288,1,128,2|2,3:2|3:2,0:0:0:0:
236,334,11503,2,0,P|207:320|200:290,1,64,2|2,3:2|2:0,0:0:0:0:
238,195,11753,2,1,P|253:190|268:186,3,32,0|2|2|2,3:2|2:0|2:0|2:0,0:0:0:0:
289,174,12003,2,1,P|291:143|280:113,1,64,2|2,3:2|3:2,0:0:0:0:
224,0,12253,6,0,P|199:56|139:63,1,128,6|2,1:0|3:2,0:0:0:0:
112,49,12586,1,0,3:0:0:0:
112,49,12711,6,1,P|95:36|74:35,2,42.6666666666667,0|0|2,3:0|3:0|3:0,0:0:0:0:
112,150,13003,5,10,3:0:0:0:
119,207,13128,1,4,3:0:0:0:
85,254,13253,1,4,3:0:0:0:
30,272,13378,2,0,P|11:265|0:265,2,32,4|8|8,3:0|3:0|3:0,0:0:0:0:
49,319,13586,6,0,P|68:326|95:326,1,42.6666666666667,4|2,3:0|3:0,0:0:0:0:
167,283,13753,6,1,B|220:268|250:318|250:318|255:382|311:384,1,192,6|0,1:0|3:0,0:0:0:0:
304,383,14253,1,2,2:0:0:0:
391,241,14503,2,1,P|397:272|406:303,1,64,0|0,3:0|0:0,0:0:0:0:
498,383,14753,2,1,P|506:352|513:320,1,64,2|0,1:2|0:0,0:0:0:0:
431,164,15003,6,0,P|371:146|322:183,1,128,6|2,1:0|3:0,0:0:0:0:
267,245,15378,2,0,P|208:263|158:226,1,128,10|8,3:2|2:0,0:0:0:0:
80,203,15753,2,1,P|73:171|65:140,1,64,8|8,3:2|3:2,0:0:0:0:
134,15,16003,5,8,3:2:0:0:
151,3,16086,5,12,3:0:0:0:
171,0,16169,5,4,3:0:0:0:
192,2,16253,6,0,P|199:21|219:28,2,42.6666666666667,8|8|2,3:0|3:0|3:0,0:0:0:0:
305,23,16503,6,0,P|239:47|222:169,1,192,6|2,1:0|3:2,0:0:0:0:
215,156,17003,1,2,3:2:0:0:
416,155,17253,2,0,P|397:129|367:121,1,64,0|8,3:0|2:0,0:0:0:0:
352,197,17503,2,0,P|326:215|319:245,1,64,4|0,1:2|0:0,0:0:0:0:
425,242,17753,6,0,P|418:272|393:290,1,64,6|0,1:0|0:0,0:0:0:0:
330,358,18003,2,1,P|298:352|267:343,1,64,8|8,2:0|3:0,0:0:0:0:
124,262,18253,2,1,P|92:268|61:276,1,64,4|2,3:0|3:0,0:0:0:0:
199,296,18503,5,2,3:0:0:0:
211,279,18586,5,8,3:0:0:0:
214,259,18669,5,8,3:0:0:0:
212,238,18753,6,0,P|197:224|187:205,2,42.6666666666667,4|4|2,3:0|3:0|3:0,0:0:0:0:
106,171,19003,2,0,P|110:151|122:132,2,42.6666666666667,8|8|4,3:0|3:0|3:0,0:0:0:0:
61,62,19253,6,0,P|150:43|210:112,1,192,6|2,1:0|2:0,0:0:0:0:
210,112,19753,1,2,3:1:0:0:
325,5,20003,2,0,P|358:56|419:52,1,128,0|8,1:0|2:0,0:0:0:0:
512,138,20503,1,0,1:0:0:0:
512,138,20628,2,0,P|451:133|418:185,1,128,0|2,3:0|3:2,0:0:0:0:
369,251,21003,2,0,L|389:312,1,64,0|8,3:0|2:0,0:0:0:0:
473,384,21253,2,0,L|513:262,2,128,0|2|8,1:0|1:2|2:0,0:0:0:0:
305,329,22003,5,4,1:0:0:0:
305,329,22253,2,1,B|263:345|219:365|219:365|160:336|196:280,1,192,10|10,2:0|2:0,0:0:0:0:
233,212,22753,1,2,1:0:0:0:
288,196,22878,1,2,3:1:0:0:
321,149,23003,1,10,2:0:0:0:
314,91,23128,1,2,3:1:0:0:
256,33,23253,5,6,1:0:0:0:
246,40,23378,2,1,B|210:30|189:63|189:63|186:107|148:108,1,128,0|2,3:0|1:2,0:0:0:0:
155,107,23753,1,0,3:0:0:0:
24,13,24003,2,0,P|69:16|92:56,1,96,2|0,1:0|0:0,0:0:0:0:
89,82,24253,6,0,L|80:113,2,32,8|0|0,2:0|0:0|0:0,0:0:0:0:
7,186,24503,6,0,L|0:154,2,32,8|0|0,2:0|0:0|0:0,0:0:0:0:
97,216,24753,6,1,B|140:197|140:197|161:208|180:219|180:219|184:272|244:288,1,192,6|0,1:0|3:0,0:0:0:0:
242,287,25253,1,2,3:1:0:0:
156,384,25503,2,0,P|107:356|135:292,1,128,2|8,1:2|2:0,0:0:0:0:
266,209,26003,5,2,1:2:0:0:
266,209,26128,2,0,P|329:226|389:243,1,128,0|2,3:0|1:2,0:0:0:0:
471,208,26503,2,0,P|491:184|491:152,1,64,0|8,3:0|2:0,0:0:0:0:
417,52,26753,2,0,P|450:103|512:107,2,128,0|0|8,1:0|1:2|2:0,0:0:0:0:
249,130,27503,5,4,1:0:0:0:
132,7,27753,2,0,P|100:15|70:23,1,64,2|2,2:1|2:1,0:0:0:0:
9,79,28003,2,0,P|15:116|25:140,1,64,2|2,3:1|3:1,0:0:0:0:
111,178,28253,2,0,P|126:173|142:170,2,32,2|2|2,3:1|3:1|3:1,0:0:0:0:
25,239,28503,5,2,3:1:0:0:
18,249,28628,1,2,2:1:0:0:
22,306,28753,1,2,1:0:0:0:
63,345,28878,1,2,3:1:0:0:
120,347,29003,1,2,3:1:0:0:
166,312,29128,1,2,3:1:0:0:
202,267,29253,6,0,P|233:274|263:282,1,64,2|2,1:0|3:1,0:0:0:0:
340,255,29503,2,0,P|342:239|348:224,3,32,2|2|2|2,3:1|3:1|3:1|3:1,0:0:0:0:
345,199,29753,2,0,P|314:192|284:184,1,64,6|2,3:1|2:1,0:0:0:0:
234,116,30003,1,10,3:2:0:0:
234,116,30128,1,2,2:1:0:0:
316,44,30253,6,1,B|358:60|402:80|402:80|461:51|425:-5,1,192,4|2,1:0|2:0,0:0:0:0:
427,0,30753,1,2,3:1:0:0:
499,196,31003,1,0,1:0:0:0:
385,243,31253,2,0,P|378:212|370:182,1,64,8|0,2:0|3:0,0:0:0:0:
512,317,31503,6,0,P|451:304|407:347,1,128,2|8,1:0|2:0,0:0:0:0:
330,371,31878,1,0,3:0:0:0:
329,371,32003,2,0,P|301:385|270:383,1,64,2|8,3:1|2:0,0:0:0:0:
236,111,32503,2,0,P|264:97|295:99,2,64,2|8|8,1:0|3:0|2:0,0:0:0:0:
88,281,33003,5,6,1:0:0:0:
0,134,33253,2,0,P|4:102|16:72,1,64,8|0,2:0|3:0,0:0:0:0:
65,14,33503,2,0,P|95:22|126:29,1,64,2|8,1:0|2:0,0:0:0:0:
162,108,33753,2,0,P|157:123|154:139,2,32,2|2|2,1:0|2:0|2:0,0:0:0:0:
220,34,34003,2,0,P|251:26|281:18,1,64,10|2,2:0|3:1,0:0:0:0:
449,17,34253,6,0,P|486:44|490:91,1,96,14|0,2:0|0:0,0:0:0:0:
489,91,34503,2,0,P|458:99|427:106,1,64,2|2,1:0|1:0,0:0:0:0:
345,173,34753,2,0,P|346:188|352:203,3,32,2|2|2|2,1:0|2:0|3:1|2:0,0:0:0:0:
364,213,35003,2,0,P|394:204|426:197,1,64,10|2,1:2|1:1,0:0:0:0:
497,247,35253,2,0,P|508:276|513:309,1,64,8|2,3:2|2:1,0:0:0:0:
444,382,35503,1,10,2:0:0:0:
444,382,35628,1,10,0:0:0:0:
302,294,35753,6,1,B|257:315|193:274|193:274|228:299|233:335,1,192,4|0,1:0|3:0,0:0:0:0:
233,335,36253,1,2,3:1:0:0:
265,223,36503,1,2,1:2:0:0:
148,339,36753,6,1,B|106:355|62:375|62:375|3:346|39:290,1,192,10|2,2:0|2:0,0:0:0:0:
117,244,37253,2,0,P|137:217|129:174,1,64,2|0,3:1|3:0,0:0:0:0:
71,112,37503,1,2,3:1:0:0:
71,112,37628,1,10,3:2:0:0:
144,44,37753,2,0,P|159:45|174:51,3,32,2|0|2|0,1:0|3:0|3:1|3:0,0:0:0:0:
192,55,38003,5,2,1:0:0:0:
272,32,38128,1,8,2:0:0:0:
335,91,38253,1,8,2:0:0:0:
322,174,38378,1,8,2:0:0:0:
239,194,38503,6,0,P|194:174|149:166,1,96,6|0,1:0|0:0,0:0:0:0:
148,165,38753,2,0,P|122:182|114:213,1,64,8|0,2:0|3:0,0:0:0:0:
66,296,39003,2,0,P|51:297|36:303,2,32,2|2|2,3:1|3:1|3:1,0:0:0:0:
155,369,39253,2,0,P|186:376|217:384,1,64,2|2,1:0|3:1,0:0:0:0:
271,297,39503,2,0,P|264:282|263:266,2,32,8|0|2,3:2|3:0|3:1,0:0:0:0:
399,384,39753,6,0,P|443:372|461:329,1,96,6|0,1:0|2:0,0:0:0:0:
456,311,40003,5,8,2:0:0:0:
383,270,40128,1,0,3:0:0:0:
380,184,40253,1,8,2:0:0:0:
448,134,40378,1,0,3:0:0:0:
503,59,40503,6,0,P|496:29|470:11,1,64,6|2,1:0|1:0,0:0:0:0:
378,83,40753,2,0,P|371:97|370:113,2,32,2|2|2,3:1|2:0|2:0,0:0:0:0:
316,10,41003,6,0,P|293:10|274:21,2,42.6666666666667,2|0|0,1:0|3:0|3:0,0:0:0:0:
126,117,41253,6,1,B|81:138|17:97|17:97|52:122|57:158,1,192,6|0,1:0|3:0,0:0:0:0:
57,159,41753,1,2,2:0:0:0:
88,27,42003,2,0,P|126:9|189:71,1,128,6|8,1:0|2:0,0:0:0:0:
187,56,42378,1,0,3:0:0:0:
308,92,42503,2,0,P|251:148|214:254,1,192,6|0,1:0|3:0,0:0:0:0:
238,330,43003,5,2,3:1:0:0:
195,368,43128,1,8,2:0:0:0:
137,360,43253,1,2,1:0:0:0:
105,311,43378,1,2,3:1:0:0:
142,197,43503,6,0,P|149:183|150:167,3,32,2|2|2|2,1:0|3:1|3:1|3:1,0:0:0:0:
151,141,43753,1,8,2:0:0:0:
78,104,43878,1,2,1:0:0:0:
32,185,44003,6,0,P|26:219|50:244,1,71.9999978027344,4|0,1:0|0:0,0:0:0:0:
180,267,44253,6,0,P|232:253|248:181,1,128,12|0,2:0|3:0,0:0:0:0:
250,187,44628,1,2,1:2:0:0:
311,44,44753,2,0,P|297:96|351:145,1,128,12|8,2:0|2:0,0:0:0:0:
344,144,45128,1,2,3:1:0:0:
438,268,45253,2,0,P|399:229|329:252,1,128,4|8,1:0|2:0,0:0:0:0:
333,247,45628,1,0,3:0:0:0:
217,379,45753,5,2,3:1:0:0:
199,378,45836,5,2,3:1:0:0:
185,367,45919,5,2,3:1:0:0:
175,352,46003,6,0,P|158:308|179:266,1,96,2|0,1:0|0:0,0:0:0:0:
179,266,46253,2,0,P|209:274|240:281,1,64,2|0,1:0|3:0,0:0:0:0:
315,331,46503,6,0,P|324:351|325:373,2,42.6666666666667,8|2|2,2:0|3:1|3:1,0:0:0:0:
243,181,46753,6,0,L|274:56,1,128,6|8,1:0|2:0,0:0:0:0:
274,57,47128,1,0,3:0:0:0:
459,0,47378,1,0,1:0:0:0:
459,0,47503,2,0,L|489:124,1,128,6|8,1:0|2:0,0:0:0:0:
489,124,47878,1,2,3:1:0:0:
407,229,48003,6,1,B|348:264|310:190|346:220|301:144|241:181,1,192,6|0,1:0|3:0,0:0:0:0:
165,147,48503,2,0,P|157:160|154:176,2,32,2|2|2,3:1|3:1|1:0,0:0:0:0:
222,96,48753,1,2,1:0:0:0:
146,60,48878,2,0,P|130:59|114:64,2,32,10|0|10,2:0|3:0|1:2,0:0:0:0:
230,87,49128,5,8,2:0:0:0:
282,63,49253,1,2,1:2:0:0:
336,44,49378,1,8,2:0:0:0:
389,23,49503,5,6,1:0:0:0:
399,30,49628,2,1,B|435:20|456:53|456:53|459:97|497:98,1,128,0|0,3:0|3:0,0:0:0:0:
399,124,50003,2,0,P|370:138|363:168,1,64,0|2,3:0|3:2,0:0:0:0:
432,248,50253,2,1,P|447:243|462:239,3,32,2|2|2|2,1:2|3:2|3:2|3:2,0:0:0:0:
484,237,50503,2,1,P|498:264|501:296,1,64,8|0,2:0|3:0,0:0:0:0:
400,384,50753,6,0,P|390:323|326:315,1,128,4|8,1:0|2:0,0:0:0:0:
231,339,51128,2,1,P|252:340|268:352,2,42.6666666666667,0|0|0,1:0|3:0|3:0,0:0:0:0:
188,328,51378,5,2,1:2:0:0:
144,290,51503,1,8,2:0:0:0:
143,232,51628,1,0,3:0:0:0:
181,189,51753,2,0,P|213:174|242:187,1,64,2|2,1:2|2:0,0:0:0:0:
266,208,51940,1,2,2:0:0:0:
266,208,52003,2,0,P|260:228|254:249,2,42.6666666666667,8|0|0,2:0|3:0|3:0,0:0:0:0:
420,134,52253,6,0,P|439:48|358:11,1,192,6|0,1:0|3:0,0:0:0:0:
358,11,52753,1,0,3:0:0:0:
270,121,53003,2,1,P|239:115|208:106,1,64,2|0,1:0|3:0,0:0:0:0:
128,14,53253,2,1,P|159:6|191:-1,1,64,8|8,2:0|2:0,0:0:0:0:
338,79,53503,6,0,P|356:139|319:188,1,128,6|10,1:0|2:0,0:0:0:0:
248,203,53878,2,0,P|211:252|229:311,1,128,2|2,1:0|1:2,0:0:0:0:
300,358,54253,2,0,P|330:348|361:339,1,64,6|2,1:0|3:2,0:0:0:0:
438,266,54503,5,8,2:0:0:0:
433,254,54586,5,8,2:0:0:0:
415,261,54669,5,8,2:0:0:0:
415,288,54753,5,8,2:0:0:0:
439,311,54836,5,8,2:0:0:0:
480,300,54919,5,8,2:0:0:0:
500,264,55003,6,1,B|534:206|461:168|491:203|416:160|453:100,1,192,6|0,1:0|3:0,0:0:0:0:
453,99,55503,1,0,3:0:0:0:
272,47,55753,2,0,P|255:21|225:12,1,64,2|2,1:0|1:2,0:0:0:0:
349,106,56003,2,0,P|363:77|355:47,1,64,12|0,2:0|3:0,0:0:0:0:
197,89,56253,6,0,P|166:90|143:112,1,64,6|0,1:0|2:0,0:0:0:0:
93,203,56503,1,8,2:0:0:0:
210,221,56628,2,0,P|220:191|208:162,1,64,0|8,1:0|2:0,0:0:0:0:
79,195,56878,1,8,2:0:0:0:
186,296,57003,6,0,P|206:300|227:304,2,42.6666666666667,8|0|0,2:0|3:0|3:0,0:0:0:0:
111,344,57253,6,0,P|117:364|124:384,2,42.6666666666667,8|0|0,2:0|3:0|3:0,0:0:0:0:
32,302,57503,6,0,P|17:317|-23:363,1,64,8|8,2:0|2:0,0:0:0:0:
93,203,57753,6,0,P|175:156|270:144,1,192,6|0,1:0|1:0,0:0:0:0:
270,144,58253,1,2,3:1:0:0:
404,10,58503,6,0,P|372:10|352:33,1,64,0|0,1:0|2:0,0:0:0:0:
276,78,58753,2,0,P|260:104|271:134,1,64,4|0,3:0|2:0,0:0:0:0:
282,220,59003,6,0,P|297:246|399:251,1,128,0|8,1:0|2:0,0:0:0:0:
459,213,59378,2,0,P|413:253|421:314,1,128,0|8,1:0|2:0,0:0:0:0:
365,375,59753,2,0,P|346:346|314:339,1,64,0|2,1:0|2:0,0:0:0:0:
226,373,60003,5,8,1:2:0:0:
175,383,60128,1,0,1:0:0:0:
131,357,60253,1,12,1:2:0:0:
110,310,60378,1,0,1:0:0:0:
111,257,60503,6,0,P|145:212|222:216,1,128,6|8,1:0|2:0,0:0:0:0:
249,123,60878,2,0,P|304:129|340:198,1,128,0|8,1:0|2:0,0:0:0:0:
403,246,61253,2,0,P|432:234|448:207,1,64,0|2,1:0|2:0,0:0:0:0:
443,90,61503,1,8,2:0:0:0:
443,90,61628,1,2,1:0:0:0:
443,91,61753,6,1,B|410:106|364:76|364:76|389:94|393:120,1,128,4|2,1:2|3:2,0:0:0:0:
340,186,62128,1,2,2:0:0:0:
245,53,62253,2,0,P|213:57|193:81,1,64,2|8,3:1|2:0,0:0:0:0:
165,211,62503,2,0,P|177:181|166:151,1,64,2|2,1:0|2:0,0:0:0:0:
55,61,62753,2,0,P|42:90|53:120,1,64,8|0,2:0|1:0,0:0:0:0:
94,261,63003,5,2,1:0:0:0:
80,269,63086,5,8,2:0:0:0:
73,283,63169,5,8,2:0:0:0:
141,319,63253,6,1,B|183:335|227:355|227:355|286:326|250:270,1,192,6|0,1:0|1:0,0:0:0:0:
252,274,63753,1,0,3:0:0:0:
336,141,64003,2,0,P|367:133|397:153,1,64,2|0,1:2|2:0,0:0:0:0:
488,176,64253,6,0,P|518:229|489:283,1,128,10|0,2:0|1:0,0:0:0:0:
488,283,64628,1,2,2:0:0:0:
391,355,64753,2,0,P|339:324|259:309,1,128,8|2,2:0|2:0,0:0:0:0:
210,273,65128,1,8,2:0:0:0:
210,273,65253,2,0,P|201:242|211:213,1,64,0|2,1:0|3:2,0:0:0:0:
335,140,65503,6,0,P|360:104|302:37,1,128,4|8,1:2|2:0,0:0:0:0:
237,6,65878,1,0,1:0:0:0:
237,6,66003,2,0,P|206:16|175:24,1,64,4|0,1:0|1:0,0:0:0:0:
46,14,66253,6,0,P|21:50|79:117,1,128,8|2,2:0|2:0,0:0:0:0:
144,148,66628,1,2,3:2:0:0:
144,148,66753,2,0,P|174:137|205:129,1,64,8|2,2:0|2:0,0:0:0:0:
335,140,67003,5,8,2:0:0:0:
346,151,67086,5,8,3:0:0:0:
351,166,67169,5,4,3:0:0:0:
357,186,67253,6,0,P|350:216|324:235,1,64,4|0,1:0|3:0,0:0:0:0:
250,306,67503,1,8,2:0:0:0:
250,306,67628,2,0,P|186:283|124:269,1,128,8|0,1:2|1:0,0:0:0:0:
45,280,68003,2,0,P|37:299|31:320,2,42.6666666666667,4|8|8,1:0|2:0|2:0,0:0:0:0:
6,209,68253,5,4,1:2:0:0:
11,138,68378,1,0,1:0:0:0:
69,99,68503,1,2,1:2:0:0:
138,106,68628,1,2,1:2:0:0:
186,157,68753,6,1,B|220:166|240:134|240:134|243:93|278:91,1,128,6|8,1:0|2:0,0:0:0:0:
395,4,69253,2,0,P|426:4|448:25,1,64,2|8,3:2|2:0,0:0:0:0:
492,99,69503,2,0,P|481:129|473:160,1,64,0|0,1:0|2:0,0:0:0:0:
341,236,69753,2,0,P|333:205|321:174,1,64,8|2,2:0|2:0,0:0:0:0:
460,285,70003,6,1,B|421:261|403:302|413:298|390:340|350:316,1,128,2|8,1:0|2:0,0:0:0:0:
351,316,70378,1,0,1:0:0:0:
147,384,70628,1,8,2:0:0:0:
147,384,70753,2,0,P|131:356|138:326,1,64,0|0,1:0|2:0,0:0:0:0:
261,213,71003,5,8,2:0:0:0:
258,198,71128,1,8,2:0:0:0:
187,238,71253,5,2,1:0:0:0:
190,253,71378,1,8,2:0:0:0:
326,250,71503,6,0,P|345:191|307:143,1,128,6|8,1:0|2:0,0:0:0:0:
162,55,71878,2,0,P|142:113|180:161,1,128,0|8,1:0|2:0,0:0:0:0:
180,161,72253,1,0,1:0:0:0:
348,28,72503,2,0,P|379:32|399:55,1,64,8|0,2:0|3:0,0:0:0:0:
487,38,72753,6,0,P|432:63|427:124,1,128,4|8,1:0|2:0,0:0:0:0:
454,363,73253,2,0,P|423:371|392:380,1,64,2|8,3:2|2:0,0:0:0:0:
295,349,73503,2,0,P|283:323|277:287,1,64,4|8,1:0|2:0,0:0:0:0:
340,225,73753,2,0,P|370:215|401:207,1,64,8|0,2:0|1:0,0:0:0:0:
484,129,74003,5,2,1:2:0:0:
495,118,74086,5,8,2:0:0:0:
500,103,74169,5,8,2:0:0:0:
506,83,74253,6,0,P|499:53|397:32,1,128,4|8,1:0|2:0,0:0:0:0:
204,121,74753,2,0,P|178:102|170:72,1,64,0|8,3:0|2:0,0:0:0:0:
246,56,75003,2,0,P|263:31|294:24,1,64,2|0,1:2|2:0,0:0:0:0:
342,99,75253,2,0,P|324:125|294:133,1,64,8|0,2:0|2:0,0:0:0:0:
170,72,75503,6,0,P|123:70|93:104,1,96,4|0,1:0|0:0,0:0:0:0:
86,121,75753,6,0,P|65:119|44:118,2,42.6666666666667,0|0|0,1:0|3:0|3:0,0:0:0:0:
146,186,76003,6,0,P|135:203|123:221,2,42.6666666666667,0|0|0,1:0|3:0|3:0,0:0:0:0:
233,166,76253,6,0,P|243:184|252:203,2,42.6666666666667,8|0|0,3:0|3:0|3:0,0:0:0:0:
298,88,76503,5,4,3:0:0:0:
317,78,76586,5,0,3:0:0:0:
342,78,76669,5,0,3:0:0:0:
370,87,76752,5,8,2:0:0:0:
395,109,76836,5,8,2:0:0:0:
408,139,76919,5,8,2:0:0:0:
408,177,77003,6,0,P|357:210|350:272,1,128,4|10,1:0|2:0,0:0:0:0:
227,383,77378,2,0,P|220:321|103:288,1,192,2|8,1:2|2:0,0:0:0:0:
33,339,77878,2,0,P|16:340|1:332,2,32,0|0|8,1:0|3:0|2:0,0:0:0:0:
113,367,78128,1,8,2:0:0:0:
176,300,78253,5,6,1:0:0:0:
66,216,78378,2,0,L|50:153,1,64,10|8,2:0|2:0,0:0:0:0:
232,216,78628,5,8,1:2:0:0:
129,138,78753,2,0,L|113:75,1,64,8|8,1:2|2:0,0:0:0:0:
296,141,79003,6,0,L|319:136,6,16,2|0|2|0|2|0|2,1:0|0:0|3:1|0:0|3:1|0:0|3:1,0:0:0:0:
282,135,79253,5,10,3:2:0:0:
346,63,79378,1,2,1:0:0:0:
435,119,79503,1,10,3:2:0:0:
446,110,79628,1,10,3:2:0:0:
506,238,79753,6,1,B|455:217|399:192|399:192|327:228|372:298,1,240,6|0,1:0|1:0,0:0:0:0:
420,367,80253,2,0,P|452:342|444:296,1,80,0|8,3:0|2:0,0:0:0:0:
285,240,80503,6,1,B|242:227|217:268|217:268|213:320|168:321,1,160,4|8,1:0|2:0,0:0:0:0:
100,341,80836,5,0,3:0:0:0:
94,361,80919,5,0,3:0:0:0:
109,375,81003,6,0,P|139:351|143:312,1,80,4|0,1:0|3:0,0:0:0:0:
6,143,81253,2,0,P|12:181|44:204,1,80,8|0,2:0|1:0,0:0:0:0:
197,150,81503,1,0,3:0:0:0:
189,146,81628,1,8,2:0:0:0:
137,28,81753,2,0,P|101:14|65:30,1,80,0|0,1:0|3:0,0:0:0:0:
6,143,82003,2,0,P|12:181|44:204,1,80,0|0,1:0|2:0,0:0:0:0:
197,150,82253,1,8,2:0:0:0:
189,146,82378,1,0,1:0:0:0:
108,120,82503,5,4,1:0:0:0:
321,28,82753,2,1,B|357:11|357:11|375:21|391:30|391:30|394:75|445:88,1,160,12|8,2:0|2:0,0:0:0:0:
440,86,83128,1,0,1:0:0:0:
511,19,83253,2,0,P|469:86|449:163,1,160,12|8,2:0|2:0,0:0:0:0:
448,163,83628,1,0,1:0:0:0:
512,236,83753,2,0,P|447:192|369:200,1,160,4|8,1:0|2:0,0:0:0:0:
264,346,84253,5,0,3:0:0:0:
273,358,84336,5,0,3:0:0:0:
295,371,84419,5,0,3:0:0:0:
316,372,84503,6,0,P|346:348|348:309,1,80,0|0,1:0|3:0,0:0:0:0:
288,178,84753,5,8,2:0:0:0:
266,180,84836,5,0,3:0:0:0:
247,191,84919,5,0,3:0:0:0:
234,208,85003,6,0,P|239:246|271:267,1,80,8|2,2:0|1:2,0:0:0:0:
448,163,85253,6,1,B|469:112|494:56|494:56|458:-16|388:29,1,240,6|0,1:0|1:0,0:0:0:0:
392,26,85753,1,0,3:0:0:0:
392,26,85878,1,8,2:0:0:0:
349,167,86003,6,1,B|306:180|281:139|281:139|277:87|232:86,1,160,4|8,1:0|2:0,0:0:0:0:
164,104,86336,5,0,3:0:0:0:
160,124,86419,5,0,3:0:0:0:
139,128,86503,6,0,P|121:93|134:56,1,80,4|0,1:0|3:0,0:0:0:0:
273,164,86753,2,0,P|200:190|181:265,1,160,10|0,2:0|3:0,0:0:0:0:
180,263,87128,1,8,2:0:0:0:
287,377,87253,6,0,P|313:347|310:308,1,80,2|0,1:0|3:0,0:0:0:0:
304,295,87440,1,0,3:0:0:0:
304,295,87503,2,0,P|323:289|342:284,2,40,2|0|0,1:0|3:0|3:0,0:0:0:0:
174,349,87753,2,0,P|154:354|135:359,2,40,10|0|0,2:0|3:0|1:0,0:0:0:0:
288,377,88003,5,6,1:0:0:0:
472,224,88253,6,1,B|489:185|454:131|454:131|476:160|506:165,1,160,12|8,2:0|2:0,0:0:0:0:
504,164,88628,1,2,1:2:0:0:
485,33,88753,2,0,P|409:26|373:92,1,160,4|0,1:0|1:0,0:0:0:0:
373,92,89128,1,8,2:0:0:0:
386,191,89253,6,0,P|353:167|277:196,1,120,4|8,1:0|2:0,0:0:0:0:
282,188,89503,1,8,2:0:0:0:
277,333,89628,2,0,P|314:316|327:236,1,120,6|8,1:0|2:0,0:0:0:0:
331,244,89878,1,8,2:0:0:0:
181,179,90003,6,0,P|176:219|239:270,1,120,6|8,1:0|2:0,0:0:0:0:
224,281,90253,2,0,P|172:293|123:315,1,106.666666666667,6|8,1:0|3:0,0:0:0:0:
60,350,90503,5,4,1:0:0:0:
31,334,90586,5,8,3:0:0:0:
26,302,90669,5,8,3:0:0:0:
44,275,90753,6,0,P|69:237|51:196,1,80,4|0,1:0|2:0,0:0:0:0:
19,30,91003,2,0,P|25:83|116:110,1,160,8|2,2:0|3:2,0:0:0:0:
116,109,91378,1,8,2:0:0:0:
238,18,91503,2,0,P|218:65|201:153,1,120,4|0,1:0|0:0,0:0:0:0:
230,195,91753,5,8,2:0:0:0:
250,195,91836,5,0,3:0:0:0:
267,183,91919,5,0,3:0:0:0:
279,165,92003,6,0,P|299:134|361:134,1,80,4|0,1:0|3:0,0:0:0:0:
498,151,92253,2,0,P|438:130|452:30,1,160,12|0,2:0|3:0,0:0:0:0:
436,44,92628,1,10,2:0:0:0:
498,151,92753,6,0,P|512:187|496:223,1,80,2|0,1:2|3:0,0:0:0:0:
379,302,93003,2,0,P|341:296|318:264,1,80,2|0,1:2|2:0,0:0:0:0:
391,163,93253,1,8,2:0:0:0:
395,171,93378,1,2,1:2:0:0:
479,226,93503,5,6,1:0:0:0:
274,345,93753,2,1,B|238:362|238:362|220:352|204:343|204:343|201:298|150:285,1,160,12|0,2:0|3:0,0:0:0:0:
155,287,94128,1,0,1:0:0:0:
84,354,94253,2,0,P|126:287|146:210,1,160,4|8,1:0|2:0,0:0:0:0:
147,210,94628,1,8,2:0:0:0:
83,137,94753,2,0,P|148:181|226:173,1,160,4|8,1:0|2:0,0:0:0:0:
140,38,95253,5,8,2:0:0:0:
128,20,95336,5,0,3:0:0:0:
109,10,95419,5,0,3:0:0:0:
87,8,95503,6,0,P|57:32|55:71,1,80,4|2,1:0|3:1,0:0:0:0:
181,102,95753,5,8,2:0:0:0:
192,119,95836,5,0,3:0:0:0:
211,127,95919,5,0,3:0:0:0:
232,128,96003,6,0,P|262:104|264:65,1,80,4|2,1:0|3:1,0:0:0:0:
476,0,96253,6,0,P|451:38|469:79,1,80,6|0,1:0|2:0,0:0:0:0:
494,234,96503,2,0,P|488:181|397:154,1,160,8|0,2:0|3:0,0:0:0:0:
396,154,96878,1,2,1:2:0:0:
273,228,97003,2,0,P|347:236|396:283,1,120,4|0,1:0|0:0,0:0:0:0:
414,343,97253,5,8,2:0:0:0:
401,360,97336,5,0,3:0:0:0:
380,364,97419,5,0,3:0:0:0:
358,360,97503,6,0,P|321:357|283:406,1,80,4|0,1:0|3:0,0:0:0:0:
125,383,97753,2,0,P|148:309|109:242,1,160,8|2,2:0|2:0,0:0:0:0:
109,242,98128,1,2,1:2:0:0:
15,176,98253,1,2,1:0:0:0:
5,181,98378,1,2,3:2:0:0:
43,75,98503,5,8,2:0:0:0:
66,53,98586,5,0,3:0:0:0:
97,51,98669,5,0,3:0:0:0:
128,60,98753,6,0,P|156:87|160:126,1,80,8|8,2:0|2:0,0:0:0:0:
220,247,99003,6,1,B|189:196|253:163|227:194|293:155|261:102,1,160,6|8,1:0|2:0,0:0:0:0:
265,110,99378,1,0,1:0:0:0:
310,39,99503,2,0,P|344:20|380:33,1,80,0|8,3:0|2:0,0:0:0:0:
456,87,99753,1,0,1:0:0:0:
456,87,99878,2,0,P|485:62|486:23,2,80,0|8|0,3:0|2:0|3:0,0:0:0:0:
382,137,100253,6,0,P|346:165|370:257,1,133.333333333333,4|8,1:0|0:0,0:0:0:0:
398,253,100503,2,0,P|434:266|448:302,1,80,8|0,2:0|1:0,0:0:0:0:
461,327,100711,2,0,P|484:320|520:314,2,53.3333333333333,2|2|8,2:0|2:0|2:0,0:0:0:0:
378,358,101003,1,8,2:0:0:0:
328,386,101128,1,0,3:0:0:0:
271,374,101253,1,2,1:2:0:0:
239,328,101378,1,0,3:0:0:0:
228,279,101503,6,0,P|224:257|220:236,2,40,8|0|0,2:0|3:0|1:0,0:0:0:0:
319,146,101753,6,1,B|370:167|426:192|426:192|498:156|453:86,1,240,6|0,1:0|1:0,0:0:0:0:
456,90,102253,1,0,3:0:0:0:
298,5,102503,2,1,P|278:7|262:19,3,40,0|0|2|1,1:0|3:0|1:0|0:0,0:0:0:0:
240,86,102753,2,1,P|220:83|204:71,3,40,10|10|10|2,2:0|2:0|2:0|2:0,0:0:0:0:
175,6,103003,6,1,B|141:-3|122:28|122:28|119:68|83:69,1,120,4|0,1:0|0:0,0:0:0:0:
89,69,103253,1,8,2:0:0:0:
13,18,103378,2,0,P|50:68|71:167,1,160,2|2,1:2|1:2,0:0:0:0:
13,216,103753,5,4,1:0:0:0:
13,237,103836,5,10,2:0:0:0:
28,258,103919,5,10,2:0:0:0:
57,271,104003,6,0,P|87:255|95:231,2,53.3333333333333,10|10|10,2:0|2:0|2:0,0:0:0:0:
17,344,104253,6,0,P|51:362|89:352,1,80,10|8,2:0|2:0,0:0:0:0:
186,304,104503,6,1,B|220:295|239:326|239:326|242:366|278:367,1,120,6|0,1:0|0:0,0:0:0:0:
288,373,104753,2,0,P|344:353|319:259,1,160,8|2,2:0|3:2,0:0:0:0:
118,133,105253,1,0,1:0:0:0:
118,133,105378,2,0,P|89:108|88:69,2,80,2|12|0,1:2|2:0|1:0,0:0:0:0:
192,182,105753,6,0,P|247:158|304:139,1,120,4|0,1:0|0:0,0:0:0:0:
303,139,106003,1,8,2:0:0:0:
375,213,106128,2,0,P|404:188|407:149,1,80,8|8,3:0|2:0,0:0:0:0:
359,72,106378,1,8,2:0:0:0:
359,72,106503,6,0,P|332:54|326:23,2,53.3333333333333,8|8|8,1:2|2:0|2:0,0:0:0:0:
463,14,106753,6,0,P|491:0|520:10,2,53.3333333333333,0|8|8,1:0|2:0|2:0,0:0:0:0:
491,171,107003,6,0,P|489:202|451:241,1,80,2|8,3:0|2:0,0:0:0:0:
307,142,107253,6,1,B|266:160|209:124|209:124|241:146|245:178,1,167.999994873047,6|0,1:0|0:0,0:0:0:0:
242,186,107753,2,0,P|112:272|40:133,1,352,2|0,2:1|0:0,0:0:0:0:
94,80,109253,6,0,P|112:71|120:51,3,42.6666666666667,0|0|0|0,3:0|3:0|3:0|3:0,0:0:0:0:
27,48,109628,5,0,3:0:0:0:
0,75,109753,5,0,3:0:0:0:
8,112,109878,1,0,3:0:0:0:
39,133,110003,5,6,1:0:0:0:
256,192,110065,12,0,113253,2:0:0:0:
