osu file format v14

[General]
AudioFilename: audio.mp3
AudioLeadIn: 0
PreviewTime: 41252
Countdown: 0
SampleSet: Soft
StackLeniency: 0.7
Mode: 0
LetterboxInBreaks: 0
WidescreenStoryboard: 1

[Editor]
DistanceSpacing: 0.92
BeatDivisor: 4
GridSize: 32
TimelineZoom: 2.699999

[Metadata]
Title:Beatrice
TitleUnicode:Beatrice
Artist:xi
ArtistUnicode:xi
Creator:Esutarosa
Version:Normal
Source:SPRING 9KEYS ROAD 2011
Tags:Featured Artist FA iljaaz Keqing pepekcz l1ght_u light_u -hitomi Soraka gazimal moph ponbot マジックジャズ magic jazz Instrumental Parousia
BeatmapID:3698098
BeatmapSetID:1801967

[Difficulty]
HPDrainRate:4
CircleSize:3.4
OverallDifficulty:4
ApproachRate:5.5
SliderMultiplier:0.939999999999999
SliderTickRate:1

[Events]
//Background and Video events
0,0,"bg.jpg",0,0
//Break Periods
//Storyboard Layer 0 (Background)
//Storyboard Layer 1 (Fail)
//Storyboard Layer 2 (Pass)
//Storyboard Layer 3 (Foreground)
//Storyboard Layer 4 (Overlay)
//Storyboard Sound Samples

[TimingPoints]
3,250,11,2,1,35,1,0
2752,-119.047619047619,11,2,1,40,0,0
8252,-119.047619047619,11,2,1,45,0,0
11002,-119.047619047619,11,2,1,50,0,0
19252,-106.382978723404,11,2,1,60,0,0
67126,-106.382978723404,11,2,1,40,0,0
67252,-106.382978723404,11,2,1,60,0,0
74126,-106.382978723404,11,2,1,40,0,0
74252,-106.382978723404,11,2,1,60,0,0
79752,-96.153846153846,11,2,1,60,0,0
99002,-106.382978723404,11,2,1,60,0,0
107252,-106.382978723404,11,2,1,50,0,0
107377,-106.382978723404,11,2,1,40,0,0
113252,-106.382978723404,11,2,1,5,0,0

[Colours]
Combo1 : 157,157,255
Combo2 : 163,203,252

[HitObjects]
506,36,2754,6,0,P|433:24|405:91,1,157.919995180664,6|0,1:0|3:0,0:0:0:0:
379,165,3504,2,0,P|441:207|424:279,1,157.919995180664,2|2,1:0|1:0,0:0:0:0:
57,363,5503,5,6,1:0:0:0:
16,295,5753,2,0,P|60:234|135:243,2,157.919995180664,2|2|2,1:0|1:0|1:0,0:0:0:0:
297,1,8253,6,0,P|296:78|247:138,1,157.919995180664,6|0,1:0|3:0,0:0:0:0:
180,181,9003,2,0,P|119:134|45:154,1,157.919995180664,2|2,1:0|1:0,0:0:0:0:
316,316,10503,2,0,P|331:330|348:339,2,39.479998795166,2|6|10,3:0|3:0|3:0,0:0:0:0:
294,239,11003,6,0,P|218:239|175:302,2,157.919995180664,6|2|2,1:0|3:2|3:2,0:0:0:0:
371,224,12253,1,6,1:0:0:0:
474,104,12753,2,0,P|487:67|472:31,2,78.959997590332,2|10|4,3:2|3:0|3:0,0:0:0:0:
371,224,13753,6,0,P|295:201|216:196,1,157.919995180664,6|2,1:0|2:0,0:0:0:0:
162,138,14503,2,0,P|123:145|95:171,1,78.959997590332,0|2,3:0|1:2,0:0:0:0:
90,249,15003,1,6,1:0:0:0:
249,273,15503,5,8,2:0:0:0:
283,345,15753,2,0,B|312:336|312:336|314:333|314:333|356:318,2,78.959997590332,8|8|8,3:2|3:2|3:0,0:0:0:0:
206,369,16503,2,0,B|170:359|170:359|164:360|164:360|53:331,1,157.919995180664,6|2,1:0|3:2,0:0:0:0:
2,268,17253,2,0,P|-1:229|24:201,1,78.959997590332,0|4,3:0|1:2,0:0:0:0:
83,143,17753,6,0,B|109:156|109:156|158:164,2,78.959997590332,6|8|4,1:0|2:0|3:0,0:0:0:0:
32,81,18503,1,2,3:0:0:0:
76,16,18753,1,4,3:0:0:0:
154,23,19003,1,8,3:0:0:0:
203,87,19253,6,0,B|309:84|263:139|411:132,1,176.719997303467,6|2,1:0|3:1,0:0:0:0:
435,83,20003,1,0,1:0:0:0:
494,138,20253,1,8,2:0:0:0:
468,215,20503,2,0,B|421:208|421:208|299:251,1,176.719997303467,0|0,1:0|3:0,0:0:0:0:
161,163,21503,6,0,P|150:121|176:87,1,88.3599986517333,2|8,1:2|2:0,0:0:0:0:
222,21,22003,1,4,1:0:0:0:
301,4,22253,2,0,L|427:44,1,132.5399979776,10|10,2:0|2:0,0:0:0:0:
466,57,22753,2,0,P|487:51|506:40,2,44.1799993258667,2|2|10,1:0|3:1|2:0,0:0:0:0:
426,127,23253,6,0,P|354:167|369:248,1,176.719997303467,6|0,1:0|3:0,0:0:0:0:
449,266,24003,2,0,P|482:292|479:334,1,88.3599986517333,2|8,1:0|2:0,0:0:0:0:
410,377,24503,1,8,2:0:0:0:
338,337,24753,6,0,B|309:312|309:312|174:343,1,176.719997303467,6|2,1:0|3:1,0:0:0:0:
52,234,25753,1,8,2:0:0:0:
111,179,26003,2,0,P|197:195|283:216,1,176.719997303467,2|0,1:2|3:0,0:0:0:0:
402,327,27003,6,0,P|431:359|474:366,2,88.3599986517333,0|8|4,1:2|2:0|1:0,0:0:0:0:
379,249,27753,2,0,L|397:194,1,44.1799993258667,2|2,2:1|2:1,0:0:0:0:
408,168,28003,1,2,3:1:0:0:
395,87,28253,1,2,3:1:0:0:
315,70,28503,1,2,3:1:0:0:
261,130,28753,6,0,B|231:137|231:137|228:140|228:140|160:156,1,88.3599986517333,2|2,1:0|3:1,0:0:0:0:
114,206,29253,1,2,1:0:0:0:
42,167,29503,1,2,3:1:0:0:
43,85,29753,2,0,P|50:64|67:51,1,44.1799993258667,6|2,3:1|2:1,0:0:0:0:
107,43,30003,1,10,3:2:0:0:
176,0,30253,6,0,P|248:38|228:118,1,176.719997303467,4|2,1:0|3:1,0:0:0:0:
144,257,31253,2,0,L|165:342,1,88.3599986517333,8|2,2:0|1:0,0:0:0:0:
326,372,32003,6,0,P|358:343|401:345,1,88.3599986517333,2|0,3:1|1:0,0:0:0:0:
473,306,32503,2,0,P|493:298|508:282,2,44.1799993258667,2|8|8,1:0|3:0|2:0,0:0:0:0:
403,264,33003,1,6,1:0:0:0:
366,191,33253,6,0,L|383:150,1,44.1799993258667,8|0,2:0|3:0,0:0:0:0:
399,113,33503,1,2,1:0:0:0:
329,70,33753,1,2,1:0:0:0:
270,126,34003,1,10,2:0:0:0:
246,203,34253,6,0,L|160:223,1,88.3599986517333,14|2,2:0|1:0,0:0:0:0:
92,177,34753,1,2,1:0:0:0:
41,240,35003,2,0,L|0:225,2,44.1799993258667,10|2|8,1:2|1:1|3:2,0:0:0:0:
89,305,35503,2,0,L|130:320,1,44.1799993258667,10|10,2:0|0:0,0:0:0:0:
155,352,35753,6,0,P|218:294|303:305,1,176.719997303467,4|2,1:0|3:1,0:0:0:0:
373,263,36503,1,2,1:2:0:0:
440,308,36753,1,10,2:0:0:0:
336,182,37253,5,2,3:1:0:0:
376,111,37503,2,0,L|416:93,1,44.1799993258667,2|10,3:1|3:2,0:0:0:0:
452,75,37753,2,0,P|455:32|423:4,1,88.3599986517333,2|2,1:0|1:0,0:0:0:0:
344,23,38253,1,8,2:0:0:0:
271,58,38503,6,0,B|236:60|236:60|188:35,1,88.3599986517333,6|8,1:0|2:0,0:0:0:0:
109,56,39003,2,0,L|67:69,1,44.1799993258667,2|2,3:1|3:1,0:0:0:0:
29,85,39253,1,2,1:0:0:0:
3,162,39503,2,0,P|16:179|22:200,1,44.1799993258667,8|2,3:2|3:1,0:0:0:0:
33,239,39753,6,0,P|111:271|181:224,1,176.719997303467,6|8,1:0|2:0,0:0:0:0:
168,142,40503,1,6,1:0:0:0:
229,88,40753,1,2,3:1:0:0:
295,135,41003,1,2,1:0:0:0:
262,211,41253,6,0,P|344:242|413:296,1,176.719997303467,6|2,1:0|2:0,0:0:0:0:
489,266,42003,2,0,P|491:223|470:185,1,88.3599986517333,6|8,1:0|2:0,0:0:0:0:
439,166,42378,1,0,3:0:0:0:
439,166,42503,1,6,1:0:0:0:
449,3,43003,6,0,P|406:13|374:43,1,88.3599986517333,2|2,3:1|1:0,0:0:0:0:
350,120,43503,1,2,1:0:0:0:
269,105,43753,2,0,P|254:88|246:68,1,44.1799993258667,8|2,2:0|1:0,0:0:0:0:
251,27,44003,1,4,1:0:0:0:
172,4,44253,6,0,P|120:42|114:107,1,132.5399979776,12|2,2:0|1:2,0:0:0:0:
99,144,44753,2,0,P|141:149|165:185,1,88.3599986517333,12|8,2:0|2:0,0:0:0:0:
194,261,45253,2,0,P|265:309|352:304,1,176.719997303467,4|2,1:0|3:1,0:0:0:0:
430,281,46003,1,2,1:0:0:0:
464,207,46253,1,2,1:0:0:0:
416,139,46503,2,0,P|397:130|375:127,1,44.1799993258667,8|2,2:0|1:2,0:0:0:0:
351,91,46753,6,0,P|269:114|229:190,1,176.719997303467,6|0,1:0|3:0,0:0:0:0:
165,241,47503,2,0,P|129:263|86:255,1,88.3599986517333,6|8,1:0|2:0,0:0:0:0:
65,220,47878,1,2,3:1:0:0:
65,220,48003,1,6,1:0:0:0:
22,62,48503,6,0,B|36:50|36:50|61:44,1,44.1799993258667,2|2,3:1|1:0,0:0:0:0:
92,18,48753,1,2,1:0:0:0:
172,31,49003,1,10,1:2:0:0:
188,110,49253,1,2,1:2:0:0:
148,180,49503,6,0,P|197:224|262:234,1,132.5399979776,6|0,1:0|3:0,0:0:0:0:
292,206,50003,1,0,3:0:0:0:
353,153,50253,2,0,L|339:110,2,44.1799993258667,2|2|8,1:2|3:2|2:0,0:0:0:0:
422,195,50753,2,0,L|385:322,1,132.5399979776,4|0,1:0|1:0,0:0:0:0:
400,359,51253,1,8,2:0:0:0:
476,383,51503,2,0,P|496:373|509:355,1,44.1799993258667,8|0,2:0|3:0,0:0:0:0:
511,314,51753,1,2,1:2:0:0:
497,233,52003,1,8,2:0:0:0:
505,152,52253,6,0,P|457:108|392:113,1,132.5399979776,6|0,1:0|3:0,0:0:0:0:
356,93,52753,2,0,P|320:70|309:29,2,88.3599986517333,0|2|8,3:0|1:0|2:0,0:0:0:0:
342,173,53503,1,6,1:0:0:0:
224,338,54128,5,2,1:2:0:0:
223,337,54253,2,0,P|185:316|142:314,1,88.3599986517333,6|8,1:0|2:0,0:0:0:0:
73,358,54753,1,8,2:0:0:0:
9,307,55003,2,0,P|-2:223|65:174,1,176.719997303467,6|0,1:0|3:0,0:0:0:0:
113,108,55753,2,0,B|140:126|140:126|194:139,1,88.3599986517333,2|12,1:0|2:0,0:0:0:0:
261,186,56253,1,6,1:0:0:0:
321,132,56503,6,0,L|309:81,1,44.1799993258667,8|0,2:0|1:0,0:0:0:0:
298,50,56753,1,8,2:0:0:0:
367,7,57003,1,8,2:0:0:0:
441,39,57253,2,0,P|489:39|490:125,1,132.5399979776,8|8,2:0|2:0,0:0:0:0:
504,151,57753,6,0,B|474:162|474:162|466:171|466:171|382:201,1,132.5399979776,6|0,1:0|1:0,0:0:0:0:
345,217,58253,1,2,3:1:0:0:
182,228,58753,5,4,3:0:0:0:
164,307,59003,2,0,L|83:343,2,88.3599986517333,0|8|0,1:0|2:0|2:0,0:0:0:0:
238,340,59753,1,0,1:0:0:0:
299,287,60003,2,0,L|290:243,1,44.1799993258667,8|0,1:2|1:0,0:0:0:0:
283,202,60253,1,12,1:2:0:0:
327,133,60503,1,6,1:0:0:0:
26,9,61503,6,0,B|46:8|46:8|70:27,1,44.1799993258667,8|2,2:0|1:0,0:0:0:0:
83,59,61753,1,4,1:2:0:0:
227,132,62253,1,2,3:1:0:0:
256,207,62503,6,0,B|293:221|293:221|296:220|296:220|338:236,2,88.3599986517333,2|8|2,1:0|2:0|1:0,0:0:0:0:
177,204,63253,2,0,P|158:284|231:322,1,176.719997303467,6|0,1:0|3:0,0:0:0:0:
382,383,64253,1,10,2:0:0:0:
486,258,64753,1,8,2:0:0:0:
319,80,65503,6,0,B|304:69|305:52|305:52|324:-1,2,88.3599986517333,4|8|4,1:2|2:0|1:0,0:0:0:0:
365,147,66253,2,0,B|380:158|379:175|379:175|322:318,1,176.719997303467,8|8,2:0|2:0,0:0:0:0:
257,353,67003,2,0,P|235:356|215:366,1,44.1799993258667,8|0,2:0|0:0,0:0:0:0:
174,371,67253,2,0,P|139:347|138:305,1,88.3599986517333,4|8,1:0|2:0,0:0:0:0:
104,230,67753,1,8,2:0:0:0:
153,165,68003,2,0,B|177:157|177:157|184:158|184:158|237:142,1,88.3599986517333,4|4,1:0|1:2,0:0:0:0:
314,170,68503,1,2,1:2:0:0:
379,122,68753,6,0,P|370:39|289:17,1,176.719997303467,6|2,1:0|3:2,0:0:0:0:
142,86,69753,1,8,2:0:0:0:
67,52,70003,2,0,P|25:126|61:203,1,176.719997303467,2|2,1:0|2:0,0:0:0:0:
163,330,71003,6,0,L|204:345,2,44.1799993258667,8|8|2,2:0|2:0|1:0,0:0:0:0:
134,256,71503,2,0,P|192:195|273:218,1,176.719997303467,6|8,1:0|2:0,0:0:0:0:
428,168,72503,6,0,P|442:184|461:195,1,44.1799993258667,8|0,2:0|3:0,0:0:0:0:
498,211,72753,2,0,P|504:293|427:324,1,176.719997303467,4|2,1:0|3:2,0:0:0:0:
345,326,73503,1,4,1:0:0:0:
268,297,73753,1,8,2:0:0:0:
210,239,74003,2,0,L|168:254,1,44.1799993258667,2|0,1:2|0:0,0:0:0:0:
130,268,74253,6,0,P|59:227|85:150,1,176.719997303467,4|0,1:0|3:0,0:0:0:0:
192,27,75253,1,8,2:0:0:0:
259,72,75503,2,0,L|222:253,1,176.719997303467,4|0,1:0|1:0,0:0:0:0:
261,317,76253,1,8,3:0:0:0:
326,364,76503,2,0,B|341:359|341:359|381:370,1,44.1799993258667,4|8,3:0|2:0,0:0:0:0:
408,371,76753,1,8,2:0:0:0:
461,309,77003,5,4,1:0:0:0:
422,235,77253,2,0,P|381:165|440:109,1,176.719997303467,10|8,2:0|2:0,0:0:0:0:
481,38,78003,1,8,2:0:0:0:
407,2,78253,2,0,P|385:8|364:12,1,44.1799993258667,6|10,1:0|2:0,0:0:0:0:
313,76,78628,2,0,P|291:69|270:65,1,44.1799993258667,8|8,1:2|1:2,0:0:0:0:
216,4,79003,1,2,1:0:0:0:
140,34,79253,2,0,L|153:76,1,44.1799993258667,10|2,3:2|1:0,0:0:0:0:
171,112,79503,1,10,3:2:0:0:
220,175,79753,6,0,B|209:198|209:198|207:211|207:211|181:264,1,97.7599994033202,6|8,1:0|2:0,0:0:0:0:
119,315,80253,2,0,P|97:327|73:330,2,48.8799997016601,0|8|4,3:0|2:0|1:0,0:0:0:0:
191,348,80753,2,0,L|236:366,1,48.8799997016601,8|0,2:0|3:0,0:0:0:0:
273,382,81003,1,4,1:0:0:0:
341,340,81253,1,8,2:0:0:0:
482,265,81753,5,0,1:0:0:0:
444,194,82003,2,0,P|411:158|416:111,1,97.7599994033202,0|8,1:0|2:0,0:0:0:0:
486,71,82503,1,4,1:0:0:0:
428,15,82753,6,0,B|395:33|395:33|337:16,1,97.7599994033202,12|8,2:0|2:0,0:0:0:0:
299,4,83128,1,0,1:0:0:0:
299,4,83253,2,0,P|248:22|248:112,1,146.63999910498,12|0,2:0|1:0,0:0:0:0:
274,128,83753,1,4,1:0:0:0:
427,175,84253,5,0,3:0:0:0:
467,243,84503,2,0,B|483:255|483:255|512:263,2,48.8799997016601,0|0|8,1:0|3:0|2:0,0:0:0:0:
386,247,85003,1,8,2:0:0:0:
335,186,85253,6,0,P|287:181|246:206,1,97.7599994033202,6|8,1:0|2:0,0:0:0:0:
167,195,85753,2,0,P|149:178|138:156,2,48.8799997016601,0|8|4,3:0|2:0|1:0,0:0:0:0:
197,269,86253,2,0,B|197:285|197:285|182:314,1,48.8799997016601,8|0,2:0|3:0,0:0:0:0:
169,352,86503,1,4,1:0:0:0:
92,376,86753,2,0,P|46:364|27:321,1,97.7599994033202,10|0,2:0|3:0,0:0:0:0:
6,243,87253,2,0,P|17:221|22:197,1,48.8799997016601,2|0,1:0|3:0,0:0:0:0:
15,157,87503,1,2,1:0:0:0:
70,99,87753,2,0,B|55:83|55:83|48:44,2,48.8799997016601,10|0|6,2:0|1:0|1:0,0:0:0:0:
133,148,88253,6,0,B|168:157|168:157|171:161|171:161|225:174,1,97.7599994033202,12|8,2:0|2:0,0:0:0:0:
265,180,88628,1,2,1:2:0:0:
265,180,88753,2,0,P|289:245|358:256,1,146.63999910498,4|8,1:0|2:0,0:0:0:0:
398,259,89253,1,4,1:0:0:0:
483,174,89628,1,6,1:0:0:0:
419,72,90003,1,6,1:0:0:0:
348,33,90253,2,0,B|327:54|327:54|260:69,1,97.7599994033202,6|4,1:0|1:0,0:0:0:0:
190,29,90753,5,4,1:0:0:0:
116,61,91003,2,0,P|77:117|121:169,1,146.63999910498,8|8,2:0|2:0,0:0:0:0:
142,203,91503,1,4,1:0:0:0:
208,248,91753,2,0,L|254:234,1,48.8799997016601,8|0,2:0|3:0,0:0:0:0:
292,220,92003,1,4,1:0:0:0:
370,238,92253,1,12,2:0:0:0:
496,336,92753,5,2,1:2:0:0:
431,383,93003,1,2,1:2:0:0:
355,357,93253,2,0,B|340:352|340:352|316:328,2,48.8799997016601,8|2|6,2:0|1:2|1:0,0:0:0:0:
415,304,93753,6,0,L|447:160,1,146.63999910498,12|0,2:0|1:0,0:0:0:0:
478,136,94253,2,0,P|502:96|485:52,1,97.7599994033202,4|8,1:0|2:0,0:0:0:0:
412,15,94753,1,4,1:0:0:0:
251,10,95253,6,0,B|228:15|228:15|225:19|225:19|204:23,2,48.8799997016601,8|0|4,2:0|1:0|1:0,0:0:0:0:
321,48,95753,1,8,2:0:0:0:
341,125,96003,2,0,L|315:189,1,48.8799997016601,4|2,1:0|3:1,0:0:0:0:
325,210,96253,5,6,1:0:0:0:
283,279,96503,2,0,P|219:253|164:297,1,146.63999910498,8|2,2:0|1:2,0:0:0:0:
142,331,97003,2,0,P|98:348|54:330,1,97.7599994033202,4|8,1:0|2:0,0:0:0:0:
18,258,97503,1,4,1:0:0:0:
60,189,97753,2,0,L|34:94,1,97.7599994033202,8|2,2:0|2:0,0:0:0:0:
73,24,98253,2,0,L|118:41,1,48.8799997016601,2|2,1:0|3:2,0:0:0:0:
158,36,98503,2,0,P|179:26|194:7,2,48.8799997016601,8|0|8,2:0|1:0|2:0,0:0:0:0:
151,117,99003,5,6,1:0:0:0:
202,178,99253,2,0,P|284:161|344:221,1,176.719997303467,8|0,2:0|1:0,0:0:0:0:
376,296,100003,2,0,P|391:311|412:319,1,44.1799993258667,8|0,2:0|3:0,0:0:0:0:
453,316,100253,2,0,P|503:248|482:165,1,176.719997303467,4|8,1:0|2:0,0:0:0:0:
463,84,101003,2,0,P|471:63|488:49,2,44.1799993258667,8|0|2,2:0|3:0|1:2,0:0:0:0:
405,141,101503,1,8,2:0:0:0:
328,114,101753,6,0,P|304:76|309:34,2,88.3599986517333,6|8|0,1:0|2:0|3:0,0:0:0:0:
340,194,102503,1,0,1:0:0:0:
416,222,102753,2,0,L|396:261,1,44.1799993258667,10|10,2:0|2:0,0:0:0:0:
375,296,103003,2,0,P|290:278|211:313,1,176.719997303467,4|2,1:0|2:1,0:0:0:0:
140,270,103753,2,0,P|124:256|114:236,2,44.1799993258667,4|8|10,1:0|2:0|2:0,0:0:0:0:
137,352,104253,1,10,2:0:0:0:
59,375,104503,6,0,P|23:351|15:308,1,88.3599986517333,6|8,1:0|2:0,0:0:0:0:
31,228,105003,1,2,3:2:0:0:
9,149,105253,1,0,1:0:0:0:
79,107,105503,1,12,2:0:0:0:
149,147,105753,6,0,P|183:173|227:173,2,88.3599986517333,4|8|8,1:0|2:0|2:0,0:0:0:0:
152,65,106503,2,0,L|170:24,1,44.1799993258667,8|8,1:2|2:0,0:0:0:0:
199,0,106753,2,0,B|239:13|239:13|243:17|243:17|323:44,1,132.5399979776,0|8,1:0|2:0,0:0:0:0:
361,60,107253,1,6,1:0:0:0:
256,192,107378,12,6,110003,1:0:0:0:
