osu file format v14

[General]
AudioFilename: audio.mp3
AudioLeadIn: 0
PreviewTime: 88762
Countdown: 0
SampleSet: Soft
StackLeniency: 0.7
Mode: 2
LetterboxInBreaks: 0
WidescreenStoryboard: 1

[Editor]
Bookmarks: 2457,24920,45018,59205,65708,71028,88762,111225,122161,126594
DistanceSpacing: 1.4
BeatDivisor: 4
GridSize: 4
TimelineZoom: 3.5

[Metadata]
Title:Bad Elixir
TitleUnicode:Bad Elixir
Artist:xi
ArtistUnicode:xi
Creator:Nelly
Version:Salad
Source:
Tags:bms of fighters g2r2018 go back to your roots alpha complex electronic instrumental
BeatmapID:2699151
BeatmapSetID:1297551

[Difficulty]
HPDrainRate:4
CircleSize:3
OverallDifficulty:7
ApproachRate:7
SliderMultiplier:1.4
SliderTickRate:1

[Events]
//Background and Video events
0,0,"background.jpg",0,0
//Break Periods
2,35813,39442
//Storyboard Layer 0 (Background)
//Storyboard Layer 1 (Fail)
//Storyboard Layer 2 (Pass)
//Storyboard Layer 3 (Foreground)
//Storyboard Layer 4 (Overlay)
//Storyboard Sound Samples

[TimingPoints]
2510,295.566502463054,4,2,1,60,1,0
20243,-100,4,2,1,70,0,0
20835,-100,4,2,2,70,0,0
21426,-100,4,2,1,70,0,0
24973,-100,4,2,1,80,0,0
40342,-100,4,2,1,60,0,0
45071,-100,4,2,1,80,0,1
54529,-125,4,2,1,60,0,0
56894,-100,4,2,1,80,0,1
59258,-100,4,2,1,70,0,0
62805,-100,4,2,1,80,0,0
63987,-100,4,2,1,70,0,0
65761,-100,4,2,2,70,0,0
66352,-100,4,2,1,75,0,0
68125,-100,4,2,1,5,0,0
68421,-100,4,2,1,65,0,0
68716,-100,4,2,1,70,0,0
71081,-100,4,2,1,60,0,0
82904,-100,4,2,1,65,0,0
85268,-100,4,2,1,70,0,0
87633,-100,4,2,1,75,0,0
88815,-100,4,2,1,80,0,0
90293,-100,4,2,1,90,0,1
108913,-100,4,2,1,60,0,0
110687,-100,4,2,1,90,0,0
110835,-100,4,2,1,70,0,0
111278,-100,4,2,1,80,0,1
121844,-100,4,2,1,80,0,0
122214,-100,4,2,1,90,0,0
122362,-100,4,2,1,50,0,0
123987,-100,4,2,1,5,0,0
124283,-100,4,2,1,90,0,1
126647,-100,4,2,1,90,0,0

[Colours]
Combo1 : 166,118,180
Combo2 : 215,38,184
Combo3 : 122,67,146

[HitObjects]
256,192,1327,12,8,2214,0:0:0:0:
83,275,2510,5,14,0:0:0:0:
455,47,4283,2,0,L|340:131,2,140,0|0|2,0:0|0:0|0:0,0:0:0:0:
164,323,6647,6,0,L|160:183,1,140,0|0,0:0|0:0,0:0:0:0:
441,128,7239,1,10,0:0:0:0:
137,54,9012,5,2,0:0:0:0:
277,162,9308,1,0,0:0:0:0:
207,166,9455,1,0,0:0:0:0:
137,170,9603,1,2,0:0:0:0:
375,335,10785,6,0,L|381:195,1,140,0|2,0:0|0:0,0:0:0:0:
241,133,11376,2,0,L|202:136,2,35,2|0|0,0:0|0:0|0:0,0:0:0:0:
326,49,11672,2,0,L|256:47,1,70,2|0,0:0|0:0,0:0:0:0:
86,274,11968,6,0,P|60:261|99:123,1,210,12|8,0:0|0:0,0:0:0:0:
306,115,12854,2,0,L|164:112,1,140,8|10,0:0|3:2,0:0:0:0:
447,341,13741,2,0,L|455:193,1,140,10|0,0:0|0:0,0:0:0:0:
314,88,14332,6,0,P|264:95|211:227,1,210,8|8,0:0|0:0,0:0:0:0:
373,231,15219,2,0,L|377:87,1,140,8|10,0:0|3:2,0:0:0:0:
107,213,16106,2,0,P|82:199|111:113,1,140,10|0,0:0|0:0,0:0:0:0:
195,113,16549,1,0,0:0:0:0:
360,113,16697,6,0,L|504:122,2,140,12|8|8,0:0|0:0|0:0,0:0:0:0:
221,108,17583,2,0,L|150:111,1,70,8|8,0:0|0:0,0:0:0:0:
222,274,17879,6,0,P|281:253|267:184,1,140,12|8,0:0|0:0,0:0:0:0:
201,178,18322,1,8,0:0:0:0:
131,173,18470,1,12,0:0:0:0:
271,153,18766,2,0,L|274:84,1,70,8|8,0:0|0:0,0:0:0:0:
107,45,19061,5,12,0:0:0:0:
62,112,19208,1,8,0:0:0:0:
82,192,19356,1,8,0:0:0:0:
153,231,19504,1,8,0:0:0:0:
320,238,19652,2,0,L|391:236,1,70,8|8,0:0|0:0,0:0:0:0:
320,148,19948,2,0,L|249:146,1,70,8|8,0:0|0:0,0:0:0:0:
416,332,20243,6,0,P|454:306|435:212,1,140,8|8,0:0|0:0,0:0:0:0:
308,148,20835,2,0,L|452:146,1,140,0|0,0:0|0:0,0:0:0:0:
181,63,21426,5,4,0:0:0:0:
256,192,21721,12,0,23790,0:0:0:0:
141,258,24381,6,0,P|118:246|141:157,1,140,0|0,0:0|0:0,0:0:0:0:
227,156,24825,1,0,0:0:0:0:
394,158,24973,6,0,L|464:160,1,70,14|2,0:0|0:0,0:0:0:0:
322,277,25416,1,2,0:0:0:0:
252,271,25564,2,0,P|201:257|198:177,1,140,2|0,0:0|0:0,0:0:0:0:
267,174,26007,1,2,0:0:0:0:
424,170,26155,6,0,L|494:173,2,70,10|10|10,0:0|0:0|0:0,0:0:0:0:
284,290,26746,2,0,L|424:286,1,140,10|10,0:0|0:0,0:0:0:0:
143,156,27337,6,0,L|74:154,1,70,10|2,0:0|0:0,0:0:0:0:
186,55,27780,1,2,0:0:0:0:
256,77,27928,2,0,L|260:219,1,140,2|2,0:0|0:0,0:0:0:0:
189,239,28372,1,2,0:0:0:0:
37,247,28519,6,0,P|21:220|75:138,1,140,10|10,0:0|0:0,0:0:0:0:
211,134,29110,2,0,L|353:138,1,140,10|10,0:0|0:0,0:0:0:0:
281,221,29554,1,8,0:0:0:0:
127,234,29702,6,0,L|57:233,1,70,10|2,0:0|0:0,0:0:0:0:
197,101,30145,1,2,0:0:0:0:
267,107,30293,2,0,P|318:121|321:201,1,140,2|2,0:0|0:0,0:0:0:0:
252,204,30736,1,2,0:0:0:0:
95,208,30884,6,0,L|25:205,2,70,10|8|10,0:0|0:0|0:0,0:0:0:0:
235,88,31475,2,0,L|95:92,1,140,10|10,0:0|0:0,0:0:0:0:
376,304,32066,6,0,L|446:303,1,70,10|2,0:0|0:0,0:0:0:0:
331,229,32509,1,0,0:0:0:0:
261,220,32657,2,0,L|257:80,1,140,10|2,0:0|0:0,0:0:0:0:
327,56,33101,1,2,0:0:0:0:
480,210,33248,6,0,P|487:180|414:108,1,140,10|10,0:0|0:0,0:0:0:0:
280,328,33840,2,0,L|420:325,1,140,10|10,0:0|0:0,0:0:0:0:
350,253,34283,1,8,0:0:0:0:
194,240,34431,6,0,P|128:228|95:44,1,280,2|10,0:0|0:0,0:0:0:0:
162,40,35170,1,10,0:0:0:0:
232,40,35317,1,10,0:0:0:0:
494,175,35613,1,4,0:0:0:0:
315,114,40342,6,0,L|422:120,2,105,8|8|8,0:0|0:0|0:0,0:0:0:0:
245,123,40933,1,8,0:0:0:0:
424,285,41524,6,0,L|236:271,2,186.666666666667,2|2|2,0:0|0:0|0:0,0:0:0:0:
105,241,42707,6,0,L|178:235,1,70,10|8,0:0|0:0,0:0:0:0:
386,208,43298,2,0,L|459:202,1,70,10|8,0:0|0:0,0:0:0:0:
246,102,43889,6,0,L|141:98,2,105,10|10|10,0:0|0:0|0:0,0:0:0:0:
316,262,44480,2,0,L|421:258,2,105,10|10|10,0:0|0:0|0:0,0:0:0:0:
147,268,45071,6,0,P|118:253|146:168,1,140,6|0,0:0|0:0,0:0:0:0:
214,169,45514,1,10,0:0:0:0:
354,169,45810,2,0,L|423:172,2,70,0|0|0,3:2|0:0|0:0,0:0:0:0:
214,159,46253,6,0,P|171:162|168:246,1,140,10|10,0:0|3:2,0:0:0:0:
304,257,46844,2,0,P|347:260|350:344,1,140,10|10,0:0|0:0,0:0:0:0:
73,354,47436,6,0,P|65:319|129:242,1,140,10|0,0:0|3:2,0:0:0:0:
195,240,47879,2,0,L|334:238,1,140,10|0,0:0|3:2,0:0:0:0:
263,142,48322,2,0,L|193:141,1,70,0|0,0:0|0:0,0:0:0:0:
348,39,48618,6,0,P|391:42|394:126,1,140,10|0,0:0|3:2,0:0:0:0:
328,137,49061,1,8,0:0:0:0:
258,173,49209,2,0,L|363:177,2,105,8|8|8,0:0|0:0|0:0,0:0:0:0:
116,172,49800,6,0,P|127:224|191:282,1,140,6|0,0:0|3:2,0:0:0:0:
259,285,50243,1,10,0:0:0:0:
399,287,50539,2,0,L|468:284,2,70,0|0|0,3:2|0:0|0:0,0:0:0:0:
245,282,50982,6,0,P|202:279|199:195,1,140,8|10,0:0|3:2,0:0:0:0:
334,142,51574,2,0,L|193:138,1,140,10|10,0:0|0:0,0:0:0:0:
475,312,52165,6,0,L|480:173,1,140,10|8,3:2|3:2,0:0:0:0:
336,58,52756,2,0,L|195:54,1,140,10|10,0:0|0:0,0:0:0:0:
266,139,53199,1,10,0:0:0:0:
435,160,53347,5,10,0:0:0:0:
480,227,53494,1,10,0:0:0:0:
460,307,53642,1,10,0:0:0:0:
389,346,53790,1,10,0:0:0:0:
222,349,53938,6,0,P|185:339|228:166,1,280,10|6,3:2|0:0,0:0:0:0:
256,192,54825,12,0,56598,0:0:0:0:
209,47,56894,6,0,L|204:187,1,140,8|8,0:0|0:0,0:0:0:0:
344,179,57485,2,0,L|349:319,1,140,8|8,0:0|0:0,0:0:0:0:
68,327,58076,6,0,P|46:299|83:204,1,140,8|8,0:0|0:0,0:0:0:0:
214,174,58667,2,0,L|71:168,1,140,8|8,0:0|0:0,0:0:0:0:
354,42,59258,6,0,P|385:59|354:139,1,140,6|8,3:2|3:2,0:0:0:0:
284,145,59702,2,0,P|253:162|284:242,1,140,2|8,3:2|3:2,0:0:0:0:
353,245,60145,6,0,L|212:241,1,140,2|8,3:2|3:2,0:0:0:0:
143,338,60588,2,0,L|284:334,1,140,2|8,3:2|3:2,0:0:0:0:
438,323,61032,2,0,P|479:274|437:226,1,140,10|10,3:2|3:2,0:0:0:0:
152,173,61623,6,0,P|140:145|212:77,1,140,2|8,3:2|3:2,0:0:0:0:
275,52,62066,2,0,L|134:48,1,140,2|8,3:2|3:2,0:0:0:0:
65,45,62509,1,2,3:2:0:0:
345,208,62805,6,0,L|449:204,2,105,10|10|10,3:2|3:2|3:2,0:0:0:0:
240,315,63470,2,0,L|344:319,1,105,10|10,3:2|3:2,0:0:0:0:
274,274,63840,1,10,3:2:0:0:
121,253,63987,6,0,B|88:213|85:178|90:153|97:125|112:93|129:83|155:68|175:58|200:58|221:59|221:59|199:58|173:59|151:70|125:86|115:103|92:126|79:159|86:201|104:231|122:255|122:255|264:249|264:249|123:246,1,840,2|0,3:2|0:0,0:0:0:0:
196,161,65909,2,0,L|233:163,2,35,0|0|0,0:0|0:0|0:0,0:0:0:0:
125,159,66204,1,0,0:0:0:0:
279,57,66352,6,0,L|423:54,1,140,10|4,3:2|3:2,0:0:0:0:
256,192,66943,12,0,68421,3:2:0:0:
205,7,68716,6,0,P|165:13|203:374,1,560,6|8,0:0|0:0,0:0:0:0:
343,309,70194,2,0,P|351:286|252:157,1,210,2|0,0:0|0:0,0:0:0:0:
181,154,70785,1,8,3:2:0:0:
447,84,71081,5,14,0:0:0:0:
57,47,72854,2,0,L|172:131,2,140,0|0|2,0:0|0:0|0:0,0:0:0:0:
348,323,75218,2,0,L|352:183,1,140,0|0,0:0|0:0,0:0:0:0:
71,128,75810,1,10,0:0:0:0:
375,54,77583,5,2,0:0:0:0:
235,169,77879,2,0,L|375:164,1,140,0|2,0:0|0:0,0:0:0:0:
137,335,79357,6,0,P|98:282|139:232,1,140,10|8,3:2|0:0,0:0:0:0:
209,224,79800,1,8,0:0:0:0:
377,166,79948,2,0,L|449:169,2,70,10|10|10,3:2|3:2|3:2,0:0:0:0:
100,146,80539,6,0,P|88:167|142:253,1,140,10|2,3:2|0:0,0:0:0:0:
281,264,81130,2,0,L|285:123,1,140,2|0,0:0|0:0,0:0:0:0:
215,121,81574,1,0,0:0:0:0:
146,118,81721,6,0,L|143:257,1,140,2|2,0:0|0:0,0:0:0:0:
283,293,82312,2,0,L|388:286,2,105,2|2|2,0:0|0:0|0:0,0:0:0:0:
212,194,82904,6,0,L|329:279,1,140,2|2,0:0|0:0,0:0:0:0:
184,57,83495,2,0,L|79:64,2,105,2|2|2,0:0|0:0|0:0,0:0:0:0:
254,53,84086,6,0,L|365:137,1,140,2|2,0:0|0:0,0:0:0:0:
226,183,84677,2,0,L|121:190,2,105,2|2|2,0:0|0:0|0:0,0:0:0:0:
380,165,85268,6,0,L|485:172,2,105,6|2|2,0:0|0:0|0:0,0:0:0:0:
310,272,85859,2,0,L|415:265,2,105,2|2|2,0:0|0:0|0:0,0:0:0:0:
156,279,86450,6,0,L|51:272,2,105,6|2|2,0:0|0:0|0:0,0:0:0:0:
227,187,87042,2,0,L|332:180,2,105,2|2|2,0:0|0:0|0:0,0:0:0:0:
72,199,87633,6,0,P|40:160|90:92,1,140,6|2,0:0|0:0,0:0:0:0:
224,59,88224,2,0,L|119:55,1,105,2|2,0:0|0:0,0:0:0:0:
15,52,88667,1,2,0:0:0:0:
169,225,88815,6,0,P|244:207|262:153,1,140,2|2,0:0|0:0,0:0:0:0:
192,145,89258,1,2,0:0:0:0:
122,133,89406,2,0,L|119:64,1,70,2|2,0:0|0:0,0:0:0:0:
190,34,89702,1,2,0:0:0:0:
121,37,89849,6,0,P|95:52|119:140,1,140,2|0,0:0|0:0,0:0:0:0:
276,148,90293,6,0,L|417:140,1,140,12|8,0:0|0:0,0:0:0:0:
311,256,90810,2,0,L|206:249,1,105,8|8,3:2|0:0,0:0:0:0:
361,342,91179,6,0,P|415:320|420:233,1,140,8|8,0:0|0:0,0:0:0:0:
279,144,91771,2,0,L|418:141,1,140,8|8,0:0|0:0,0:0:0:0:
138,50,92362,6,0,P|112:65|136:153,1,140,8|8,0:0|0:0,0:0:0:0:
277,168,92953,2,0,P|310:176|331:274,1,140,8|8,0:0|0:0,0:0:0:0:
82,260,93544,6,0,L|12:257,2,70,8|0|8,0:0|0:0|0:0,0:0:0:0:
219,171,94135,2,0,L|79:169,1,140,8|8,0:0|3:2,0:0:0:0:
149,121,94578,1,0,0:0:0:0:
316,112,94726,6,0,L|386:109,2,70,12|8|8,0:0|0:0|0:0,0:0:0:0:
176,121,95317,2,0,P|136:171|175:224,1,140,8|8,0:0|0:0,0:0:0:0:
428,219,95909,6,0,L|433:80,1,140,10|10,0:0|0:0,0:0:0:0:
179,320,96500,2,0,L|174:181,1,140,10|10,0:0|0:0,0:0:0:0:
422,313,97091,6,0,P|428:284|348:211,1,140,10|8,0:0|0:0,0:0:0:0:
219,166,97682,2,0,L|359:159,1,140,8|8,0:0|0:0,0:0:0:0:
104,88,98273,6,0,P|47:122|42:190,1,140,8|8,0:0|0:0,0:0:0:0:
182,277,98864,2,0,L|38:272,1,140,10|2,0:0|0:0,0:0:0:0:
323,152,99455,6,0,L|393:150,2,70,12|8|8,0:0|0:0|0:0,0:0:0:0:
186,261,100046,2,0,L|326:259,1,140,8|8,0:0|0:0,0:0:0:0:
73,341,100638,6,0,P|52:324|76:224,1,140,10|10,0:0|0:0,0:0:0:0:
141,214,101081,1,2,0:0:0:0:
212,204,101229,2,0,L|215:135,1,70,10|8,0:0|3:2,0:0:0:0:
145,117,101524,1,8,3:2:0:0:
414,102,101820,6,0,P|448:159|412:216,1,140,14|8,0:0|0:0,0:0:0:0:
272,213,102411,2,0,L|132:207,1,140,10|8,0:0|0:0,0:0:0:0:
383,322,103002,5,10,3:2:0:0:
440,287,103149,1,2,0:0:0:0:
438,221,103297,1,8,0:0:0:0:
298,126,103593,2,0,L|438:120,1,140,10|8,3:2|0:0,0:0:0:0:
183,53,104184,6,0,L|79:51,2,105,8|8|8,3:2|0:0|0:0,0:0:0:0:
338,181,104776,2,0,L|442:179,2,105,10|8|8,3:2|0:0|0:0,0:0:0:0:
184,298,105367,6,0,P|154:290|186:163,1,210,10|2,3:2|0:0,0:0:0:0:
256,161,105958,2,0,L|360:163,2,105,10|0|0,0:0|0:0|0:0,0:0:0:0:
101,154,106549,6,0,P|63:160|46:247,1,140,14|2,0:0|0:0,0:0:0:0:
185,271,107140,2,0,L|326:267,1,140,2|2,0:0|0:0,0:0:0:0:
181,184,107731,6,0,P|160:167|184:67,1,140,2|0,0:0|0:0,0:0:0:0:
322,41,108322,2,0,L|177:38,1,140,0|2,0:0|0:0,0:0:0:0:
253,122,108766,1,2,0:0:0:0:
420,159,108913,6,0,P|458:165|475:252,1,140,2|2,0:0|0:0,0:0:0:0:
326,313,109505,1,2,0:0:0:0:
396,310,109652,1,2,0:0:0:0:
466,308,109800,1,2,0:0:0:0:
185,256,110096,6,0,L|181:117,1,140,2|2,0:0|0:0,0:0:0:0:
324,156,110687,2,0,P|348:124|309:42,1,140,0|0,3:2|0:0,0:0:0:0:
240,37,111130,1,0,0:0:0:0:
86,34,111278,6,0,L|14:36,1,70,14|2,0:0|0:0,0:0:0:0:
158,147,111721,1,0,0:0:0:0:
228,163,111869,2,0,P|265:176|273:265,1,140,8|8,0:0|0:0,0:0:0:0:
203,277,112312,1,0,0:0:0:0:
42,280,112460,6,0,L|38:138,1,140,8|8,0:0|0:0,0:0:0:0:
178,81,113051,2,0,L|39:77,1,140,8|8,0:0|0:0,0:0:0:0:
321,245,113643,6,0,L|391:243,1,70,10|2,0:0|0:0,0:0:0:0:
242,328,114086,1,0,0:0:0:0:
172,321,114234,2,0,L|168:180,1,140,8|8,0:0|0:0,0:0:0:0:
239,172,114677,1,0,0:0:0:0:
405,278,114825,5,10,0:0:0:0:
453,211,114972,1,10,0:0:0:0:
436,131,115120,1,10,0:0:0:0:
366,90,115268,1,10,0:0:0:0:
296,95,115416,1,8,0:0:0:0:
366,90,115563,1,0,0:0:0:0:
436,86,115711,1,0,0:0:0:0:
157,265,116007,6,0,L|87:263,1,70,14|2,0:0|0:0,0:0:0:0:
228,175,116450,1,0,0:0:0:0:
298,170,116598,2,0,P|328:143|294:62,1,140,8|8,0:0|0:0,0:0:0:0:
225,62,117042,1,0,0:0:0:0:
58,218,117189,6,0,P|55:185|130:124,1,140,10|10,0:0|0:0,0:0:0:0:
271,227,117780,2,0,L|132:223,1,140,10|10,0:0|0:0,0:0:0:0:
406,322,118372,6,0,L|476:320,1,70,10|2,0:0|0:0,0:0:0:0:
335,206,118815,1,0,0:0:0:0:
265,201,118963,2,0,P|240:186|243:60,1,140,8|8,0:0|0:0,0:0:0:0:
292,60,119406,1,0,0:0:0:0:
460,268,119554,6,0,P|461:239|386:166,1,140,10|10,0:0|0:0,0:0:0:0:
245,141,120145,2,0,L|390:139,1,140,10|10,0:0|0:0,0:0:0:0:
314,79,120588,1,0,0:0:0:0:
146,61,120736,6,0,P|88:96|74:162,1,140,10|10,0:0|0:0,0:0:0:0:
214,234,121327,2,0,L|353:229,1,140,10|10,0:0|0:0,0:0:0:0:
198,205,121771,6,0,P|171:203|113:55,1,210,2|4,0:0|0:0,0:0:0:0:
256,192,122509,12,0,123987,0:0:0:0:
256,192,124283,12,12,126647,0:0:0:0:
