osu file format v14

[General]
AudioFilename: audio.mp3
AudioLeadIn: 0
PreviewTime: 88762
Countdown: 0
SampleSet: Soft
StackLeniency: 0.7
Mode: 2
LetterboxInBreaks: 0
WidescreenStoryboard: 1

[Editor]
Bookmarks: 2457,24920,45018,59205,65708,71028,88762,111225,122161,126594
DistanceSpacing: 1.4
BeatDivisor: 4
GridSize: 4
TimelineZoom: 3.5

[Metadata]
Title:Bad Elixir
TitleUnicode:Bad Elixir
Artist:xi
ArtistUnicode:xi
Creator:Nelly
Version:Overdose
Source:
Tags:bms of fighters g2r2018 go back to your roots alpha complex electronic instrumental
BeatmapID:2692804
BeatmapSetID:1297551

[Difficulty]
HPDrainRate:7
CircleSize:4
OverallDifficulty:9.4
ApproachRate:9.4
SliderMultiplier:1.9
SliderTickRate:2

[Events]
//Background and Video events
0,0,"background.jpg",0,0
//Break Periods
2,35813,39802
//Storyboard Layer 0 (Background)
//Storyboard Layer 1 (Fail)
//Storyboard Layer 2 (Pass)
//Storyboard Layer 3 (Foreground)
//Storyboard Layer 4 (Overlay)
//Storyboard Sound Samples

[TimingPoints]
2510,295.566502463054,4,2,1,60,1,0
20243,-100,4,2,1,70,0,0
20835,-100,4,2,2,70,0,0
21426,-100,4,2,1,70,0,0
24973,-100,4,2,1,80,0,0
40342,-100,4,2,1,60,0,0
45071,-100,4,2,1,80,0,1
54529,-125,4,2,1,60,0,0
56894,-100,4,2,1,80,0,1
59258,-100,4,2,1,70,0,0
62805,-100,4,2,1,80,0,0
62953,-100,4,2,1,5,0,0
63027,-100,4,2,1,80,0,0
63175,-100,4,2,1,5,0,0
63248,-100,4,2,1,80,0,0
63396,-100,4,2,1,5,0,0
63470,-100,4,2,1,80,0,0
63618,-100,4,2,1,5,0,0
63692,-100,4,2,1,80,0,0
63987,-100,4,2,1,70,0,0
65761,-100,4,2,2,70,0,0
66352,-100,4,2,1,75,0,0
68125,-100,4,2,1,5,0,0
68421,-100,4,2,1,65,0,0
68716,-100,4,2,1,70,0,0
71081,-100,4,2,1,60,0,0
82904,-100,4,2,1,65,0,0
85268,-100,4,2,1,70,0,0
87633,-100,4,2,1,75,0,0
88815,-100,4,2,1,80,0,0
90293,-90.9090909090909,4,2,1,90,0,1
108913,-100,4,2,1,60,0,0
110687,-100,4,2,1,90,0,0
110835,-100,4,2,1,70,0,0
111278,-100,4,2,1,80,0,1
121844,-100,4,2,1,80,0,0
122214,-100,4,2,1,90,0,0
122362,-100,4,2,1,50,0,0
123987,-100,4,2,1,5,0,0
124283,-100,4,2,1,90,0,1
126647,-100,4,2,1,90,0,0

[Colours]
Combo1 : 166,118,180
Combo2 : 215,38,184
Combo3 : 122,67,146

[HitObjects]
146,312,1327,5,8,0:0:0:0:
123,304,1363,1,8,0:0:0:0:
105,290,1400,1,8,0:0:0:0:
93,269,1437,1,8,0:0:0:0:
89,246,1474,1,8,0:0:0:0:
93,223,1511,1,8,0:0:0:0:
106,203,1548,1,8,0:0:0:0:
124,188,1585,1,8,0:0:0:0:
147,183,1623,2,8,L|183:183,2,31.6666666666667,8|8|8,0:0|0:0|0:0,0:0:0:0:
99,113,1771,2,8,L|151:109,1,47.5,8|8,0:0|0:0,0:0:0:0:
203,109,1918,2,8,L|269:112,2,63.3333333333333,8|8|8,0:0|0:0|0:0,0:0:0:0:
76,150,2214,1,8,0:0:0:0:
456,336,2510,5,14,0:0:0:0:
39,52,4283,2,0,L|143:213,2,190,0|0|2,0:0|0:0|0:0,0:0:0:0:
293,337,6647,6,0,L|397:177,1,190,0|0,0:0|0:0,0:0:0:0:
30,36,7239,1,10,0:0:0:0:
386,287,9012,5,2,0:0:0:0:
230,262,9308,1,0,0:0:0:0:
308,208,9455,1,0,0:0:0:0:
386,154,9603,1,2,0:0:0:0:
123,313,10785,6,0,P|102:306|123:216,1,142.5,0|0,0:0|0:0,0:0:0:0:
208,211,11081,2,0,P|229:204|208:114,1,142.5,2|0,0:0|0:0,0:0:0:0:
123,109,11376,2,0,L|101:68,3,47.5,2|0|0|0,0:0|0:0|0:0|0:0,0:0:0:0:
13,142,11672,2,0,L|10:47,1,95,2|0,0:0|0:0,0:0:0:0:
352,337,11968,6,0,P|385:319|344:201,1,190,12|0,0:0|0:0,0:0:0:0:
215,201,12411,2,0,L|405:197,1,190,8|0,0:0|0:0,0:0:0:0:
177,124,12854,2,0,L|173:26,1,95,8|0,0:0|0:0,0:0:0:0:
385,22,13150,1,10,3:2:0:0:
186,250,13445,6,0,L|137:209,2,63.3333333333333,2|2|2,0:0|0:0|0:0,0:0:0:0:
288,288,13741,2,0,P|346:277|405:164,1,190,10|0,0:0|0:0,0:0:0:0:
44,177,14332,6,0,P|28:154|107:45,1,190,8|0,0:0|0:0,0:0:0:0:
240,44,14776,2,0,L|50:39,1,190,8|0,0:0|0:0,0:0:0:0:
279,187,15219,2,0,L|374:184,1,95,8|0,0:0|0:0,0:0:0:0:
165,284,15514,1,10,3:2:0:0:
356,310,15810,6,0,L|395:258,2,63.3333333333333,2|2|2,0:0|0:0|0:0,0:0:0:0:
255,310,16106,2,0,L|161:308,1,95,10|0,0:0|0:0,0:0:0:0:
294,224,16401,2,0,L|298:177,1,47.5,0|0,0:0|0:0,0:0:0:0:
221,167,16549,2,0,L|225:120,1,47.5,0|0,0:0|0:0,0:0:0:0:
404,53,16697,6,0,L|499:50,1,95,12|0,0:0|0:0,0:0:0:0:
231,312,16992,2,0,L|226:214,1,95,8|0,0:0|0:0,0:0:0:0:
361,135,17288,2,0,L|266:132,1,95,8|0,0:0|0:0,0:0:0:0:
133,136,17583,1,8,0:0:0:0:
267,132,17731,1,8,0:0:0:0:
22,286,17879,6,0,L|19:189,1,95,12|0,0:0|0:0,0:0:0:0:
298,128,18175,1,8,0:0:0:0:
164,124,18323,1,8,0:0:0:0:
409,278,18470,2,0,L|412:181,1,95,12|0,0:0|0:0,0:0:0:0:
164,124,18766,1,8,0:0:0:0:
298,119,18913,2,0,L|250:118,1,47.5,8|8,0:0|0:0,0:0:0:0:
64,237,19061,6,0,L|158:234,2,95,12|8|8,0:0|0:0|0:0,0:0:0:0:
298,119,19505,2,0,L|250:118,1,47.5,8|8,0:0|0:0,0:0:0:0:
64,237,19652,2,0,L|158:234,2,95,8|8|8,0:0|0:0|0:0,0:0:0:0:
298,119,20096,2,0,L|346:118,1,47.5,8|8,0:0|0:0,0:0:0:0:
152,342,20243,5,8,0:0:0:0:
106,311,20316,1,0,0:0:0:0:
99,257,20390,1,0,0:0:0:0:
137,217,20464,1,0,0:0:0:0:
331,342,20539,1,8,0:0:0:0:
377,311,20612,1,0,0:0:0:0:
384,257,20686,1,0,0:0:0:0:
346,217,20760,1,0,0:0:0:0:
301,196,20835,5,0,0:0:0:0:
273,148,20908,1,0,0:0:0:0:
289,96,20982,1,0,0:0:0:0:
341,76,21056,1,0,0:0:0:0:
127,193,21130,2,0,L|175:191,1,47.5,0|0,0:0|0:0,0:0:0:0:
334,180,21278,2,0,L|382:178,1,47.5,0|0,0:0|0:0,0:0:0:0:
121,103,21426,5,4,0:0:0:0:
256,192,21574,12,0,23790,0:0:0:0:
61,146,24381,6,0,L|160:148,1,95,0|0,0:0|0:0,0:0:0:0:
401,272,24677,2,0,L|353:270,1,47.5,0|0,0:0|0:0,0:0:0:0:
194,259,24825,2,0,L|146:257,1,47.5,0|0,0:0|0:0,0:0:0:0:
351,164,24973,5,14,0:0:0:0:
228,150,25120,2,0,L|226:55,1,95,2|0,0:0|3:2,0:0:0:0:
360,70,25416,2,0,L|361:22,1,47.5,2|2,0:0|0:0,0:0:0:0:
168,20,25564,2,0,L|68:18,1,95,2|2,0:0|0:0,0:0:0:0:
112,105,25761,1,2,0:0:0:0:
150,102,25810,1,2,0:0:0:0:
188,100,25859,1,2,0:0:0:0:
55,187,26007,1,2,0:0:0:0:
264,282,26155,5,10,0:0:0:0:
132,273,26303,1,10,0:0:0:0:
340,201,26450,2,0,L|438:200,1,95,10|0,0:0|0:0,0:0:0:0:
186,347,26746,2,0,L|184:251,1,95,10|2,0:0|0:0,0:0:0:0:
252,244,26968,1,2,0:0:0:0:
452,224,27042,2,0,L|454:128,1,95,10|2,0:0|0:0,0:0:0:0:
386,121,27264,1,2,0:0:0:0:
189,103,27337,5,10,0:0:0:0:
312,117,27485,2,0,L|314:212,1,95,2|0,0:0|3:2,0:0:0:0:
180,197,27780,2,0,L|179:245,1,47.5,2|2,0:0|0:0,0:0:0:0:
367,319,27928,1,2,0:0:0:0:
253,314,28076,2,0,L|204:316,2,47.5,2|2|2,0:0|0:0|0:0,0:0:0:0:
367,319,28372,1,2,0:0:0:0:
92,223,28519,6,0,L|89:129,1,95,10|0,0:0|0:0,0:0:0:0:
300,58,28815,2,0,L|204:57,1,95,10|0,0:0|0:0,0:0:0:0:
414,177,29110,2,0,L|318:176,1,95,10|2,0:0|0:0,0:0:0:0:
108,310,29406,1,10,0:0:0:0:
240,301,29554,1,8,0:0:0:0:
31,199,29702,5,10,0:0:0:0:
154,190,29849,2,0,L|157:95,1,95,2|0,0:0|3:2,0:0:0:0:
23,77,30145,2,0,L|22:29,1,47.5,2|2,0:0|0:0,0:0:0:0:
210,20,30293,2,0,L|310:18,1,95,2|2,0:0|0:0,0:0:0:0:
266,103,30490,1,2,0:0:0:0:
228,100,30539,1,2,0:0:0:0:
190,98,30588,1,2,0:0:0:0:
323,185,30736,1,2,0:0:0:0:
108,310,30884,5,10,0:0:0:0:
240,301,31032,1,8,0:0:0:0:
31,240,31179,2,0,L|28:146,1,95,10|0,0:0|0:0,0:0:0:0:
277,99,31475,1,10,0:0:0:0:
163,197,31623,2,0,L|210:195,1,47.5,0|0,0:0|0:0,0:0:0:0:
384,185,31771,2,0,L|383:138,1,47.5,10|0,0:0|0:0,0:0:0:0:
315,125,31918,2,0,L|314:78,1,47.5,8|0,0:0|0:0,0:0:0:0:
488,315,32066,5,10,0:0:0:0:
365,306,32214,2,0,L|362:211,1,95,2|0,0:0|3:2,0:0:0:0:
496,193,32509,2,0,L|497:145,1,47.5,0|0,0:0|0:0,0:0:0:0:
309,103,32657,2,0,L|211:104,1,95,10|2,0:0|0:0,0:0:0:0:
157,188,32879,1,2,0:0:0:0:
215,186,32953,1,2,0:0:0:0:
348,185,33101,1,2,0:0:0:0:
134,292,33248,6,0,L|38:290,1,95,10|0,0:0|0:0,0:0:0:0:
293,289,33544,2,0,L|296:194,1,95,10|0,0:0|0:0,0:0:0:0:
46,94,33840,2,0,L|142:92,1,95,10|0,0:0|0:0,0:0:0:0:
350,208,34135,1,10,0:0:0:0:
218,199,34283,1,8,0:0:0:0:
465,276,34431,6,0,L|467:179,1,95,2|0,0:0|0:0,0:0:0:0:
401,177,34652,1,0,0:0:0:0:
206,166,34726,1,0,0:0:0:0:
198,110,34799,1,0,0:0:0:0:
227,63,34873,1,0,0:0:0:0:
280,44,34947,1,0,0:0:0:0:
91,28,35022,2,0,L|42:26,1,47.5,10|0,0:0|0:0,0:0:0:0:
273,123,35170,2,0,L|322:121,1,47.5,10|0,0:0|0:0,0:0:0:0:
102,247,35317,2,0,L|8:245,1,95,10|0,0:0|0:0,0:0:0:0:
355,343,35613,5,4,0:0:0:0:
235,320,40342,6,0,L|239:226,1,95,8|0,0:0|0:0,0:0:0:0:
74,201,40564,2,0,L|78:107,1,95,8|0,0:0|0:0,0:0:0:0:
154,88,40785,1,8,0:0:0:0:
423,330,40933,2,0,P|454:302|414:178,1,190,8|0,0:0|0:0,0:0:0:0:
302,175,41376,1,0,0:0:0:0:
55,331,41524,5,2,0:0:0:0:
34,260,41622,1,0,0:0:0:0:
64,191,41721,1,0,0:0:0:0:
132,163,41819,1,0,0:0:0:0:
323,241,41918,5,2,0:0:0:0:
344,170,42016,1,0,0:0:0:0:
314,101,42115,1,0,0:0:0:0:
246,73,42213,1,0,0:0:0:0:
456,299,42312,5,2,0:0:0:0:
477,228,42410,1,0,0:0:0:0:
447,159,42509,1,0,0:0:0:0:
379,131,42607,1,0,0:0:0:0:
176,126,42707,5,10,0:0:0:0:
309,118,42854,1,8,0:0:0:0:
99,202,43002,1,0,0:0:0:0:
57,238,43076,1,0,0:0:0:0:
63,293,43150,1,0,0:0:0:0:
111,320,43223,1,0,0:0:0:0:
311,257,43298,5,10,0:0:0:0:
178,249,43445,1,8,0:0:0:0:
397,343,43593,1,0,0:0:0:0:
445,316,43666,1,0,0:0:0:0:
451,261,43740,1,0,0:0:0:0:
409,225,43814,1,0,0:0:0:0:
226,211,43889,6,0,L|122:206,1,95,10|0,0:0|0:0,0:0:0:0:
312,175,44110,2,0,P|335:151|321:94,1,95,10|0,0:0|0:0,0:0:0:0:
186,68,44332,2,0,L|136:65,1,47.5,10|10,0:0|0:0,0:0:0:0:
324,284,44480,6,0,L|428:279,1,95,10|0,0:0|0:0,0:0:0:0:
235,216,44702,2,0,L|131:211,1,95,10|0,0:0|0:0,0:0:0:0:
333,156,44923,2,0,L|383:153,1,47.5,10|10,0:0|0:0,0:0:0:0:
146,349,45071,6,0,P|105:337|94:248,1,142.5,6|0,0:0|0:0,0:0:0:0:
161,221,45367,1,0,0:0:0:0:
375,194,45514,2,0,L|175:185,1,190,10|0,0:0|3:2,0:0:0:0:
415,341,45958,1,0,0:0:0:0:
463,314,46031,1,0,0:0:0:0:
469,259,46105,1,0,0:0:0:0:
427,223,46179,1,0,0:0:0:0:
213,206,46253,6,0,L|85:202,1,126.666666666667,10|0,0:0|0:0,0:0:0:0:
292,246,46549,2,0,P|322:219|296:142,1,126.666666666667,10|0,3:2|0:0,0:0:0:0:
96,91,46844,2,0,L|224:87,1,126.666666666667,10|0,0:0|0:0,0:0:0:0:
432,193,47140,2,0,L|435:98,1,95,10|0,0:0|3:2,0:0:0:0:
368,93,47362,1,0,0:0:0:0:
167,84,47436,6,0,L|70:88,1,95,10|0,0:0|0:0,0:0:0:0:
101,173,47620,1,0,0:0:0:0:
130,176,47657,1,0,0:0:0:0:
286,195,47731,1,0,3:2:0:0:
74,319,47879,2,0,P|35:297|75:183,1,190,10|0,0:0|3:2,0:0:0:0:
316,192,48322,2,0,L|310:144,1,47.5,0|0,0:0|0:0,0:0:0:0:
134,90,48470,1,0,0:0:0:0:
111,88,48506,1,0,0:0:0:0:
87,86,48543,1,0,0:0:0:0:
331,320,48618,6,0,P|372:308|383:219,1,142.5,10|0,0:0|0:0,0:0:0:0:
219,158,48913,2,0,L|314:157,1,95,0|8,3:2|0:0,0:0:0:0:
70,269,49209,2,0,L|65:171,1,95,8|0,0:0|0:0,0:0:0:0:
240,329,49431,2,0,L|235:231,1,95,8|0,0:0|0:0,0:0:0:0:
64,90,49652,2,0,L|113:87,1,47.5,8|0,0:0|0:0,0:0:0:0:
351,223,49800,6,0,L|208:220,1,142.5,6|0,0:0|0:0,0:0:0:0:
142,218,50096,1,0,3:2:0:0:
387,321,50243,2,0,P|403:282|319:182,1,190,10|0,0:0|3:2,0:0:0:0:
179,98,50687,2,0,L|227:95,1,47.5,0|0,0:0|0:0,0:0:0:0:
383,80,50835,2,0,L|431:77,1,47.5,0|0,0:0|0:0,0:0:0:0:
204,239,50982,5,8,0:0:0:0:
319,184,51130,2,0,L|269:181,1,47.5,0|0,0:0|0:0,0:0:0:0:
204,175,51278,1,10,3:2:0:0:
356,266,51426,2,0,L|306:263,1,47.5,0|0,0:0|0:0,0:0:0:0:
173,249,51574,1,10,0:0:0:0:
382,99,51721,2,0,L|332:96,1,47.5,0|0,0:0|0:0,0:0:0:0:
171,84,51869,1,10,0:0:0:0:
402,22,52017,2,0,L|352:19,1,47.5,0|0,0:0|0:0,0:0:0:0:
144,22,52165,6,0,L|49:25,1,95,10|0,3:2|0:0,0:0:0:0:
78,115,52349,1,0,0:0:0:0:
107,116,52386,1,0,0:0:0:0:
280,239,52460,2,0,L|185:236,1,95,8|0,3:2|0:0,0:0:0:0:
433,247,52756,1,10,0:0:0:0:
475,211,52830,1,0,0:0:0:0:
469,156,52904,1,10,0:0:0:0:
421,129,52977,1,0,0:0:0:0:
209,136,53051,2,0,L|257:134,1,47.5,10|0,0:0|0:0,0:0:0:0:
418,123,53199,2,0,L|466:121,1,47.5,10|0,0:0|0:0,0:0:0:0:
260,246,53347,6,0,L|212:244,1,47.5,10|0,0:0|0:0,0:0:0:0:
266,329,53495,2,0,L|314:327,1,47.5,10|0,0:0|0:0,0:0:0:0:
136,188,53643,2,0,L|88:186,1,47.5,10|0,0:0|0:0,0:0:0:0:
259,252,53791,2,0,L|307:250,1,47.5,10|0,0:0|0:0,0:0:0:0:
83,345,53938,5,10,3:2:0:0:
50,329,53987,1,2,0:0:0:0:
29,298,54036,1,2,0:0:0:0:
28,261,54085,1,2,0:0:0:0:
49,229,54135,1,2,0:0:0:0:
83,215,54184,1,2,0:0:0:0:
237,180,54234,6,0,L|268:179,2,31.6666666666667,2|2|2,0:0|0:0|0:0,0:0:0:0:
83,135,54381,2,0,L|52:134,2,31.6666666666667,2|2|2,0:0|0:0|0:0,0:0:0:0:
271,85,54529,5,6,0:0:0:0:
256,192,54677,12,0,56598,0:0:0:0:
335,85,56894,5,8,0:0:0:0:
377,121,56968,1,0,0:0:0:0:
371,176,57042,1,0,0:0:0:0:
323,203,57115,1,0,0:0:0:0:
114,204,57189,2,0,L|169:201,1,47.5,8|0,0:0|0:0,0:0:0:0:
320,188,57337,2,0,L|375:185,1,47.5,0|0,0:0|0:0,0:0:0:0:
150,319,57485,5,8,0:0:0:0:
108,283,57559,1,0,0:0:0:0:
114,228,57633,1,0,0:0:0:0:
162,201,57706,1,0,0:0:0:0:
371,199,57780,2,0,L|316:202,1,47.5,8|0,0:0|0:0,0:0:0:0:
165,216,57928,2,0,L|110:218,1,47.5,0|0,0:0|0:0,0:0:0:0:
356,289,58076,6,0,L|411:291,1,47.5,8|0,0:0|0:0,0:0:0:0:
237,246,58224,2,0,L|182:248,1,47.5,0|0,0:0|0:0,0:0:0:0:
243,164,58372,2,0,L|298:166,1,47.5,8|0,0:0|0:0,0:0:0:0:
125,97,58519,2,0,L|70:99,1,47.5,0|0,0:0|0:0,0:0:0:0:
295,295,58667,6,0,L|297:240,1,47.5,8|0,0:0|0:0,0:0:0:0:
224,235,58815,2,0,L|212:181,1,47.5,0|0,0:0|0:0,0:0:0:0:
378,117,58963,2,0,L|338:80,1,47.5,8|0,0:0|0:0,0:0:0:0:
171,58,59110,2,0,L|116:55,1,47.5,0|0,0:0|0:0,0:0:0:0:
368,320,59258,5,6,3:2:0:0:
416,292,59331,1,0,0:0:0:0:
420,237,59405,1,0,0:0:0:0:
378,202,59479,1,0,0:0:0:0:
167,199,59554,1,8,3:2:0:0:
129,106,59702,6,0,L|184:103,1,47.5,2|0,3:2|0:0,0:0:0:0:
335,90,59850,2,0,L|390:87,1,47.5,0|0,0:0|0:0,0:0:0:0:
157,202,59997,1,8,3:2:0:0:
62,231,60145,5,2,3:2:0:0:
20,266,60219,1,0,0:0:0:0:
24,321,60293,1,0,0:0:0:0:
72,349,60366,1,0,0:0:0:0:
273,228,60441,1,8,3:2:0:0:
311,118,60588,6,0,L|256:115,1,47.5,2|0,3:2|0:0,0:0:0:0:
105,102,60736,2,0,L|50:99,1,47.5,0|0,0:0|0:0,0:0:0:0:
283,214,60883,1,8,3:2:0:0:
379,307,61032,6,0,L|382:260,1,47.5,10|0,3:2|0:0,0:0:0:0:
182,201,61179,2,0,L|135:199,1,47.5,0|0,0:0|0:0,0:0:0:0:
192,283,61327,2,0,L|239:281,1,47.5,10|0,3:2|0:0,0:0:0:0:
182,201,61475,2,0,L|135:199,1,47.5,0|0,0:0|0:0,0:0:0:0:
364,321,61623,5,2,3:2:0:0:
412,293,61696,1,0,0:0:0:0:
416,238,61770,1,0,0:0:0:0:
374,203,61844,1,0,0:0:0:0:
163,200,61919,1,8,3:2:0:0:
125,108,62066,6,0,L|180:105,1,47.5,2|0,3:2|0:0,0:0:0:0:
331,92,62214,2,0,L|386:89,1,47.5,0|0,0:0|0:0,0:0:0:0:
153,204,62361,1,8,3:2:0:0:
58,225,62509,5,2,3:2:0:0:
16,260,62583,1,0,0:0:0:0:
20,315,62657,1,0,0:0:0:0:
68,343,62730,1,0,0:0:0:0:
269,349,62805,6,0,L|369:350,1,95,10|0,3:2|0:0,0:0:0:0:
196,262,63027,6,0,L|96:263,1,95,10|0,3:2|0:0,0:0:0:0:
269,349,63248,6,0,L|369:350,1,95,10|0,3:2|0:0,0:0:0:0:
196,262,63470,6,0,L|96:263,1,95,10|0,3:2|0:0,0:0:0:0:
269,349,63692,6,0,L|369:350,1,95,10|10,3:2|3:2,0:0:0:0:
79,308,63987,5,2,3:2:0:0:
39,269,64060,1,0,0:0:0:0:
24,214,64134,1,0,0:0:0:0:
40,161,64208,1,0,0:0:0:0:
82,123,64282,1,0,0:0:0:0:
137,113,64356,1,0,0:0:0:0:
306,112,64431,2,0,L|354:113,1,47.5,0|0,0:0|0:0,0:0:0:0:
136,59,64578,5,0,0:0:0:0:
82,73,64651,1,0,0:0:0:0:
39,109,64725,1,0,0:0:0:0:
15,161,64799,1,0,0:0:0:0:
15,217,64873,1,0,0:0:0:0:
39,269,64947,1,0,0:0:0:0:
82,305,65021,1,0,0:0:0:0:
136,319,65095,1,0,0:0:0:0:
350,316,65170,5,2,0:0:0:0:
390,277,65243,1,0,0:0:0:0:
405,222,65317,1,0,0:0:0:0:
389,169,65391,1,0,0:0:0:0:
347,131,65465,1,0,0:0:0:0:
292,121,65539,1,0,0:0:0:0:
115,120,65613,2,0,L|67:121,1,47.5,0|0,0:0|0:0,0:0:0:0:
300,281,65761,5,0,0:0:0:0:
186,193,65909,1,0,0:0:0:0:
243,191,65982,1,0,0:0:0:0:
300,190,66056,1,0,0:0:0:0:
72,304,66204,1,0,0:0:0:0:
300,281,66352,2,0,L|304:186,1,95,10|0,3:2|0:0,0:0:0:0:
237,179,66574,1,0,0:0:0:0:
22,171,66647,5,4,3:2:0:0:
256,192,66795,12,0,68125,0:0:0:0:
250,73,68421,5,0,3:2:0:0:
308,69,68494,1,0,0:0:0:0:
364,66,68568,1,0,0:0:0:0:
422,64,68642,1,0,0:0:0:0:
196,333,68716,5,6,0:0:0:0:
146,309,68789,1,2,0:0:0:0:
125,258,68863,1,2,0:0:0:0:
146,206,68937,1,2,0:0:0:0:
197,257,69013,1,2,0:0:0:0:
247,233,69086,1,2,0:0:0:0:
268,182,69160,1,2,0:0:0:0:
247,130,69234,1,2,0:0:0:0:
196,333,69308,1,2,0:0:0:0:
146,309,69381,1,2,0:0:0:0:
125,258,69455,1,2,0:0:0:0:
146,206,69529,1,2,0:0:0:0:
197,257,69603,1,2,0:0:0:0:
247,233,69677,1,2,0:0:0:0:
268,182,69751,1,2,0:0:0:0:
247,130,69825,1,2,0:0:0:0:
181,114,69899,5,8,0:0:0:0:
383,44,69973,2,0,L|286:43,1,95,8|0,0:0|0:0,0:0:0:0:
69,300,70194,5,2,0:0:0:0:
72,268,70231,1,0,0:0:0:0:
83,237,70268,1,0,0:0:0:0:
104,211,70305,1,0,0:0:0:0:
132,193,70342,1,0,0:0:0:0:
163,183,70379,1,0,0:0:0:0:
197,183,70415,1,0,0:0:0:0:
336,204,70490,5,2,0:0:0:0:
368,187,70526,1,0,0:0:0:0:
390,158,70563,1,0,0:0:0:0:
396,123,70600,1,0,0:0:0:0:
388,88,70637,1,0,0:0:0:0:
367,62,70674,1,0,0:0:0:0:
336,48,70711,1,0,0:0:0:0:
164,105,70785,6,0,L|259:103,1,95,8|8,3:2|0:0,0:0:0:0:
200,168,71007,1,8,0:0:0:0:
16,188,71081,5,14,0:0:0:0:
473,52,72854,2,0,L|369:213,2,190,0|0|2,0:0|0:0|0:0,0:0:0:0:
219,337,75218,6,0,L|115:177,1,190,0|0,0:0|0:0,0:0:0:0:
482,36,75810,1,10,0:0:0:0:
126,287,77583,5,2,0:0:0:0:
282,215,77879,2,0,L|124:106,1,190,0|2,0:0|0:0,0:0:0:0:
389,313,79356,6,0,P|410:306|389:216,1,142.5,10|0,3:2|0:0,0:0:0:0:
323,143,79652,1,8,0:0:0:0:
371,141,79725,1,8,0:0:0:0:
418,139,79799,1,8,0:0:0:0:
466,138,79873,1,8,0:0:0:0:
263,43,79948,5,10,3:2:0:0:
377,35,80096,1,10,3:2:0:0:
172,152,80243,2,0,L|29:147,1,142.5,10|0,3:2|0:0,0:0:0:0:
249,277,80539,6,0,P|283:258|247:180,1,142.5,10|0,3:2|0:0,0:0:0:0:
183,102,80835,2,0,L|281:99,1,95,2|0,0:0|0:0,0:0:0:0:
126,314,81130,2,0,L|28:311,1,95,2|0,0:0|0:0,0:0:0:0:
79,276,81352,1,0,0:0:0:0:
96,233,81426,1,0,0:0:0:0:
79,190,81500,1,0,0:0:0:0:
36,172,81574,1,0,0:0:0:0:
263,68,81721,6,0,P|291:68|358:154,1,142.5,2|0,0:0|0:0,0:0:0:0:
291,216,82017,2,0,L|224:211,2,63.3333333333333,2|0|0,0:0|0:0|0:0,0:0:0:0:
379,226,82312,6,0,P|423:274|379:322,1,142.5,2|2,0:0|0:0,0:0:0:0:
311,322,82608,2,0,L|263:319,1,47.5,0|0,0:0|0:0,0:0:0:0:
332,228,82756,2,0,L|380:225,1,47.5,2|0,0:0|0:0,0:0:0:0:
190,308,82904,6,0,P|162:308|95:222,1,142.5,2|0,0:0|0:0,0:0:0:0:
162,164,83199,2,0,L|260:161,1,95,2|0,0:0|0:0,0:0:0:0:
104,44,83495,2,0,L|247:48,2,142.5,2|2|2,0:0|0:0|0:0,0:0:0:0:
388,313,84086,6,0,P|394:279|323:202,1,142.5,2|0,0:0|0:0,0:0:0:0:
263,203,84381,2,0,L|200:205,2,63.3333333333333,2|0|0,0:0|0:0|0:0,0:0:0:0:
352,116,84677,2,0,L|209:112,2,142.5,2|2|2,0:0|0:0|0:0,0:0:0:0:
76,330,85268,6,0,L|70:233,1,95,6|0,0:0|0:0,0:0:0:0:
148,211,85490,2,0,L|142:114,1,95,2|0,0:0|0:0,0:0:0:0:
61,78,85711,1,2,0:0:0:0:
272,43,85859,6,0,L|366:41,1,95,2|0,0:0|0:0,0:0:0:0:
304,136,86081,2,0,L|210:134,1,95,2|0,0:0|0:0,0:0:0:0:
152,132,86303,1,2,0:0:0:0:
445,346,86450,6,0,P|458:308|432:259,1,95,6|0,0:0|0:0,0:0:0:0:
356,229,86672,2,0,P|354:210|441:137,1,142.5,2|2,0:0|0:0,0:0:0:0:
220,69,87042,6,0,L|126:66,1,95,2|0,0:0|0:0,0:0:0:0:
185,159,87263,2,0,L|330:154,1,142.5,2|2,0:0|0:0,0:0:0:0:
46,343,87633,6,0,P|39:312|109:240,1,142.5,6|0,0:0|0:0,0:0:0:0:
185,159,87928,2,0,L|91:156,1,95,2|0,0:0|0:0,0:0:0:0:
339,33,88224,2,0,L|196:37,2,142.5,2|2|2,0:0|0:0|0:0,0:0:0:0:
77,280,88815,5,2,0:0:0:0:
40,239,88888,1,2,0:0:0:0:
44,183,88962,1,2,0:0:0:0:
87,147,89036,1,2,0:0:0:0:
294,148,89110,2,0,L|243:145,1,47.5,2|2,0:0|0:0,0:0:0:0:
91,138,89258,2,0,L|40:135,1,47.5,2|2,0:0|0:0,0:0:0:0:
287,304,89406,5,2,0:0:0:0:
340,287,89479,1,2,0:0:0:0:
357,235,89553,1,2,0:0:0:0:
325,190,89627,1,2,0:0:0:0:
137,147,89702,2,0,L|188:144,1,47.5,2|2,0:0|0:0,0:0:0:0:
368,130,89849,6,0,P|394:139|370:261,1,190,2|0,0:0|0:0,0:0:0:0:
224,263,90219,1,0,0:0:0:0:
66,262,90293,6,0,L|61:157,1,104.500003189087,12|0,0:0|0:0,0:0:0:0:
292,75,90588,2,0,L|397:74,1,104.500003189087,8|0,0:0|0:0,0:0:0:0:
333,124,90810,1,8,3:2:0:0:
144,207,90884,2,0,L|249:206,1,104.500003189087,0|8,0:0|0:0,0:0:0:0:
479,295,91179,6,0,L|484:190,1,104.500003189087,8|0,0:0|0:0,0:0:0:0:
222,90,91475,1,8,0:0:0:0:
348,179,91623,2,0,L|296:178,1,52.2500015945435,0|0,0:0|0:0,0:0:0:0:
114,294,91771,2,0,L|219:293,1,104.500003189087,8|0,0:0|0:0,0:0:0:0:
282,290,91992,1,0,0:0:0:0:
81,215,92066,2,0,L|79:110,1,104.500003189087,8|0,0:0|0:0,0:0:0:0:
153,100,92288,1,0,0:0:0:0:
356,95,92362,6,0,L|461:94,1,104.500003189087,8|0,0:0|0:0,0:0:0:0:
199,322,92657,2,0,L|197:217,1,104.500003189087,8|0,0:0|0:0,0:0:0:0:
271,207,92879,1,0,0:0:0:0:
459,184,92953,2,0,L|457:79,1,104.500003189087,8|0,0:0|0:0,0:0:0:0:
185,38,93248,2,0,L|290:37,1,104.500003189087,8|0,0:0|0:0,0:0:0:0:
353,34,93469,1,0,0:0:0:0:
171,136,93544,6,0,L|118:135,2,52.2500015945435,8|0|0,0:0|0:0|0:0,0:0:0:0:
298,140,93840,1,8,0:0:0:0:
59,241,93987,2,0,L|112:242,1,52.2500015945435,0|0,0:0|0:0,0:0:0:0:
297,326,94135,2,0,L|192:325,1,104.500003189087,8|0,0:0|0:0,0:0:0:0:
466,292,94431,2,0,L|468:187,1,104.500003189087,8|0,3:2|0:0,0:0:0:0:
394,177,94653,1,0,0:0:0:0:
201,166,94726,5,12,0:0:0:0:
327,158,94874,1,8,0:0:0:0:
117,76,95022,2,0,L|12:73,1,104.500003189087,8|0,0:0|0:0,0:0:0:0:
289,342,95317,2,0,L|291:237,1,104.500003189087,8|0,0:0|0:0,0:0:0:0:
217,227,95539,1,0,0:0:0:0:
29,204,95613,2,0,L|31:99,1,104.500003189087,8|0,0:0|0:0,0:0:0:0:
305,34,95909,6,0,L|411:33,1,104.500003189087,10|0,0:0|0:0,0:0:0:0:
148,285,96204,2,0,L|147:179,1,104.500003189087,10|0,0:0|0:0,0:0:0:0:
389,264,96500,2,0,P|426:247|385:167,1,156.750004783631,10|0,0:0|0:0,0:0:0:0:
165,82,96795,2,0,L|270:81,1,104.500003189087,10|0,0:0|0:0,0:0:0:0:
333,78,97016,1,0,0:0:0:0:
128,212,97091,5,10,0:0:0:0:
35,202,97239,1,0,0:0:0:0:
12,155,97312,1,0,0:0:0:0:
12,104,97386,1,8,0:0:0:0:
35,57,97460,1,0,0:0:0:0:
76,26,97534,1,0,0:0:0:0:
127,16,97608,1,0,0:0:0:0:
343,256,97682,5,8,0:0:0:0:
380,215,97755,1,0,0:0:0:0:
366,154,97829,1,0,0:0:0:0:
313,128,97903,1,0,0:0:0:0:
116,129,97977,2,0,L|171:126,1,52.2500015945435,8|0,0:0|0:0,0:0:0:0:
315,117,98125,2,0,L|369:114,1,52.2500015945435,0|0,0:0|0:0,0:0:0:0:
150,326,98273,5,8,0:0:0:0:
97,300,98347,1,0,0:0:0:0:
83,239,98421,1,0,0:0:0:0:
120,198,98494,1,0,0:0:0:0:
324,152,98569,2,0,L|269:149,1,52.2500015945435,8|0,0:0|0:0,0:0:0:0:
125,140,98717,2,0,L|71:137,1,52.2500015945435,0|0,0:0|0:0,0:0:0:0:
333,307,98864,5,10,0:0:0:0:
218,237,99012,2,0,L|271:235,1,52.2500015945435,2|0,0:0|0:0,0:0:0:0:
438,222,99160,1,2,0:0:0:0:
475,181,99233,1,0,0:0:0:0:
461,120,99307,1,0,0:0:0:0:
408,94,99381,1,0,0:0:0:0:
209,105,99455,5,12,0:0:0:0:
335,106,99603,1,8,0:0:0:0:
118,303,99751,2,0,P|81:286|122:206,1,156.750004783631,8|0,0:0|0:0,0:0:0:0:
289,205,100046,2,0,L|393:208,1,104.500003189087,8|0,0:0|0:0,0:0:0:0:
183,92,100342,2,0,L|79:95,1,104.500003189087,8|0,0:0|0:0,0:0:0:0:
353,328,100638,6,0,L|356:220,1,104.500003189087,10|0,0:0|0:0,0:0:0:0:
143,170,100933,2,0,L|212:166,1,69.6666687927247,10|2,0:0|0:0,0:0:0:0:
297,158,101130,1,2,0:0:0:0:
105,335,101229,2,0,P|80:308|100:249,1,104.500003189087,10|8,0:0|3:2,0:0:0:0:
162,242,101450,1,8,3:2:0:0:
331,176,101524,2,0,L|170:172,1,156.750004783631,8|0,3:2|0:0,0:0:0:0:
365,316,101820,6,0,L|470:314,1,104.500003189087,14|0,0:0|0:0,0:0:0:0:
203,318,102115,2,0,L|201:213,1,104.500003189087,8|0,0:0|0:0,0:0:0:0:
275,203,102337,1,0,0:0:0:0:
463,180,102411,2,0,L|461:75,1,104.500003189087,10|0,0:0|0:0,0:0:0:0:
194,32,102707,2,0,L|87:29,1,104.500003189087,8|0,0:0|0:0,0:0:0:0:
147,87,102928,1,0,0:0:0:0:
323,184,103002,6,0,L|216:181,1,104.500003189087,10|2,3:2|0:0,0:0:0:0:
362,291,103298,2,0,L|358:239,1,52.2500015945435,8|0,0:0|0:0,0:0:0:0:
281,237,103445,2,0,L|277:185,1,52.2500015945435,0|0,0:0|0:0,0:0:0:0:
459,188,103593,2,0,L|463:81,1,104.500003189087,10|0,3:2|0:0,0:0:0:0:
405,85,103814,1,0,0:0:0:0:
374,123,103888,1,8,0:0:0:0:
375,172,103962,1,0,0:0:0:0:
407,209,104036,1,0,0:0:0:0:
455,216,104110,1,0,0:0:0:0:
258,330,104184,6,0,L|154:327,1,104.500003189087,8|0,3:2|0:0,0:0:0:0:
340,289,104406,2,0,L|343:185,1,104.500003189087,8|0,0:0|0:0,0:0:0:0:
280,180,104628,1,8,0:0:0:0:
40,115,104776,6,0,L|144:112,1,104.500003189087,10|0,3:2|0:0,0:0:0:0:
315,247,104997,2,0,L|211:244,1,104.500003189087,8|0,0:0|0:0,0:0:0:0:
147,243,105219,1,8,0:0:0:0:
470,323,105367,5,10,3:2:0:0:
478,260,105440,1,2,0:0:0:0:
462,200,105514,1,2,0:0:0:0:
425,150,105588,1,2,0:0:0:0:
373,115,105662,1,10,0:0:0:0:
312,103,105736,1,2,0:0:0:0:
139,102,105810,2,0,L|86:106,1,52.2500015945435,2|2,0:0|0:0,0:0:0:0:
308,328,105958,5,10,0:0:0:0:
347,312,106007,1,2,0:0:0:0:
377,280,106056,1,2,0:0:0:0:
387,237,106105,1,2,0:0:0:0:
377,194,106155,1,2,0:0:0:0:
348,162,106204,1,2,0:0:0:0:
308,235,106253,1,2,0:0:0:0:
274,209,106302,1,2,0:0:0:0:
253,170,106351,1,2,0:0:0:0:
255,126,106400,1,2,0:0:0:0:
276,87,106450,1,2,0:0:0:0:
312,64,106499,1,2,0:0:0:0:
478,248,106549,6,0,P|490:212|431:119,1,156.750004783631,14|0,0:0|0:0,0:0:0:0:
229,114,106844,2,0,L|284:111,1,52.2500015945435,2|0,0:0|0:0,0:0:0:0:
428,102,106992,2,0,L|482:99,1,52.2500015945435,0|0,0:0|0:0,0:0:0:0:
264,216,107140,6,0,L|209:213,1,52.2500015945435,2|0,0:0|0:0,0:0:0:0:
270,299,107288,2,0,L|325:296,1,52.2500015945435,0|0,0:0|0:0,0:0:0:0:
136,208,107436,2,0,L|81:205,1,52.2500015945435,2|0,0:0|0:0,0:0:0:0:
270,299,107583,2,0,L|325:296,1,52.2500015945435,0|0,0:0|0:0,0:0:0:0:
83,308,107731,5,2,0:0:0:0:
46,267,107804,1,0,0:0:0:0:
60,206,107878,1,0,0:0:0:0:
113,180,107952,1,0,0:0:0:0:
283,101,108027,2,0,L|228:98,1,52.2500015945435,0|0,0:0|0:0,0:0:0:0:
167,78,108175,2,0,L|221:75,1,52.2500015945435,0|0,0:0|0:0,0:0:0:0:
387,66,108322,6,0,L|443:63,1,52.2500015945435,0|0,0:0|0:0,0:0:0:0:
269,268,108470,2,0,L|213:265,1,52.2500015945435,0|0,0:0|0:0,0:0:0:0:
275,200,108618,2,0,L|331:197,1,52.2500015945435,2|2,0:0|0:0,0:0:0:0:
269,268,108766,2,0,L|213:265,1,52.2500015945435,2|2,0:0|0:0,0:0:0:0:
435,349,108913,6,0,P|463:333|431:246,1,142.5,2|0,0:0|0:0,0:0:0:0:
368,244,109209,2,0,L|365:197,1,47.5,2|0,0:0|0:0,0:0:0:0:
432,173,109357,2,0,L|429:126,1,47.5,0|0,0:0|0:0,0:0:0:0:
256,99,109505,6,0,L|208:97,1,47.5,2|0,0:0|0:0,0:0:0:0:
365,291,109652,2,0,L|368:244,1,47.5,2|0,0:0|0:0,0:0:0:0:
301,215,109800,2,0,L|298:168,1,47.5,2|0,0:0|0:0,0:0:0:0:
365,291,109948,2,0,L|368:244,1,47.5,2|0,0:0|0:0,0:0:0:0:
183,81,110096,5,2,0:0:0:0:
157,89,110132,1,0,0:0:0:0:
136,108,110169,1,0,0:0:0:0:
124,133,110206,1,0,0:0:0:0:
122,161,110243,1,0,0:0:0:0:
352,209,110391,5,2,0:0:0:0:
378,217,110427,1,0,0:0:0:0:
399,236,110464,1,0,0:0:0:0:
411,261,110501,1,0,0:0:0:0:
413,289,110538,1,0,0:0:0:0:
156,349,110687,6,0,L|150:251,1,95,0|0,3:2|0:0,0:0:0:0:
218,247,110909,1,0,0:0:0:0:
52,226,110982,1,0,0:0:0:0:
22,179,111055,1,0,0:0:0:0:
33,125,111129,1,0,0:0:0:0:
80,95,111203,1,0,0:0:0:0:
285,85,111278,5,14,0:0:0:0:
171,209,111426,2,0,L|168:115,1,95,2|8,0:0|3:2,0:0:0:0:
301,78,111721,2,0,L|254:77,1,47.5,0|0,0:0|0:0,0:0:0:0:
51,71,111869,1,8,0:0:0:0:
180,188,112017,1,0,0:0:0:0:
206,163,112066,1,0,0:0:0:0:
207,126,112115,1,0,0:0:0:0:
182,99,112164,1,8,0:0:0:0:
51,71,112312,1,0,0:0:0:0:
334,348,112460,6,0,L|337:254,1,95,8|0,0:0|0:0,0:0:0:0:
204,220,112756,2,0,L|207:126,1,95,8|0,0:0|0:0,0:0:0:0:
273,108,112977,1,0,0:0:0:0:
446,251,113051,2,0,L|449:157,1,95,8|0,0:0|0:0,0:0:0:0:
199,46,113347,2,0,L|99:45,1,95,8|0,0:0|0:0,0:0:0:0:
353,301,113643,5,10,0:0:0:0:
239,177,113791,2,0,L|236:271,1,95,2|8,0:0|3:2,0:0:0:0:
369,308,114086,2,0,L|322:309,1,47.5,0|0,0:0|0:0,0:0:0:0:
119,315,114234,1,8,0:0:0:0:
250,293,114381,2,0,L|266:260,3,31.6666666666667,0|0|0|8,0:0|0:0|0:0|0:0,0:0:0:0:
119,315,114677,1,0,0:0:0:0:
366,165,114825,5,10,0:0:0:0:
138,66,114973,1,10,0:0:0:0:
252,62,115120,1,10,0:0:0:0:
461,96,115268,1,10,0:0:0:0:
214,267,115416,2,0,L|120:264,1,95,8|0,0:0|0:0,0:0:0:0:
172,238,115637,1,0,0:0:0:0:
197,198,115711,1,0,0:0:0:0:
195,151,115785,1,0,0:0:0:0:
169,112,115859,1,0,0:0:0:0:
126,93,115933,1,0,0:0:0:0:
365,66,116007,5,14,0:0:0:0:
251,190,116155,2,0,L|248:96,1,95,2|8,0:0|3:2,0:0:0:0:
381,59,116450,2,0,L|334:58,1,47.5,0|0,0:0|0:0,0:0:0:0:
131,51,116598,2,0,L|36:49,1,95,8|0,0:0|0:0,0:0:0:0:
77,137,116795,1,0,0:0:0:0:
115,134,116844,1,0,0:0:0:0:
154,131,116894,1,8,0:0:0:0:
22,218,117042,1,0,0:0:0:0:
269,340,117189,6,0,L|273:246,1,95,10|0,0:0|0:0,0:0:0:0:
203,229,117411,1,0,0:0:0:0:
22,218,117485,2,0,L|18:124,1,95,10|0,0:0|0:0,0:0:0:0:
88,107,117707,1,0,0:0:0:0:
270,92,117780,6,0,L|365:89,1,95,10|0,0:0|0:0,0:0:0:0:
307,145,118002,1,0,0:0:0:0:
117,220,118076,2,0,L|22:217,1,95,10|0,0:0|0:0,0:0:0:0:
80,273,118298,1,0,0:0:0:0:
271,303,118372,5,10,0:0:0:0:
385,179,118520,2,0,L|388:273,1,95,2|8,0:0|3:2,0:0:0:0:
255,310,118815,2,0,L|302:311,1,47.5,0|0,0:0|0:0,0:0:0:0:
475,312,118963,2,0,L|477:217,1,95,8|0,0:0|0:0,0:0:0:0:
438,206,119160,1,0,0:0:0:0:
400,209,119209,1,0,0:0:0:0:
361,212,119259,1,8,0:0:0:0:
493,125,119407,1,0,0:0:0:0:
228,73,119554,5,10,0:0:0:0:
348,154,119702,2,0,L|296:149,1,47.5,0|0,0:0|0:0,0:0:0:0:
101,281,119849,2,0,L|97:187,1,95,10|0,0:0|0:0,0:0:0:0:
164,173,120070,1,0,0:0:0:0:
340,345,120145,6,0,L|344:251,1,95,10|0,0:0|0:0,0:0:0:0:
277,237,120367,1,0,0:0:0:0:
32,224,120441,2,0,L|28:130,1,95,10|0,0:0|0:0,0:0:0:0:
95,116,120662,1,0,0:0:0:0:
320,277,120736,5,10,0:0:0:0:
350,230,120809,1,0,0:0:0:0:
339,176,120883,1,0,0:0:0:0:
292,146,120957,1,0,0:0:0:0:
105,240,121032,1,10,0:0:0:0:
75,193,121105,1,0,0:0:0:0:
86,139,121179,1,0,0:0:0:0:
133,109,121253,1,0,0:0:0:0:
305,88,121327,5,10,0:0:0:0:
353,87,121400,1,0,0:0:0:0:
400,86,121474,1,0,0:0:0:0:
448,85,121548,1,0,0:0:0:0:
238,240,121623,6,0,L|293:237,1,47.5,10|0,0:0|0:0,0:0:0:0:
437,228,121771,2,0,L|491:225,1,47.5,2|0,0:0|0:0,0:0:0:0:
43,117,122214,5,4,0:0:0:0:
256,192,122362,12,0,123987,0:0:0:0:
317,58,124283,5,8,0:0:0:0:
359,89,124356,1,8,0:0:0:0:
379,136,124430,1,8,0:0:0:0:
372,188,124504,1,8,0:0:0:0:
340,228,124578,1,8,0:0:0:0:
292,248,124652,1,8,0:0:0:0:
89,245,124726,2,0,L|137:248,1,47.5,8|8,0:0|0:0,0:0:0:0:
288,180,124874,2,0,L|336:177,1,47.5,8|8,0:0|0:0,0:0:0:0:
117,302,125022,5,8,0:0:0:0:
80,273,125095,1,8,0:0:0:0:
67,228,125169,1,8,0:0:0:0:
84,184,125243,1,8,0:0:0:0:
123,159,125317,2,0,L|173:152,1,47.5,8|8,0:0|0:0,0:0:0:0:
383,103,125465,6,0,L|335:100,1,47.5,10|8,0:0|0:0,0:0:0:0:
172,79,125613,2,0,L|124:76,1,47.5,8|8,0:0|0:0,0:0:0:0:
295,223,125761,2,0,L|343:220,2,47.5,10|8|8,0:0|0:0|0:0,0:0:0:0:
152,227,125982,1,8,0:0:0:0:
302,145,126056,5,10,0:0:0:0:
349,175,126130,1,8,0:0:0:0:
360,229,126204,1,8,0:0:0:0:
330,276,126277,1,8,0:0:0:0:
136,282,126352,1,10,0:0:0:0:
107,273,126388,1,8,0:0:0:0:
85,252,126425,1,8,0:0:0:0:
79,223,126462,1,8,0:0:0:0:
88,195,126499,1,8,0:0:0:0:
110,175,126536,1,8,0:0:0:0:
139,169,126573,1,8,0:0:0:0:
356,96,126647,5,12,0:0:0:0:
