osu file format v14

[General]
AudioFilename: audio.mp3
AudioLeadIn: 0
PreviewTime: 88762
Countdown: 0
SampleSet: Soft
StackLeniency: 0.7
Mode: 2
LetterboxInBreaks: 0
WidescreenStoryboard: 1

[Editor]
Bookmarks: 2457,24920,45018,59205,65708,71028,88762,111225,122161,126594
DistanceSpacing: 1.4
BeatDivisor: 4
GridSize: 4
TimelineZoom: 3.5

[Metadata]
Title:Bad Elixir
TitleUnicode:Bad Elixir
Artist:xi
ArtistUnicode:xi
Creator:Nelly
Version:Cup
Source:
Tags:bms of fighters g2r2018 go back to your roots alpha complex electronic instrumental
BeatmapID:2693945
BeatmapSetID:1297551

[Difficulty]
HPDrainRate:3
CircleSize:2.5
OverallDifficulty:6
ApproachRate:6
SliderMultiplier:1.2
SliderTickRate:1

[Events]
//Background and Video events
0,0,"background.jpg",0,0
//Break Periods
2,35812,39292
//Storyboard Layer 0 (Background)
//Storyboard Layer 1 (Fail)
//Storyboard Layer 2 (Pass)
//Storyboard Layer 3 (Foreground)
//Storyboard Layer 4 (Overlay)
//Storyboard Sound Samples

[TimingPoints]
2510,295.566502463054,4,2,1,60,1,0
20243,-100,4,2,1,70,0,0
20835,-100,4,2,2,70,0,0
21426,-100,4,2,1,70,0,0
24973,-100,4,2,1,80,0,0
40342,-100,4,2,1,60,0,0
45071,-100,4,2,1,80,0,1
54529,-125,4,2,1,60,0,0
56894,-100,4,2,1,80,0,1
59258,-100,4,2,1,70,0,0
62805,-100,4,2,1,80,0,0
63987,-100,4,2,1,70,0,0
65761,-100,4,2,2,70,0,0
66352,-100,4,2,1,75,0,0
68125,-100,4,2,1,5,0,0
68421,-100,4,2,1,65,0,0
68716,-100,4,2,1,70,0,0
71081,-100,4,2,1,60,0,0
82904,-100,4,2,1,65,0,0
85268,-100,4,2,1,70,0,0
87633,-100,4,2,1,75,0,0
88815,-100,4,2,1,80,0,0
90293,-100,4,2,1,90,0,1
108913,-100,4,2,1,60,0,0
110687,-100,4,2,1,90,0,0
110835,-100,4,2,1,70,0,0
111278,-100,4,2,1,80,0,1
121844,-100,4,2,1,80,0,0
122214,-100,4,2,1,90,0,0
122509,-100,4,2,1,50,0,0
123987,-100,4,2,1,5,0,0
124283,-100,4,2,1,90,0,1
126647,-100,4,2,1,90,0,0

[Colours]
Combo1 : 166,118,180
Combo2 : 215,38,184
Combo3 : 122,67,146

[HitObjects]
256,192,1327,12,8,2214,0:0:0:0:
146,273,2510,5,14,0:0:0:0:
437,130,4283,2,0,L|313:126,2,120,0|0|2,0:0|0:0|0:0,0:0:0:0:
185,299,6647,6,0,L|181:180,1,120,0|0,0:0|0:0,0:0:0:0:
326,140,7239,1,10,0:0:0:0:
77,69,9012,5,2,0:0:0:0:
197,180,9308,1,0,0:0:0:0:
137,180,9455,1,0,0:0:0:0:
77,184,9603,1,2,0:0:0:0:
415,322,10785,6,0,P|440:308|413:239,1,120,0|2,0:0|0:0,0:0:0:0:
269,113,11376,2,0,L|391:110,1,120,2|2,0:0|0:0,0:0:0:0:
244,252,11968,6,0,L|92:152,2,180,12|8|8,0:0|0:0|0:0,0:0:0:0:
388,259,13150,1,10,3:2:0:0:
170,223,13741,2,0,L|168:104,1,120,10|0,0:0|0:0,0:0:0:0:
312,72,14332,6,0,L|463:180,2,180,8|8|8,0:0|0:0|0:0,0:0:0:0:
168,79,15514,1,10,3:2:0:0:
386,247,16106,2,0,L|389:127,1,120,10|0,0:0|0:0,0:0:0:0:
319,123,16549,1,0,0:0:0:0:
243,119,16697,6,0,L|117:121,2,120,12|8|8,0:0|0:0|0:0,0:0:0:0:
386,263,17583,1,8,0:0:0:0:
326,261,17730,1,8,0:0:0:0:
266,259,17878,5,12,0:0:0:0:
410,148,18175,2,0,L|472:151,2,60,8|8|12,0:0|0:0|0:0,0:0:0:0:
265,144,18766,2,0,L|203:147,1,60,8|8,0:0|0:0,0:0:0:0:
265,144,19061,6,0,P|311:144|416:295,2,240,12|8|8,0:0|0:0|0:0,0:0:0:0:
120,269,20539,2,0,L|248:266,2,120,8|0|0,0:0|0:0|0:0,0:0:0:0:
265,144,21426,5,4,0:0:0:0:
256,192,21721,12,0,23790,0:0:0:0:
173,295,24381,6,0,L|169:176,1,120,0|0,0:0|0:0,0:0:0:0:
312,163,24973,2,0,L|250:159,1,60,14|2,0:0|0:0,0:0:0:0:
433,217,25564,2,0,L|437:98,1,120,2|0,0:0|0:0,0:0:0:0:
294,85,26155,6,0,L|229:88,2,60,10|10|10,0:0|0:0|0:0,0:0:0:0:
438,221,26746,2,0,L|319:217,1,120,10|10,0:0|0:0,0:0:0:0:
186,321,27337,6,0,L|247:318,1,60,10|2,0:0|0:0,0:0:0:0:
48,211,27928,1,2,0:0:0:0:
180,198,28224,1,2,0:0:0:0:
239,200,28371,1,2,0:0:0:0:
299,103,28519,6,0,L|180:106,1,120,10|10,0:0|0:0,0:0:0:0:
311,209,29110,2,0,L|430:212,1,120,10|10,0:0|0:0,0:0:0:0:
298,314,29702,6,0,L|361:317,1,60,10|2,0:0|0:0,0:0:0:0:
160,332,30293,2,0,L|156:210,1,120,2|2,0:0|0:0,0:0:0:0:
288,200,30884,6,0,L|348:202,2,60,10|8|10,0:0|0:0|0:0,0:0:0:0:
156,198,31475,2,0,L|153:79,1,120,10|10,0:0|0:0,0:0:0:0:
285,74,32066,6,0,L|224:72,1,60,10|2,0:0|0:0,0:0:0:0:
424,109,32657,2,0,L|427:228,1,120,10|2,0:0|0:0,0:0:0:0:
295,247,33248,6,0,L|170:243,2,120,10|10|10,0:0|0:0|0:0,0:0:0:0:
427,109,34135,2,0,L|364:107,1,60,10|8,0:0|0:0,0:0:0:0:
294,103,34431,5,2,0:0:0:0:
42,261,35022,2,0,L|105:259,1,60,10|10,0:0|0:0,0:0:0:0:
174,159,35317,2,0,L|53:157,1,120,10|4,0:0|0:0,0:0:0:0:
335,131,40342,6,0,L|424:134,2,90,8|8|8,0:0|0:0|0:0,0:0:0:0:
263,124,40933,1,8,0:0:0:0:
24,322,41524,2,0,L|177:272,2,160,2|2|2,0:0|0:0|0:0,0:0:0:0:
216,145,42707,6,0,L|220:81,1,60,10|8,0:0|0:0,0:0:0:0:
57,286,43298,2,0,L|55:227,1,60,10|8,0:0|0:0,0:0:0:0:
234,271,43889,6,0,L|325:272,2,90,10|10|10,0:0|0:0|0:0,0:0:0:0:
162,167,44480,2,0,L|71:168,2,90,10|10|10,0:0|0:0|0:0,0:0:0:0:
234,167,45071,6,0,P|261:149|232:80,1,120,6|0,0:0|0:0,0:0:0:0:
162,80,45514,2,0,L|319:169,1,180,10|0,0:0|0:0,0:0:0:0:
198,327,46253,6,0,L|192:208,1,120,10|10,0:0|3:2,0:0:0:0:
336,207,46844,2,0,L|342:88,1,120,10|10,0:0|0:0,0:0:0:0:
485,71,47436,5,10,0:0:0:0:
341,57,47731,2,0,L|281:59,1,60,0|10,3:2|0:0,0:0:0:0:
424,185,48175,2,0,L|484:187,2,60,0|0|0,3:2|0:0|0:0,0:0:0:0:
352,180,48618,6,0,L|228:185,1,120,10|0,0:0|3:2,0:0:0:0:
112,278,49209,2,0,L|208:275,2,90,8|8|8,0:0|0:0|0:0,0:0:0:0:
178,279,49800,5,6,0:0:0:0:
322,271,50096,1,0,3:2:0:0:
393,268,50243,2,0,P|403:264|392:183,1,120,10|0,0:0|3:2,0:0:0:0:
270,158,50835,6,0,L|267:97,1,60,0|8,0:0|0:0,0:0:0:0:
387,43,51278,2,0,L|264:47,1,120,10|10,3:2|0:0,0:0:0:0:
148,164,51869,1,10,0:0:0:0:
292,178,52165,6,0,L|298:297,1,120,10|8,3:2|3:2,0:0:0:0:
154,335,52756,2,0,L|92:338,2,60,10|10|10,0:0|0:0|0:0,0:0:0:0:
299,297,53347,6,0,L|361:300,2,60,10|10|10,0:0|0:0|0:0,0:0:0:0:
155,291,53938,2,0,P|118:286|31:123,1,240,10|6,3:2|0:0,0:0:0:0:
256,192,54825,12,0,56598,0:0:0:0:
349,293,56894,6,0,L|354:174,1,120,8|8,0:0|0:0,0:0:0:0:
210,176,57485,2,0,L|205:57,1,120,8|8,0:0|0:0,0:0:0:0:
63,43,58076,2,0,L|184:39,1,120,8|8,0:0|0:0,0:0:0:0:
326,180,58667,2,0,L|205:176,1,120,8|8,0:0|0:0,0:0:0:0:
350,304,59258,6,0,P|385:287|344:184,1,180,6|2,3:2|3:2,0:0:0:0:
146,149,60145,2,0,L|332:142,1,180,2|2,3:2|3:2,0:0:0:0:
109,302,61032,2,0,L|104:182,1,120,10|10,3:2|3:2,0:0:0:0:
248,90,61623,6,0,L|62:83,2,180,2|2|2,3:2|3:2|3:2,0:0:0:0:
392,189,62805,6,0,L|394:98,1,90,10|10,3:2|3:2,0:0:0:0:
295,297,63248,2,0,L|293:206,1,90,10|10,3:2|3:2,0:0:0:0:
393,99,63692,2,0,L|452:101,1,60,10|10,3:2|3:2,0:0:0:0:
393,99,63987,6,0,B|359:99|327:106|305:132|294:170|295:201|332:225|368:232|395:232|395:232|425:229|464:235|485:258|486:298|476:331|449:350|421:356|377:350,1,480,2|2,3:2|0:0,0:0:0:0:
138,332,65761,1,0,0:0:0:0:
87,303,65908,1,0,0:0:0:0:
68,247,66056,1,0,0:0:0:0:
90,193,66204,1,0,0:0:0:0:
143,167,66352,1,10,3:2:0:0:
287,167,66647,5,4,3:2:0:0:
256,192,66943,12,0,68421,3:2:0:0:
179,372,68716,6,0,P|142:359|179:24,1,480,6|8,0:0|0:0,0:0:0:0:
312,82,70194,2,0,P|339:87|308:233,1,240,2|8,0:0|3:2,0:0:0:0:
164,232,71081,5,14,0:0:0:0:
375,61,72854,2,0,L|497:67,2,120,0|0|2,0:0|0:0|0:0,0:0:0:0:
125,278,75219,6,0,L|121:156,1,120,0|0,0:0|0:0,0:0:0:0:
265,125,75810,1,10,0:0:0:0:
358,104,77583,5,2,0:0:0:0:
238,214,77879,2,0,L|362:208,1,120,0|2,0:0|0:0,0:0:0:0:
68,348,79357,6,0,L|66:227,1,120,10|8,3:2|0:0,0:0:0:0:
126,223,79800,1,8,0:0:0:0:
186,135,79948,1,10,3:2:0:0:
126,132,80095,1,10,3:2:0:0:
66,130,80243,1,10,3:2:0:0:
210,41,80539,6,0,L|337:39,2,120,10|2|2,3:2|0:0|0:0,0:0:0:0:
210,138,81426,1,0,0:0:0:0:
353,138,81721,6,0,L|474:142,1,120,2|2,0:0|0:0,0:0:0:0:
327,256,82312,2,0,L|232:251,2,90,2|2|2,0:0|0:0|0:0,0:0:0:0:
399,260,82904,6,0,L|402:141,1,120,2|2,0:0|0:0,0:0:0:0:
258,96,83495,2,0,P|232:111|261:232,1,180,2|2,0:0|0:0,0:0:0:0:
330,194,84086,6,0,L|211:191,1,120,2|2,0:0|0:0,0:0:0:0:
66,309,84677,2,0,L|16:234,2,90,2|2|2,0:0|0:0|0:0,0:0:0:0:
137,304,85268,5,6,0:0:0:0:
244,296,85490,2,0,L|248:202,1,90,2|2,0:0|0:0,0:0:0:0:
176,193,85859,2,0,P|141:175|176:67,1,180,2|2,0:0|0:0,0:0:0:0:
248,190,86450,5,6,0:0:0:0:
355,184,86672,2,0,L|358:91,1,90,2|2,0:0|0:0,0:0:0:0:
286,67,87042,2,0,L|197:62,2,90,2|2|2,0:0|0:0|0:0,0:0:0:0:
357,94,87633,6,0,L|361:217,1,120,6|2,0:0|0:0,0:0:0:0:
228,296,88224,2,0,L|139:258,2,90,2|2|2,0:0|0:0|0:0,0:0:0:0:
256,192,88963,12,2,89849,0:0:0:0:
198,257,90293,5,12,0:0:0:0:
342,250,90588,2,0,L|432:252,2,90,8|8|8,0:0|3:2|0:0,0:0:0:0:
271,159,91179,6,0,L|391:155,1,120,8|8,0:0|0:0,0:0:0:0:
247,61,91771,2,0,L|127:57,1,120,8|8,0:0|0:0,0:0:0:0:
271,57,92362,6,0,L|275:183,1,120,8|8,0:0|0:0,0:0:0:0:
131,193,92953,2,0,L|127:319,1,120,8|8,0:0|0:0,0:0:0:0:
271,331,93544,6,0,L|391:327,1,120,8|8,0:0|0:0,0:0:0:0:
245,236,94135,2,0,L|241:116,1,120,8|8,0:0|3:2,0:0:0:0:
385,21,94726,5,12,0:0:0:0:
313,18,94873,1,8,0:0:0:0:
241,15,95021,1,8,0:0:0:0:
386,278,95317,2,0,L|390:150,1,120,8|8,0:0|0:0,0:0:0:0:
247,92,95909,6,0,L|367:88,1,120,10|10,0:0|0:0,0:0:0:0:
224,204,96500,2,0,L|104:200,1,120,10|10,0:0|0:0,0:0:0:0:
248,308,97091,5,10,0:0:0:0:
320,304,97239,2,0,L|324:244,1,60,0|8,0:0|0:0,0:0:0:0:
179,178,97682,2,0,L|59:174,1,120,8|8,0:0|0:0,0:0:0:0:
203,174,98273,6,0,L|207:51,1,120,8|8,0:0|0:0,0:0:0:0:
351,246,98864,2,0,L|355:123,1,120,10|2,0:0|0:0,0:0:0:0:
210,114,99455,6,0,L|151:116,2,60,12|8|8,0:0|0:0|0:0,0:0:0:0:
353,246,100046,2,0,L|233:250,1,120,8|8,0:0|0:0,0:0:0:0:
377,249,100638,6,0,P|395:227|380:140,1,120,10|10,0:0|0:0,0:0:0:0:
310,135,101081,1,2,0:0:0:0:
238,128,101229,2,0,L|233:9,1,120,10|8,0:0|3:2,0:0:0:0:
376,44,101820,6,0,P|398:53|375:223,1,240,14|10,0:0|0:0,0:0:0:0:
257,246,102707,1,8,0:0:0:0:
136,267,103002,2,0,L|132:205,1,60,10|2,3:2|0:0,0:0:0:0:
348,158,103593,1,10,3:2:0:0:
229,222,103889,1,8,0:0:0:0:
110,283,104184,6,0,L|21:287,2,90,8|8|8,3:2|0:0|0:0,0:0:0:0:
193,275,104776,2,0,P|229:252|192:142,1,180,10|8,3:2|0:0,0:0:0:0:
133,210,105367,2,0,P|117:184|214:34,1,240,10|10,3:2|0:0,0:0:0:0:
424,91,106549,6,0,L|428:213,1,120,14|2,0:0|0:0,0:0:0:0:
291,226,107140,2,0,L|287:348,1,120,2|2,0:0|0:0,0:0:0:0:
420,345,107731,6,0,B|453:330|464:315|469:284|464:261|456:240|439:212|420:199|398:191|398:191|371:190|338:200|307:198|284:184|266:163|259:138|261:113|281:94|319:85|354:76|386:80,1,480,2|2,0:0|0:0,0:0:0:0:
255,275,109209,2,0,L|136:271,1,120,2|2,0:0|0:0,0:0:0:0:
395,331,110096,6,0,L|399:209,1,120,2|2,0:0|0:0,0:0:0:0:
262,196,110687,2,0,L|258:74,1,120,0|0,3:2|0:0,0:0:0:0:
400,58,111278,6,0,L|338:57,1,60,14|2,0:0|0:0,0:0:0:0:
207,152,111721,1,0,0:0:0:0:
272,157,111869,2,0,L|276:276,1,120,8|8,0:0|0:0,0:0:0:0:
143,276,112460,6,0,L|22:274,2,120,8|8|8,0:0|0:0|0:0,0:0:0:0:
275,280,113347,1,8,0:0:0:0:
142,181,113643,6,0,L|202:179,1,60,10|2,0:0|0:0,0:0:0:0:
333,187,114086,1,0,0:0:0:0:
268,182,114234,2,0,L|264:62,1,120,8|8,0:0|0:0,0:0:0:0:
396,38,114825,6,0,L|456:40,2,60,10|10|10,0:0|0:0|0:0,0:0:0:0:
255,153,115416,2,0,L|379:150,1,120,8|0,0:0|0:0,0:0:0:0:
231,267,116007,6,0,L|172:265,1,60,14|2,0:0|0:0,0:0:0:0:
303,261,116450,1,0,0:0:0:0:
368,255,116598,2,0,L|370:134,1,120,8|8,0:0|0:0,0:0:0:0:
229,191,117189,6,0,L|227:70,1,120,10|10,0:0|0:0,0:0:0:0:
88,231,117780,2,0,L|86:110,1,120,10|10,0:0|0:0,0:0:0:0:
218,104,118372,6,0,L|278:102,1,60,10|2,0:0|0:0,0:0:0:0:
136,286,118815,1,0,0:0:0:0:
71,280,118963,2,0,L|69:159,1,120,8|8,0:0|0:0,0:0:0:0:
201,54,119554,6,0,L|322:57,1,120,10|10,0:0|0:0,0:0:0:0:
188,182,120145,2,0,L|67:185,1,120,10|10,0:0|0:0,0:0:0:0:
212,316,120736,6,0,L|214:195,1,120,10|10,0:0|0:0,0:0:0:0:
358,201,121327,1,10,0:0:0:0:
214,196,121623,1,10,0:0:0:0:
454,107,122214,5,4,0:0:0:0:
256,192,122509,12,0,123987,0:0:0:0:
256,192,124283,12,12,126647,0:0:0:0:
