osu file format v14

[General]
AudioFilename: audio.mp3
AudioLeadIn: 0
PreviewTime: 88770
Countdown: 0
SampleSet: Soft
StackLeniency: 0.2
Mode: 0
LetterboxInBreaks: 0
EpilepsyWarning: 1
WidescreenStoryboard: 0

[Editor]
Bookmarks: 11941,24354,35586,45044,59231,71054,80512,89970,99428,111251,122187
DistanceSpacing: 1.4
BeatDivisor: 4
GridSize: 4
TimelineZoom: 2.4

[Metadata]
Title:Bad Elixir
TitleUnicode:Bad Elixir
Artist:xi
ArtistUnicode:xi
Creator:Cherry Blossom
Version:Hard
Source:BMS
Tags:of fighters g2r2018 go back to your roots alpha complex
BeatmapID:1883517
BeatmapSetID:878944

[Difficulty]
HPDrainRate:4
CircleSize:4
OverallDifficulty:5
ApproachRate:7
SliderMultiplier:1.3
SliderTickRate:1

[Events]
//Background and Video events
Video,0,"bad elixir video.AVI"
0,0,"xidealism.jpg",0,0
//Break Periods
2,35768,39397
//Storyboard Layer 0 (Background)
//Storyboard Layer 1 (Fail)
//Storyboard Layer 2 (Pass)
//Storyboard Layer 3 (Foreground)
//Storyboard Sound Samples

[TimingPoints]
2465,295.566502463054,4,2,2,70,1,0
2465,-200,4,2,2,70,0,0
2538,-200,4,2,2,40,0,0
7194,-200,4,2,2,70,0,0
7267,-200,4,2,2,40,0,0
11923,-133.333333333333,4,2,2,40,0,0
16208,-100,4,2,2,50,0,0
24336,-86.9565217391304,4,2,2,40,0,0
24928,-86.9565217391304,4,2,3,60,0,0
35568,-100,4,2,2,50,0,0
43844,-86.9565217391304,4,2,2,60,0,0
45026,-86.9565217391304,4,2,3,70,0,1
45100,-86.9565217391304,4,2,4,70,0,1
49755,-86.9565217391304,4,2,2,70,0,1
49829,-86.9565217391304,4,2,4,70,0,1
53302,-86.9565217391304,4,2,4,70,0,1
53893,-86.9565217391304,4,2,2,60,0,1
54484,-86.9565217391304,4,2,2,70,0,1
54558,-86.9565217391304,4,2,2,60,0,0
56849,-86.9565217391304,4,2,2,70,0,1
59213,-86.9565217391304,4,2,2,60,0,0
62760,-86.9565217391304,4,2,2,60,0,0
63942,-86.9565217391304,4,2,2,60,0,0
66676,-86.9565217391304,4,2,2,30,0,0
66898,-86.9565217391304,4,2,2,35,0,0
67194,-86.9565217391304,4,2,2,40,0,0
67489,-86.9565217391304,4,2,2,45,0,0
67785,-86.9565217391304,4,2,2,50,0,0
68080,-86.9565217391304,4,2,2,55,0,0
68376,-80,4,2,2,60,0,0
71036,-200,4,2,2,70,0,0
71110,-200,4,2,2,40,0,0
75765,-200,4,2,2,70,0,0
75839,-200,4,2,2,40,0,0
79312,-100,4,2,2,60,0,0
80568,-100,4,2,4,60,0,0
85223,-100,4,2,2,60,0,0
85297,-100,4,1,0,40,0,0
86405,-100,4,2,2,60,0,0
86479,-100,4,1,0,40,0,0
87588,-100,4,2,2,60,0,0
88770,-100,4,2,2,70,0,0
89952,-100,4,2,2,40,0,0
90174,-86.9565217391304,4,2,2,40,0,0
90248,-86.9565217391304,4,2,2,70,0,1
106504,-100,4,2,2,70,0,1
110051,-86.9565217391304,4,2,4,70,0,1
111085,-86.9565217391304,4,2,2,40,0,0
111233,-86.9565217391304,4,2,2,70,0,1
111529,-86.9565217391304,4,2,4,70,0,1
111602,-86.9565217391304,4,2,2,70,0,1
113893,-86.9565217391304,4,2,4,70,0,1
113967,-86.9565217391304,4,2,2,70,0,1
116258,-86.9565217391304,4,2,4,70,0,1
116331,-86.9565217391304,4,2,2,70,0,1
118622,-86.9565217391304,4,2,4,70,0,1
118696,-86.9565217391304,4,2,2,70,0,1
121873,-133.333333333333,4,2,2,60,0,0
124238,-86.9565217391304,4,2,2,70,0,1
126602,-86.9565217391304,4,2,2,70,0,0

[Colours]
Combo1 : 222,222,239
Combo2 : 255,94,94
Combo3 : 93,93,93
Combo4 : 193,102,255

[HitObjects]
128,148,2465,6,0,B|196:144|256:56|256:56|316:144|388:148,1,325,12|0,0:0|0:0,0:0:0:0:
456,172,4238,2,0,L|452:252,2,65,2|2|2,0:0|0:0|0:0,0:0:0:0:
452,236,6602,6,0,L|456:172,1,65,2|2,0:0|0:0,0:0:0:0:
382,147,7194,38,0,B|316:144|256:56|256:56|196:144|128:148,1,325,12|0,0:0|0:0,0:0:0:0:
56,172,8967,2,0,L|59:236,1,65,2|2,0:0|0:0,0:0:0:0:
72,316,9558,6,0,P|160:340|256:308,1,195,2|0,0:0|0:0,0:0:0:0:
256,232,10740,2,0,L|256:208,14,16.25,0|0|0|0|2|0|0|0|2|0|0|0|2|0|0,0:0|0:0|0:0|0:0|0:0|0:0|0:0|0:0|0:0|0:0|0:0|0:0|0:0|0:0|0:0,0:0:0:0:
308,260,11923,6,0,P|356:264|408:248,1,97.50000371933,2|0,0:0|0:0,0:0:0:0:
457,209,12366,2,0,L|453:105,1,97.50000371933,8|0,0:0|0:0,0:0:0:0:
449,43,12809,1,8,0:0:0:0:
352,144,13105,38,0,L|248:140,1,97.50000371933,2|2,0:0|0:0,0:0:0:0:
160,40,13696,2,0,L|257:43,1,97.50000371933,10|0,0:0|0:0,0:0:0:0:
180,156,14287,6,0,L|76:152,1,97.50000371933,8|0,0:0|0:0,0:0:0:0:
24,188,14731,2,0,P|16:240|24:288,1,97.50000371933,8|0,0:0|0:0,0:0:0:0:
56,344,15174,1,8,0:0:0:0:
152,248,15469,38,0,L|256:240,1,97.50000371933,2|2,0:0|0:0,0:0:0:0:
348,332,16061,2,0,L|408:328,1,48.750001859665,10|0,0:0|0:0,0:0:0:0:
472,316,16356,2,0,P|476:280|472:248,1,65,8|8,0:0|0:0,0:0:0:0:
428,188,16652,6,0,P|424:156|428:116,1,65,12|0,0:0|0:0,0:0:0:0:
440,48,16947,2,0,L|356:40,1,65,8|0,0:0|0:0,0:0:0:0:
304,76,17243,2,0,L|296:164,1,65,8|0,0:0|0:0,0:0:0:0:
256,208,17538,1,8,0:0:0:0:
256,208,17686,1,8,0:0:0:0:
213,140,17834,38,0,L|208:76,1,65,12|0,0:0|0:0,0:0:0:0:
136,41,18130,2,0,L|72:48,1,65,8|8,0:0|0:0,0:0:0:0:
20,108,18425,2,0,L|28:260,1,130,12|8,0:0|0:0,0:0:0:0:
36,316,18868,1,0,0:0:0:0:
108,348,19016,6,0,P|140:352|176:348,1,65,12|8,0:0|0:0,0:0:0:0:
217,284,19312,1,8,0:0:0:0:
217,284,19460,1,8,0:0:0:0:
293,284,19607,1,12,0:0:0:0:
293,284,19755,1,8,0:0:0:0:
339,348,19903,2,0,P|371:352|404:348,1,65,8|8,0:0|0:0,0:0:0:0:
472,312,20198,38,0,P|476:184|400:76,1,260,12|12,0:0|0:0,0:0:0:0:
256,132,21085,1,12,0:0:0:0:
108,80,21381,5,12,0:0:0:0:
256,192,21455,12,10,23745,0:0:0:0:
256,48,24928,6,0,L|256:136,1,74.7500014257431,6|6,0:0|0:0,0:0:0:0:
292,204,25223,2,0,P|256:212|220:204,1,74.7500014257431,8|2,0:0|0:0,0:0:0:0:
132,176,25519,2,0,P|116:240|132:320,1,149.500002851486,2|8,0:0|0:0,0:0:0:0:
208,372,25962,1,2,0:0:0:0:
256,296,26110,37,6,0:0:0:0:
256,296,26258,1,6,0:0:0:0:
304,372,26405,2,0,L|400:368,1,74.7500014257431,8|0,0:0|0:0,0:0:0:0:
460,328,26701,2,0,P|464:288|460:252,1,74.7500014257431,6|2,0:0|0:0,0:0:0:0:
380,212,26997,2,0,P|376:172|380:136,1,74.7500014257431,8|2,0:0|0:0,0:0:0:0:
444,76,27292,5,6,0:0:0:0:
444,76,27440,1,6,0:0:0:0:
372,24,27588,2,0,L|280:16,1,74.7500014257431,8|2,0:0|0:0,0:0:0:0:
212,44,27883,2,0,L|36:36,1,149.500002851486,6|8,0:0|0:0,0:0:0:0:
4,104,28327,1,2,0:0:0:0:
68,168,28474,38,0,L|160:172,1,74.7500014257431,6|0,0:0|0:0,0:0:0:0:
208,232,28770,2,0,L|212:336,1,74.7500014257431,6|0,0:0|0:0,0:0:0:0:
301,306,29065,2,0,L|304:232,1,74.7500014257431,6|0,0:0|0:0,0:0:0:0:
369,171,29361,2,0,L|444:168,1,74.7500014257431,6|8,0:0|0:0,0:0:0:0:
508,232,29657,5,6,0:0:0:0:
508,232,29804,1,6,0:0:0:0:
472,316,29952,2,0,P|440:332|388:332,1,74.7500014257431,8|2,0:0|0:0,0:0:0:0:
328,280,30248,2,0,P|256:264|184:280,1,149.500002851486,2|8,0:0|0:0,0:0:0:0:
111,334,30691,1,2,0:0:0:0:
36,284,30839,37,6,0:0:0:0:
36,284,30987,1,6,0:0:0:0:
60,196,31134,2,0,L|56:104,1,74.7500014257431,8|0,0:0|0:0,0:0:0:0:
80,32,31430,2,0,B|116:28|116:28|156:32,1,74.7500014257431,6|0,0:0|0:0,0:0:0:0:
220,96,31726,2,0,B|256:100|256:100|294:95,1,74.7500014257431,8|0,0:0|0:0,0:0:0:0:
360,32,32021,5,6,0:0:0:0:
360,32,32169,1,6,0:0:0:0:
440,72,32317,2,0,L|436:168,1,74.7500014257431,8|2,0:0|0:0,0:0:0:0:
436,236,32612,2,0,P|388:312|332:320,1,149.500002851486,6|8,0:0|0:0,0:0:0:0:
256,276,33056,1,2,0:0:0:0:
180,320,33203,38,0,P|172:280|176:240,1,74.7500014257431,6|0,0:0|0:0,0:0:0:0:
184,156,33499,2,0,P|192:116|212:84,1,74.7500014257431,6|0,0:0|0:0,0:0:0:0:
300,88,33795,2,0,P|318:120|325:156,1,74.7500014257431,6|2,0:0|0:0,0:0:0:0:
337,246,34090,2,0,P|339:283|332:320,1,74.7500014257431,8|8,0:0|0:0,0:0:0:0:
256,372,34386,6,0,L|84:360,1,149.500002851486,6|2,0:0|0:0,0:0:0:0:
32,316,34829,1,2,0:0:0:0:
108,268,34977,2,0,P|112:228|108:188,1,74.7500014257431,6|6,0:0|0:0,0:0:0:0:
36,140,35272,1,6,0:0:0:0:
120,104,35420,1,6,0:0:0:0:
48,48,35568,21,12,0:0:0:0:
208,48,40297,22,0,P|256:40|308:48,2,97.5,12|8|8,0:0|0:0|0:0,0:0:0:0:
144,92,40888,2,0,L|152:248,1,130,0|0,0:0|0:0,0:0:0:0:
256,336,41479,22,0,P|376:344|408:112,1,390,2|0,0:0|0:0,0:0:0:0:
288,40,42662,22,0,L|196:36,1,65,14|14,0:0|0:0,0:0:0:0:
168,92,42957,2,0,L|76:88,1,65,2|2,0:0|0:0,0:0:0:0:
32,124,43253,2,0,L|29:188,1,65,14|14,0:0|0:0,0:0:0:0:
84,243,43548,2,0,L|81:307,1,65,2|2,0:0|0:0,0:0:0:0:
160,356,43844,22,0,P|236:360|300:312,1,149.500002851486,12|10,0:0|0:0,0:0:0:0:
320,232,44287,1,10,0:0:0:0:
392,284,44435,2,0,L|484:280,1,74.7500014257431,14|0,0:0|0:0,0:0:0:0:
504,200,44731,2,0,L|500:112,1,74.7500014257431,10|10,0:0|0:0,0:0:0:0:
448,52,45026,22,0,P|376:36|304:52,1,149.500002851486,6|8,0:0|0:0,0:0:0:0:
256,128,45469,2,0,P|183:144|111:128,1,149.500002851486,6|10,0:0|0:0,0:0:0:0:
20,116,45913,2,0,L|24:216,1,74.7500014257431,2|6,0:0|0:0,0:0:0:0:
32,280,46208,38,0,L|196:268,1,149.500002851486,6|8,0:0|0:0,0:0:0:0:
332,364,46799,2,0,L|496:352,1,149.500002851486,6|8,0:0|0:0,0:0:0:0:
468,172,47391,6,0,L|318:182,1,149.500002851486,6|8,0:0|0:0,0:0:0:0:
256,248,47834,2,0,L|106:237,1,149.500002851486,4|8,0:0|0:0,0:0:0:0:
16,228,48277,2,0,P|12:192|16:152,1,74.7500014257431,2|4,0:0|0:0,0:0:0:0:
40,68,48573,38,0,P|96:24|184:16,1,149.500002851486,6|10,0:0|0:0,0:0:0:0:
256,40,49016,1,0,0:0:0:0:
340,13,49164,2,0,L|428:12,1,74.7500014257431,2|0,0:0|0:0,0:0:0:0:
492,60,49460,2,0,P|496:104|488:148,1,74.7500014257431,2|0,0:0|0:0,0:0:0:0:
476,224,49755,6,0,L|372:216,1,74.7500014257431,14|0,0:0|0:0,0:0:0:0:
336,280,50051,2,0,L|156:268,1,149.500002851486,8|2,0:0|0:0,0:0:0:0:
96,264,50494,2,0,L|40:260,2,37.3750007128716,8|0|2,0:0|0:0|0:0,0:0:0:0:
148,188,50790,1,4,0:0:0:0:
80,128,50937,38,0,L|-12:124,1,74.7500014257431,6|0,0:0|0:0,0:0:0:0:
0,36,51233,2,0,L|74:39,1,74.7500014257431,10|6,0:0|0:0,0:0:0:0:
156,76,51529,2,0,L|248:72,1,74.7500014257431,6|2,0:0|0:0,0:0:0:0:
308,24,51824,1,10,0:0:0:0:
372,88,51972,1,2,0:0:0:0:
456,56,52120,6,0,L|448:216,1,149.500002851486,6|8,0:0|0:0,0:0:0:0:
336,344,52711,2,0,L|332:246,1,74.7500014257431,2|10,0:0|0:0,0:0:0:0:
292,192,53006,2,0,P|256:184|220:192,1,74.7500014257431,2|6,0:0|0:0,0:0:0:0:
178,269,53302,38,0,L|176:344,2,74.7500014257431,6|6|10,0:0|0:0|0:0,0:0:0:0:
120,200,53745,1,6,0:0:0:0:
44,244,53893,6,0,L|-8:240,6,49.8333342838288,10|8|8|10|8|8|14,0:0|0:0|0:0|0:0|0:0|0:0|0:0,0:0:0:0:
256,192,54558,12,0,56258,0:0:0:0:
48,48,56849,38,0,L|148:40,1,74.7500014257431,14|2,0:0|0:0,0:0:0:0:
164,120,57144,2,0,L|264:112,1,74.7500014257431,14|2,0:0|0:0,0:0:0:0:
272,32,57440,2,0,L|372:24,1,74.7500014257431,14|2,0:0|0:0,0:0:0:0:
388,104,57735,2,0,L|488:96,1,74.7500014257431,14|2,0:0|0:0,0:0:0:0:
508,176,58031,6,0,L|504:272,1,74.7500014257431,14|2,0:0|0:0,0:0:0:0:
428,300,58327,2,0,L|424:225,1,74.7500014257431,10|2,0:0|0:0,0:0:0:0:
352,176,58622,2,0,L|348:272,1,74.7500014257431,10|2,0:0|0:0,0:0:0:0:
272,300,58918,2,0,L|268:225,1,74.7500014257431,10|2,0:0|0:0,0:0:0:0:
256,136,59213,38,0,P|184:120|112:136,1,149.500002851486,14|8,0:0|0:0,0:0:0:0:
36,184,59657,2,0,L|48:356,1,149.500002851486,14|8,0:0|0:0,0:0:0:0:
128,368,60100,2,0,P|164:372|204:368,1,74.7500014257431,14|0,0:0|0:0,0:0:0:0:
256,296,60396,5,8,0:0:0:0:
308,368,60543,2,0,P|384:368|444:320,1,149.500002851486,14|10,0:0|0:0,0:0:0:0:
468,240,60987,2,0,L|464:144,1,74.7500014257431,14|2,0:0|0:0,0:0:0:0:
464,76,61282,2,0,L|376:72,1,74.7500014257431,14|2,0:0|0:0,0:0:0:0:
304,104,61578,38,0,L|300:200,1,74.7500014257431,14|0,0:0|0:0,0:0:0:0:
256,256,61873,1,8,0:0:0:0:
211,178,62021,2,0,L|208:104,1,74.7500014257431,14|0,0:0|0:0,0:0:0:0:
148,36,62317,1,8,0:0:0:0:
64,64,62464,2,0,P|56:104|64:144,1,74.7500014257431,14|0,0:0|0:0,0:0:0:0:
104,216,62760,6,0,B|120:268|120:268|104:324,4,112.125002138615,14|14|14|14|14,0:0|0:0|0:0|0:0|0:0,0:0:0:0:
156,140,63795,1,14,0:0:0:0:
256,192,63942,12,14,66602,0:0:0:0:
256,192,66676,12,14,68671,0:0:0:0:
256,192,68745,12,2,70445,0:0:0:0:
384,236,71036,6,0,B|316:240|256:328|256:328|196:240|124:236,1,325,12|0,0:0|0:0,0:0:0:0:
56,212,72809,2,0,L|60:132,2,65,2|2|2,0:0|0:0|0:0,0:0:0:0:
59,147,75174,6,0,L|56:212,1,65,2|2,0:0|0:0,0:0:0:0:
129,236,75765,38,0,B|196:240|256:328|256:328|316:240|384:236,1,325,12|0,0:0|0:0,0:0:0:0:
456,212,77538,2,0,L|452:147,1,65,2|2,0:0|0:0,0:0:0:0:
448,68,78130,6,0,L|312:56,1,130,2|0,0:0|0:0,0:0:0:0:
318,56,79312,6,0,L|312:212,1,130,14|8,0:0|0:0,0:0:0:0:
256,240,79755,1,8,0:0:0:0:
196,188,79903,2,0,P|164:184|128:188,1,65,12|12,0:0|0:0,0:0:0:0:
60,220,80198,2,0,L|64:300,1,65,12|0,0:0|0:0,0:0:0:0:
112,348,80494,5,8,0:0:0:0:
256,284,80790,2,0,L|256:152,1,130,2|2,0:0|0:0,0:0:0:0:
292,84,81233,2,0,L|372:76,2,65,2|2|0,0:0|0:0|0:0,0:0:0:0:
220,52,81676,38,0,L|88:44,1,130,2|2,0:0|0:0,0:0:0:0:
100,200,82267,2,0,L|212:208,2,97.5,2|2|2,0:0|0:0|0:0,0:0:0:0:
44,256,82859,6,0,P|40:288|44:328,1,65,2|0,0:0|0:0,0:0:0:0:
112,356,83154,1,2,0:0:0:0:
256,296,83450,2,0,L|256:176,2,97.5,2|2|2,0:0|0:0|0:0,0:0:0:0:
308,352,84041,38,0,L|380:344,1,65,2|8,0:0|0:0,0:0:0:0:
452,336,84336,2,0,P|456:304|448:264,1,65,8|0,0:0|0:0,0:0:0:0:
408,208,84632,2,0,P|392:160|408:112,2,97.5,8|0|8,0:0|0:0|0:0,0:0:0:0:
472,160,85223,5,6,0:0:0:0:
256,192,85297,12,6,87588,0:0:0:0:
256,192,87662,12,2,88770,0:0:0:0:
256,40,89952,22,0,L|256:120,1,65,2|0,0:0|0:0,0:0:0:0:
256,204,90248,37,10,0:0:0:0:
144,344,90543,2,0,L|20:332,2,112.125002138615,8|8|8,0:0|0:0|0:0,0:0:0:0:
216,292,91134,6,0,L|308:288,1,74.7500014257431,10|0,0:0|0:0,0:0:0:0:
364,340,91430,2,0,L|448:336,1,74.7500014257431,10|0,0:0|0:0,0:0:0:0:
496,268,91726,2,0,P|500:232|492:192,1,74.7500014257431,10|0,0:0|0:0,0:0:0:0:
408,164,92021,2,0,P|404:126|411:90,1,74.7500014257431,10|0,0:0|0:0,0:0:0:0:
464,16,92317,38,0,L|296:20,1,149.500002851486,10|10,0:0|0:0,0:0:0:0:
256,88,92760,1,2,0:0:0:0:
196,20,92908,2,0,L|100:16,1,74.7500014257431,10|2,0:0|0:0,0:0:0:0:
40,60,93203,1,10,0:0:0:0:
112,112,93351,1,2,0:0:0:0:
32,156,93499,6,0,L|36:248,1,74.7500014257431,10|2,0:0|0:0,0:0:0:0:
60,320,93795,2,0,P|128:356|200:332,1,149.500002851486,10|10,0:0|0:0,0:0:0:0:
256,272,94238,1,0,0:0:0:0:
320,336,94386,2,0,P|356:344|396:336,1,74.7500014257431,2|2,0:0|0:0,0:0:0:0:
476,308,94681,38,0,L|480:216,1,74.7500014257431,14|8,0:0|0:0,0:0:0:0:
392,252,94977,2,0,L|400:88,1,149.500002851486,8|8,0:0|0:0,0:0:0:0:
256,0,95568,1,8,0:0:0:0:
112,102,95864,6,0,L|116:188,1,74.7500014257431,10|0,0:0|0:0,0:0:0:0:
40,228,96159,2,0,L|44:316,1,74.7500014257431,10|0,0:0|0:0,0:0:0:0:
120,348,96455,2,0,P|156:352|200:336,1,74.7500014257431,10|0,0:0|0:0,0:0:0:0:
220,256,96750,2,0,P|256:248|296:256,1,74.7500014257431,10|0,0:0|0:0,0:0:0:0:
320,340,97046,37,10,0:0:0:0:
408,352,97194,1,2,0:0:0:0:
460,280,97341,2,0,L|468:108,1,149.500002851486,10|10,0:0|0:0,0:0:0:0:
472,40,97785,1,2,0:0:0:0:
392,84,97932,2,0,L|296:76,1,74.7500014257431,10|2,0:0|0:0,0:0:0:0:
256,144,98228,6,0,L|164:136,1,74.7500014257431,10|2,0:0|0:0,0:0:0:0:
104,184,98524,2,0,P|88:256|104:328,1,149.500002851486,10|10,0:0|0:0,0:0:0:0:
188,360,98967,1,0,0:0:0:0:
256,300,99115,2,0,L|340:296,1,74.7500014257431,8|0,0:0|0:0,0:0:0:0:
412,332,99410,38,0,P|416:296|412:256,1,74.7500014257431,12|10,0:0|0:0,0:0:0:0:
500,288,99706,2,0,P|496:220|432:168,1,149.500002851486,8|8,0:0|0:0,0:0:0:0:
256,180,100297,1,8,0:0:0:0:
74,169,100593,22,0,P|18:215|12:288,1,149.500002851486,10|10,0:0|0:0,0:0:0:0:
56,364,101036,1,0,0:0:0:0:
136,324,101184,2,0,L|228:320,1,74.7500014257431,10|8,0:0|0:0,0:0:0:0:
300,320,101479,1,10,0:0:0:0:
300,320,101775,22,0,L|400:316,1,74.7500014257431,14|0,0:0|0:0,0:0:0:0:
376,228,102070,2,0,L|301:230,1,74.7500014257431,0|0,0:0|0:0,0:0:0:0:
212,232,102366,2,0,L|137:234,1,74.7500014257431,14|0,0:0|0:0,0:0:0:0:
136,144,102662,2,0,L|210:141,1,74.7500014257431,0|0,0:0|0:0,0:0:0:0:
300,140,102957,22,0,L|374:137,1,74.7500014257431,14|0,0:0|0:0,0:0:0:0:
376,48,103253,2,0,L|301:50,1,74.7500014257431,0|0,0:0|0:0,0:0:0:0:
212,52,103548,2,0,L|137:54,1,74.7500014257431,14|0,0:0|0:0,0:0:0:0:
48,60,103844,1,10,0:0:0:0:
100,132,103992,1,2,0:0:0:0:
28,188,104139,22,0,L|32:272,1,74.7500014257431,14|0,0:0|0:0,0:0:0:0:
84,336,104435,2,0,L|184:332,1,74.7500014257431,0|0,0:0|0:0,0:0:0:0:
204,256,104731,2,0,L|208:168,1,74.7500014257431,14|0,0:0|0:0,0:0:0:0:
212,92,105026,1,2,0:0:0:0:
300,92,105174,1,2,0:0:0:0:
304,181,105322,22,0,L|308:256,1,74.7500014257431,14|2,0:0|0:0,0:0:0:0:
353,333,105617,2,0,L|428:336,1,74.7500014257431,2|2,0:0|0:0,0:0:0:0:
480,262,105913,2,0,L|488:92,1,149.500002851486,10|10,0:0|0:0,0:0:0:0:
488,24,106356,1,10,0:0:0:0:
408,64,106504,22,0,B|260:156|292:340|436:320|476:232|412:84|256:256|256:256|100:84|36:232|76:320|220:340|252:156|104:64,1,1040,12|6,0:0|0:0,0:0:0:0:
256,192,108942,12,2,110051,0:0:0:0:
256,40,111233,38,0,L|256:124,1,74.7500014257431,14|14,0:0|0:0,0:0:0:0:
220,196,111529,2,0,P|256:204|296:196,1,74.7500014257431,8|10,0:0|0:0,0:0:0:0:
372,156,111824,2,0,P|444:184|472:256,1,149.500002851486,10|10,0:0|0:0,0:0:0:0:
464,336,112267,1,10,0:0:0:0:
388,292,112415,38,0,L|308:296,1,74.7500014257431,10|0,0:0|0:0,0:0:0:0:
256,364,112711,2,0,L|176:356,1,74.7500014257431,12|0,0:0|0:0,0:0:0:0:
92,344,113006,2,0,P|88:308|92:264,1,74.7500014257431,14|0,0:0|0:0,0:0:0:0:
148,200,113302,2,0,P|152:164|148:120,1,74.7500014257431,14|0,0:0|0:0,0:0:0:0:
132,36,113598,5,14,0:0:0:0:
132,36,113745,1,14,0:0:0:0:
217,62,113893,2,0,L|310:57,1,74.7500014257431,8|10,0:0|0:0,0:0:0:0:
356,120,114189,2,0,L|456:112,1,74.7500014257431,10|2,0:0|0:0,0:0:0:0:
484,188,114484,2,0,P|488:224|484:264,1,74.7500014257431,10|10,0:0|0:0,0:0:0:0:
432,336,114780,38,0,L|332:328,1,74.7500014257431,14|14,0:0|0:0,0:0:0:0:
312,252,115075,1,14,0:0:0:0:
256,324,115223,1,14,0:0:0:0:
200,252,115371,2,0,L|192:152,1,74.7500014257431,14|14,0:0|0:0,0:0:0:0:
140,104,115666,2,0,P|176:96|208:76,1,74.7500014257431,10|2,0:0|0:0,0:0:0:0:
256,0,115962,5,14,0:0:0:0:
256,0,116110,1,14,0:0:0:0:
304,76,116258,2,0,P|335:95|372:103,1,74.7500014257431,8|10,0:0|0:0,0:0:0:0:
460,112,116553,2,0,L|452:272,1,149.500002851486,10|10,0:0|0:0,0:0:0:0:
440,352,116997,1,10,0:0:0:0:
352,332,117144,38,0,L|348:256,1,74.7500014257431,14|0,0:0|0:0,0:0:0:0:
304,180,117440,2,0,L|300:84,1,74.7500014257431,14|0,0:0|0:0,0:0:0:0:
211,105,117735,2,0,L|208:180,1,74.7500014257431,14|0,0:0|0:0,0:0:0:0:
163,257,118031,2,0,L|160:332,1,74.7500014257431,14|0,0:0|0:0,0:0:0:0:
80,372,118327,5,14,0:0:0:0:
80,372,118474,1,14,0:0:0:0:
20,308,118622,2,0,L|16:216,1,74.7500014257431,8|10,0:0|0:0,0:0:0:0:
36,144,118918,2,0,P|104:124|180:144,1,149.500002851486,10|10,0:0|0:0,0:0:0:0:
256,188,119361,1,10,0:0:0:0:
336,144,119509,6,0,L|420:136,1,74.7500014257431,14|0,0:0|0:0,0:0:0:0:
484,192,119804,2,0,L|496:288,1,74.7500014257431,14|0,0:0|0:0,0:0:0:0:
456,348,120100,2,0,L|360:360,1,74.7500014257431,14|0,0:0|0:0,0:0:0:0:
312,300,120396,2,0,L|302:225,1,74.7500014257431,14|0,0:0|0:0,0:0:0:0:
212,224,120691,22,0,L|202:298,1,74.7500014257431,14|10,0:0|0:0,0:0:0:0:
130,357,120987,2,0,L|56:348,1,74.7500014257431,14|10,0:0|0:0,0:0:0:0:
18,266,121282,2,0,L|28:192,1,74.7500014257431,14|10,0:0|0:0,0:0:0:0:
101,136,121578,1,14,0:0:0:0:
101,136,122169,6,0,B|72:232|160:296|248:256|256:164|256:164|264:256|352:296|440:232|412:136,1,585.00002231598,14|0,0:0|0:0,0:0:0:0:
256,192,124238,12,12,126602,0:0:0:0:
