osu file format v14

[General]
AudioFilename: audio.mp3
AudioLeadIn: 0
PreviewTime: 88770
Countdown: 0
SampleSet: Soft
StackLeniency: 0.2
Mode: 0
LetterboxInBreaks: 0
EpilepsyWarning: 1
WidescreenStoryboard: 0

[Editor]
Bookmarks: 11941,24354,35586,45044,59231,71054,80512,89970,99428,111251,122187
DistanceSpacing: 1.5
BeatDivisor: 4
GridSize: 4
TimelineZoom: 2.5

[Metadata]
Title:Bad Elixir
TitleUnicode:Bad Elixir
Artist:xi
ArtistUnicode:xi
Creator:Cherry Blossom
Version:Another
Source:BMS
Tags:of fighters g2r2018 go back to your roots alpha complex
BeatmapID:1857527
BeatmapSetID:878944

[Difficulty]
HPDrainRate:6
CircleSize:4
OverallDifficulty:7.5
ApproachRate:9
SliderMultiplier:1.9
SliderTickRate:1

[Events]
//Background and Video events
Video,0,"bad elixir video.AVI"
0,0,"xidealism.jpg",0,0
//Break Periods
2,35768,39697
//Storyboard Layer 0 (Background)
//Storyboard Layer 1 (Fail)
//Storyboard Layer 2 (Pass)
//Storyboard Layer 3 (Foreground)
//Storyboard Sound Samples

[TimingPoints]
2465,295.566502463054,4,2,2,70,1,0
2465,-303.030303030303,4,2,2,70,0,0
2538,-303.030303030303,4,2,2,40,0,0
7194,-303.030303030303,4,2,2,70,0,0
7267,-303.030303030303,4,2,2,40,0,0
11923,-151.515151515152,4,2,2,40,0,0
16208,-100,4,2,2,50,0,0
24336,-86.9565217391304,4,2,2,40,0,0
24928,-86.9565217391304,4,2,3,60,0,0
35568,-100,4,2,2,50,0,0
43844,-86.9565217391304,4,2,2,60,0,0
45026,-86.9565217391304,4,2,3,70,0,1
45100,-86.9565217391304,4,2,4,70,0,1
49755,-86.9565217391304,4,2,2,70,0,1
49829,-86.9565217391304,4,2,4,70,0,1
53302,-80,4,2,4,70,0,1
53893,-80,4,2,2,60,0,1
54484,-80,4,2,2,70,0,1
54558,-80,4,2,2,60,0,0
56849,-80,4,2,2,70,0,1
59213,-80,4,2,2,60,0,0
62760,-74.0740740740741,4,2,2,60,0,0
63942,-80,4,2,2,60,0,0
66676,-80,4,2,2,30,0,0
66898,-80,4,2,2,35,0,0
67194,-80,4,2,2,40,0,0
67489,-80,4,2,2,45,0,0
67785,-80,4,2,2,50,0,0
68080,-80,4,2,2,55,0,0
68376,-80,4,2,2,60,0,0
71036,-303.030303030303,4,2,2,70,0,0
71110,-303.030303030303,4,2,2,40,0,0
75765,-303.030303030303,4,2,2,70,0,0
75839,-303.030303030303,4,2,2,40,0,0
79312,-100,4,2,2,60,0,0
80568,-100,4,2,4,60,0,0
85223,-100,4,2,2,60,0,0
85297,-100,4,1,0,40,0,0
86405,-100,4,2,2,60,0,0
86479,-100,4,1,0,40,0,0
87588,-100,4,2,2,60,0,0
88770,-100,4,2,2,70,0,0
89952,-303.030303030303,4,2,2,40,0,0
90174,-80,4,2,2,40,0,0
90248,-80,4,2,2,70,0,1
110051,-80,4,2,4,70,0,1
111085,-80,4,2,2,40,0,0
111233,-80,4,2,2,70,0,1
111529,-80,4,2,4,70,0,1
111602,-80,4,2,2,70,0,1
113893,-80,4,2,4,70,0,1
113967,-80,4,2,2,70,0,1
116258,-80,4,2,4,70,0,1
116331,-80,4,2,2,70,0,1
118622,-80,4,2,4,70,0,1
118696,-80,4,2,2,70,0,1
121873,-151.515151515152,4,2,2,60,0,0
124238,-80,4,2,2,70,0,1
126602,-80,4,2,2,70,0,0

[Colours]
Combo1 : 222,222,239
Combo2 : 255,94,94
Combo3 : 93,93,93
Combo4 : 193,102,255

[HitObjects]
132,224,2465,6,0,P|256:107|380:228,1,376.199998851929,12|2,0:0|0:0,0:0:0:0:
332,340,4533,1,2,0:0:0:0:
256,240,4829,5,2,0:0:0:0:
256,240,6602,1,2,0:0:0:0:
332,340,6898,1,2,0:0:0:0:
379,224,7194,38,0,P|256:107|132:224,1,376.199998851929,12|2,0:0|0:0,0:0:0:0:
164,348,9263,2,0,L|204:344,1,31.3499999043274,2|0,0:0|0:0,0:0:0:0:
256,340,9558,6,0,B|292:244|224:248|256:156,1,188.099999425964,2|0,0:0|0:0,0:0:0:0:
256,32,10740,2,0,L|280:28,3,15.6749999521637,0|0|0|0,0:0|0:0|0:0|0:0,0:0:0:0:
256,68,11036,2,0,L|232:64,3,15.6749999521637,2|0|0|0,0:0|0:0|0:0|0:0,0:0:0:0:
256,104,11331,2,0,L|280:100,3,15.6749999521637,2|0|0|0,0:0|0:0|0:0|0:0,0:0:0:0:
256,140,11627,2,0,L|232:136,3,15.6749999521637,2|0|0|0,0:0|0:0|0:0|0:0,0:0:0:0:
256,180,11923,6,0,L|388:176,1,125.39999961731,2|0,0:0|0:0,0:0:0:0:
472,196,12366,2,0,B|484:260|484:260|472:324,1,125.39999961731,8|0,0:0|0:0,0:0:0:0:
384,356,12809,1,8,0:0:0:0:
128,224,13105,2,0,B|116:164|116:164|128:100,1,125.39999961731,2|2,0:0|0:0,0:0:0:0:
152,40,13499,2,0,L|208:36,1,41.7999998724365,2|2,0:0|0:0,0:0:0:0:
256,32,13696,2,0,L|384:28,1,125.39999961731,10|0,0:0|0:0,0:0:0:0:
320,304,14287,38,0,L|192:296,1,125.39999961731,8|0,0:0|0:0,0:0:0:0:
104,268,14731,2,0,P|92:204|104:144,1,125.39999961731,8|0,0:0|0:0,0:0:0:0:
140,60,15174,1,8,0:0:0:0:
372,232,15469,6,0,P|383:293|371:354,1,125.39999961731,2|2,0:0|0:0,0:0:0:0:
312,372,15864,2,0,L|248:368,1,41.7999998724365,2|2,0:0|0:0,0:0:0:0:
208,364,16061,1,10,0:0:0:0:
100,272,16208,1,0,0:0:0:0:
100,272,16282,1,0,0:0:0:0:
100,272,16356,2,0,L|100:212,3,47.5,8|0|8|0,0:0|0:0|0:0|0:0,0:0:0:0:
100,176,16652,38,0,L|204:172,1,95,12|0,0:0|0:0,0:0:0:0:
412,208,16947,2,0,L|308:212,1,95,8|0,0:0|0:0,0:0:0:0:
272,36,17243,2,0,L|276:140,1,95,8|0,0:0|0:0,0:0:0:0:
240,348,17538,1,8,0:0:0:0:
194,172,17686,1,8,0:0:0:0:
368,224,17834,6,0,L|480:216,1,95,12|0,0:0|0:0,0:0:0:0:
144,160,18130,2,0,L|32:168,1,95,8|8,0:0|0:0,0:0:0:0:
308,308,18425,2,0,L|420:300,1,95,12|0,0:0|0:0,0:0:0:0:
208,76,18721,2,0,L|96:84,1,95,8|0,0:0|0:0,0:0:0:0:
44,92,18942,5,0,0:0:0:0:
44,92,19016,1,12,0:0:0:0:
48,284,19164,1,8,0:0:0:0:
208,180,19312,1,8,0:0:0:0:
96,184,19460,1,8,0:0:0:0:
256,284,19607,1,12,0:0:0:0:
256,92,19755,1,8,0:0:0:0:
416,184,19903,1,8,0:0:0:0:
324,344,20051,1,8,0:0:0:0:
164,252,20198,37,12,0:0:0:0:
164,232,20272,1,8,0:0:0:0:
164,212,20346,1,8,0:0:0:0:
164,192,20420,1,8,0:0:0:0:
164,172,20494,1,12,0:0:0:0:
164,152,20568,1,8,0:0:0:0:
164,132,20642,1,8,0:0:0:0:
164,112,20716,1,8,0:0:0:0:
164,92,20790,2,0,L|164:40,7,47.5,12|8|8|8|12|8|8|8,0:0|0:0|0:0|0:0|0:0|0:0|0:0|0:0,0:0:0:0:
164,20,21381,37,12,0:0:0:0:
256,192,21455,12,10,23745,0:0:0:0:
228,120,24336,22,0,L|284:116,3,54.6250010418892,0|0|0|0,0:0|0:0|0:0|0:0,0:0:0:0:
332,140,24632,1,2,0:0:0:0:
328,168,24706,1,0,0:0:0:0:
324,196,24780,1,2,0:0:0:0:
320,224,24854,1,0,0:0:0:0:
316,252,24928,37,6,0:0:0:0:
256,368,25075,1,6,0:0:0:0:
104,308,25223,2,0,L|100:192,1,109.250002083778,8|2,0:0|0:0,0:0:0:0:
148,128,25445,1,0,0:0:0:0:
148,128,25519,2,0,P|200:120|260:128,1,109.250002083778,2|2,0:0|0:0,0:0:0:0:
304,152,25716,2,0,L|352:148,2,36.4166673612595,0|0|8,0:0|0:0|0:0,0:0:0:0:
192,32,25962,1,2,0:0:0:0:
256,240,26110,5,6,0:0:0:0:
256,240,26258,1,6,0:0:0:0:
316,32,26405,2,0,L|444:28,1,109.250002083778,8|0,0:0|0:0,0:0:0:0:
492,80,26627,1,0,0:0:0:0:
492,80,26701,2,0,P|500:140|488:196,1,109.250002083778,6|2,0:0|0:0,0:0:0:0:
308,312,26997,2,0,P|298:258|307:204,1,109.250002083778,8|2,0:0|0:0,0:0:0:0:
348,136,27218,1,0,0:0:0:0:
348,136,27292,37,6,0:0:0:0:
404,256,27440,1,6,0:0:0:0:
208,312,27588,2,0,L|76:304,1,109.250002083778,8|2,0:0|0:0,0:0:0:0:
32,256,27809,1,0,0:0:0:0:
32,256,27883,2,0,P|24:200|32:148,1,109.250002083778,6|2,0:0|0:0,0:0:0:0:
152,8,28179,1,8,0:0:0:0:
220,180,28327,1,2,0:0:0:0:
364,64,28474,6,0,L|240:60,1,109.250002083778,6|0,0:0|0:0,0:0:0:0:
110,176,28770,2,0,L|234:180,1,109.250002083778,6|0,0:0|0:0,0:0:0:0:
400,240,29065,2,0,L|276:236,1,109.250002083778,6|0,0:0|0:0,0:0:0:0:
146,352,29361,2,0,L|270:356,1,109.250002083778,6|8,0:0|0:0,0:0:0:0:
336,332,29583,1,0,0:0:0:0:
336,332,29657,37,6,0:0:0:0:
256,164,29804,1,6,0:0:0:0:
112,280,29952,1,8,0:0:0:0:
92,276,30026,1,0,0:0:0:0:
72,272,30100,1,2,0:0:0:0:
52,268,30174,1,0,0:0:0:0:
32,264,30248,2,0,L|28:148,1,109.250002083778,2|2,0:0|0:0,0:0:0:0:
28,100,30445,2,0,L|28:48,2,36.4166673612595,0|0|8,0:0|0:0|0:0,0:0:0:0:
164,192,30691,1,2,0:0:0:0:
256,56,30839,5,6,0:0:0:0:
256,56,30987,1,6,0:0:0:0:
453,192,31134,2,0,P|400:204|348:192,1,109.250002083778,8|0,0:0|0:0,0:0:0:0:
304,264,31356,1,0,0:0:0:0:
304,264,31430,2,0,L|300:376,1,109.250002083778,6|0,0:0|0:0,0:0:0:0:
211,373,31652,1,0,0:0:0:0:
211,373,31726,2,0,L|208:264,1,109.250002083778,8|0,0:0|0:0,0:0:0:0:
164,192,31947,1,0,0:0:0:0:
164,192,32021,37,6,0:0:0:0:
124,348,32169,1,6,0:0:0:0:
388,348,32317,1,8,0:0:0:0:
408,344,32391,1,0,0:0:0:0:
428,340,32464,1,2,0:0:0:0:
448,336,32538,1,0,0:0:0:0:
468,332,32612,2,0,L|468:192,1,109.250002083778,6|2,0:0|0:0,0:0:0:0:
468,36,32908,1,8,0:0:0:0:
344,172,33056,1,2,0:0:0:0:
256,8,33203,6,0,L|384:24,1,109.250002083778,6|0,0:0|0:0,0:0:0:0:
216,236,33499,2,0,L|107:222,1,109.250002083778,6|0,0:0|0:0,0:0:0:0:
296,120,33795,2,0,L|424:136,1,109.250002083778,6|2,0:0|0:0,0:0:0:0:
256,348,34090,2,0,L|147:334,1,109.250002083778,8|8,0:0|0:0,0:0:0:0:
64,324,34312,1,0,0:0:0:0:
64,324,34386,2,0,L|60:256,3,54.6250010418892,6|0|2|0,0:0|0:0|0:0|0:0,0:0:0:0:
20,200,34681,2,0,L|16:128,3,54.6250010418892,2|0|2|0,0:0|0:0|0:0|0:0,0:0:0:0:
28,64,34977,38,0,L|96:56,1,54.6250010418892,6|0,0:0|0:0,0:0:0:0:
184,152,35125,2,0,L|129:158,1,54.6250010418892,6|0,0:0|0:0,0:0:0:0:
200,40,35272,2,0,L|268:32,1,54.6250010418892,6|0,0:0|0:0,0:0:0:0:
356,128,35420,2,0,L|301:134,1,54.6250010418892,6|0,0:0|0:0,0:0:0:0:
392,20,35568,37,12,0:0:0:0:
188,72,40297,22,0,B|232:68|256:56|256:56|280:68|328:72,2,142.5,12|8|8,0:0|0:0|0:0,0:0:0:0:
152,180,40888,2,0,P|144:228|152:276,1,95,0|0,0:0|0:0,0:0:0:0:
360,273,41184,2,0,P|367:226|360:180,1,95,0|0,0:0|0:0,0:0:0:0:
256,16,41479,22,0,L|172:12,3,63.3333333333333,2|0|0|0,0:0|0:0|0:0|0:0,0:0:0:0:
256,100,41873,2,0,L|340:96,3,63.3333333333333,2|0|0|0,0:0|0:0|0:0|0:0,0:0:0:0:
256,184,42267,2,0,L|172:180,3,63.3333333333333,2|0|0|0,0:0|0:0|0:0|0:0,0:0:0:0:
256,272,42662,21,14,0:0:0:0:
256,100,42809,1,14,0:0:0:0:
344,176,42957,1,2,0:0:0:0:
364,172,43031,1,0,0:0:0:0:
384,168,43105,1,2,0:0:0:0:
404,164,43179,1,0,0:0:0:0:
424,160,43253,1,14,0:0:0:0:
168,24,43400,1,14,0:0:0:0:
256,100,43548,1,2,0:0:0:0:
276,96,43622,1,0,0:0:0:0:
296,92,43696,1,2,0:0:0:0:
316,88,43770,1,0,0:0:0:0:
336,84,43844,22,0,L|460:88,1,109.250002083778,12|0,0:0|0:0,0:0:0:0:
508,144,44065,1,8,0:0:0:0:
508,144,44139,2,0,P|512:172|508:204,1,54.6250010418892,10|8,0:0|0:0,0:0:0:0:
412,252,44287,2,0,P|408:224|412:196,1,54.6250010418892,10|8,0:0|0:0,0:0:0:0:
476,352,44435,2,0,P|388:364|320:328,1,163.875003125668,14|0,0:0|0:0,0:0:0:0:
256,280,44731,1,10,0:0:0:0:
256,260,44804,1,8,0:0:0:0:
256,240,44878,1,10,0:0:0:0:
256,220,44952,1,8,0:0:0:0:
256,200,45026,22,0,L|464:208,1,163.875003125668,6|0,0:0|0:0,0:0:0:0:
504,212,45322,1,8,0:0:0:0:
312,112,45469,2,0,L|432:116,1,109.250002083778,6|0,0:0|0:0,0:0:0:0:
200,276,45765,1,10,0:0:0:0:
200,276,45839,1,0,0:0:0:0:
200,276,45913,2,0,L|136:268,3,54.6250010418892,2|0|6|0,0:0|0:0|0:0|0:0,0:0:0:0:
100,200,46208,38,0,P|88:120|96:48,1,136.562502604723,6|0,0:0|0:0,0:0:0:0:
201,4,46504,2,0,P|205:72|193:139,1,136.562502604723,8|0,0:0|0:0,0:0:0:0:
317,140,46799,2,0,P|305:72|309:4,1,136.562502604723,6|0,0:0|0:0,0:0:0:0:
419,64,47095,2,0,P|423:132|412:200,1,136.562502604723,8|0,0:0|0:0,0:0:0:0:
380,320,47391,5,6,0:0:0:0:
256,216,47538,2,0,L|256:180,4,27.3125005209446,0|0|0|0|8,0:0|0:0|0:0|0:0|0:0,0:0:0:0:
176,364,47834,2,0,P|92:368|8:296,1,163.875003125668,4|0,0:0|0:0,0:0:0:0:
0,248,48130,1,8,0:0:0:0:
72,100,48277,1,2,0:0:0:0:
72,100,48351,1,0,0:0:0:0:
72,100,48425,2,0,L|100:100,3,27.3125005209446,4|0|0|0,0:0|0:0|0:0|0:0,0:0:0:0:
140,104,48573,38,0,L|132:220,1,109.250002083778,6|0,0:0|0:0,0:0:0:0:
256,360,48868,1,10,0:0:0:0:
288,368,48942,1,0,0:0:0:0:
320,372,49016,1,0,0:0:0:0:
352,372,49090,1,0,0:0:0:0:
384,368,49164,1,2,0:0:0:0:
416,356,49238,1,0,0:0:0:0:
444,336,49312,1,0,0:0:0:0:
468,312,49386,1,0,0:0:0:0:
484,284,49460,1,2,0:0:0:0:
492,252,49533,1,0,0:0:0:0:
492,220,49607,1,0,0:0:0:0:
488,188,49681,1,0,0:0:0:0:
476,156,49755,6,0,L|356:152,1,109.250002083778,14|0,0:0|0:0,0:0:0:0:
296,112,49977,1,0,0:0:0:0:
296,112,50051,1,8,0:0:0:0:
252,268,50198,1,4,0:0:0:0:
252,268,50272,1,0,0:0:0:0:
252,268,50346,2,0,L|180:264,3,54.6250010418892,2|0|8|0,0:0|0:0|0:0|0:0,0:0:0:0:
144,328,50642,2,0,L|52:324,3,54.6250010418892,2|0|4|0,0:0|0:0|0:0|0:0,0:0:0:0:
40,260,50937,37,6,0:0:0:0:
16,228,51011,1,0,0:0:0:0:
8,192,51085,1,0,0:0:0:0:
8,152,51159,1,0,0:0:0:0:
16,116,51233,1,10,0:0:0:0:
32,80,51307,1,0,0:0:0:0:
60,56,51381,1,6,0:0:0:0:
96,40,51455,1,0,0:0:0:0:
132,32,51529,2,0,L|248:28,1,109.250002083778,6|2,0:0|0:0,0:0:0:0:
312,68,51750,1,0,0:0:0:0:
312,68,51824,2,0,L|308:188,1,109.250002083778,10|2,0:0|0:0,0:0:0:0:
204,248,52046,1,0,0:0:0:0:
204,248,52120,6,0,L|207:138,1,109.250002083778,6|2,0:0|0:0,0:0:0:0:
416,20,52415,2,0,L|412:160,1,109.250002083778,8|6,0:0|0:0,0:0:0:0:
400,352,52711,1,2,0:0:0:0:
364,368,52785,1,0,0:0:0:0:
324,368,52859,1,10,0:0:0:0:
288,364,52932,1,0,0:0:0:0:
256,344,53006,1,2,0:0:0:0:
220,328,53080,1,0,0:0:0:0:
184,316,53154,1,6,0:0:0:0:
148,312,53228,1,0,0:0:0:0:
108,316,53302,38,0,L|40:312,1,59.375,6|0,0:0|0:0,0:0:0:0:
176,236,53450,2,0,L|244:232,1,59.375,6|0,0:0|0:0,0:0:0:0:
96,176,53598,2,0,L|28:172,1,59.375,10|0,0:0|0:0,0:0:0:0:
172,104,53745,2,0,L|240:100,1,59.375,6|0,0:0|0:0,0:0:0:0:
348,168,53893,2,0,L|352:216,11,39.5833333333333,10|8|8|10|8|8|10|8|8|10|8|8,0:0|0:0|0:0|0:0|0:0|0:0|0:0|0:0|0:0|0:0|0:0|0:0,0:0:0:0:
344,220,54484,5,14,0:0:0:0:
256,192,54558,12,0,56553,0:0:0:0:
292,44,56849,38,0,L|364:36,3,59.375,14|0|2|0,0:0|0:0|0:0|0:0,0:0:0:0:
300,132,57144,2,0,L|372:124,3,59.375,14|0|2|0,0:0|0:0|0:0|0:0,0:0:0:0:
220,192,57440,2,0,L|148:184,3,59.375,14|0|2|0,0:0|0:0|0:0|0:0,0:0:0:0:
212,280,57735,2,0,L|140:272,3,59.375,14|0|2|0,0:0|0:0|0:0|0:0,0:0:0:0:
300,344,58031,5,14,0:0:0:0:
340,352,58105,1,0,0:0:0:0:
380,352,58179,1,2,0:0:0:0:
420,340,58253,1,0,0:0:0:0:
456,320,58327,1,10,0:0:0:0:
480,288,58400,1,0,0:0:0:0:
492,248,58474,1,2,0:0:0:0:
496,208,58548,1,0,0:0:0:0:
488,168,58622,1,10,0:0:0:0:
472,128,58696,1,0,0:0:0:0:
448,96,58770,1,2,0:0:0:0:
416,72,58844,1,0,0:0:0:0:
376,60,58918,2,0,L|252:64,1,118.75,10|2,0:0|0:0,0:0:0:0:
256,328,59213,38,0,L|388:320,1,118.75,14|0,0:0|0:0,0:0:0:0:
448,316,59435,1,0,0:0:0:0:
448,316,59509,1,8,0:0:0:0:
256,252,59657,2,0,L|124:244,1,118.75,14|0,0:0|0:0,0:0:0:0:
64,240,59879,1,0,0:0:0:0:
64,240,59953,1,8,0:0:0:0:
256,176,60100,2,0,L|388:168,1,118.75,14|0,0:0|0:0,0:0:0:0:
448,164,60322,1,0,0:0:0:0:
448,164,60396,1,8,0:0:0:0:
256,100,60543,6,0,L|124:92,1,118.75,14|2,0:0|0:0,0:0:0:0:
64,88,60765,1,0,0:0:0:0:
64,88,60839,1,10,0:0:0:0:
164,312,60987,2,0,L|168:172,1,118.75,14|2,0:0|0:0,0:0:0:0:
344,72,61282,2,0,L|347:190,1,118.75,14|2,0:0|0:0,0:0:0:0:
356,368,61578,37,14,0:0:0:0:
460,268,61726,1,0,0:0:0:0:
464,240,61799,1,0,0:0:0:0:
468,212,61873,1,8,0:0:0:0:
235,346,62021,1,14,0:0:0:0:
339,246,62169,1,0,0:0:0:0:
343,218,62242,1,0,0:0:0:0:
347,190,62316,1,8,0:0:0:0:
108,320,62464,1,14,0:0:0:0:
212,220,62612,1,0,0:0:0:0:
216,192,62685,1,0,0:0:0:0:
220,164,62760,6,0,L|83:152,1,128.250000489235,14|0,0:0|0:0,0:0:0:0:
89,75,62982,2,0,L|216:86,1,128.250000489235,14|0,0:0|0:0,0:0:0:0:
296,88,63203,2,0,L|423:76,1,128.250000489235,14|0,0:0|0:0,0:0:0:0:
415,152,63425,2,0,L|288:164,1,128.250000489235,14|0,0:0|0:0,0:0:0:0:
212,240,63647,2,0,L|136:232,1,64.1250002446175,14|0,0:0|0:0,0:0:0:0:
300,300,63795,2,0,L|376:292,1,64.1250002446175,14|0,0:0|0:0,0:0:0:0:
212,360,63942,38,0,L|144:356,3,59.375,4|0|2|0,0:0|0:0|0:0|0:0,0:0:0:0:
80,348,64238,2,0,L|84:268,3,59.375,2|0|2|0,0:0|0:0|0:0|0:0,0:0:0:0:
32,240,64533,2,0,L|36:160,3,59.375,2|0|2|0,0:0|0:0|0:0|0:0,0:0:0:0:
4,116,64829,2,0,L|8:36,3,59.375,2|0|2|0,0:0|0:0|0:0|0:0,0:0:0:0:
60,8,65125,5,2,0:0:0:0:
100,4,65198,1,0,0:0:0:0:
140,8,65272,1,2,0:0:0:0:
180,20,65346,1,0,0:0:0:0:
216,40,65420,1,2,0:0:0:0:
240,72,65494,1,0,0:0:0:0:
256,108,65568,1,2,0:0:0:0:
260,148,65642,1,0,0:0:0:0:
256,188,65716,2,0,L|256:320,1,118.75,14|10,0:0|0:0,0:0:0:0:
184,360,65937,1,8,0:0:0:0:
184,360,66011,2,0,L|60:352,1,118.75,14|8,0:0|0:0,0:0:0:0:
328,316,66307,37,14,0:0:0:0:
328,316,66602,2,0,L|396:308,11,59.375,14|0|0|0|2|0|0|0|2|0|0|0,0:0|0:0|0:0|0:0|0:0|0:0|0:0|0:0|0:0|0:0|0:0|0:0,0:0:0:0:
256,256,67489,2,0,L|256:168,11,59.375,2|0|0|0|2|0|0|0|2|0|0|0,0:0|0:0|0:0|0:0|0:0|0:0|0:0|0:0|0:0|0:0|0:0|0:0,0:0:0:0:
184,316,68376,1,10,0:0:0:0:
156,312,68450,1,0,0:0:0:0:
128,308,68524,1,2,0:0:0:0:
100,304,68598,1,0,0:0:0:0:
72,300,68671,5,14,0:0:0:0:
40,272,68745,1,2,0:0:0:0:
20,236,68819,1,2,0:0:0:0:
12,196,68893,1,2,0:0:0:0:
16,156,68967,1,2,0:0:0:0:
36,120,69041,1,2,0:0:0:0:
64,88,69115,1,2,0:0:0:0:
100,72,69189,1,2,0:0:0:0:
140,64,69263,1,2,0:0:0:0:
180,64,69336,1,2,0:0:0:0:
220,76,69410,1,2,0:0:0:0:
252,100,69484,1,2,0:0:0:0:
272,136,69558,1,2,0:0:0:0:
288,176,69632,1,2,0:0:0:0:
288,216,69706,1,2,0:0:0:0:
276,256,69780,1,2,0:0:0:0:
256,292,69854,22,0,L|188:284,3,59.375,10|2|2|2,0:0|0:0|0:0|0:0,0:0:0:0:
176,320,70149,2,0,L|136:316,6,29.6875,2|0|0|0|0|0|0,0:0|0:0|0:0|0:0|0:0|0:0|0:0,0:0:0:0:
136,328,70445,2,0,L|96:324,6,29.6875,2|0|0|0|0|0|0,0:0|0:0|0:0|0:0|0:0|0:0|0:0,0:0:0:0:
96,336,70740,1,14,0:0:0:0:
379,224,71036,38,0,P|256:107|132:224,1,376.199998851929,12|2,0:0|0:0,0:0:0:0:
180,340,73105,1,2,0:0:0:0:
256,240,73401,5,2,0:0:0:0:
256,240,75174,1,2,0:0:0:0:
332,340,75470,1,2,0:0:0:0:
379,224,75765,38,0,P|256:107|132:224,1,376.199998851929,12|2,0:0|0:0,0:0:0:0:
180,340,77834,1,2,0:0:0:0:
256,240,78130,6,0,L|387:235,1,125.39999961731,2|0,0:0|0:0,0:0:0:0:
381,235,79312,6,0,P|388:188|380:136,1,95,14|0,0:0|0:0,0:0:0:0:
256,76,79607,1,8,0:0:0:0:
232,72,79681,1,8,0:0:0:0:
208,68,79755,1,8,0:0:0:0:
184,64,79829,1,8,0:0:0:0:
160,60,79903,1,12,0:0:0:0:
44,140,80051,1,12,0:0:0:0:
128,256,80198,2,0,L|232:252,1,95,12|0,0:0|0:0,0:0:0:0:
408,248,80494,6,0,L|412:136,1,95,8|0,0:0|0:0,0:0:0:0:
304,56,80790,2,0,L|300:150,1,95,2|0,0:0|0:0,0:0:0:0:
256,208,81011,1,0,0:0:0:0:
256,208,81085,2,0,P|204:216|160:208,2,95,2|2|2,0:0|0:0|0:0,0:0:0:0:
411,153,81529,1,0,0:0:0:0:
456,308,81676,38,0,P|416:336|360:344,1,95,2|0,0:0|0:0,0:0:0:0:
308,308,81898,1,0,0:0:0:0:
308,308,81972,2,0,L|312:184,1,95,2|0,0:0|0:0,0:0:0:0:
204,120,82267,2,0,L|200:244,1,95,2|0,0:0|0:0,0:0:0:0:
164,276,82489,1,2,0:0:0:0:
164,276,82563,2,0,P|116:288|68:276,1,95,0|2,0:0|0:0,0:0:0:0:
48,84,82859,6,0,L|152:80,1,95,2|0,0:0|0:0,0:0:0:0:
204,120,83080,1,0,0:0:0:0:
204,120,83154,2,0,L|308:116,1,95,2|0,0:0|0:0,0:0:0:0:
460,220,83450,2,0,L|356:216,1,95,2|0,0:0|0:0,0:0:0:0:
304,256,83671,1,2,0:0:0:0:
304,256,83745,2,0,L|200:252,1,95,0|2,0:0|0:0,0:0:0:0:
48,356,84041,38,0,L|168:348,1,95,2|8,0:0|0:0,0:0:0:0:
144,208,84336,2,0,L|49:214,1,95,8|0,0:0|0:0,0:0:0:0:
256,288,84632,2,0,L|256:164,1,95,8|0,0:0|0:0,0:0:0:0:
292,128,84854,1,0,0:0:0:0:
292,128,84928,2,0,P|340:120|388:128,1,95,8|8,0:0|0:0,0:0:0:0:
480,292,85223,5,6,0:0:0:0:
468,308,85297,1,0,0:0:0:0:
452,320,85371,1,0,0:0:0:0:
436,328,85445,1,0,0:0:0:0:
416,332,85519,1,0,0:0:0:0:
396,332,85593,1,0,0:0:0:0:
376,328,85666,1,0,0:0:0:0:
360,320,85740,1,0,0:0:0:0:
344,308,85814,2,0,L|348:232,7,47.5,0|0|0|0|0|0|0|0,0:0|0:0|0:0|0:0|0:0|0:0|0:0|0:0,0:0:0:0:
320,196,86405,37,4,0:0:0:0:
308,180,86479,1,0,0:0:0:0:
292,168,86553,1,0,0:0:0:0:
276,160,86627,1,0,0:0:0:0:
256,156,86701,1,0,0:0:0:0:
236,160,86775,1,0,0:0:0:0:
220,168,86849,1,0,0:0:0:0:
204,180,86923,1,0,0:0:0:0:
192,196,86997,2,0,L|196:264,7,47.5,0|0|0|0|0|0|0|0,0:0|0:0|0:0|0:0|0:0|0:0|0:0|0:0,0:0:0:0:
168,308,87588,5,6,0:0:0:0:
152,332,87662,1,0,0:0:0:0:
128,344,87735,1,0,0:0:0:0:
100,348,87809,1,0,0:0:0:0:
72,340,87883,1,2,0:0:0:0:
52,320,87957,1,0,0:0:0:0:
40,292,88031,1,0,0:0:0:0:
44,264,88105,1,0,0:0:0:0:
56,240,88179,2,0,P|60:212|52:176,7,47.5,2|0|0|0|2|0|0|0,0:0|0:0|0:0|0:0|0:0|0:0|0:0|0:0,0:0:0:0:
40,124,88770,37,2,0:0:0:0:
44,88,88844,1,0,0:0:0:0:
64,56,88918,1,2,0:0:0:0:
96,32,88992,1,0,0:0:0:0:
132,20,89065,1,2,0:0:0:0:
172,20,89139,1,0,0:0:0:0:
208,32,89213,1,2,0:0:0:0:
240,52,89287,1,0,0:0:0:0:
256,88,89361,2,0,L|256:144,7,47.5,2|0|2|0|2|0|2|0,0:0|0:0|0:0|0:0|0:0|0:0|0:0|0:0,0:0:0:0:
256,208,89952,6,0,L|256:264,1,47.0249998564911,2|0,0:0|0:0,0:0:0:0:
256,255,90248,6,0,L|112:252,1,118.75,10|0,0:0|0:0,0:0:0:0:
60,204,90469,1,0,0:0:0:0:
60,204,90543,2,0,P|52:140|60:84,1,118.75,8|0,0:0|0:0,0:0:0:0:
137,41,90765,1,8,0:0:0:0:
137,41,90839,2,0,L|257:37,1,118.75,0|8,0:0|0:0,0:0:0:0:
432,192,91134,6,0,L|313:195,1,118.75,10|0,0:0|0:0,0:0:0:0:
108,200,91430,1,10,0:0:0:0:
228,364,91578,1,0,0:0:0:0:
256,360,91652,1,0,0:0:0:0:
284,356,91726,1,10,0:0:0:0:
184,256,91873,1,0,0:0:0:0:
220,252,91947,1,0,0:0:0:0:
256,248,92021,1,10,0:0:0:0:
148,152,92169,1,0,0:0:0:0:
188,144,92243,1,0,0:0:0:0:
228,136,92317,38,0,L|224:12,1,118.75,10|2,0:0|0:0,0:0:0:0:
40,104,92612,2,0,L|43:222,1,118.75,10|2,0:0|0:0,0:0:0:0:
52,312,92834,1,0,0:0:0:0:
52,312,92908,2,0,L|124:308,3,59.375,10|0|2|0,0:0|0:0|0:0|0:0,0:0:0:0:
184,360,93203,2,0,L|264:356,1,59.375,10|0,0:0|0:0,0:0:0:0:
328,240,93351,2,0,L|268:242,1,59.375,2|0,0:0|0:0,0:0:0:0:
432,340,93499,5,10,0:0:0:0:
436,312,93573,1,0,0:0:0:0:
440,284,93647,1,2,0:0:0:0:
504,156,93795,1,10,0:0:0:0:
472,168,93868,1,0,0:0:0:0:
436,172,93942,1,2,0:0:0:0:
400,164,94016,1,0,0:0:0:0:
368,144,94090,1,10,0:0:0:0:
256,56,94238,1,0,0:0:0:0:
256,56,94312,1,0,0:0:0:0:
256,56,94386,2,0,L|132:64,1,118.75,2|2,0:0|0:0,0:0:0:0:
288,320,94681,38,0,L|406:312,1,118.75,14|8,0:0|0:0,0:0:0:0:
232,140,94977,2,0,L|-8:148,1,237.5,8|8,0:0|0:0,0:0:0:0:
68,336,95420,1,0,0:0:0:0:
68,336,95494,1,0,0:0:0:0:
68,336,95568,2,0,L|208:328,1,118.75,8|0,0:0|0:0,0:0:0:0:
372,240,95864,5,10,0:0:0:0:
284,60,96011,1,0,0:0:0:0:
256,64,96085,1,0,0:0:0:0:
228,68,96159,1,10,0:0:0:0:
328,168,96307,1,0,0:0:0:0:
292,172,96381,1,0,0:0:0:0:
256,176,96455,1,10,0:0:0:0:
372,264,96602,1,0,0:0:0:0:
332,268,96676,1,0,0:0:0:0:
292,272,96750,1,10,0:0:0:0:
448,356,96898,1,0,0:0:0:0:
448,356,96972,1,0,0:0:0:0:
448,356,97046,38,0,P|492:296|496:240,1,118.75,10|2,0:0|0:0,0:0:0:0:
464,56,97341,1,10,0:0:0:0:
432,40,97415,1,0,0:0:0:0:
396,32,97489,1,2,0:0:0:0:
360,36,97563,1,0,0:0:0:0:
332,56,97637,2,0,L|340:120,3,59.375,10|0|2|0,0:0|0:0|0:0|0:0,0:0:0:0:
360,144,97932,2,0,L|368:208,3,59.375,10|0|2|0,0:0|0:0|0:0|0:0,0:0:0:0:
388,232,98228,5,10,0:0:0:0:
388,268,98302,1,0,0:0:0:0:
376,300,98376,1,2,0:0:0:0:
352,328,98450,1,0,0:0:0:0:
316,340,98524,1,10,0:0:0:0:
280,336,98598,1,0,0:0:0:0:
248,324,98671,1,2,0:0:0:0:
224,296,98745,1,0,0:0:0:0:
216,260,98819,2,0,L|212:104,1,118.75,10|0,0:0|0:0,0:0:0:0:
176,60,99041,1,2,0:0:0:0:
176,60,99115,2,0,L|48:56,1,118.75,8|0,0:0|0:0,0:0:0:0:
336,144,99410,38,0,L|464:140,1,118.75,12|10,0:0|0:0,0:0:0:0:
256,24,99706,2,0,L|496:16,1,237.5,8|8,0:0|0:0,0:0:0:0:
504,212,100149,1,0,0:0:0:0:
504,212,100223,1,0,0:0:0:0:
504,212,100297,2,0,L|500:340,1,118.75,8|0,0:0|0:0,0:0:0:0:
304,372,100593,22,0,L|296:236,1,118.75,10|0,0:0|0:0,0:0:0:0:
256,172,100814,1,0,0:0:0:0:
256,172,100888,2,0,B|252:136|260:120|256:88,2,79.1666666666667,10|2|2,0:0|0:0|0:0,0:0:0:0:
208,368,101184,1,10,0:0:0:0:
172,364,101258,1,8,0:0:0:0:
136,360,101331,1,8,0:0:0:0:
100,356,101405,1,8,0:0:0:0:
64,352,101479,1,10,0:0:0:0:
64,352,101775,22,0,L|56:256,3,59.375,14|0|0|0,0:0|0:0|0:0|0:0,0:0:0:0:
48,204,102070,2,0,L|40:108,3,59.375,0|0|0|0,0:0|0:0|0:0|0:0,0:0:0:0:
132,140,102366,2,0,L|124:44,3,59.375,14|0|0|0,0:0|0:0|0:0|0:0,0:0:0:0:
216,84,102662,2,0,L|208:-12,3,59.375,0|0|0|0,0:0|0:0|0:0|0:0,0:0:0:0:
300,24,102957,22,0,L|296:100,1,59.375,14|0,0:0|0:0,0:0:0:0:
384,80,103105,2,0,L|380:140,1,59.375,0|0,0:0|0:0,0:0:0:0:
468,144,103253,2,0,L|464:204,1,59.375,0|0,0:0|0:0,0:0:0:0:
453,292,103400,1,0,0:0:0:0:
424,316,103474,1,0,0:0:0:0:
388,328,103548,1,14,0:0:0:0:
352,332,103622,1,0,0:0:0:0:
316,328,103696,1,0,0:0:0:0:
284,316,103770,1,0,0:0:0:0:
256,292,103844,2,0,L|256:248,6,29.6875,10|0|0|0|2|0|0,0:0|0:0|0:0|0:0|0:0|0:0|0:0,0:0:0:0:
228,316,104139,22,0,L|108:312,1,118.75,14|0,0:0|0:0,0:0:0:0:
28,276,104361,1,0,0:0:0:0:
28,276,104435,2,0,P|20:216|28:148,1,118.75,0|0,0:0|0:0,0:0:0:0:
164,44,104731,1,14,0:0:0:0:
176,76,104804,1,0,0:0:0:0:
188,112,104878,1,0,0:0:0:0:
200,144,104952,1,0,0:0:0:0:
212,176,105026,2,0,L|200:256,1,59.375,2|0,0:0|0:0,0:0:0:0:
256,348,105174,2,0,L|256:268,1,59.375,2|0,0:0|0:0,0:0:0:0:
300,176,105322,21,14,0:0:0:0:
308,135,105396,1,2,0:0:0:0:
331,101,105469,1,2,0:0:0:0:
370,87,105543,1,2,0:0:0:0:
412,88,105617,1,2,0:0:0:0:
452,98,105691,1,2,0:0:0:0:
480,128,105765,1,2,0:0:0:0:
493,167,105839,1,2,0:0:0:0:
488,208,105913,2,0,L|480:256,5,39.5833333333333,10|0|2|2|2|0,0:0|0:0|0:0|0:0|0:0|0:0,0:0:0:0:
456,276,106208,2,0,L|440:356,3,59.375,10|8|10|8,0:0|0:0|0:0|0:0,0:0:0:0:
396,368,106504,22,0,L|248:364,1,118.75,12|0,0:0|0:0,0:0:0:0:
80,352,106799,1,10,0:0:0:0:
52,332,106873,1,0,0:0:0:0:
36,300,106947,1,2,0:0:0:0:
28,264,107021,1,0,0:0:0:0:
28,228,107095,1,10,0:0:0:0:
40,192,107169,1,0,0:0:0:0:
60,164,107243,1,2,0:0:0:0:
88,140,107317,1,0,0:0:0:0:
120,128,107391,1,10,0:0:0:0:
156,124,107464,1,0,0:0:0:0:
192,128,107538,1,2,0:0:0:0:
228,140,107612,1,0,0:0:0:0:
256,164,107686,22,0,L|256:232,15,59.375,4|0|0|0|2|0|0|0|2|0|0|0|2|0|0|0,0:0|0:0|0:0|0:0|0:0|0:0|0:0|0:0|0:0|0:0|0:0|0:0|0:0|0:0|0:0|0:0,0:0:0:0:
256,312,108868,21,6,0:0:0:0:
292,328,108942,1,0,0:0:0:0:
328,332,109016,1,2,0:0:0:0:
364,328,109089,1,0,0:0:0:0:
396,316,109163,1,2,0:0:0:0:
424,292,109237,1,0,0:0:0:0:
444,264,109311,1,2,0:0:0:0:
456,228,109385,1,0,0:0:0:0:
456,192,109459,1,2,0:0:0:0:
448,156,109533,1,2,0:0:0:0:
432,124,109607,1,2,0:0:0:0:
404,104,109681,1,2,0:0:0:0:
372,92,109755,1,2,0:0:0:0:
336,88,109829,1,2,0:0:0:0:
300,92,109903,1,2,0:0:0:0:
268,104,109977,1,2,0:0:0:0:
240,128,110051,22,0,L|80:120,1,118.75,4|0,0:0|0:0,0:0:0:0:
292,232,110346,2,0,L|452:224,1,118.75,6|0,0:0|0:0,0:0:0:0:
192,312,110642,2,0,L|32:304,1,118.75,8|4,0:0|0:0,0:0:0:0:
16,220,110864,1,4,0:0:0:0:
16,220,110937,2,0,P|12:192|16:156,1,59.375,6|0,0:0|0:0,0:0:0:0:
76,80,111085,5,2,0:0:0:0:
76,80,111159,1,0,0:0:0:0:
76,80,111233,1,14,0:0:0:0:
180,180,111381,1,14,0:0:0:0:
256,60,111529,2,0,P|312:52|376:60,1,118.75,8|10,0:0|0:0,0:0:0:0:
444,112,111750,1,0,0:0:0:0:
444,112,111824,2,0,L|440:248,1,118.75,10|2,0:0|0:0,0:0:0:0:
436,292,112021,2,0,L|434:353,2,39.5833333333333,0|0|10,0:0|0:0|0:0,0:0:0:0:
328,148,112267,1,10,0:0:0:0:
256,312,112415,37,10,0:0:0:0:
256,312,112563,1,0,0:0:0:0:
184,148,112711,1,12,0:0:0:0:
160,152,112785,1,0,0:0:0:0:
136,156,112859,1,0,0:0:0:0:
112,160,112932,1,0,0:0:0:0:
88,164,113006,2,0,P|76:228|88:280,1,118.75,14|0,0:0|0:0,0:0:0:0:
424,279,113302,2,0,P|436:221|424:164,1,118.75,14|0,0:0|0:0,0:0:0:0:
256,40,113598,5,14,0:0:0:0:
256,228,113745,1,14,0:0:0:0:
76,132,113893,1,8,0:0:0:0:
100,128,113967,1,0,0:0:0:0:
124,124,114041,1,10,0:0:0:0:
148,120,114115,1,0,0:0:0:0:
172,116,114189,2,0,L|168:252,1,118.75,10|2,0:0|0:0,0:0:0:0:
164,296,114386,2,0,L|160:356,2,39.5833333333333,0|0|10,0:0|0:0|0:0,0:0:0:0:
256,128,114632,1,10,0:0:0:0:
348,296,114780,37,14,0:0:0:0:
164,128,114927,1,14,0:0:0:0:
164,296,115075,1,14,0:0:0:0:
348,128,115223,1,14,0:0:0:0:
256,296,115371,1,14,0:0:0:0:
164,128,115519,1,14,0:0:0:0:
348,296,115666,5,10,0:0:0:0:
372,292,115740,1,0,0:0:0:0:
396,288,115814,1,2,0:0:0:0:
420,284,115888,1,0,0:0:0:0:
444,280,115962,1,14,0:0:0:0:
372,156,116110,1,14,0:0:0:0:
164,296,116258,1,8,0:0:0:0:
140,292,116332,1,0,0:0:0:0:
116,288,116406,1,10,0:0:0:0:
92,284,116480,1,0,0:0:0:0:
68,280,116553,2,0,L|64:148,1,118.75,10|2,0:0|0:0,0:0:0:0:
60,100,116750,2,0,L|60:28,2,39.5833333333333,0|0|10,0:0|0:0|0:0,0:0:0:0:
204,208,116997,1,10,0:0:0:0:
256,40,117144,38,0,L|388:36,1,118.75,14|0,0:0|0:0,0:0:0:0:
448,92,117366,1,0,0:0:0:0:
448,92,117440,2,0,L|440:224,1,118.75,14|0,0:0|0:0,0:0:0:0:
352,232,117662,1,0,0:0:0:0:
352,232,117735,2,0,L|344:364,1,118.75,14|0,0:0|0:0,0:0:0:0:
256,372,117957,1,0,0:0:0:0:
256,372,118031,2,0,L|124:368,1,118.75,14|0,0:0|0:0,0:0:0:0:
24,228,118327,5,14,0:0:0:0:
220,184,118474,1,14,0:0:0:0:
92,28,118622,1,8,0:0:0:0:
88,52,118696,1,0,0:0:0:0:
84,76,118770,1,10,0:0:0:0:
80,100,118844,1,0,0:0:0:0:
76,124,118918,2,0,L|84:244,1,118.75,10|2,0:0|0:0,0:0:0:0:
92,304,119115,2,0,L|96:356,2,39.5833333333333,0|0|10,0:0|0:0|0:0,0:0:0:0:
200,164,119361,1,10,0:0:0:0:
312,304,119509,6,0,L|384:296,3,59.375,14|0|0|0,0:0|0:0|0:0|0:0,0:0:0:0:
312,228,119804,2,0,L|384:220,3,59.375,14|0|0|0,0:0|0:0|0:0|0:0,0:0:0:0:
204,192,120100,2,0,L|132:184,3,59.375,14|0|0|0,0:0|0:0|0:0|0:0,0:0:0:0:
204,116,120395,2,0,L|132:108,3,59.375,14|0|0|0,0:0|0:0|0:0|0:0,0:0:0:0:
312,76,120691,21,14,0:0:0:0:
324,80,120765,1,8,0:0:0:0:
336,84,120839,1,10,0:0:0:0:
348,88,120913,1,8,0:0:0:0:
360,92,120987,1,14,0:0:0:0:
372,96,121061,1,8,0:0:0:0:
384,100,121134,1,10,0:0:0:0:
396,104,121208,1,8,0:0:0:0:
408,108,121282,1,14,0:0:0:0:
420,112,121356,1,8,0:0:0:0:
432,116,121430,1,10,0:0:0:0:
444,120,121504,1,8,0:0:0:0:
456,124,121578,2,0,L|452:204,1,59.375,14|8,0:0|0:0,0:0:0:0:
496,264,121726,2,0,L|492:344,1,59.375,10|10,0:0|0:0,0:0:0:0:
493,323,122169,6,0,B|441:387|369:391|281:355|269:319|257:183|257:183|245:319|233:355|145:391|73:387|21:323,1,752.399997703857,14|0,0:0|0:0,0:0:0:0:
52,56,124238,22,0,L|128:48,3,59.375,10|8|10|8,0:0|0:0|0:0|0:0,0:0:0:0:
168,120,124533,2,0,L|244:112,3,59.375,10|8|10|8,0:0|0:0|0:0|0:0,0:0:0:0:
283,184,124829,2,0,L|359:176,3,59.375,10|8|10|8,0:0|0:0|0:0|0:0,0:0:0:0:
399,248,125124,2,0,L|475:240,3,59.375,10|8|10|8,0:0|0:0|0:0|0:0,0:0:0:0:
512,316,125420,21,10,0:0:0:0:
488,340,125494,1,8,0:0:0:0:
456,352,125568,1,10,0:0:0:0:
420,356,125642,1,8,0:0:0:0:
384,356,125716,1,10,0:0:0:0:
348,352,125790,1,8,0:0:0:0:
312,340,125864,1,10,0:0:0:0:
280,320,125937,1,8,0:0:0:0:
256,292,126011,1,10,0:0:0:0:
232,320,126085,1,8,0:0:0:0:
200,340,126158,1,10,0:0:0:0:
164,352,126232,1,8,0:0:0:0:
128,356,126306,1,10,0:0:0:0:
92,356,126380,1,8,0:0:0:0:
56,352,126454,1,8,0:0:0:0:
24,340,126528,1,8,0:0:0:0:
0,316,126602,21,12,0:0:0:0:
