osu file format v14

[General]
AudioFilename: BadElixir.mp3
AudioLeadIn: 0
PreviewTime: 24211
Countdown: 0
SampleSet: Normal
StackLeniency: 0.7
Mode: 1
LetterboxInBreaks: 0
WidescreenStoryboard: 1

[Editor]
Bookmarks: 1231,21329,24433
DistanceSpacing: 1.1
BeatDivisor: 4
GridSize: 32
TimelineZoom: 1.699999

[Metadata]
Title:Bad Elixir
TitleUnicode:Bad Elixir
Artist:xi
ArtistUnicode:xi
Creator:Capu
Version:Light Oni
Source:
Tags:guro cychloryn yarita bms g2r2018 climax go back to your roots 鑓田 alpha complex idealism electronic instrumental
BeatmapID:2267567
BeatmapSetID:1030135

[Difficulty]
HPDrainRate:5
CircleSize:2
OverallDifficulty:5.5
ApproachRate:10
SliderMultiplier:1.4
SliderTickRate:1

[Events]
//Background and Video events
0,0,"142218.jpg",0,0
//Break Periods
2,35667,39747
//Storyboard Layer 0 (Background)
//Storyboard Layer 1 (Fail)
//Storyboard Layer 2 (Pass)
//Storyboard Layer 3 (Foreground)
//Storyboard Layer 4 (Overlay)
//Storyboard Sound Samples

[TimingPoints]
0,295.566502463054,4,1,0,70,1,0
2364,-83.3333333333333,4,1,0,70,0,0
2438,-200,4,1,0,70,0,0
4137,-200,4,1,0,70,0,0
7093,-83.3333333333333,4,1,0,100,0,0
7167,-200,4,1,0,70,0,0
10640,-142.857142857143,4,1,0,70,0,0
16551,-125,4,1,0,80,0,0
24827,-100,4,1,0,80,0,0
72118,-200,4,1,0,70,0,0
75665,-83.3333333333333,4,1,0,100,0,0
75738,-200,4,1,0,70,0,0
79211,-100,4,1,0,70,0,0
80394,-100,4,1,0,50,0,0
82758,-100,4,1,0,60,0,0
84236,-100,4,1,0,70,0,0
85123,-100,4,1,0,80,0,0
89852,-100,4,1,0,90,0,0
90147,-100,4,1,0,90,0,1
110541,-100,4,1,0,90,0,0
111133,-95.2380952380952,4,1,0,90,0,0
111428,-100,4,1,0,90,0,0
113497,-90.9090909090909,4,1,0,90,0,0
113793,-100,4,1,0,90,0,0
114679,-90.9090909090909,4,1,0,90,0,0
115418,-100,4,1,0,90,0,0
117044,-98.0392156862745,4,1,0,90,0,0
117339,-96.1538461538461,4,1,0,90,0,0
117635,-94.3396226415094,4,1,0,90,0,0
117931,-92.5925925925926,4,1,0,90,0,0
118226,-90.9090909090909,4,1,0,90,0,0
118522,-100,4,1,0,90,0,0
120591,-90.9090909090909,4,1,0,90,0,0
122068,-100,4,1,0,50,0,0
124137,-33.3333333333333,4,1,0,90,0,0
126502,-50,4,1,0,90,0,0

[HitObjects]
256,192,1182,12,0,2068,0:0:0:0:
256,192,2364,5,4,0:0:0:0:
256,192,4137,1,0,0:0:0:0:
256,192,4433,1,0,0:0:0:0:
256,192,4729,1,8,0:0:0:0:
256,192,6502,1,8,0:0:0:0:
256,192,6798,1,8,0:0:0:0:
256,192,7093,1,4,0:0:0:0:
256,192,8866,1,8,0:0:0:0:
256,192,9162,1,8,0:0:0:0:
256,192,9458,1,0,0:0:0:0:
256,192,10935,1,0,0:0:0:0:
256,192,11231,1,8,0:0:0:0:
256,192,11379,1,0,0:0:0:0:
256,192,11527,1,8,0:0:0:0:
256,192,11674,1,8,0:0:0:0:
256,192,11822,1,4,0:0:0:0:
256,192,12266,1,0,0:0:0:0:
256,192,12709,1,0,0:0:0:0:
256,192,13004,1,8,0:0:0:0:
256,192,13300,1,0,0:0:0:0:
256,192,13399,1,0,0:0:0:0:
256,192,13497,1,0,0:0:0:0:
256,192,13596,1,0,0:0:0:0:
256,192,13891,1,8,0:0:0:0:
256,192,14187,1,0,0:0:0:0:
256,192,14630,1,0,0:0:0:0:
256,192,15073,1,0,0:0:0:0:
256,192,15369,1,8,0:0:0:0:
256,192,15665,1,0,0:0:0:0:
256,192,15763,1,8,0:0:0:0:
256,192,15862,1,8,0:0:0:0:
256,192,15960,1,0,0:0:0:0:
256,192,16256,1,8,0:0:0:0:
256,192,16403,1,0,0:0:0:0:
256,192,16551,1,12,0:0:0:0:
256,192,16847,1,0,0:0:0:0:
256,192,17142,1,8,0:0:0:0:
256,192,17438,1,0,0:0:0:0:
256,192,17586,1,0,0:0:0:0:
256,192,17733,1,12,0:0:0:0:
256,192,18029,1,0,0:0:0:0:
256,192,18177,1,0,0:0:0:0:
256,192,18325,1,12,0:0:0:0:
256,192,18620,1,0,0:0:0:0:
256,192,18768,1,0,0:0:0:0:
256,192,18916,1,12,0:0:0:0:
256,192,19064,1,0,0:0:0:0:
256,192,19137,1,0,0:0:0:0:
256,192,19211,1,8,0:0:0:0:
256,192,19359,1,0,0:0:0:0:
256,192,19507,1,12,0:0:0:0:
256,192,19655,1,0,0:0:0:0:
256,192,19950,1,8,0:0:0:0:
256,192,20098,1,8,0:0:0:0:
256,192,20246,1,0,0:0:0:0:
256,192,20320,1,0,0:0:0:0:
256,192,20394,1,8,0:0:0:0:
256,192,20541,1,0,0:0:0:0:
256,192,20689,1,0,0:0:0:0:
256,192,20837,1,8,0:0:0:0:
256,192,20985,1,0,0:0:0:0:
256,192,21059,1,0,0:0:0:0:
256,192,21133,1,0,0:0:0:0:
256,192,21280,1,12,0:0:0:0:
256,192,23201,1,0,0:0:0:0:
256,192,23497,1,8,0:0:0:0:
256,192,23645,1,0,0:0:0:0:
256,192,24236,1,0,0:0:0:0:
256,192,24384,1,0,0:0:0:0:
256,192,24532,1,0,0:0:0:0:
256,192,24679,1,8,0:0:0:0:
256,192,24827,1,12,0:0:0:0:
256,192,24975,1,0,0:0:0:0:
256,192,25270,1,0,0:0:0:0:
256,192,25344,1,0,0:0:0:0:
256,192,25418,1,8,0:0:0:0:
256,192,25566,1,0,0:0:0:0:
256,192,25714,1,0,0:0:0:0:
256,192,25862,1,8,0:0:0:0:
256,192,26009,1,0,0:0:0:0:
256,192,26305,1,8,0:0:0:0:
256,192,26600,1,8,0:0:0:0:
256,192,26748,1,0,0:0:0:0:
256,192,26896,1,8,0:0:0:0:
256,192,27044,1,0,0:0:0:0:
256,192,27192,1,8,0:0:0:0:
256,192,27339,1,8,0:0:0:0:
256,192,27635,1,8,0:0:0:0:
256,192,27783,1,0,0:0:0:0:
256,192,27931,1,0,0:0:0:0:
256,192,28226,1,0,0:0:0:0:
256,192,28374,1,8,0:0:0:0:
256,192,28522,1,0,0:0:0:0:
256,192,28669,1,8,0:0:0:0:
256,192,28817,1,0,0:0:0:0:
256,192,28965,1,8,0:0:0:0:
256,192,29113,1,0,0:0:0:0:
256,192,29187,1,0,0:0:0:0:
256,192,29261,1,8,0:0:0:0:
256,192,29408,1,0,0:0:0:0:
256,192,29556,1,8,0:0:0:0:
256,192,29704,1,8,0:0:0:0:
256,192,29999,1,0,0:0:0:0:
256,192,30073,1,0,0:0:0:0:
256,192,30147,1,8,0:0:0:0:
256,192,30295,1,0,0:0:0:0:
256,192,30443,1,0,0:0:0:0:
256,192,30591,1,8,0:0:0:0:
256,192,30738,1,0,0:0:0:0:
256,192,30886,1,0,0:0:0:0:
256,192,31034,1,8,0:0:0:0:
256,192,31329,1,8,0:0:0:0:
256,192,31477,1,0,0:0:0:0:
256,192,31625,1,8,0:0:0:0:
256,192,31773,1,0,0:0:0:0:
256,192,31847,1,0,0:0:0:0:
256,192,31921,1,8,0:0:0:0:
256,192,32068,1,0,0:0:0:0:
256,192,32364,1,0,0:0:0:0:
256,192,32512,1,8,0:0:0:0:
256,192,32660,1,0,0:0:0:0:
256,192,32807,1,8,0:0:0:0:
256,192,32881,1,0,0:0:0:0:
256,192,32955,1,8,0:0:0:0:
256,192,33103,1,0,0:0:0:0:
256,192,33399,1,0,0:0:0:0:
256,192,33546,1,8,0:0:0:0:
256,192,33694,1,0,0:0:0:0:
256,192,33990,1,0,0:0:0:0:
256,192,34137,1,8,0:0:0:0:
256,192,34285,1,8,0:0:0:0:
256,192,34433,1,0,0:0:0:0:
256,192,34507,1,0,0:0:0:0:
256,192,34581,1,0,0:0:0:0:
256,192,34729,1,0,0:0:0:0:
256,192,34876,1,12,0:0:0:0:
256,192,35024,1,12,0:0:0:0:
256,192,35172,1,4,0:0:0:0:
256,192,35320,1,4,0:0:0:0:
256,192,35467,1,12,0:0:0:0:
256,192,40197,5,8,0:0:0:0:
256,192,40418,1,8,0:0:0:0:
256,192,40640,1,0,0:0:0:0:
256,192,40788,1,8,0:0:0:0:
256,192,40935,1,8,0:0:0:0:
256,192,41083,1,0,0:0:0:0:
256,192,41231,1,0,0:0:0:0:
256,192,41379,1,8,0:0:0:0:
256,192,41576,1,0,0:0:0:0:
256,192,41773,1,8,0:0:0:0:
256,192,41970,1,0,0:0:0:0:
256,192,42167,1,8,0:0:0:0:
256,192,42364,1,0,0:0:0:0:
256,192,42561,1,8,0:0:0:0:
256,192,42709,1,8,0:0:0:0:
256,192,43004,1,0,0:0:0:0:
256,192,43152,1,8,0:0:0:0:
256,192,43300,1,8,0:0:0:0:
256,192,43596,1,0,0:0:0:0:
256,192,43743,1,8,0:0:0:0:
256,192,43965,1,8,0:0:0:0:
256,192,44187,1,8,0:0:0:0:
256,192,44334,1,8,0:0:0:0:
256,192,44482,1,0,0:0:0:0:
256,192,44556,1,8,0:0:0:0:
256,192,44704,1,0,0:0:0:0:
256,192,44778,1,0,0:0:0:0:
256,192,44926,1,12,0:0:0:0:
256,192,45221,1,0,0:0:0:0:
256,192,45665,1,0,0:0:0:0:
256,192,45812,1,8,0:0:0:0:
256,192,45960,1,0,0:0:0:0:
256,192,46108,1,8,0:0:0:0:
256,192,46305,1,0,0:0:0:0:
256,192,46403,1,8,0:0:0:0:
256,192,46600,1,0,0:0:0:0:
256,192,46699,1,8,0:0:0:0:
256,192,46896,1,0,0:0:0:0:
256,192,46995,1,8,0:0:0:0:
256,192,47290,1,8,0:0:0:0:
256,192,47586,1,0,0:0:0:0:
256,192,47733,1,0,0:0:0:0:
256,192,48029,1,0,0:0:0:0:
256,192,48177,1,8,0:0:0:0:
256,192,48251,1,8,0:0:0:0:
256,192,48472,1,8,0:0:0:0:
256,192,48768,1,0,0:0:0:0:
256,192,48916,1,0,0:0:0:0:
256,192,49211,1,0,0:0:0:0:
256,192,49359,1,0,0:0:0:0:
256,192,49655,1,8,0:0:0:0:
256,192,49802,1,0,0:0:0:0:
256,192,49950,1,8,0:0:0:0:
256,192,50098,1,0,0:0:0:0:
256,192,50394,1,8,0:0:0:0:
256,192,50541,1,0,0:0:0:0:
256,192,50837,1,8,0:0:0:0:
256,192,50985,1,0,0:0:0:0:
256,192,51059,1,0,0:0:0:0:
256,192,51133,1,8,0:0:0:0:
256,192,51280,1,0,0:0:0:0:
256,192,51428,1,8,0:0:0:0:
256,192,51576,1,0,0:0:0:0:
256,192,51724,1,8,0:0:0:0:
256,192,51871,1,8,0:0:0:0:
256,192,52019,1,8,0:0:0:0:
256,192,52167,1,0,0:0:0:0:
256,192,52241,1,0,0:0:0:0:
256,192,52315,1,8,0:0:0:0:
256,192,52463,1,0,0:0:0:0:
256,192,52610,1,8,0:0:0:0:
256,192,52758,1,0,0:0:0:0:
256,192,52832,1,0,0:0:0:0:
256,192,52906,1,8,0:0:0:0:
256,192,53054,1,0,0:0:0:0:
256,192,53201,1,8,0:0:0:0:
256,192,53349,1,8,0:0:0:0:
256,192,53497,1,0,0:0:0:0:
256,192,53571,1,8,0:0:0:0:
256,192,53645,1,0,0:0:0:0:
256,192,53793,1,8,0:0:0:0:
256,192,53940,1,0,0:0:0:0:
256,192,54014,1,8,0:0:0:0:
256,192,54088,1,8,0:0:0:0:
256,192,54236,1,0,0:0:0:0:
256,192,54384,1,8,0:0:0:0:
256,192,55566,1,8,0:0:0:0:
256,192,56157,1,0,0:0:0:0:
256,192,56748,1,8,0:0:0:0:
256,192,56896,1,0,0:0:0:0:
256,192,57044,1,8,0:0:0:0:
256,192,57192,1,0,0:0:0:0:
256,192,57339,1,8,0:0:0:0:
256,192,57635,1,8,0:0:0:0:
256,192,57783,1,8,0:0:0:0:
256,192,57931,1,0,0:0:0:0:
256,192,58226,1,0,0:0:0:0:
256,192,58522,1,0,0:0:0:0:
256,192,58817,1,0,0:0:0:0:
256,192,59113,1,0,0:0:0:0:
256,192,59187,1,0,0:0:0:0:
256,192,59261,1,8,0:0:0:0:
256,192,59408,1,8,0:0:0:0:
256,192,59556,1,0,0:0:0:0:
256,192,59704,1,8,0:0:0:0:
256,192,59852,1,8,0:0:0:0:
256,192,59999,1,0,0:0:0:0:
256,192,60073,1,0,0:0:0:0:
256,192,60147,1,8,0:0:0:0:
256,192,60295,1,8,0:0:0:0:
256,192,60443,1,8,0:0:0:0:
256,192,60738,1,0,0:0:0:0:
256,192,60886,1,8,0:0:0:0:
256,192,61034,1,8,0:0:0:0:
256,192,61182,1,0,0:0:0:0:
256,192,61330,1,0,0:0:0:0:
256,192,61477,1,8,0:0:0:0:
256,192,61625,1,0,0:0:0:0:
256,192,61699,1,0,0:0:0:0:
256,192,61773,1,8,0:0:0:0:
256,192,61921,1,8,0:0:0:0:
256,192,62068,1,0,0:0:0:0:
256,192,62216,1,8,0:0:0:0:
256,192,62364,1,8,0:0:0:0:
256,192,62512,1,0,0:0:0:0:
256,192,62660,1,8,0:0:0:0:
256,192,62881,1,8,0:0:0:0:
256,192,63103,1,8,0:0:0:0:
256,192,63325,1,8,0:0:0:0:
256,192,63546,1,8,0:0:0:0:
256,192,63694,1,0,0:0:0:0:
256,192,63842,1,8,0:0:0:0:
256,192,64137,1,8,0:0:0:0:
256,192,64285,1,0,0:0:0:0:
256,192,64433,1,8,0:0:0:0:
256,192,64729,1,8,0:0:0:0:
256,192,64876,1,0,0:0:0:0:
256,192,65024,1,8,0:0:0:0:
256,192,65172,1,0,0:0:0:0:
256,192,65320,1,0,0:0:0:0:
256,192,65467,1,0,0:0:0:0:
256,192,65615,1,8,0:0:0:0:
256,192,65763,1,8,0:0:0:0:
256,192,65837,1,8,0:0:0:0:
256,192,65911,1,8,0:0:0:0:
256,192,66059,1,8,0:0:0:0:
256,192,66206,1,8,0:0:0:0:
256,192,66502,1,12,0:0:0:0:
256,192,68275,1,8,0:0:0:0:
256,192,68423,1,0,0:0:0:0:
256,192,68571,1,8,0:0:0:0:
256,192,68719,1,0,0:0:0:0:
256,192,68793,1,0,0:0:0:0:
256,192,68866,1,8,0:0:0:0:
256,192,69014,1,0,0:0:0:0:
256,192,69162,1,8,0:0:0:0:
256,192,69310,1,0,0:0:0:0:
256,192,69458,1,8,0:0:0:0:
256,192,69605,1,0,0:0:0:0:
256,192,69679,1,0,0:0:0:0:
256,192,69753,1,8,0:0:0:0:
256,192,70049,1,8,0:0:0:0:
256,192,70123,1,8,0:0:0:0:
256,192,70197,1,8,0:0:0:0:
256,192,70270,1,8,0:0:0:0:
256,192,70344,1,8,0:0:0:0:
256,192,70492,1,8,0:0:0:0:
256,192,70640,1,8,0:0:0:0:
256,192,70935,1,12,0:0:0:0:
256,192,72709,1,0,0:0:0:0:
256,192,73004,1,0,0:0:0:0:
256,192,73300,1,8,0:0:0:0:
256,192,75073,1,8,0:0:0:0:
256,192,75369,1,8,0:0:0:0:
256,192,75665,1,4,0:0:0:0:
256,192,77438,1,8,0:0:0:0:
256,192,77733,1,8,0:0:0:0:
256,192,78029,1,0,0:0:0:0:
256,192,79211,1,4,0:0:0:0:
256,192,79507,1,0,0:0:0:0:
256,192,79655,1,0,0:0:0:0:
256,192,79802,1,12,0:0:0:0:
256,192,79950,1,4,0:0:0:0:
256,192,80098,1,12,0:0:0:0:
256,192,80394,1,0,0:0:0:0:
256,192,80689,1,8,0:0:0:0:
256,192,80985,1,8,0:0:0:0:
256,192,81133,1,0,0:0:0:0:
256,192,81280,1,8,0:0:0:0:
256,192,81576,1,8,0:0:0:0:
256,192,81871,1,8,0:0:0:0:
256,192,82068,1,8,0:0:0:0:
256,192,82167,1,8,0:0:0:0:
256,192,82463,1,0,0:0:0:0:
256,192,82758,1,8,0:0:0:0:
256,192,83054,1,8,0:0:0:0:
256,192,83349,1,8,0:0:0:0:
256,192,83571,1,0,0:0:0:0:
256,192,83645,1,8,0:0:0:0:
256,192,83940,1,0,0:0:0:0:
256,192,84236,1,0,0:0:0:0:
256,192,84433,1,0,0:0:0:0:
256,192,84532,1,0,0:0:0:0:
256,192,84827,1,0,0:0:0:0:
256,192,85123,1,12,0:0:0:0:
256,192,85344,1,0,0:0:0:0:
256,192,85566,1,0,0:0:0:0:
256,192,85714,1,8,0:0:0:0:
256,192,86009,1,8,0:0:0:0:
256,192,86305,1,12,0:0:0:0:
256,192,86527,1,0,0:0:0:0:
256,192,86748,1,8,0:0:0:0:
256,192,86896,1,0,0:0:0:0:
256,192,87192,1,0,0:0:0:0:
256,192,87487,1,12,0:0:0:0:
256,192,88078,1,0,0:0:0:0:
256,192,88374,1,0,0:0:0:0:
256,192,88669,1,8,0:0:0:0:
256,192,88743,1,8,0:0:0:0:
256,192,88817,1,0,0:0:0:0:
256,192,88965,1,8,0:0:0:0:
256,192,89113,1,8,0:0:0:0:
256,192,89261,1,0,0:0:0:0:
256,192,89334,1,8,0:0:0:0:
256,192,89408,1,0,0:0:0:0:
256,192,89556,1,8,0:0:0:0:
256,192,89704,1,0,0:0:0:0:
256,192,90147,1,12,0:0:0:0:
256,192,90295,1,0,0:0:0:0:
256,192,90443,1,8,0:0:0:0:
256,192,90665,1,0,0:0:0:0:
256,192,90738,1,8,0:0:0:0:
256,192,90886,1,0,0:0:0:0:
256,192,91034,1,8,0:0:0:0:
256,192,91256,1,0,0:0:0:0:
256,192,91330,1,8,0:0:0:0:
256,192,91477,1,0,0:0:0:0:
256,192,91551,1,0,0:0:0:0:
256,192,91625,1,8,0:0:0:0:
256,192,91773,1,8,0:0:0:0:
256,192,91921,1,0,0:0:0:0:
256,192,92068,1,8,0:0:0:0:
256,192,92142,1,8,0:0:0:0:
256,192,92216,1,8,0:0:0:0:
256,192,92438,1,0,0:0:0:0:
256,192,92512,1,8,0:0:0:0:
256,192,92807,1,8,0:0:0:0:
256,192,92955,1,0,0:0:0:0:
256,192,93029,1,0,0:0:0:0:
256,192,93103,1,8,0:0:0:0:
256,192,93251,1,0,0:0:0:0:
256,192,93399,1,8,0:0:0:0:
256,192,93620,1,8,0:0:0:0:
256,192,93694,1,0,0:0:0:0:
256,192,93842,1,8,0:0:0:0:
256,192,93916,1,8,0:0:0:0:
256,192,93990,1,8,0:0:0:0:
256,192,94137,1,0,0:0:0:0:
256,192,94285,1,8,0:0:0:0:
256,192,94581,1,12,0:0:0:0:
256,192,94729,1,8,0:0:0:0:
256,192,94876,1,0,0:0:0:0:
256,192,95172,1,8,0:0:0:0:
256,192,95394,1,0,0:0:0:0:
256,192,95467,1,8,0:0:0:0:
256,192,95689,1,0,0:0:0:0:
256,192,95763,1,8,0:0:0:0:
256,192,95911,1,0,0:0:0:0:
256,192,96059,1,8,0:0:0:0:
256,192,96133,1,0,0:0:0:0:
256,192,96206,1,0,0:0:0:0:
256,192,96354,1,8,0:0:0:0:
256,192,96502,1,0,0:0:0:0:
256,192,96650,1,8,0:0:0:0:
256,192,96798,1,0,0:0:0:0:
256,192,96871,1,0,0:0:0:0:
256,192,96945,1,8,0:0:0:0:
256,192,97093,1,8,0:0:0:0:
256,192,97241,1,8,0:0:0:0:
256,192,97315,1,0,0:0:0:0:
256,192,97389,1,0,0:0:0:0:
256,192,97536,1,0,0:0:0:0:
256,192,97832,1,8,0:0:0:0:
256,192,97980,1,0,0:0:0:0:
256,192,98128,1,8,0:0:0:0:
256,192,98275,1,0,0:0:0:0:
256,192,98349,1,8,0:0:0:0:
256,192,98423,1,0,0:0:0:0:
256,192,98571,1,0,0:0:0:0:
256,192,98719,1,8,0:0:0:0:
256,192,99014,1,0,0:0:0:0:
256,192,99310,1,12,0:0:0:0:
256,192,99458,1,8,0:0:0:0:
256,192,99605,1,0,0:0:0:0:
256,192,99901,1,8,0:0:0:0:
256,192,100123,1,0,0:0:0:0:
256,192,100197,1,8,0:0:0:0:
256,192,100344,1,0,0:0:0:0:
256,192,100492,1,8,0:0:0:0:
256,192,100640,1,0,0:0:0:0:
256,192,100788,1,8,0:0:0:0:
256,192,100985,1,8,0:0:0:0:
256,192,101083,1,8,0:0:0:0:
256,192,101231,1,0,0:0:0:0:
256,192,101305,1,0,0:0:0:0:
256,192,101379,1,8,0:0:0:0:
256,192,101674,1,8,0:0:0:0:
256,192,101822,1,0,0:0:0:0:
256,192,101896,1,0,0:0:0:0:
256,192,101970,1,8,0:0:0:0:
256,192,102118,1,0,0:0:0:0:
256,192,102266,1,8,0:0:0:0:
256,192,102413,1,0,0:0:0:0:
256,192,102561,1,8,0:0:0:0:
256,192,102783,1,0,0:0:0:0:
256,192,102857,1,8,0:0:0:0:
256,192,103004,1,0,0:0:0:0:
256,192,103152,1,8,0:0:0:0:
256,192,103300,1,0,0:0:0:0:
256,192,103374,1,8,0:0:0:0:
256,192,103448,1,8,0:0:0:0:
256,192,103596,1,0,0:0:0:0:
256,192,103743,1,0,0:0:0:0:
256,192,103817,1,0,0:0:0:0:
256,192,103891,1,0,0:0:0:0:
256,192,104039,1,8,0:0:0:0:
256,192,104187,1,0,0:0:0:0:
256,192,104261,1,0,0:0:0:0:
256,192,104408,1,0,0:0:0:0:
256,192,104482,1,0,0:0:0:0:
256,192,104630,1,8,0:0:0:0:
256,192,104926,1,0,0:0:0:0:
256,192,105073,1,0,0:0:0:0:
256,192,105221,1,8,0:0:0:0:
256,192,105295,1,0,0:0:0:0:
256,192,105369,1,8,0:0:0:0:
256,192,105517,1,8,0:0:0:0:
256,192,105665,1,8,0:0:0:0:
256,192,105738,1,8,0:0:0:0:
256,192,105812,1,8,0:0:0:0:
256,192,105960,1,0,0:0:0:0:
256,192,106034,1,0,0:0:0:0:
256,192,106108,1,8,0:0:0:0:
256,192,106256,1,0,0:0:0:0:
256,192,106403,1,8,0:0:0:0:
256,192,106699,1,0,0:0:0:0:
256,192,106773,1,8,0:0:0:0:
256,192,106847,1,0,0:0:0:0:
256,192,106995,1,0,0:0:0:0:
256,192,107142,1,8,0:0:0:0:
256,192,107290,1,8,0:0:0:0:
256,192,107438,1,0,0:0:0:0:
256,192,107586,1,8,0:0:0:0:
256,192,107733,1,0,0:0:0:0:
256,192,107807,1,0,0:0:0:0:
256,192,107881,1,8,0:0:0:0:
256,192,108029,1,0,0:0:0:0:
256,192,108177,1,8,0:0:0:0:
256,192,108325,1,0,0:0:0:0:
256,192,108472,1,8,0:0:0:0:
256,192,108546,1,8,0:0:0:0:
256,192,108620,1,0,0:0:0:0:
256,192,108768,1,8,0:0:0:0:
256,192,109064,1,8,0:0:0:0:
256,192,109211,1,0,0:0:0:0:
256,192,109359,1,8,0:0:0:0:
256,192,109433,1,8,0:0:0:0:
256,192,109507,1,0,0:0:0:0:
256,192,109655,1,8,0:0:0:0:
256,192,109802,1,0,0:0:0:0:
256,192,109876,1,0,0:0:0:0:
256,192,109950,1,8,0:0:0:0:
256,192,110098,1,0,0:0:0:0:
256,192,110246,1,8,0:0:0:0:
256,192,110541,1,0,0:0:0:0:
256,192,110689,1,0,0:0:0:0:
256,192,110763,1,0,0:0:0:0:
256,192,110837,1,0,0:0:0:0:
256,192,110985,1,8,0:0:0:0:
256,192,111133,1,12,0:0:0:0:
256,192,111280,1,12,0:0:0:0:
256,192,111576,1,0,0:0:0:0:
256,192,111650,1,0,0:0:0:0:
256,192,111724,1,8,0:0:0:0:
256,192,111871,1,8,0:0:0:0:
256,192,111945,1,8,0:0:0:0:
256,192,112019,1,8,0:0:0:0:
256,192,112167,1,8,0:0:0:0:
256,192,112315,1,0,0:0:0:0:
256,192,112463,1,0,0:0:0:0:
256,192,112610,1,8,0:0:0:0:
256,192,112758,1,0,0:0:0:0:
256,192,112832,1,0,0:0:0:0:
256,192,112906,1,8,0:0:0:0:
256,192,113128,1,0,0:0:0:0:
256,192,113201,1,8,0:0:0:0:
256,192,113497,1,12,0:0:0:0:
256,192,113645,1,12,0:0:0:0:
256,192,113940,1,0,0:0:0:0:
256,192,114014,1,0,0:0:0:0:
256,192,114088,1,8,0:0:0:0:
256,192,114236,1,8,0:0:0:0:
256,192,114384,1,8,0:0:0:0:
256,192,114532,1,0,0:0:0:0:
256,192,114679,1,12,0:0:0:0:
256,192,114827,1,12,0:0:0:0:
256,192,114975,1,4,0:0:0:0:
256,192,115123,1,12,0:0:0:0:
256,192,115270,1,12,0:0:0:0:
256,192,115418,1,0,0:0:0:0:
256,192,115566,1,0,0:0:0:0:
256,192,115640,1,0,0:0:0:0:
256,192,115714,1,0,0:0:0:0:
256,192,115862,1,12,0:0:0:0:
256,192,116009,1,12,0:0:0:0:
256,192,116305,1,0,0:0:0:0:
256,192,116379,1,0,0:0:0:0:
256,192,116453,1,0,0:0:0:0:
256,192,116600,1,8,0:0:0:0:
256,192,116748,1,0,0:0:0:0:
256,192,116896,1,8,0:0:0:0:
256,192,117044,1,4,0:0:0:0:
256,192,117192,1,0,0:0:0:0:
256,192,117339,1,4,0:0:0:0:
256,192,117487,1,0,0:0:0:0:
256,192,117635,1,12,0:0:0:0:
256,192,117783,1,0,0:0:0:0:
256,192,117931,1,12,0:0:0:0:
256,192,118078,1,0,0:0:0:0:
256,192,118226,1,12,0:0:0:0:
256,192,118374,1,12,0:0:0:0:
256,192,118669,1,0,0:0:0:0:
256,192,118743,1,0,0:0:0:0:
256,192,118817,1,8,0:0:0:0:
256,192,118965,1,8,0:0:0:0:
256,192,119113,1,0,0:0:0:0:
256,192,119261,1,8,0:0:0:0:
256,192,119408,1,8,0:0:0:0:
256,192,119556,1,0,0:0:0:0:
256,192,119630,1,0,0:0:0:0:
256,192,119704,1,8,0:0:0:0:
256,192,119852,1,0,0:0:0:0:
256,192,119999,1,8,0:0:0:0:
256,192,120147,1,0,0:0:0:0:
256,192,120221,1,0,0:0:0:0:
256,192,120295,1,8,0:0:0:0:
256,192,120591,1,8,0:0:0:0:
256,192,120738,1,0,0:0:0:0:
256,192,120812,1,0,0:0:0:0:
256,192,120886,1,8,0:0:0:0:
256,192,121034,1,0,0:0:0:0:
256,192,121182,1,8,0:0:0:0:
256,192,121330,1,0,0:0:0:0:
256,192,121403,1,0,0:0:0:0:
256,192,121477,1,8,0:0:0:0:
256,192,121551,1,8,0:0:0:0:
256,192,121625,1,8,0:0:0:0:
256,192,122068,12,4,123842,0:0:0:0:
256,192,124137,6,12,L|160:256,28,105.000004005432
256,192,126502,1,4,0:0:0:0:
