osu file format v14

[General]
AudioFilename: BadElixir.mp3
AudioLeadIn: 0
PreviewTime: 24211
Countdown: 0
SampleSet: Normal
StackLeniency: 0.7
Mode: 1
LetterboxInBreaks: 0
WidescreenStoryboard: 0

[Editor]
Bookmarks: 1231,21329,24433
DistanceSpacing: 1.1
BeatDivisor: 4
GridSize: 32
TimelineZoom: 2.299999

[Metadata]
Title:Bad Elixir
TitleUnicode:Bad Elixir
Artist:xi
ArtistUnicode:xi
Creator:Capu
Version:Lamentable Catholicon
Source:
Tags:guro cychloryn yarita bms g2r2018 climax go back to your roots 鑓田 alpha complex idealism electronic instrumental
BeatmapID:2153994
BeatmapSetID:1030135

[Difficulty]
HPDrainRate:6
CircleSize:2
OverallDifficulty:7.2
ApproachRate:10
SliderMultiplier:1.4
SliderTickRate:1

[Events]
//Background and Video events
0,0,"142218.jpg",0,0
//Break Periods
2,35667,39747
//Storyboard Layer 0 (Background)
//Storyboard Layer 1 (Fail)
//Storyboard Layer 2 (Pass)
//Storyboard Layer 3 (Foreground)
//Storyboard Layer 4 (Overlay)
//Storyboard Sound Samples

[TimingPoints]
0,295.566502463054,4,1,0,70,1,0
1182,-55.5555555555556,4,1,0,70,0,0
1231,-56.9620108956934,4,1,0,70,0,0
1280,-58.4415622364651,4,1,0,70,0,0
1330,-59.9999880000024,4,1,0,70,0,0
1379,-61.6438440608006,4,1,0,70,0,0
1428,-63.3802727633419,4,1,0,70,0,0
1477,-65.2174054820447,4,1,0,70,0,0
1527,-67.1641740922258,4,1,0,70,0,0
1576,-69.2307905325509,4,1,0,70,0,0
1625,-71.4285714285714,4,1,0,70,0,0
1699,-75.0000187500047,4,1,0,70,0,0
1773,-78.9473476454348,4,1,0,70,0,0
1871,-84.9056443574256,4,1,0,70,0,0
1970,-91.8367253227831,4,1,0,70,0,0
2068,-100,4,1,0,70,0,0
2364,-55.5555555555556,4,1,0,70,0,0
2438,-200,4,1,0,70,0,0
4137,-200,4,1,0,70,0,0
7093,-55.5555555555556,4,1,0,100,0,0
7167,-200,4,1,0,70,0,0
10935,-200,4,1,0,70,0,0
11231,-176.61385323742,4,1,0,70,0,0
11305,-171.5975214454,4,1,0,70,0,0
11379,-166.858554003771,4,1,0,70,0,0
11453,-162.374038339758,4,1,0,70,0,0
11527,-158.124266698713,4,1,0,70,0,0
11674,-150.25912185564,4,1,0,70,0,0
11822,-143.139126937209,4,1,0,70,0,0
15665,-142.857142857143,4,1,0,70,0,0
15763,-136.363698347136,4,1,0,70,0,0
15862,-130.434725897945,4,1,0,70,0,0
15960,-125,4,1,0,70,0,0
16108,-117.647058823529,4,1,0,70,0,0
16182,-114.285714285714,4,1,0,70,0,0
16256,-111.111111111111,4,1,0,70,0,0
16330,-108.108108108108,4,1,0,70,0,0
16403,-105.263157894737,4,1,0,70,0,0
16477,-102.564102564103,4,1,0,70,0,0
16551,-100,4,1,0,70,0,0
21280,-100,4,1,0,70,0,0
21428,-101.763458980676,4,1,0,70,0,0
21650,-104.52826914775,4,1,0,70,0,0
21871,-107.447624655362,4,1,0,70,0,0
22093,-110.534733882101,4,1,0,70,0,0
22315,-113.804483896666,4,1,0,70,0,0
22536,-117.273439442341,4,1,0,70,0,0
22758,-120.960669638267,4,1,0,70,0,0
22980,-124.887289221478,4,1,0,70,0,0
23128,-125,4,1,0,70,0,0
23275,-116.666647222225,4,1,0,70,0,0
23349,-112.903262226859,4,1,0,70,0,0
23423,-109.374965820323,4,1,0,70,0,0
23497,-106.060622130397,4,1,0,70,0,0
23571,-102.941131055383,4,1,0,70,0,0
23645,-100,4,1,0,70,0,0
24236,-125,4,1,0,70,0,0
24384,-117.647058823529,4,1,0,70,0,0
24458,-114.285714285714,4,1,0,70,0,0
24532,-111.111111111111,4,1,0,70,0,0
24605,-108.108108108108,4,1,0,70,0,0
24679,-105.263157894737,4,1,0,70,0,0
24753,-102.564102564103,4,1,0,70,0,0
24827,-100,4,1,0,70,0,0
53793,-100,4,1,0,80,0,0
53842,-99.173586503665,4,1,0,80,0,0
53891,-98.3606234883202,4,1,0,80,0,0
53940,-97.5609756097561,4,1,0,80,0,0
53990,-96.774224765879,4,1,0,80,0,0
54039,-95.9999692800098,4,1,0,80,0,0
54088,-95.2380952380952,4,1,0,80,0,0
54137,-94.4882187364469,4,1,0,80,0,0
54187,-93.7499707031342,4,1,0,80,0,0
54236,-93.0232558139535,4,1,0,80,0,0
54285,-92.3077207100679,4,1,0,80,0,0
54334,-91.6030254647251,4,1,0,80,0,0
54384,-90.9090909090909,4,1,0,80,0,0
54458,-100,4,1,0,80,0,0
70049,-100,4,1,0,80,0,0
70098,-99.173586503665,4,1,0,80,0,0
70147,-98.3606234883202,4,1,0,80,0,0
70197,-97.5609756097561,4,1,0,80,0,0
70246,-96.774224765879,4,1,0,80,0,0
70295,-95.9999692800098,4,1,0,80,0,0
70344,-95.2380952380952,4,1,0,80,0,0
70394,-94.4882187364469,4,1,0,80,0,0
70443,-93.7499707031342,4,1,0,80,0,0
70492,-93.0232558139535,4,1,0,80,0,0
70541,-92.3077207100679,4,1,0,80,0,0
70591,-91.6030254647251,4,1,0,80,0,0
70640,-90.9090909090909,4,1,0,80,0,0
70788,-89.2857142857143,4,1,0,80,0,0
70862,-87.719298245614,4,1,0,80,0,0
70935,-86.2068965517241,4,1,0,80,0,0
71009,-200,4,1,0,80,0,0
72709,-200,4,1,0,70,0,0
75665,-55.5555555555556,4,1,0,100,0,0
75738,-200,4,1,0,70,0,0
79211,-100,4,1,0,70,0,0
80394,-100,4,1,0,50,0,0
82758,-100,4,1,0,60,0,0
84236,-100,4,1,0,70,0,0
85123,-100,4,1,0,80,0,0
89852,-100,4,1,0,90,0,0
89999,-96.8054211035818,4,1,0,90,0,0
90073,-93.8086303939962,4,1,0,90,0,0
90147,-90.9090909090909,4,1,0,90,0,1
105812,-90.9090909090909,4,1,0,90,0,1
105862,-89.8876404494382,4,1,0,90,0,1
105911,-88.8888888888889,4,1,0,90,0,1
105960,-87.9120879120879,4,1,0,90,0,1
106009,-86.9565217391304,4,1,0,90,0,1
106059,-86.0215053763441,4,1,0,90,0,1
106108,-85.1063829787234,4,1,0,90,0,1
106157,-84.2105263157895,4,1,0,90,0,1
106206,-83.3333333333333,4,1,0,90,0,1
106256,-82.4742268041237,4,1,0,90,0,1
106305,-81.6326530612245,4,1,0,90,0,1
106354,-80.8080808080808,4,1,0,90,0,1
106403,-80,4,1,0,90,0,1
106477,-80.1944555157346,4,1,0,90,0,1
106551,-80.3898586585505,4,1,0,90,0,1
106625,-80.5862813138143,4,1,0,90,0,1
106699,-80.7836009290114,4,1,0,90,0,1
106773,-80.981889210297,4,1,0,90,0,1
106847,-81.1811533081726,4,1,0,90,0,1
106921,-81.3814004436914,4,1,0,90,0,1
106995,-81.5827044666531,4,1,0,90,0,1
107142,-81.988180583887,4,1,0,90,0,1
107216,-82.1924338576937,4,1,0,90,0,1
107364,-82.6040770068248,4,1,0,90,0,1
107438,-82.8114143941144,4,1,0,90,0,1
107586,-83.2292274413421,4,1,0,90,0,1
107733,-83.6513478741683,4,1,0,90,0,1
107881,-84.0777012483857,4,1,0,90,0,1
108029,-84.5084229545159,4,1,0,90,0,1
108103,-84.7255147498649,4,1,0,90,0,1
108177,-84.9436526280292,4,1,0,90,0,1
108325,-85.3833155878342,4,1,0,90,0,1
108399,-85.6048582469152,4,1,0,90,0,1
108472,-85.8276272265832,4,1,0,90,0,1
108546,-86.0514846032381,4,1,0,90,0,1
108620,-86.2765127723749,4,1,0,90,0,1
108694,-86.5027209430873,4,1,0,90,0,1
108768,-86.7301936425034,4,1,0,90,0,1
108916,-87.1885950342608,4,1,0,90,0,1
109064,-87.6518678174773,4,1,0,90,0,1
109137,-87.8854325501277,4,1,0,90,0,1
109211,-88.1201677103032,4,1,0,90,0,1
109285,-88.3561601473074,4,1,0,90,0,1
109359,-88.5934199895105,4,1,0,90,0,1
109433,-88.8319574743653,4,1,0,90,0,1
109507,-89.0718622877751,4,1,0,90,0,1
109581,-89.312986644136,4,1,0,90,0,1
109655,-89.5554200283532,4,1,0,90,0,1
109729,-89.7991731292138,4,1,0,90,0,1
109802,-90.0442567521937,4,1,0,90,0,1
109876,-90.2907633452005,4,1,0,90,0,1
109950,-90.538541351668,4,1,0,90,0,1
110098,-91.0381996285641,4,1,0,90,0,1
110172,-91.2901026009463,4,1,0,90,0,1
110246,-91.543487275913,4,1,0,90,0,1
110320,-91.798198184966,4,1,0,90,0,1
110394,-92.0543304658409,4,1,0,90,0,1
110541,-92.5709070004897,4,1,0,90,0,0
110689,-94.3396226415094,4,1,0,90,0,0
110837,-95.2380952380952,4,1,0,90,0,0
110911,-96.1538461538461,4,1,0,90,0,0
110985,-97.0873786407767,4,1,0,90,0,0
111059,-98.0392156862745,4,1,0,90,0,0
111133,-95.2380952380952,4,1,0,90,0,0
111280,-90.9090909090909,4,1,0,90,0,0
111428,-93.0232558139535,4,1,0,90,0,0
111576,-100,4,1,0,90,0,0
113497,-83.3333333333333,4,1,0,90,0,0
113645,-83.3333333333333,4,1,0,90,0,0
113793,-85.6973666056216,4,1,0,90,0,0
113940,-88.1995214293967,4,1,0,90,0,0
114014,-89.5062032274147,4,1,0,90,0,0
114088,-90.8521018633766,4,1,0,90,0,0
114162,-92.2391798830038,4,1,0,90,0,0
114236,-93.6692687989539,4,1,0,90,0,0
114285,-94.6474948701058,4,1,0,90,0,0
114334,-95.6464600766893,4,1,0,90,0,0
114384,-96.6666441111164,4,1,0,90,0,0
114532,-99.8622899022248,4,1,0,90,0,0
114679,-95.2380952380952,4,1,0,90,0,0
114827,-90.9090909090909,4,1,0,90,0,0
114975,-86.9565217391304,4,1,0,90,0,0
115123,-83.3333333333333,4,1,0,90,0,0
115270,-80,4,1,0,90,0,0
115418,-82.73892311982,4,1,0,90,0,0
115566,-85.6721105581452,4,1,0,90,0,0
115640,-87.2180241279942,4,1,0,90,0,0
115714,-88.8208323933129,4,1,0,90,0,0
115788,-90.4836532232087,4,1,0,90,0,0
115862,-92.2098363920873,4,1,0,90,0,0
116009,-95.8678097944307,4,1,0,90,0,0
116157,-99.8278967060787,4,1,0,90,0,0
117044,-100,4,1,0,90,0,0
117192,-96.774224765879,4,1,0,90,0,0
117339,-93.7499707031342,4,1,0,90,0,0
117487,-90.9090909090909,4,1,0,90,0,0
117561,-89.5522120739665,4,1,0,90,0,0
117635,-88.2353200692118,4,1,0,90,0,0
117783,-85.7142612244968,4,1,0,90,0,0
117931,-83.3333333333333,4,1,0,90,0,0
118078,-81.0811029948927,4,1,0,90,0,0
118226,-78.9473476454348,4,1,0,90,0,0
118374,-76.9230769230769,4,1,0,90,0,0
118522,-78.6516588814633,4,1,0,90,0,0
118596,-79.5454455061994,4,1,0,90,0,0
118669,-80.459779363193,4,1,0,90,0,0
118743,-81.3953772309455,4,1,0,90,0,0
118817,-82.3529217993125,4,1,0,90,0,0
118891,-83.3333333333333,4,1,0,90,0,0
118965,-84.3373697198481,4,1,0,90,0,0
119014,-85.0202773361447,4,1,0,90,0,0
119064,-85.7142612244968,4,1,0,90,0,0
119113,-86.4197424173157,4,1,0,90,0,0
119261,-88.6076285851754,4,1,0,90,0,0
119408,-90.9090909090909,4,1,0,90,0,0
120591,-83.3333333333333,4,1,0,90,0,0
120665,-81.5217169777943,4,1,0,90,0,0
120738,-79.7872552625679,4,1,0,90,0,0
120788,-78.6713355481937,4,1,0,90,0,0
120837,-77.5862002080862,4,1,0,90,0,0
120886,-76.5305927217876,4,1,0,90,0,0
120960,-75.0000187500047,4,1,0,90,0,0
121034,-73.5294117647059,4,1,0,90,0,0
121083,-72.5806334547365,4,1,0,90,0,0
121133,-71.6560281350229,4,1,0,90,0,0
121182,-70.7547336685693,4,1,0,90,0,0
121256,-69.4444444444444,4,1,0,90,0,0
121330,-68.1818026859539,4,1,0,90,0,0
121403,-66.9643006616743,4,1,0,90,0,0
121477,-65.7894736842105,4,1,0,90,0,0
121551,-64.6551584794917,4,1,0,90,0,0
121625,-63.5593354998592,4,1,0,90,0,0
121699,-62.5,4,1,0,90,0,0
122068,-83.3333333333333,4,1,0,90,0,0
124137,-71.4285714285714,4,1,0,90,0,0

[HitObjects]
256,192,1182,5,0,0:0:0:0:
256,192,1231,1,0,0:0:0:0:
256,192,1280,1,0,0:0:0:0:
256,192,1330,1,0,0:0:0:0:
256,192,1379,1,0,0:0:0:0:
256,192,1428,1,0,0:0:0:0:
256,192,1477,1,0,0:0:0:0:
256,192,1527,1,0,0:0:0:0:
256,192,1576,1,0,0:0:0:0:
256,192,1625,1,0,0:0:0:0:
256,192,1699,1,0,0:0:0:0:
256,192,1773,1,0,0:0:0:0:
256,192,1871,1,0,0:0:0:0:
256,192,1970,1,0,0:0:0:0:
256,192,2068,1,0,0:0:0:0:
256,192,2364,1,4,0:0:0:0:
256,192,4137,1,0,0:0:0:0:
256,192,4433,1,0,0:0:0:0:
256,192,4729,1,8,0:0:0:0:
256,192,6502,1,8,0:0:0:0:
256,192,6798,1,8,0:0:0:0:
256,192,7093,1,4,0:0:0:0:
256,192,8866,1,8,0:0:0:0:
256,192,9162,1,8,0:0:0:0:
256,192,9458,1,0,0:0:0:0:
256,192,10935,5,0,0:0:0:0:
256,192,11231,1,8,0:0:0:0:
256,192,11305,1,8,0:0:0:0:
256,192,11379,1,8,0:0:0:0:
256,192,11453,1,8,0:0:0:0:
256,192,11527,1,8,0:0:0:0:
256,192,11674,1,8,0:0:0:0:
256,192,11822,1,4,0:0:0:0:
256,192,12266,1,0,0:0:0:0:
256,192,12709,1,0,0:0:0:0:
256,192,13004,1,8,0:0:0:0:
256,192,13300,1,8,0:0:0:0:
256,192,13399,1,0,0:0:0:0:
256,192,13497,1,0,0:0:0:0:
256,192,13596,1,8,0:0:0:0:
256,192,13891,1,0,0:0:0:0:
256,192,14187,1,8,0:0:0:0:
256,192,14630,1,0,0:0:0:0:
256,192,15073,1,0,0:0:0:0:
256,192,15369,1,8,0:0:0:0:
256,192,15665,5,0,0:0:0:0:
256,192,15763,1,8,0:0:0:0:
256,192,15862,1,8,0:0:0:0:
256,192,15960,1,0,0:0:0:0:
256,192,16108,1,8,0:0:0:0:
256,192,16182,1,0,0:0:0:0:
256,192,16256,1,8,0:0:0:0:
256,192,16330,1,8,0:0:0:0:
256,192,16403,1,0,0:0:0:0:
256,192,16477,1,0,0:0:0:0:
256,192,16551,1,12,0:0:0:0:
256,192,16847,1,0,0:0:0:0:
256,192,17142,1,0,0:0:0:0:
256,192,17438,1,0,0:0:0:0:
256,192,17586,1,0,0:0:0:0:
256,192,17733,1,12,0:0:0:0:
256,192,18029,1,0,0:0:0:0:
256,192,18177,1,0,0:0:0:0:
256,192,18325,1,12,0:0:0:0:
256,192,18620,1,0,0:0:0:0:
256,192,18768,1,0,0:0:0:0:
256,192,18842,1,0,0:0:0:0:
256,192,18916,1,12,0:0:0:0:
256,192,19064,1,0,0:0:0:0:
256,192,19211,1,8,0:0:0:0:
256,192,19359,1,0,0:0:0:0:
256,192,19433,1,0,0:0:0:0:
256,192,19507,1,12,0:0:0:0:
256,192,19655,1,0,0:0:0:0:
256,192,19802,1,8,0:0:0:0:
256,192,19950,1,0,0:0:0:0:
256,192,20024,1,0,0:0:0:0:
256,192,20098,1,8,0:0:0:0:
256,192,20172,1,8,0:0:0:0:
256,192,20246,1,8,0:0:0:0:
256,192,20320,1,0,0:0:0:0:
256,192,20394,1,8,0:0:0:0:
256,192,20467,1,8,0:0:0:0:
256,192,20541,1,8,0:0:0:0:
256,192,20615,1,0,0:0:0:0:
256,192,20689,1,8,0:0:0:0:
256,192,20763,1,8,0:0:0:0:
256,192,20837,1,0,0:0:0:0:
256,192,20911,1,0,0:0:0:0:
256,192,20985,1,8,0:0:0:0:
256,192,21059,1,0,0:0:0:0:
256,192,21133,1,0,0:0:0:0:
256,192,21206,1,0,0:0:0:0:
256,192,21280,5,12,0:0:0:0:
256,192,21428,1,8,0:0:0:0:
256,192,21650,1,8,0:0:0:0:
256,192,21871,1,8,0:0:0:0:
256,192,22093,1,8,0:0:0:0:
256,192,22315,1,8,0:0:0:0:
256,192,22536,1,8,0:0:0:0:
256,192,22758,1,8,0:0:0:0:
256,192,22980,1,8,0:0:0:0:
256,192,23128,5,0,0:0:0:0:
256,192,23275,1,0,0:0:0:0:
256,192,23349,1,8,0:0:0:0:
256,192,23423,1,8,0:0:0:0:
256,192,23497,1,8,0:0:0:0:
256,192,23571,1,8,0:0:0:0:
256,192,23645,1,0,0:0:0:0:
256,192,24236,5,0,0:0:0:0:
256,192,24384,1,0,0:0:0:0:
256,192,24458,1,0,0:0:0:0:
256,192,24532,1,8,0:0:0:0:
256,192,24605,1,8,0:0:0:0:
256,192,24679,1,0,0:0:0:0:
256,192,24753,1,0,0:0:0:0:
256,192,24827,1,12,0:0:0:0:
256,192,24975,1,0,0:0:0:0:
256,192,25123,1,8,0:0:0:0:
256,192,25270,1,0,0:0:0:0:
256,192,25344,1,8,0:0:0:0:
256,192,25418,1,8,0:0:0:0:
256,192,25492,1,0,0:0:0:0:
256,192,25566,1,8,0:0:0:0:
256,192,25615,1,0,0:0:0:0:
256,192,25665,1,0,0:0:0:0:
256,192,25714,1,8,0:0:0:0:
256,192,25788,1,0,0:0:0:0:
256,192,25862,1,8,0:0:0:0:
256,192,26009,1,4,0:0:0:0:
256,192,26157,1,4,0:0:0:0:
256,192,26305,1,8,0:0:0:0:
256,192,26453,1,0,0:0:0:0:
256,192,26527,1,0,0:0:0:0:
256,192,26600,1,8,0:0:0:0:
256,192,26748,1,0,0:0:0:0:
256,192,26822,1,8,0:0:0:0:
256,192,26896,1,0,0:0:0:0:
256,192,27044,1,0,0:0:0:0:
256,192,27192,1,8,0:0:0:0:
256,192,27339,1,0,0:0:0:0:
256,192,27487,1,8,0:0:0:0:
256,192,27561,1,0,0:0:0:0:
256,192,27635,1,8,0:0:0:0:
256,192,27709,1,8,0:0:0:0:
256,192,27783,1,0,0:0:0:0:
256,192,27931,1,0,0:0:0:0:
256,192,27980,1,8,0:0:0:0:
256,192,28029,1,8,0:0:0:0:
256,192,28078,1,0,0:0:0:0:
256,192,28226,1,0,0:0:0:0:
256,192,28374,1,8,0:0:0:0:
256,192,28522,1,0,0:0:0:0:
256,192,28596,1,0,0:0:0:0:
256,192,28669,1,8,0:0:0:0:
256,192,28817,1,0,0:0:0:0:
256,192,28891,1,0,0:0:0:0:
256,192,28965,1,8,0:0:0:0:
256,192,29113,1,0,0:0:0:0:
256,192,29261,1,8,0:0:0:0:
256,192,29334,1,8,0:0:0:0:
256,192,29408,1,0,0:0:0:0:
256,192,29482,1,0,0:0:0:0:
256,192,29556,1,8,0:0:0:0:
256,192,29704,1,0,0:0:0:0:
256,192,29852,1,8,0:0:0:0:
256,192,29999,1,0,0:0:0:0:
256,192,30073,1,8,0:0:0:0:
256,192,30147,1,8,0:0:0:0:
256,192,30221,1,0,0:0:0:0:
256,192,30295,1,8,0:0:0:0:
256,192,30344,1,0,0:0:0:0:
256,192,30394,1,0,0:0:0:0:
256,192,30443,1,8,0:0:0:0:
256,192,30517,1,0,0:0:0:0:
256,192,30591,1,8,0:0:0:0:
256,192,30738,1,4,0:0:0:0:
256,192,30886,1,4,0:0:0:0:
256,192,31034,1,8,0:0:0:0:
256,192,31182,1,0,0:0:0:0:
256,192,31256,1,0,0:0:0:0:
256,192,31330,1,8,0:0:0:0:
256,192,31403,1,8,0:0:0:0:
256,192,31477,1,8,0:0:0:0:
256,192,31551,1,0,0:0:0:0:
256,192,31625,1,8,0:0:0:0:
256,192,31699,1,8,0:0:0:0:
256,192,31773,1,0,0:0:0:0:
256,192,31847,1,8,0:0:0:0:
256,192,31921,1,0,0:0:0:0:
256,192,32068,1,0,0:0:0:0:
256,192,32216,1,8,0:0:0:0:
256,192,32364,1,0,0:0:0:0:
256,192,32438,1,8,0:0:0:0:
256,192,32512,1,0,0:0:0:0:
256,192,32660,1,8,0:0:0:0:
256,192,32709,1,8,0:0:0:0:
256,192,32758,1,8,0:0:0:0:
256,192,32807,1,0,0:0:0:0:
256,192,32955,1,0,0:0:0:0:
256,192,33103,1,8,0:0:0:0:
256,192,33251,1,0,0:0:0:0:
256,192,33325,1,0,0:0:0:0:
256,192,33399,1,8,0:0:0:0:
256,192,33546,1,0,0:0:0:0:
256,192,33620,1,0,0:0:0:0:
256,192,33694,1,8,0:0:0:0:
256,192,33842,1,0,0:0:0:0:
256,192,33990,1,8,0:0:0:0:
256,192,34137,1,0,0:0:0:0:
256,192,34211,1,0,0:0:0:0:
256,192,34285,1,8,0:0:0:0:
256,192,34359,1,0,0:0:0:0:
256,192,34433,1,8,0:0:0:0:
256,192,34507,1,8,0:0:0:0:
256,192,34581,1,0,0:0:0:0:
256,192,34655,1,8,0:0:0:0:
256,192,34729,1,0,0:0:0:0:
256,192,34802,1,0,0:0:0:0:
256,192,34876,1,12,0:0:0:0:
256,192,35024,1,12,0:0:0:0:
256,192,35172,1,4,0:0:0:0:
256,192,35320,1,4,0:0:0:0:
256,192,35467,1,12,0:0:0:0:
256,192,40197,5,8,0:0:0:0:
256,192,40418,1,0,0:0:0:0:
256,192,40640,1,0,0:0:0:0:
256,192,40788,1,8,0:0:0:0:
256,192,40935,1,0,0:0:0:0:
256,192,41083,1,0,0:0:0:0:
256,192,41157,1,0,0:0:0:0:
256,192,41231,1,8,0:0:0:0:
256,192,41305,1,0,0:0:0:0:
256,192,41379,1,8,0:0:0:0:
256,192,41477,1,0,0:0:0:0:
256,192,41576,1,0,0:0:0:0:
256,192,41674,1,0,0:0:0:0:
256,192,41773,1,8,0:0:0:0:
256,192,41871,1,8,0:0:0:0:
256,192,41970,1,0,0:0:0:0:
256,192,42068,1,0,0:0:0:0:
256,192,42167,1,8,0:0:0:0:
256,192,42266,1,8,0:0:0:0:
256,192,42364,1,0,0:0:0:0:
256,192,42463,1,0,0:0:0:0:
256,192,42561,1,8,0:0:0:0:
256,192,42709,1,8,0:0:0:0:
256,192,43004,1,8,0:0:0:0:
256,192,43078,1,8,0:0:0:0:
256,192,43152,1,0,0:0:0:0:
256,192,43300,1,0,0:0:0:0:
256,192,43448,1,0,0:0:0:0:
256,192,43522,1,8,0:0:0:0:
256,192,43596,1,0,0:0:0:0:
256,192,43669,1,0,0:0:0:0:
256,192,43743,1,8,0:0:0:0:
256,192,43891,1,0,0:0:0:0:
256,192,43965,1,8,0:0:0:0:
256,192,44113,1,8,0:0:0:0:
256,192,44187,1,0,0:0:0:0:
256,192,44261,1,0,0:0:0:0:
256,192,44334,1,8,0:0:0:0:
256,192,44556,1,8,0:0:0:0:
256,192,44704,1,0,0:0:0:0:
256,192,44778,1,8,0:0:0:0:
256,192,44852,1,8,0:0:0:0:
256,192,44926,1,4,0:0:0:0:
256,192,45147,1,0,0:0:0:0:
256,192,45221,1,8,0:0:0:0:
256,192,45369,1,0,0:0:0:0:
256,192,45517,1,8,0:0:0:0:
256,192,45591,1,0,0:0:0:0:
256,192,45665,1,8,0:0:0:0:
256,192,45738,1,0,0:0:0:0:
256,192,45812,1,8,0:0:0:0:
256,192,45886,1,8,0:0:0:0:
256,192,45960,1,0,0:0:0:0:
256,192,46009,1,0,0:0:0:0:
256,192,46059,1,0,0:0:0:0:
256,192,46108,1,8,0:0:0:0:
256,192,46305,1,8,0:0:0:0:
256,192,46403,1,0,0:0:0:0:
256,192,46600,1,8,0:0:0:0:
256,192,46699,1,0,0:0:0:0:
256,192,46896,1,8,0:0:0:0:
256,192,46995,1,0,0:0:0:0:
256,192,47142,1,0,0:0:0:0:
256,192,47216,1,0,0:0:0:0:
256,192,47290,1,8,0:0:0:0:
256,192,47438,1,8,0:0:0:0:
256,192,47487,1,8,0:0:0:0:
256,192,47536,1,8,0:0:0:0:
256,192,47586,1,0,0:0:0:0:
256,192,47733,1,8,0:0:0:0:
256,192,47881,1,0,0:0:0:0:
256,192,48029,1,8,0:0:0:0:
256,192,48103,1,0,0:0:0:0:
256,192,48177,1,8,0:0:0:0:
256,192,48251,1,0,0:0:0:0:
256,192,48325,1,8,0:0:0:0:
256,192,48374,1,8,0:0:0:0:
256,192,48423,1,0,0:0:0:0:
256,192,48472,1,8,0:0:0:0:
256,192,48620,1,8,0:0:0:0:
256,192,48669,1,0,0:0:0:0:
256,192,48719,1,0,0:0:0:0:
256,192,48768,1,8,0:0:0:0:
256,192,48842,1,0,0:0:0:0:
256,192,48916,1,0,0:0:0:0:
256,192,48990,1,8,0:0:0:0:
256,192,49064,1,8,0:0:0:0:
256,192,49137,1,8,0:0:0:0:
256,192,49211,1,0,0:0:0:0:
256,192,49285,1,0,0:0:0:0:
256,192,49359,1,8,0:0:0:0:
256,192,49433,1,0,0:0:0:0:
256,192,49507,1,8,0:0:0:0:
256,192,49581,1,8,0:0:0:0:
256,192,49655,1,0,0:0:0:0:
256,192,49802,1,8,0:0:0:0:
256,192,49852,1,0,0:0:0:0:
256,192,49901,1,0,0:0:0:0:
256,192,49950,1,8,0:0:0:0:
256,192,50024,1,8,0:0:0:0:
256,192,50098,1,0,0:0:0:0:
256,192,50172,1,0,0:0:0:0:
256,192,50246,1,8,0:0:0:0:
256,192,50320,1,8,0:0:0:0:
256,192,50394,1,0,0:0:0:0:
256,192,50467,1,8,0:0:0:0:
256,192,50541,1,0,0:0:0:0:
256,192,50615,1,0,0:0:0:0:
256,192,50689,1,8,0:0:0:0:
256,192,50763,1,8,0:0:0:0:
256,192,50837,1,0,0:0:0:0:
256,192,50911,1,0,0:0:0:0:
256,192,50985,1,8,0:0:0:0:
256,192,51059,1,0,0:0:0:0:
256,192,51133,1,8,0:0:0:0:
256,192,51206,1,8,0:0:0:0:
256,192,51280,1,0,0:0:0:0:
256,192,51354,1,8,0:0:0:0:
256,192,51428,1,8,0:0:0:0:
256,192,51502,1,8,0:0:0:0:
256,192,51576,1,0,0:0:0:0:
256,192,51650,1,8,0:0:0:0:
256,192,51724,1,8,0:0:0:0:
256,192,51798,1,8,0:0:0:0:
256,192,51871,1,0,0:0:0:0:
256,192,51945,1,8,0:0:0:0:
256,192,52019,1,8,0:0:0:0:
256,192,52167,1,8,0:0:0:0:
256,192,52216,1,0,0:0:0:0:
256,192,52266,1,8,0:0:0:0:
256,192,52315,1,8,0:0:0:0:
256,192,52463,1,8,0:0:0:0:
256,192,52512,1,8,0:0:0:0:
256,192,52561,1,0,0:0:0:0:
256,192,52610,1,8,0:0:0:0:
256,192,52684,1,0,0:0:0:0:
256,192,52758,1,8,0:0:0:0:
256,192,52832,1,0,0:0:0:0:
256,192,52906,1,8,0:0:0:0:
256,192,52980,1,8,0:0:0:0:
256,192,53054,1,0,0:0:0:0:
256,192,53128,1,0,0:0:0:0:
256,192,53201,1,8,0:0:0:0:
256,192,53275,1,0,0:0:0:0:
256,192,53349,1,8,0:0:0:0:
256,192,53423,1,0,0:0:0:0:
256,192,53497,1,8,0:0:0:0:
256,192,53571,1,8,0:0:0:0:
256,192,53645,1,0,0:0:0:0:
256,192,53719,1,0,0:0:0:0:
256,192,53793,5,8,0:0:0:0:
256,192,53842,1,8,0:0:0:0:
256,192,53891,1,8,0:0:0:0:
256,192,53940,1,0,0:0:0:0:
256,192,53990,1,0,0:0:0:0:
256,192,54039,1,0,0:0:0:0:
256,192,54088,1,8,0:0:0:0:
256,192,54137,1,0,0:0:0:0:
256,192,54187,1,0,0:0:0:0:
256,192,54236,1,8,0:0:0:0:
256,192,54285,1,8,0:0:0:0:
256,192,54334,1,8,0:0:0:0:
256,192,54384,1,0,0:0:0:0:
256,192,54679,1,0,0:0:0:0:
256,192,54827,1,0,0:0:0:0:
256,192,54975,1,8,0:0:0:0:
256,192,55123,1,0,0:0:0:0:
256,192,55270,1,8,0:0:0:0:
256,192,55418,1,8,0:0:0:0:
256,192,55566,1,8,0:0:0:0:
256,192,55714,1,0,0:0:0:0:
256,192,55862,1,8,0:0:0:0:
256,192,56009,1,0,0:0:0:0:
256,192,56157,1,8,0:0:0:0:
256,192,56256,1,0,0:0:0:0:
256,192,56354,1,0,0:0:0:0:
256,192,56453,1,8,0:0:0:0:
256,192,56551,1,8,0:0:0:0:
256,192,56650,1,0,0:0:0:0:
256,192,56748,1,8,0:0:0:0:
256,192,56822,1,0,0:0:0:0:
256,192,56896,1,8,0:0:0:0:
256,192,56970,1,0,0:0:0:0:
256,192,57044,1,8,0:0:0:0:
256,192,57118,1,8,0:0:0:0:
256,192,57192,1,0,0:0:0:0:
256,192,57266,1,0,0:0:0:0:
256,192,57339,1,8,0:0:0:0:
256,192,57413,1,0,0:0:0:0:
256,192,57487,1,8,0:0:0:0:
256,192,57561,1,8,0:0:0:0:
256,192,57635,1,0,0:0:0:0:
256,192,57783,1,0,0:0:0:0:
256,192,57931,1,8,0:0:0:0:
256,192,58078,1,0,0:0:0:0:
256,192,58152,1,0,0:0:0:0:
256,192,58226,1,8,0:0:0:0:
256,192,58374,1,0,0:0:0:0:
256,192,58448,1,0,0:0:0:0:
256,192,58522,1,8,0:0:0:0:
256,192,58669,1,0,0:0:0:0:
256,192,58817,1,8,0:0:0:0:
256,192,58965,1,8,0:0:0:0:
256,192,59113,1,4,0:0:0:0:
256,192,59261,1,0,0:0:0:0:
256,192,59334,1,8,0:0:0:0:
256,192,59408,1,0,0:0:0:0:
256,192,59556,1,12,0:0:0:0:
256,192,59704,1,8,0:0:0:0:
256,192,59778,1,0,0:0:0:0:
256,192,59852,1,8,0:0:0:0:
256,192,59999,1,4,0:0:0:0:
256,192,60147,1,0,0:0:0:0:
256,192,60221,1,8,0:0:0:0:
256,192,60295,1,0,0:0:0:0:
256,192,60443,1,12,0:0:0:0:
256,192,60591,1,8,0:0:0:0:
256,192,60665,1,0,0:0:0:0:
256,192,60738,1,8,0:0:0:0:
256,192,60886,1,8,0:0:0:0:
256,192,60960,1,0,0:0:0:0:
256,192,61034,1,8,0:0:0:0:
256,192,61108,1,8,0:0:0:0:
256,192,61182,1,0,0:0:0:0:
256,192,61330,1,8,0:0:0:0:
256,192,61478,1,4,0:0:0:0:
256,192,61625,1,0,0:0:0:0:
256,192,61699,1,8,0:0:0:0:
256,192,61773,1,0,0:0:0:0:
256,192,61921,1,12,0:0:0:0:
256,192,62069,1,8,0:0:0:0:
256,192,62143,1,0,0:0:0:0:
256,192,62216,1,8,0:0:0:0:
256,192,62364,1,12,0:0:0:0:
256,192,62512,1,0,0:0:0:0:
256,192,62586,1,0,0:0:0:0:
256,192,62660,1,8,0:0:0:0:
256,192,62881,1,8,0:0:0:0:
256,192,63103,1,8,0:0:0:0:
256,192,63325,1,8,0:0:0:0:
256,192,63472,1,0,0:0:0:0:
256,192,63546,1,8,0:0:0:0:
256,192,63694,1,0,0:0:0:0:
256,192,63768,1,0,0:0:0:0:
256,192,63842,1,8,0:0:0:0:
256,192,63916,1,0,0:0:0:0:
256,192,63990,1,8,0:0:0:0:
256,192,64064,1,0,0:0:0:0:
256,192,64137,1,8,0:0:0:0:
256,192,64211,1,8,0:0:0:0:
256,192,64285,1,8,0:0:0:0:
256,192,64359,1,0,0:0:0:0:
256,192,64433,1,8,0:0:0:0:
256,192,64507,1,0,0:0:0:0:
256,192,64581,1,8,0:0:0:0:
256,192,64655,1,8,0:0:0:0:
256,192,64729,1,0,0:0:0:0:
256,192,64802,1,0,0:0:0:0:
256,192,64876,1,8,0:0:0:0:
256,192,64950,1,0,0:0:0:0:
256,192,65024,1,8,0:0:0:0:
256,192,65098,1,8,0:0:0:0:
256,192,65172,1,0,0:0:0:0:
256,192,65246,1,0,0:0:0:0:
256,192,65320,1,8,0:0:0:0:
256,192,65394,1,0,0:0:0:0:
256,192,65467,1,0,0:0:0:0:
256,192,65541,1,0,0:0:0:0:
256,192,65615,1,8,0:0:0:0:
256,192,65763,1,8,0:0:0:0:
256,192,65837,1,0,0:0:0:0:
256,192,65911,1,8,0:0:0:0:
256,192,66059,1,8,0:0:0:0:
256,192,66206,1,0,0:0:0:0:
256,192,66502,1,12,0:0:0:0:
256,192,68275,1,8,0:0:0:0:
256,192,68349,1,8,0:0:0:0:
256,192,68423,1,0,0:0:0:0:
256,192,68496,1,0,0:0:0:0:
256,192,68571,1,8,0:0:0:0:
256,192,68645,1,0,0:0:0:0:
256,192,68719,1,8,0:0:0:0:
256,192,68793,1,0,0:0:0:0:
256,192,68866,1,8,0:0:0:0:
256,192,68940,1,0,0:0:0:0:
256,192,69014,1,8,0:0:0:0:
256,192,69088,1,0,0:0:0:0:
256,192,69162,1,8,0:0:0:0:
256,192,69236,1,0,0:0:0:0:
256,192,69310,1,8,0:0:0:0:
256,192,69384,1,0,0:0:0:0:
256,192,69458,1,8,0:0:0:0:
256,192,69532,1,0,0:0:0:0:
256,192,69605,1,8,0:0:0:0:
256,192,69679,1,0,0:0:0:0:
256,192,69753,1,8,0:0:0:0:
256,192,69827,1,8,0:0:0:0:
256,192,69901,1,0,0:0:0:0:
256,192,70049,5,8,0:0:0:0:
256,192,70098,1,0,0:0:0:0:
256,192,70147,1,0,0:0:0:0:
256,192,70197,1,8,0:0:0:0:
256,192,70246,1,8,0:0:0:0:
256,192,70295,1,8,0:0:0:0:
256,192,70344,1,0,0:0:0:0:
256,192,70394,1,0,0:0:0:0:
256,192,70443,1,0,0:0:0:0:
256,192,70492,1,0,0:0:0:0:
256,192,70541,1,0,0:0:0:0:
256,192,70591,1,0,0:0:0:0:
256,192,70640,1,8,0:0:0:0:
256,192,70788,1,0,0:0:0:0:
256,192,70862,1,0,0:0:0:0:
256,192,70935,1,12,0:0:0:0:
256,192,72709,1,0,0:0:0:0:
256,192,73004,1,0,0:0:0:0:
256,192,73300,1,8,0:0:0:0:
256,192,75073,1,8,0:0:0:0:
256,192,75369,1,8,0:0:0:0:
256,192,75665,1,4,0:0:0:0:
256,192,77438,1,8,0:0:0:0:
256,192,77733,1,8,0:0:0:0:
256,192,78029,1,0,0:0:0:0:
256,192,79211,1,4,0:0:0:0:
256,192,79507,1,8,0:0:0:0:
256,192,79581,1,0,0:0:0:0:
256,192,79655,1,8,0:0:0:0:
256,192,79729,1,0,0:0:0:0:
256,192,79802,1,12,0:0:0:0:
256,192,79950,1,12,0:0:0:0:
256,192,80098,1,4,0:0:0:0:
256,192,80394,1,0,0:0:0:0:
256,192,80689,1,8,0:0:0:0:
256,192,80837,1,8,0:0:0:0:
256,192,80985,1,0,0:0:0:0:
256,192,81133,1,0,0:0:0:0:
256,192,81280,1,8,0:0:0:0:
256,192,81576,1,8,0:0:0:0:
256,192,81724,1,0,0:0:0:0:
256,192,81871,1,8,0:0:0:0:
256,192,81970,1,0,0:0:0:0:
256,192,82068,1,0,0:0:0:0:
256,192,82167,1,8,0:0:0:0:
256,192,82315,1,0,0:0:0:0:
256,192,82463,1,8,0:0:0:0:
256,192,82610,1,8,0:0:0:0:
256,192,82758,1,8,0:0:0:0:
256,192,82906,1,0,0:0:0:0:
256,192,83054,1,8,0:0:0:0:
256,192,83201,1,0,0:0:0:0:
256,192,83275,1,8,0:0:0:0:
256,192,83349,1,0,0:0:0:0:
256,192,83497,1,0,0:0:0:0:
256,192,83571,1,8,0:0:0:0:
256,192,83719,1,0,0:0:0:0:
256,192,83793,1,8,0:0:0:0:
256,192,83940,1,0,0:0:0:0:
256,192,84088,1,0,0:0:0:0:
256,192,84236,1,8,0:0:0:0:
256,192,84384,1,0,0:0:0:0:
256,192,84458,1,0,0:0:0:0:
256,192,84532,1,8,0:0:0:0:
256,192,84679,1,0,0:0:0:0:
256,192,84753,1,8,0:0:0:0:
256,192,84827,1,8,0:0:0:0:
256,192,84901,1,0,0:0:0:0:
256,192,84975,1,8,0:0:0:0:
256,192,85123,1,12,0:0:0:0:
256,192,85270,1,0,0:0:0:0:
256,192,85344,1,8,0:0:0:0:
256,192,85418,1,0,0:0:0:0:
256,192,85566,1,8,0:0:0:0:
256,192,85640,1,0,0:0:0:0:
256,192,85714,1,8,0:0:0:0:
256,192,85788,1,0,0:0:0:0:
256,192,85935,1,0,0:0:0:0:
256,192,86009,1,8,0:0:0:0:
256,192,86157,1,8,0:0:0:0:
256,192,86305,1,12,0:0:0:0:
256,192,86453,1,0,0:0:0:0:
256,192,86527,1,0,0:0:0:0:
256,192,86600,1,8,0:0:0:0:
256,192,86748,1,0,0:0:0:0:
256,192,86822,1,8,0:0:0:0:
256,192,86896,1,0,0:0:0:0:
256,192,86970,1,8,0:0:0:0:
256,192,87044,1,8,0:0:0:0:
256,192,87118,1,0,0:0:0:0:
256,192,87192,1,8,0:0:0:0:
256,192,87339,1,0,0:0:0:0:
256,192,87487,1,12,0:0:0:0:
256,192,87635,1,0,0:0:0:0:
256,192,87783,1,8,0:0:0:0:
256,192,87857,1,0,0:0:0:0:
256,192,88004,1,0,0:0:0:0:
256,192,88078,1,8,0:0:0:0:
256,192,88226,1,0,0:0:0:0:
256,192,88300,1,8,0:0:0:0:
256,192,88374,1,8,0:0:0:0:
256,192,88448,1,0,0:0:0:0:
256,192,88522,1,8,0:0:0:0:
256,192,88669,1,8,0:0:0:0:
256,192,88743,1,8,0:0:0:0:
256,192,88817,1,8,0:0:0:0:
256,192,88891,1,0,0:0:0:0:
256,192,88965,1,8,0:0:0:0:
256,192,89039,1,8,0:0:0:0:
256,192,89113,1,0,0:0:0:0:
256,192,89187,1,0,0:0:0:0:
256,192,89261,1,8,0:0:0:0:
256,192,89334,1,0,0:0:0:0:
256,192,89408,1,8,0:0:0:0:
256,192,89482,1,8,0:0:0:0:
256,192,89556,1,0,0:0:0:0:
256,192,89630,1,0,0:0:0:0:
256,192,89704,1,8,0:0:0:0:
256,192,89852,1,0,0:0:0:0:
256,192,89999,1,0,0:0:0:0:
256,192,90073,1,0,0:0:0:0:
256,192,90147,1,12,0:0:0:0:
256,192,90295,1,0,0:0:0:0:
256,192,90443,1,8,0:0:0:0:
256,192,90591,1,0,0:0:0:0:
256,192,90665,1,8,0:0:0:0:
256,192,90738,1,8,0:0:0:0:
256,192,90812,1,0,0:0:0:0:
256,192,90886,1,8,0:0:0:0:
256,192,91034,1,8,0:0:0:0:
256,192,91182,1,0,0:0:0:0:
256,192,91256,1,8,0:0:0:0:
256,192,91330,1,0,0:0:0:0:
256,192,91477,1,0,0:0:0:0:
256,192,91551,1,8,0:0:0:0:
256,192,91625,1,8,0:0:0:0:
256,192,91773,1,0,0:0:0:0:
256,192,91847,1,0,0:0:0:0:
256,192,91921,1,8,0:0:0:0:
256,192,92068,1,0,0:0:0:0:
256,192,92142,1,0,0:0:0:0:
256,192,92216,1,8,0:0:0:0:
256,192,92290,1,8,0:0:0:0:
256,192,92364,1,0,0:0:0:0:
256,192,92438,1,0,0:0:0:0:
256,192,92512,1,8,0:0:0:0:
256,192,92660,1,8,0:0:0:0:
256,192,92733,1,8,0:0:0:0:
256,192,92807,1,0,0:0:0:0:
256,192,92881,1,0,0:0:0:0:
256,192,92955,1,8,0:0:0:0:
256,192,93103,1,0,0:0:0:0:
256,192,93177,1,0,0:0:0:0:
256,192,93251,1,8,0:0:0:0:
256,192,93325,1,0,0:0:0:0:
256,192,93399,1,8,0:0:0:0:
256,192,93472,1,8,0:0:0:0:
256,192,93546,1,8,0:0:0:0:
256,192,93694,1,0,0:0:0:0:
256,192,93842,1,8,0:0:0:0:
256,192,93916,1,0,0:0:0:0:
256,192,93990,1,8,0:0:0:0:
256,192,94137,1,0,0:0:0:0:
256,192,94211,1,8,0:0:0:0:
256,192,94285,1,0,0:0:0:0:
256,192,94433,1,0,0:0:0:0:
256,192,94507,1,0,0:0:0:0:
256,192,94581,1,12,0:0:0:0:
256,192,94729,1,0,0:0:0:0:
256,192,94876,1,8,0:0:0:0:
256,192,95024,1,0,0:0:0:0:
256,192,95098,1,8,0:0:0:0:
256,192,95172,1,0,0:0:0:0:
256,192,95320,1,0,0:0:0:0:
256,192,95467,1,8,0:0:0:0:
256,192,95541,1,8,0:0:0:0:
256,192,95615,1,0,0:0:0:0:
256,192,95689,1,0,0:0:0:0:
256,192,95763,1,8,0:0:0:0:
256,192,95911,1,0,0:0:0:0:
256,192,95985,1,8,0:0:0:0:
256,192,96059,1,0,0:0:0:0:
256,192,96206,1,0,0:0:0:0:
256,192,96354,1,8,0:0:0:0:
256,192,96428,1,0,0:0:0:0:
256,192,96502,1,0,0:0:0:0:
256,192,96576,1,0,0:0:0:0:
256,192,96650,1,8,0:0:0:0:
256,192,96798,1,8,0:0:0:0:
256,192,96871,1,0,0:0:0:0:
256,192,96945,1,8,0:0:0:0:
256,192,97093,1,8,0:0:0:0:
256,192,97167,1,0,0:0:0:0:
256,192,97241,1,8,0:0:0:0:
256,192,97315,1,8,0:0:0:0:
256,192,97389,1,0,0:0:0:0:
256,192,97463,1,0,0:0:0:0:
256,192,97536,1,8,0:0:0:0:
256,192,97610,1,0,0:0:0:0:
256,192,97684,1,0,0:0:0:0:
256,192,97758,1,0,0:0:0:0:
256,192,97832,1,8,0:0:0:0:
256,192,97906,1,0,0:0:0:0:
256,192,97980,1,8,0:0:0:0:
256,192,98054,1,8,0:0:0:0:
256,192,98128,1,0,0:0:0:0:
256,192,98201,1,0,0:0:0:0:
256,192,98275,1,8,0:0:0:0:
256,192,98349,1,8,0:0:0:0:
256,192,98423,1,0,0:0:0:0:
256,192,98497,1,8,0:0:0:0:
256,192,98571,1,8,0:0:0:0:
256,192,98645,1,0,0:0:0:0:
256,192,98719,1,8,0:0:0:0:
256,192,98866,1,0,0:0:0:0:
256,192,98940,1,8,0:0:0:0:
256,192,99014,1,0,0:0:0:0:
256,192,99088,1,0,0:0:0:0:
256,192,99162,1,8,0:0:0:0:
256,192,99236,1,0,0:0:0:0:
256,192,99310,1,12,0:0:0:0:
256,192,99458,1,8,0:0:0:0:
256,192,99532,1,8,0:0:0:0:
256,192,99605,1,0,0:0:0:0:
256,192,99827,1,0,0:0:0:0:
256,192,99901,1,8,0:0:0:0:
256,192,100049,1,0,0:0:0:0:
256,192,100123,1,8,0:0:0:0:
256,192,100197,1,0,0:0:0:0:
256,192,100344,1,0,0:0:0:0:
256,192,100418,1,0,0:0:0:0:
256,192,100492,1,8,0:0:0:0:
256,192,100640,1,0,0:0:0:0:
256,192,100714,1,8,0:0:0:0:
256,192,100788,1,0,0:0:0:0:
256,192,100886,1,0,0:0:0:0:
256,192,100985,1,8,0:0:0:0:
256,192,101083,1,0,0:0:0:0:
256,192,101157,1,0,0:0:0:0:
256,192,101231,1,8,0:0:0:0:
256,192,101305,1,8,0:0:0:0:
256,192,101379,1,0,0:0:0:0:
256,192,101527,1,0,0:0:0:0:
256,192,101674,1,8,0:0:0:0:
256,192,101822,1,0,0:0:0:0:
256,192,101970,1,8,0:0:0:0:
256,192,102118,1,0,0:0:0:0:
256,192,102192,1,0,0:0:0:0:
256,192,102266,1,8,0:0:0:0:
256,192,102339,1,0,0:0:0:0:
256,192,102413,1,8,0:0:0:0:
256,192,102487,1,8,0:0:0:0:
256,192,102561,1,0,0:0:0:0:
256,192,102635,1,8,0:0:0:0:
256,192,102709,1,0,0:0:0:0:
256,192,102783,1,0,0:0:0:0:
256,192,102857,1,8,0:0:0:0:
256,192,103004,1,8,0:0:0:0:
256,192,103078,1,0,0:0:0:0:
256,192,103152,1,8,0:0:0:0:
256,192,103226,1,8,0:0:0:0:
256,192,103300,1,0,0:0:0:0:
256,192,103374,1,0,0:0:0:0:
256,192,103448,1,8,0:0:0:0:
256,192,103522,1,0,0:0:0:0:
256,192,103596,1,8,0:0:0:0:
256,192,103669,1,8,0:0:0:0:
256,192,103743,1,0,0:0:0:0:
256,192,103793,1,0,0:0:0:0:
256,192,103842,1,0,0:0:0:0:
256,192,103891,1,8,0:0:0:0:
256,192,103965,1,0,0:0:0:0:
256,192,104039,1,8,0:0:0:0:
256,192,104113,1,8,0:0:0:0:
256,192,104187,1,0,0:0:0:0:
256,192,104261,1,0,0:0:0:0:
256,192,104334,1,8,0:0:0:0:
256,192,104482,1,0,0:0:0:0:
256,192,104630,1,8,0:0:0:0:
256,192,104778,1,0,0:0:0:0:
256,192,104852,1,0,0:0:0:0:
256,192,104926,1,8,0:0:0:0:
256,192,104999,1,8,0:0:0:0:
256,192,105073,1,0,0:0:0:0:
256,192,105147,1,0,0:0:0:0:
256,192,105221,1,8,0:0:0:0:
256,192,105295,1,0,0:0:0:0:
256,192,105369,1,8,0:0:0:0:
256,192,105443,1,0,0:0:0:0:
256,192,105517,1,8,0:0:0:0:
256,192,105591,1,0,0:0:0:0:
256,192,105665,1,8,0:0:0:0:
256,192,105738,1,0,0:0:0:0:
256,192,105812,5,8,0:0:0:0:
256,192,105862,1,0,0:0:0:0:
256,192,105911,1,8,0:0:0:0:
256,192,105960,1,0,0:0:0:0:
256,192,106009,1,8,0:0:0:0:
256,192,106059,1,0,0:0:0:0:
256,192,106108,1,8,0:0:0:0:
256,192,106157,1,0,0:0:0:0:
256,192,106206,1,8,0:0:0:0:
256,192,106256,1,0,0:0:0:0:
256,192,106305,1,8,0:0:0:0:
256,192,106354,1,0,0:0:0:0:
256,192,106403,5,8,0:0:0:0:
256,192,106477,1,8,0:0:0:0:
256,192,106551,1,0,0:0:0:0:
256,192,106625,1,0,0:0:0:0:
256,192,106699,1,0,0:0:0:0:
256,192,106773,1,8,0:0:0:0:
256,192,106847,1,8,0:0:0:0:
256,192,106921,1,0,0:0:0:0:
256,192,106995,1,8,0:0:0:0:
256,192,107142,1,8,0:0:0:0:
256,192,107216,1,0,0:0:0:0:
256,192,107364,1,8,0:0:0:0:
256,192,107438,1,0,0:0:0:0:
256,192,107586,1,8,0:0:0:0:
256,192,107733,1,0,0:0:0:0:
256,192,107881,1,8,0:0:0:0:
256,192,108029,1,8,0:0:0:0:
256,192,108103,1,0,0:0:0:0:
256,192,108177,1,8,0:0:0:0:
256,192,108325,1,0,0:0:0:0:
256,192,108399,1,0,0:0:0:0:
256,192,108472,1,8,0:0:0:0:
256,192,108546,1,8,0:0:0:0:
256,192,108620,1,8,0:0:0:0:
256,192,108694,1,0,0:0:0:0:
256,192,108768,1,12,0:0:0:0:
256,192,108916,1,0,0:0:0:0:
256,192,109064,1,8,0:0:0:0:
256,192,109137,1,0,0:0:0:0:
256,192,109211,1,0,0:0:0:0:
256,192,109285,1,8,0:0:0:0:
256,192,109359,1,8,0:0:0:0:
256,192,109433,1,0,0:0:0:0:
256,192,109507,1,8,0:0:0:0:
256,192,109581,1,0,0:0:0:0:
256,192,109655,1,8,0:0:0:0:
256,192,109729,1,0,0:0:0:0:
256,192,109802,1,8,0:0:0:0:
256,192,109876,1,8,0:0:0:0:
256,192,109950,1,0,0:0:0:0:
256,192,110098,1,0,0:0:0:0:
256,192,110172,1,0,0:0:0:0:
256,192,110246,1,8,0:0:0:0:
256,192,110320,1,0,0:0:0:0:
256,192,110394,1,8,0:0:0:0:
256,192,110541,1,0,0:0:0:0:
256,192,110689,5,0,0:0:0:0:
256,192,110837,1,8,0:0:0:0:
256,192,110911,1,8,0:0:0:0:
256,192,110985,1,0,0:0:0:0:
256,192,111059,1,0,0:0:0:0:
256,192,111133,1,12,0:0:0:0:
256,192,111280,1,12,0:0:0:0:
256,192,111428,1,0,0:0:0:0:
256,192,111576,1,8,0:0:0:0:
256,192,111650,1,0,0:0:0:0:
256,192,111724,1,8,0:0:0:0:
256,192,111798,1,8,0:0:0:0:
256,192,111871,1,0,0:0:0:0:
256,192,111921,1,0,0:0:0:0:
256,192,111970,1,0,0:0:0:0:
256,192,112019,1,8,0:0:0:0:
256,192,112167,1,0,0:0:0:0:
256,192,112315,1,8,0:0:0:0:
256,192,112389,1,0,0:0:0:0:
256,192,112463,1,8,0:0:0:0:
256,192,112536,1,8,0:0:0:0:
256,192,112610,1,0,0:0:0:0:
256,192,112758,1,0,0:0:0:0:
256,192,112832,1,0,0:0:0:0:
256,192,112906,1,8,0:0:0:0:
256,192,113054,1,0,0:0:0:0:
256,192,113128,1,0,0:0:0:0:
256,192,113201,1,8,0:0:0:0:
256,192,113349,1,0,0:0:0:0:
256,192,113497,1,12,0:0:0:0:
256,192,113645,5,12,0:0:0:0:
256,192,113793,1,0,0:0:0:0:
256,192,113940,1,8,0:0:0:0:
256,192,114014,1,8,0:0:0:0:
256,192,114088,1,0,0:0:0:0:
256,192,114162,1,0,0:0:0:0:
256,192,114236,1,8,0:0:0:0:
256,192,114285,1,8,0:0:0:0:
256,192,114334,1,8,0:0:0:0:
256,192,114384,1,0,0:0:0:0:
256,192,114532,1,0,0:0:0:0:
256,192,114679,1,12,0:0:0:0:
256,192,114827,1,12,0:0:0:0:
256,192,114975,1,4,0:0:0:0:
256,192,115123,1,12,0:0:0:0:
256,192,115270,5,12,0:0:0:0:
256,192,115418,1,0,0:0:0:0:
256,192,115566,1,8,0:0:0:0:
256,192,115640,1,8,0:0:0:0:
256,192,115714,1,0,0:0:0:0:
256,192,115788,1,0,0:0:0:0:
256,192,115862,1,12,0:0:0:0:
256,192,116009,1,12,0:0:0:0:
256,192,116157,1,0,0:0:0:0:
256,192,116305,1,0,0:0:0:0:
256,192,116379,1,8,0:0:0:0:
256,192,116453,1,8,0:0:0:0:
256,192,116527,1,0,0:0:0:0:
256,192,116600,1,8,0:0:0:0:
256,192,116650,1,0,0:0:0:0:
256,192,116699,1,0,0:0:0:0:
256,192,116748,1,8,0:0:0:0:
256,192,116896,1,0,0:0:0:0:
256,192,117044,5,12,0:0:0:0:
256,192,117192,1,0,0:0:0:0:
256,192,117339,1,12,0:0:0:0:
256,192,117487,1,0,0:0:0:0:
256,192,117561,1,0,0:0:0:0:
256,192,117635,1,12,0:0:0:0:
256,192,117783,1,0,0:0:0:0:
256,192,117931,1,12,0:0:0:0:
256,192,118078,1,0,0:0:0:0:
256,192,118226,1,12,0:0:0:0:
256,192,118374,5,12,0:0:0:0:
256,192,118522,1,0,0:0:0:0:
256,192,118596,1,0,0:0:0:0:
256,192,118669,1,8,0:0:0:0:
256,192,118743,1,8,0:0:0:0:
256,192,118817,1,0,0:0:0:0:
256,192,118891,1,0,0:0:0:0:
256,192,118965,1,8,0:0:0:0:
256,192,119014,1,8,0:0:0:0:
256,192,119064,1,8,0:0:0:0:
256,192,119113,1,0,0:0:0:0:
256,192,119261,1,0,0:0:0:0:
256,192,119408,1,8,0:0:0:0:
256,192,119556,1,0,0:0:0:0:
256,192,119704,1,8,0:0:0:0:
256,192,119852,1,0,0:0:0:0:
256,192,119999,1,8,0:0:0:0:
256,192,120073,1,0,0:0:0:0:
256,192,120147,1,8,0:0:0:0:
256,192,120221,1,8,0:0:0:0:
256,192,120295,1,0,0:0:0:0:
256,192,120369,1,0,0:0:0:0:
256,192,120443,1,8,0:0:0:0:
256,192,120517,1,0,0:0:0:0:
256,192,120591,5,8,0:0:0:0:
256,192,120665,1,8,0:0:0:0:
256,192,120738,1,0,0:0:0:0:
256,192,120788,1,0,0:0:0:0:
256,192,120837,1,0,0:0:0:0:
256,192,120886,1,8,0:0:0:0:
256,192,120960,1,8,0:0:0:0:
256,192,121034,1,0,0:0:0:0:
256,192,121083,1,8,0:0:0:0:
256,192,121133,1,8,0:0:0:0:
256,192,121182,1,0,0:0:0:0:
256,192,121256,1,0,0:0:0:0:
256,192,121330,1,8,0:0:0:0:
256,192,121403,1,0,0:0:0:0:
256,192,121477,1,8,0:0:0:0:
256,192,121551,1,8,0:0:0:0:
256,192,121625,1,0,0:0:0:0:
256,192,121699,1,0,0:0:0:0:
256,192,122068,1,4,0:0:0:0:
256,192,124137,1,8,0:0:0:0:
256,192,124211,1,0,0:0:0:0:
256,192,124285,1,8,0:0:0:0:
256,192,124359,1,8,0:0:0:0:
256,192,124433,1,0,0:0:0:0:
256,192,124507,1,0,0:0:0:0:
256,192,124581,1,8,0:0:0:0:
256,192,124655,1,0,0:0:0:0:
256,192,124729,1,0,0:0:0:0:
256,192,124802,1,8,0:0:0:0:
256,192,124876,1,8,0:0:0:0:
256,192,124950,1,0,0:0:0:0:
256,192,125024,1,8,0:0:0:0:
256,192,125098,1,0,0:0:0:0:
256,192,125172,1,8,0:0:0:0:
256,192,125246,1,0,0:0:0:0:
256,192,125320,1,8,0:0:0:0:
256,192,125369,1,8,0:0:0:0:
256,192,125418,1,8,0:0:0:0:
256,192,125467,1,0,0:0:0:0:
256,192,125541,1,0,0:0:0:0:
256,192,125615,1,8,0:0:0:0:
256,192,125665,1,0,0:0:0:0:
256,192,125714,1,0,0:0:0:0:
256,192,125763,1,8,0:0:0:0:
256,192,125837,1,0,0:0:0:0:
256,192,125911,1,8,0:0:0:0:
256,192,125985,1,8,0:0:0:0:
256,192,126059,1,0,0:0:0:0:
256,192,126133,1,0,0:0:0:0:
256,192,126206,1,8,0:0:0:0:
256,192,126256,1,0,0:0:0:0:
256,192,126305,1,8,0:0:0:0:
256,192,126354,1,8,0:0:0:0:
256,192,126403,1,0,0:0:0:0:
256,192,126453,1,0,0:0:0:0:
256,192,126502,1,12,0:0:0:0:
