osu file format v14

[General]
AudioFilename: audio.mp3
AudioLeadIn: 0
PreviewTime: 1202
Countdown: 0
SampleSet: None
StackLeniency: 0.7
Mode: 3
LetterboxInBreaks: 0
SpecialStyle: 0
WidescreenStoryboard: 1

[Editor]
DistanceSpacing: 0.8
BeatDivisor: 4
GridSize: 4
TimelineZoom: 2.899999

[Metadata]
Title:Azalea
TitleUnicode:Azalea
Artist:xi
ArtistUnicode:xi
Creator:LostCool
Version:Full Density
Source:PLEiADES - BlackY's BEATFLOOR
Tags:BlackY xi ハードルネッサンス
BeatmapID:2012917
BeatmapSetID:875838

[Difficulty]
HPDrainRate:9
CircleSize:4
OverallDifficulty:8.5
ApproachRate:5
SliderMultiplier:1.4
SliderTickRate:1

[Events]
//Background and Video events
0,0,"azaleabg16-9.jpg",0,0
//Break Periods
//Storyboard Layer 0 (Background)
//Storyboard Layer 1 (Fail)
//Storyboard Layer 2 (Pass)
//Storyboard Layer 3 (Foreground)
//Storyboard Sound Samples

[TimingPoints]
2433,307.692307692308,4,1,0,26,1,0
28376,307.692307692308,4,1,0,26,1,0

[HitObjects]
448,192,2433,5,0,0:0:0:0:
64,192,2740,1,0,0:0:0:0:
320,192,3048,1,0,0:0:0:0:
448,192,3356,1,0,0:0:0:0:
320,192,3509,1,0,0:0:0:0:
192,192,3663,1,0,0:0:0:0:
192,192,3971,1,0,0:0:0:0:
448,192,4279,1,0,0:0:0:0:
320,192,4432,1,0,0:0:0:0:
448,192,4586,1,0,0:0:0:0:
320,192,4740,1,0,0:0:0:0:
64,192,4894,1,0,0:0:0:0:
448,192,5202,1,0,0:0:0:0:
64,192,5509,1,0,0:0:0:0:
320,192,5817,1,0,0:0:0:0:
192,192,6125,1,0,0:0:0:0:
64,192,6125,1,0,0:0:0:0:
64,192,6432,1,0,0:0:0:0:
448,192,6740,1,0,0:0:0:0:
320,192,6894,1,0,0:0:0:0:
64,192,7048,1,0,0:0:0:0:
192,192,7048,1,0,0:0:0:0:
320,192,7202,1,0,0:0:0:0:
64,192,7356,1,0,0:0:0:0:
192,192,7356,1,0,0:0:0:0:
320,192,7635,1,0,0:0:0:0:
448,192,7915,1,0,0:0:0:0:
64,192,8195,1,0,0:0:0:0:
320,192,8335,1,0,0:0:0:0:
192,192,8474,1,0,0:0:0:0:
448,192,8754,1,0,0:0:0:0:
320,192,9034,1,0,0:0:0:0:
192,192,9174,1,0,0:0:0:0:
320,192,9314,1,0,0:0:0:0:
192,192,9453,1,0,0:0:0:0:
64,192,9593,1,0,0:0:0:0:
448,192,9593,1,0,0:0:0:0:
448,192,9873,1,0,0:0:0:0:
64,192,10153,1,0,0:0:0:0:
192,192,10153,1,0,0:0:0:0:
320,192,10432,1,0,0:0:0:0:
448,192,10572,1,0,0:0:0:0:
192,192,10712,1,0,0:0:0:0:
448,192,10992,1,0,0:0:0:0:
320,192,11272,1,0,0:0:0:0:
64,192,11272,1,0,0:0:0:0:
448,192,11411,1,0,0:0:0:0:
192,192,11551,1,0,0:0:0:0:
64,192,11551,1,0,0:0:0:0:
320,192,11691,1,0,0:0:0:0:
64,192,11831,1,0,0:0:0:0:
448,192,11831,1,0,0:0:0:0:
320,192,11831,1,0,0:0:0:0:
192,192,11831,1,0,0:0:0:0:
320,192,12087,1,0,0:0:0:0:
64,192,12343,1,0,0:0:0:0:
448,192,12600,1,0,0:0:0:0:
320,192,12600,1,0,0:0:0:0:
192,192,12856,1,0,0:0:0:0:
320,192,12856,1,0,0:0:0:0:
448,192,12856,1,0,0:0:0:0:
64,192,13113,1,0,0:0:0:0:
192,192,13113,1,0,0:0:0:0:
320,192,13369,1,0,0:0:0:0:
64,192,13369,1,0,0:0:0:0:
320,192,13497,1,0,0:0:0:0:
64,192,13625,1,0,0:0:0:0:
448,192,13625,1,0,0:0:0:0:
64,192,13754,1,0,0:0:0:0:
448,192,13882,1,0,0:0:0:0:
320,192,13882,1,0,0:0:0:0:
192,192,14138,1,0,0:0:0:0:
320,192,14138,1,0,0:0:0:0:
448,192,14395,1,0,0:0:0:0:
64,192,14395,1,0,0:0:0:0:
320,192,14651,1,0,0:0:0:0:
192,192,14651,1,0,0:0:0:0:
448,192,14779,1,0,0:0:0:0:
192,192,14907,1,0,0:0:0:0:
64,192,14907,1,0,0:0:0:0:
320,192,14907,1,0,0:0:0:0:
448,192,15164,1,0,0:0:0:0:
192,192,15164,1,0,0:0:0:0:
320,192,15420,1,0,0:0:0:0:
64,192,15420,1,0,0:0:0:0:
320,192,15548,1,0,0:0:0:0:
64,192,15677,1,0,0:0:0:0:
448,192,15677,1,0,0:0:0:0:
64,192,15805,1,0,0:0:0:0:
448,192,15933,1,0,0:0:0:0:
320,192,15933,1,0,0:0:0:0:
192,192,15933,1,0,0:0:0:0:
320,192,16152,1,0,0:0:0:0:
64,192,16372,1,0,0:0:0:0:
448,192,16592,1,0,0:0:0:0:
320,192,16592,1,0,0:0:0:0:
192,192,16812,1,0,0:0:0:0:
64,192,16812,1,0,0:0:0:0:
448,192,16812,1,0,0:0:0:0:
320,192,17031,1,0,0:0:0:0:
64,192,17251,1,0,0:0:0:0:
320,192,17251,1,0,0:0:0:0:
192,192,17361,1,0,0:0:0:0:
448,192,17361,1,0,0:0:0:0:
320,192,17471,1,0,0:0:0:0:
64,192,17471,1,0,0:0:0:0:
448,192,17581,1,0,0:0:0:0:
192,192,17581,1,0,0:0:0:0:
192,192,17691,1,0,0:0:0:0:
64,192,17691,1,0,0:0:0:0:
320,192,17691,1,0,0:0:0:0:
192,192,17911,1,0,0:0:0:0:
448,192,17911,1,0,0:0:0:0:
64,192,18130,1,0,0:0:0:0:
448,192,18130,1,0,0:0:0:0:
320,192,18130,1,0,0:0:0:0:
320,192,18350,1,0,0:0:0:0:
192,192,18570,1,0,0:0:0:0:
64,192,18570,1,0,0:0:0:0:
448,192,18790,1,0,0:0:0:0:
192,192,18790,1,0,0:0:0:0:
448,192,18900,1,0,0:0:0:0:
192,192,18900,1,0,0:0:0:0:
320,192,19009,1,0,0:0:0:0:
64,192,19009,1,0,0:0:0:0:
320,192,19119,1,0,0:0:0:0:
64,192,19119,1,0,0:0:0:0:
192,192,19229,1,0,0:0:0:0:
448,192,19229,1,0,0:0:0:0:
192,192,19339,1,0,0:0:0:0:
448,192,19339,1,0,0:0:0:0:
320,192,19449,1,0,0:0:0:0:
448,192,19449,128,0,19833:0:0:0:0:
64,192,19449,1,0,0:0:0:0:
192,192,19449,1,0,0:0:0:0:
320,192,19641,1,0,0:0:0:0:
320,192,19833,128,0,20218:0:0:0:0:
192,192,20025,1,0,0:0:0:0:
192,192,20218,128,0,20602:0:0:0:0:
64,192,20218,1,0,0:0:0:0:
320,192,20410,1,0,0:0:0:0:
320,192,20602,128,0,20795:0:0:0:0:
192,192,20795,128,0,20987:0:0:0:0:
320,192,20987,1,0,0:0:0:0:
448,192,20987,1,0,0:0:0:0:
192,192,21157,1,0,0:0:0:0:
64,192,21157,1,0,0:0:0:0:
320,192,21328,128,0,21670:0:0:0:0:
448,192,21328,1,0,0:0:0:0:
192,192,21499,1,0,0:0:0:0:
192,192,21670,128,0,22012:0:0:0:0:
64,192,21670,1,0,0:0:0:0:
448,192,21841,1,0,0:0:0:0:
320,192,21841,1,0,0:0:0:0:
320,192,22012,128,0,22354:0:0:0:0:
64,192,22183,1,0,0:0:0:0:
192,192,22183,1,0,0:0:0:0:
64,192,22354,128,0,22661:0:0:0:0:
192,192,22354,1,0,0:0:0:0:
192,192,22507,1,0,0:0:0:0:
192,192,22661,128,0,22969:0:0:0:0:
320,192,22815,1,0,0:0:0:0:
448,192,22815,1,0,0:0:0:0:
320,192,22969,128,0,23277:0:0:0:0:
448,192,22969,1,0,0:0:0:0:
192,192,23123,1,0,0:0:0:0:
192,192,23277,128,0,23430:0:0:0:0:
320,192,23430,128,0,23584:0:0:0:0:
192,192,23584,1,0,0:0:0:0:
64,192,23584,1,0,0:0:0:0:
320,192,23723,1,0,0:0:0:0:
192,192,23723,1,0,0:0:0:0:
64,192,23863,1,0,0:0:0:0:
192,192,23863,128,0,24143:0:0:0:0:
320,192,24003,1,0,0:0:0:0:
320,192,24143,128,0,24283:0:0:0:0:
448,192,24143,1,0,0:0:0:0:
192,192,24283,128,0,24423:0:0:0:0:
64,192,24423,128,0,24563:0:0:0:0:
320,192,24423,1,0,0:0:0:0:
448,192,24423,1,0,0:0:0:0:
320,192,24563,1,0,0:0:0:0:
192,192,24563,1,0,0:0:0:0:
448,192,24632,1,0,0:0:0:0:
64,192,24632,1,0,0:0:0:0:
192,192,24702,1,0,0:0:0:0:
320,192,24702,1,0,0:0:0:0:
192,192,24962,1,0,0:0:0:0:
64,192,24962,1,0,0:0:0:0:
448,192,24962,1,0,0:0:0:0:
320,192,24962,1,0,0:0:0:0:
320,192,25090,1,0,0:0:0:0:
448,192,25218,1,0,0:0:0:0:
320,192,25218,1,0,0:0:0:0:
192,192,25347,1,0,0:0:0:0:
192,192,25475,1,0,0:0:0:0:
448,192,25475,1,0,0:0:0:0:
64,192,25475,1,0,0:0:0:0:
320,192,25603,1,0,0:0:0:0:
448,192,25731,1,0,0:0:0:0:
320,192,25731,1,0,0:0:0:0:
192,192,25849,1,0,0:0:0:0:
320,192,25967,1,0,0:0:0:0:
448,192,25967,1,0,0:0:0:0:
192,192,26086,1,0,0:0:0:0:
448,192,26086,1,0,0:0:0:0:
192,192,26204,1,0,0:0:0:0:
64,192,26204,1,0,0:0:0:0:
320,192,26204,1,0,0:0:0:0:
448,192,26322,1,0,0:0:0:0:
192,192,26322,1,0,0:0:0:0:
320,192,26441,1,0,0:0:0:0:
64,192,26559,1,0,0:0:0:0:
192,192,26559,1,0,0:0:0:0:
64,192,26677,1,0,0:0:0:0:
192,192,26677,1,0,0:0:0:0:
320,192,26677,1,0,0:0:0:0:
448,192,26677,1,0,0:0:0:0:
320,192,26786,1,0,0:0:0:0:
192,192,26896,1,0,0:0:0:0:
320,192,27006,1,0,0:0:0:0:
320,192,27116,1,0,0:0:0:0:
448,192,27116,1,0,0:0:0:0:
64,192,27116,1,0,0:0:0:0:
192,192,27226,1,0,0:0:0:0:
192,192,27336,1,0,0:0:0:0:
320,192,27336,1,0,0:0:0:0:
320,192,27446,1,0,0:0:0:0:
448,192,27446,1,0,0:0:0:0:
192,192,27556,1,0,0:0:0:0:
64,192,27556,1,0,0:0:0:0:
448,192,27556,1,0,0:0:0:0:
320,192,27658,1,0,0:0:0:0:
192,192,27658,1,0,0:0:0:0:
448,192,27761,1,0,0:0:0:0:
320,192,27761,1,0,0:0:0:0:
64,192,27761,1,0,0:0:0:0:
192,192,27863,1,0,0:0:0:0:
320,192,27863,1,0,0:0:0:0:
64,192,27966,1,0,0:0:0:0:
192,192,27966,1,0,0:0:0:0:
448,192,28068,1,0,0:0:0:0:
320,192,28081,1,0,0:0:0:0:
192,192,28103,1,0,0:0:0:0:
64,192,28107,1,0,0:0:0:0:
448,192,28137,1,0,0:0:0:0:
320,192,28145,1,0,0:0:0:0:
192,192,28171,1,0,0:0:0:0:
64,192,28184,1,0,0:0:0:0:
448,192,28273,1,0,0:0:0:0:
320,192,28273,1,0,0:0:0:0:
192,192,28376,128,0,29299:0:0:0:0:
64,192,28376,128,0,29299:0:0:0:0:
320,192,29299,1,0,0:0:0:0:
448,192,29299,1,0,0:0:0:0:
192,192,29376,1,0,0:0:0:0:
64,192,29376,1,0,0:0:0:0:
320,192,29452,1,0,0:0:0:0:
448,192,29452,1,0,0:0:0:0:
192,192,29529,1,0,0:0:0:0:
64,192,29529,1,0,0:0:0:0:
320,192,29606,1,0,0:0:0:0:
448,192,29606,1,0,0:0:0:0:
192,192,29683,1,0,0:0:0:0:
64,192,29683,1,0,0:0:0:0:
448,192,29760,1,0,0:0:0:0:
320,192,29760,1,0,0:0:0:0:
64,192,29837,1,0,0:0:0:0:
192,192,29837,1,0,0:0:0:0:
448,192,29914,1,0,0:0:0:0:
320,192,29914,1,0,0:0:0:0:
64,192,29991,1,0,0:0:0:0:
192,192,29991,1,0,0:0:0:0:
320,192,30068,1,0,0:0:0:0:
448,192,30068,1,0,0:0:0:0:
192,192,30145,1,0,0:0:0:0:
64,192,30145,1,0,0:0:0:0:
320,192,30222,1,0,0:0:0:0:
448,192,30222,1,0,0:0:0:0:
192,192,30299,1,0,0:0:0:0:
64,192,30299,1,0,0:0:0:0:
448,192,30376,1,0,0:0:0:0:
320,192,30376,1,0,0:0:0:0:
64,192,30452,1,0,0:0:0:0:
192,192,30452,1,0,0:0:0:0:
448,192,30529,1,0,0:0:0:0:
320,192,30529,1,0,0:0:0:0:
64,192,30606,1,0,0:0:0:0:
192,192,30606,1,0,0:0:0:0:
320,192,30683,1,0,0:0:0:0:
448,192,30683,1,0,0:0:0:0:
192,192,30760,1,0,0:0:0:0:
64,192,30760,1,0,0:0:0:0:
448,192,30837,1,0,0:0:0:0:
320,192,30837,1,0,0:0:0:0:
192,192,30914,1,0,0:0:0:0:
64,192,30914,1,0,0:0:0:0:
320,192,30991,1,0,0:0:0:0:
448,192,30991,1,0,0:0:0:0:
64,192,31068,1,0,0:0:0:0:
192,192,31068,1,0,0:0:0:0:
320,192,31145,1,0,0:0:0:0:
448,192,31145,1,0,0:0:0:0:
192,192,31222,1,0,0:0:0:0:
64,192,31222,1,0,0:0:0:0:
320,192,31299,1,0,0:0:0:0:
448,192,31299,1,0,0:0:0:0:
192,192,31376,1,0,0:0:0:0:
64,192,31376,1,0,0:0:0:0:
320,192,31452,128,0,31529:0:0:0:0:
448,192,31452,1,0,0:0:0:0:
192,192,31529,128,0,31606:0:0:0:0:
64,192,31529,1,0,0:0:0:0:
320,192,31606,128,0,31683:0:0:0:0:
448,192,31606,1,0,0:0:0:0:
192,192,31683,128,0,31760:0:0:0:0:
64,192,31683,1,0,0:0:0:0:
448,192,31760,128,0,31837:0:0:0:0:
320,192,31760,1,0,0:0:0:0:
64,192,31837,128,0,31914:0:0:0:0:
192,192,31837,1,0,0:0:0:0:
320,192,31914,1,0,0:0:0:0:
448,192,31914,128,0,31991:0:0:0:0:
64,192,31991,128,0,32068:0:0:0:0:
192,192,31991,1,0,0:0:0:0:
320,192,32068,128,0,32145:0:0:0:0:
448,192,32068,1,0,0:0:0:0:
192,192,32145,128,0,32222:0:0:0:0:
320,192,32222,128,0,32299:0:0:0:0:
192,192,32299,128,0,32376:0:0:0:0:
448,192,32376,128,0,32452:0:0:0:0:
64,192,32452,128,0,32529:0:0:0:0:
448,192,32529,128,0,32606:0:0:0:0:
64,192,32606,128,0,32683:0:0:0:0:
320,192,32683,128,0,32760:0:0:0:0:
192,192,32760,128,0,32837:0:0:0:0:
320,192,32837,128,0,32914:0:0:0:0:
192,192,32914,128,0,32991:0:0:0:0:
448,192,32991,1,0,0:0:0:0:
320,192,32991,1,0,0:0:0:0:
64,192,32991,1,0,0:0:0:0:
192,192,33068,1,0,0:0:0:0:
320,192,33145,1,0,0:0:0:0:
448,192,33222,1,0,0:0:0:0:
192,192,33299,1,0,0:0:0:0:
64,192,33299,1,0,0:0:0:0:
320,192,33299,1,0,0:0:0:0:
448,192,33299,1,0,0:0:0:0:
448,192,33376,1,0,0:0:0:0:
320,192,33452,1,0,0:0:0:0:
192,192,33529,1,0,0:0:0:0:
320,192,33606,1,0,0:0:0:0:
64,192,33606,1,0,0:0:0:0:
448,192,33606,1,0,0:0:0:0:
192,192,33683,1,0,0:0:0:0:
320,192,33760,1,0,0:0:0:0:
448,192,33760,1,0,0:0:0:0:
64,192,33760,1,0,0:0:0:0:
192,192,33837,1,0,0:0:0:0:
320,192,33914,1,0,0:0:0:0:
192,192,33991,1,0,0:0:0:0:
448,192,34068,1,0,0:0:0:0:
64,192,34068,1,0,0:0:0:0:
320,192,34068,1,0,0:0:0:0:
192,192,34145,1,0,0:0:0:0:
320,192,34222,1,0,0:0:0:0:
448,192,34299,1,0,0:0:0:0:
64,192,34299,1,0,0:0:0:0:
192,192,34376,1,0,0:0:0:0:
320,192,34376,1,0,0:0:0:0:
448,192,34452,1,0,0:0:0:0:
64,192,34452,1,0,0:0:0:0:
320,192,34529,1,0,0:0:0:0:
192,192,34529,1,0,0:0:0:0:
64,192,34606,1,0,0:0:0:0:
320,192,34683,1,0,0:0:0:0:
448,192,34683,1,0,0:0:0:0:
192,192,34760,1,0,0:0:0:0:
64,192,34760,1,0,0:0:0:0:
320,192,34837,1,0,0:0:0:0:
448,192,34837,1,0,0:0:0:0:
192,192,34914,1,0,0:0:0:0:
320,192,34991,1,0,0:0:0:0:
64,192,34991,1,0,0:0:0:0:
448,192,35068,1,0,0:0:0:0:
64,192,35145,1,0,0:0:0:0:
192,192,35145,1,0,0:0:0:0:
448,192,35145,1,0,0:0:0:0:
320,192,35145,1,0,0:0:0:0:
320,192,35222,1,0,0:0:0:0:
192,192,35299,1,0,0:0:0:0:
448,192,35299,1,0,0:0:0:0:
64,192,35376,1,0,0:0:0:0:
448,192,35452,1,0,0:0:0:0:
320,192,35452,1,0,0:0:0:0:
192,192,35529,1,0,0:0:0:0:
320,192,35606,1,0,0:0:0:0:
64,192,35606,1,0,0:0:0:0:
448,192,35683,1,0,0:0:0:0:
192,192,35760,1,0,0:0:0:0:
64,192,35760,1,0,0:0:0:0:
320,192,35760,1,0,0:0:0:0:
448,192,35760,1,0,0:0:0:0:
320,192,35837,1,0,0:0:0:0:
64,192,35914,1,0,0:0:0:0:
192,192,35914,1,0,0:0:0:0:
320,192,35991,1,0,0:0:0:0:
192,192,36068,1,0,0:0:0:0:
448,192,36068,1,0,0:0:0:0:
64,192,36068,1,0,0:0:0:0:
320,192,36145,1,0,0:0:0:0:
192,192,36222,1,0,0:0:0:0:
64,192,36222,1,0,0:0:0:0:
448,192,36222,1,0,0:0:0:0:
320,192,36299,1,0,0:0:0:0:
448,192,36376,1,0,0:0:0:0:
64,192,36376,1,0,0:0:0:0:
192,192,36452,1,0,0:0:0:0:
448,192,36529,1,0,0:0:0:0:
320,192,36529,1,0,0:0:0:0:
192,192,36606,1,0,0:0:0:0:
64,192,36683,1,0,0:0:0:0:
448,192,36683,1,0,0:0:0:0:
320,192,36760,1,0,0:0:0:0:
192,192,36760,1,0,0:0:0:0:
448,192,36837,1,0,0:0:0:0:
64,192,36837,1,0,0:0:0:0:
192,192,36914,1,0,0:0:0:0:
320,192,36914,1,0,0:0:0:0:
64,192,36991,1,0,0:0:0:0:
448,192,36991,1,0,0:0:0:0:
192,192,37068,1,0,0:0:0:0:
320,192,37145,1,0,0:0:0:0:
448,192,37145,1,0,0:0:0:0:
192,192,37222,1,0,0:0:0:0:
64,192,37222,1,0,0:0:0:0:
448,192,37299,1,0,0:0:0:0:
320,192,37299,1,0,0:0:0:0:
64,192,37376,1,0,0:0:0:0:
320,192,37452,1,0,0:0:0:0:
192,192,37452,1,0,0:0:0:0:
448,192,37529,1,0,0:0:0:0:
192,192,37606,1,0,0:0:0:0:
64,192,37606,1,0,0:0:0:0:
320,192,37606,1,0,0:0:0:0:
448,192,37683,1,0,0:0:0:0:
192,192,37760,1,0,0:0:0:0:
320,192,37760,1,0,0:0:0:0:
64,192,37837,1,0,0:0:0:0:
320,192,37914,1,0,0:0:0:0:
448,192,37914,1,0,0:0:0:0:
192,192,37991,1,0,0:0:0:0:
320,192,38068,1,0,0:0:0:0:
448,192,38068,1,0,0:0:0:0:
192,192,38145,1,0,0:0:0:0:
320,192,38222,1,0,0:0:0:0:
448,192,38222,1,0,0:0:0:0:
64,192,38222,1,0,0:0:0:0:
192,192,38222,1,0,0:0:0:0:
320,192,38299,1,0,0:0:0:0:
64,192,38376,1,0,0:0:0:0:
320,192,38452,1,0,0:0:0:0:
192,192,38529,1,0,0:0:0:0:
64,192,38529,1,0,0:0:0:0:
448,192,38529,1,0,0:0:0:0:
320,192,38606,1,0,0:0:0:0:
192,192,38683,1,0,0:0:0:0:
64,192,38683,1,0,0:0:0:0:
448,192,38683,1,0,0:0:0:0:
320,192,38760,1,0,0:0:0:0:
192,192,38837,1,0,0:0:0:0:
320,192,38914,1,0,0:0:0:0:
64,192,38914,1,0,0:0:0:0:
192,192,38991,1,0,0:0:0:0:
448,192,38991,1,0,0:0:0:0:
320,192,39068,1,0,0:0:0:0:
192,192,39145,1,0,0:0:0:0:
64,192,39222,1,0,0:0:0:0:
448,192,39222,1,0,0:0:0:0:
320,192,39299,1,0,0:0:0:0:
192,192,39299,1,0,0:0:0:0:
64,192,39376,1,0,0:0:0:0:
448,192,39376,1,0,0:0:0:0:
192,192,39452,1,0,0:0:0:0:
320,192,39452,1,0,0:0:0:0:
448,192,39529,1,0,0:0:0:0:
192,192,39606,1,0,0:0:0:0:
64,192,39606,1,0,0:0:0:0:
320,192,39683,1,0,0:0:0:0:
448,192,39683,1,0,0:0:0:0:
192,192,39760,1,0,0:0:0:0:
64,192,39760,1,0,0:0:0:0:
320,192,39837,1,0,0:0:0:0:
192,192,39914,1,0,0:0:0:0:
448,192,39914,1,0,0:0:0:0:
64,192,39991,1,0,0:0:0:0:
448,192,40068,1,0,0:0:0:0:
320,192,40068,1,0,0:0:0:0:
192,192,40068,1,0,0:0:0:0:
192,192,40145,1,0,0:0:0:0:
320,192,40222,1,0,0:0:0:0:
64,192,40222,1,0,0:0:0:0:
448,192,40299,1,0,0:0:0:0:
64,192,40376,1,0,0:0:0:0:
192,192,40376,1,0,0:0:0:0:
320,192,40376,1,0,0:0:0:0:
320,192,40452,1,0,0:0:0:0:
192,192,40529,1,0,0:0:0:0:
448,192,40529,1,0,0:0:0:0:
64,192,40606,1,0,0:0:0:0:
320,192,40683,1,0,0:0:0:0:
448,192,40683,1,0,0:0:0:0:
192,192,40683,1,0,0:0:0:0:
64,192,40683,1,0,0:0:0:0:
320,192,40760,1,0,0:0:0:0:
448,192,40837,1,0,0:0:0:0:
192,192,40914,1,0,0:0:0:0:
320,192,40991,1,0,0:0:0:0:
64,192,40991,1,0,0:0:0:0:
448,192,40991,1,0,0:0:0:0:
192,192,41068,1,0,0:0:0:0:
320,192,41145,1,0,0:0:0:0:
448,192,41145,1,0,0:0:0:0:
192,192,41222,1,0,0:0:0:0:
64,192,41299,1,0,0:0:0:0:
448,192,41299,1,0,0:0:0:0:
320,192,41299,1,0,0:0:0:0:
192,192,41299,1,0,0:0:0:0:
320,192,41376,1,0,0:0:0:0:
64,192,41452,1,0,0:0:0:0:
192,192,41452,1,0,0:0:0:0:
320,192,41529,1,0,0:0:0:0:
448,192,41606,1,0,0:0:0:0:
64,192,41606,1,0,0:0:0:0:
192,192,41683,1,0,0:0:0:0:
320,192,41683,1,0,0:0:0:0:
64,192,41760,1,0,0:0:0:0:
448,192,41760,1,0,0:0:0:0:
320,192,41837,1,0,0:0:0:0:
192,192,41837,1,0,0:0:0:0:
448,192,41914,1,0,0:0:0:0:
64,192,41914,1,0,0:0:0:0:
320,192,41991,1,0,0:0:0:0:
192,192,42068,1,0,0:0:0:0:
64,192,42068,1,0,0:0:0:0:
320,192,42145,1,0,0:0:0:0:
448,192,42145,1,0,0:0:0:0:
64,192,42222,1,0,0:0:0:0:
192,192,42222,1,0,0:0:0:0:
448,192,42299,1,0,0:0:0:0:
192,192,42376,1,0,0:0:0:0:
320,192,42376,1,0,0:0:0:0:
64,192,42452,1,0,0:0:0:0:
320,192,42529,1,0,0:0:0:0:
448,192,42529,1,0,0:0:0:0:
64,192,42606,1,0,0:0:0:0:
192,192,42606,1,0,0:0:0:0:
320,192,42683,1,0,0:0:0:0:
448,192,42722,1,0,0:0:0:0:
64,192,42760,1,0,0:0:0:0:
192,192,42799,1,0,0:0:0:0:
448,192,42837,1,0,0:0:0:0:
320,192,42837,1,0,0:0:0:0:
64,192,42914,1,0,0:0:0:0:
192,192,42933,1,0,0:0:0:0:
320,192,42965,1,0,0:0:0:0:
448,192,42991,1,0,0:0:0:0:
64,192,43010,1,0,0:0:0:0:
192,192,43042,1,0,0:0:0:0:
448,192,43068,1,0,0:0:0:0:
320,192,43068,1,0,0:0:0:0:
448,192,43145,1,0,0:0:0:0:
320,192,43145,1,0,0:0:0:0:
192,192,43145,1,0,0:0:0:0:
64,192,43145,1,0,0:0:0:0:
64,192,43222,1,0,0:0:0:0:
448,192,43299,1,0,0:0:0:0:
192,192,43299,1,0,0:0:0:0:
320,192,43376,1,0,0:0:0:0:
192,192,43452,1,0,0:0:0:0:
64,192,43452,1,0,0:0:0:0:
448,192,43452,1,0,0:0:0:0:
320,192,43529,1,0,0:0:0:0:
192,192,43606,1,0,0:0:0:0:
64,192,43606,1,0,0:0:0:0:
448,192,43606,1,0,0:0:0:0:
320,192,43683,1,0,0:0:0:0:
448,192,43760,1,0,0:0:0:0:
64,192,43760,1,0,0:0:0:0:
192,192,43837,1,0,0:0:0:0:
448,192,43914,1,0,0:0:0:0:
64,192,43914,1,0,0:0:0:0:
320,192,43991,1,0,0:0:0:0:
192,192,44068,1,0,0:0:0:0:
448,192,44145,1,0,0:0:0:0:
64,192,44145,1,0,0:0:0:0:
192,192,44222,1,0,0:0:0:0:
320,192,44222,1,0,0:0:0:0:
448,192,44299,1,0,0:0:0:0:
64,192,44299,1,0,0:0:0:0:
192,192,44376,1,0,0:0:0:0:
448,192,44376,1,0,0:0:0:0:
320,192,44376,1,0,0:0:0:0:
64,192,44376,1,0,0:0:0:0:
320,192,44452,1,0,0:0:0:0:
64,192,44529,1,0,0:0:0:0:
192,192,44529,1,0,0:0:0:0:
448,192,44606,1,0,0:0:0:0:
320,192,44606,1,0,0:0:0:0:
64,192,44683,1,0,0:0:0:0:
192,192,44683,1,0,0:0:0:0:
320,192,44760,1,0,0:0:0:0:
192,192,44837,1,0,0:0:0:0:
448,192,44837,1,0,0:0:0:0:
64,192,44914,1,0,0:0:0:0:
320,192,44991,1,0,0:0:0:0:
448,192,44991,1,0,0:0:0:0:
192,192,44991,1,0,0:0:0:0:
64,192,44991,1,0,0:0:0:0:
192,192,45068,1,0,0:0:0:0:
320,192,45145,1,0,0:0:0:0:
64,192,45145,1,0,0:0:0:0:
448,192,45222,1,0,0:0:0:0:
192,192,45299,1,0,0:0:0:0:
64,192,45299,1,0,0:0:0:0:
320,192,45299,1,0,0:0:0:0:
448,192,45376,1,0,0:0:0:0:
192,192,45452,1,0,0:0:0:0:
320,192,45452,1,0,0:0:0:0:
64,192,45529,1,0,0:0:0:0:
448,192,45606,1,0,0:0:0:0:
320,192,45606,1,0,0:0:0:0:
192,192,45606,1,0,0:0:0:0:
64,192,45606,1,0,0:0:0:0:
192,192,45683,1,0,0:0:0:0:
448,192,45760,1,0,0:0:0:0:
64,192,45760,1,0,0:0:0:0:
320,192,45837,1,0,0:0:0:0:
192,192,45914,1,0,0:0:0:0:
448,192,45914,1,0,0:0:0:0:
64,192,45991,1,0,0:0:0:0:
448,192,46068,1,0,0:0:0:0:
320,192,46068,1,0,0:0:0:0:
192,192,46068,1,0,0:0:0:0:
64,192,46145,1,0,0:0:0:0:
192,192,46222,1,0,0:0:0:0:
320,192,46299,1,0,0:0:0:0:
192,192,46376,1,0,0:0:0:0:
64,192,46376,1,0,0:0:0:0:
448,192,46376,1,0,0:0:0:0:
320,192,46452,1,0,0:0:0:0:
448,192,46529,1,0,0:0:0:0:
64,192,46529,1,0,0:0:0:0:
320,192,46606,1,0,0:0:0:0:
192,192,46606,1,0,0:0:0:0:
64,192,46683,1,0,0:0:0:0:
448,192,46683,1,0,0:0:0:0:
192,192,46760,1,0,0:0:0:0:
320,192,46760,1,0,0:0:0:0:
448,192,46837,1,0,0:0:0:0:
64,192,46837,1,0,0:0:0:0:
320,192,46914,1,0,0:0:0:0:
64,192,46991,1,0,0:0:0:0:
192,192,46991,1,0,0:0:0:0:
320,192,47068,1,0,0:0:0:0:
448,192,47145,1,0,0:0:0:0:
192,192,47145,1,0,0:0:0:0:
64,192,47145,1,0,0:0:0:0:
320,192,47222,1,0,0:0:0:0:
192,192,47299,1,0,0:0:0:0:
448,192,47299,1,0,0:0:0:0:
64,192,47376,1,0,0:0:0:0:
192,192,47452,1,0,0:0:0:0:
448,192,47452,1,0,0:0:0:0:
320,192,47452,1,0,0:0:0:0:
64,192,47529,1,0,0:0:0:0:
320,192,47606,1,0,0:0:0:0:
192,192,47606,1,0,0:0:0:0:
448,192,47683,1,0,0:0:0:0:
64,192,47760,1,0,0:0:0:0:
192,192,47760,1,0,0:0:0:0:
320,192,47837,1,0,0:0:0:0:
192,192,47914,1,0,0:0:0:0:
64,192,47914,1,0,0:0:0:0:
448,192,47914,1,0,0:0:0:0:
320,192,47991,1,0,0:0:0:0:
192,192,48068,1,0,0:0:0:0:
64,192,48068,1,0,0:0:0:0:
448,192,48068,1,0,0:0:0:0:
320,192,48068,1,0,0:0:0:0:
192,192,48145,1,0,0:0:0:0:
448,192,48222,1,0,0:0:0:0:
320,192,48222,1,0,0:0:0:0:
192,192,48299,1,0,0:0:0:0:
320,192,48376,1,0,0:0:0:0:
448,192,48376,1,0,0:0:0:0:
64,192,48376,1,0,0:0:0:0:
192,192,48452,1,0,0:0:0:0:
320,192,48529,1,0,0:0:0:0:
448,192,48606,1,0,0:0:0:0:
64,192,48683,1,0,0:0:0:0:
192,192,48683,1,0,0:0:0:0:
320,192,48683,1,0,0:0:0:0:
448,192,48760,1,0,0:0:0:0:
192,192,48837,1,0,0:0:0:0:
320,192,48914,1,0,0:0:0:0:
448,192,48991,1,0,0:0:0:0:
192,192,48991,1,0,0:0:0:0:
64,192,48991,1,0,0:0:0:0:
320,192,49068,1,0,0:0:0:0:
448,192,49145,1,0,0:0:0:0:
192,192,49222,1,0,0:0:0:0:
192,192,49299,1,0,0:0:0:0:
320,192,49299,1,0,0:0:0:0:
448,192,49299,1,0,0:0:0:0:
64,192,49299,1,0,0:0:0:0:
64,192,49376,1,0,0:0:0:0:
320,192,49452,1,0,0:0:0:0:
192,192,49529,1,0,0:0:0:0:
64,192,49606,1,0,0:0:0:0:
448,192,49606,1,0,0:0:0:0:
320,192,49606,1,0,0:0:0:0:
192,192,49683,1,0,0:0:0:0:
64,192,49760,1,0,0:0:0:0:
448,192,49837,1,0,0:0:0:0:
192,192,49914,1,0,0:0:0:0:
64,192,49914,1,0,0:0:0:0:
448,192,49914,1,0,0:0:0:0:
320,192,49914,1,0,0:0:0:0:
320,192,49991,1,0,0:0:0:0:
192,192,50068,1,0,0:0:0:0:
64,192,50145,1,0,0:0:0:0:
192,192,50222,1,0,0:0:0:0:
320,192,50222,1,0,0:0:0:0:
448,192,50222,1,0,0:0:0:0:
64,192,50299,1,0,0:0:0:0:
320,192,50376,1,0,0:0:0:0:
448,192,50376,1,0,0:0:0:0:
192,192,50452,1,0,0:0:0:0:
64,192,50452,1,0,0:0:0:0:
320,192,50529,1,0,0:0:0:0:
448,192,50529,1,0,0:0:0:0:
192,192,50529,1,0,0:0:0:0:
64,192,50529,1,0,0:0:0:0:
320,192,50606,1,0,0:0:0:0:
64,192,50683,1,0,0:0:0:0:
192,192,50683,1,0,0:0:0:0:
320,192,50760,1,0,0:0:0:0:
64,192,50837,1,0,0:0:0:0:
192,192,50837,1,0,0:0:0:0:
320,192,50914,1,0,0:0:0:0:
192,192,50991,1,0,0:0:0:0:
64,192,50991,1,0,0:0:0:0:
320,192,51068,1,0,0:0:0:0:
64,192,51145,1,0,0:0:0:0:
192,192,51145,1,0,0:0:0:0:
320,192,51222,1,0,0:0:0:0:
448,192,51299,1,0,0:0:0:0:
320,192,51337,1,0,0:0:0:0:
192,192,51376,1,0,0:0:0:0:
64,192,51414,1,0,0:0:0:0:
192,192,51452,1,0,0:0:0:0:
448,192,51452,1,0,0:0:0:0:
320,192,51452,1,0,0:0:0:0:
192,192,51529,1,0,0:0:0:0:
192,192,51606,1,0,0:0:0:0:
448,192,51645,1,0,0:0:0:0:
320,192,51683,1,0,0:0:0:0:
192,192,51722,1,0,0:0:0:0:
448,192,51760,1,0,0:0:0:0:
64,192,51760,1,0,0:0:0:0:
320,192,51760,1,0,0:0:0:0:
192,192,51837,1,0,0:0:0:0:
192,192,51914,1,0,0:0:0:0:
64,192,51914,1,0,0:0:0:0:
448,192,51991,1,0,0:0:0:0:
320,192,51991,1,0,0:0:0:0:
320,192,52068,1,0,0:0:0:0:
64,192,52145,1,0,0:0:0:0:
192,192,52145,1,0,0:0:0:0:
448,192,52222,1,0,0:0:0:0:
320,192,52222,1,0,0:0:0:0:
320,192,52299,1,0,0:0:0:0:
64,192,52376,1,0,0:0:0:0:
192,192,52376,1,0,0:0:0:0:
192,192,52452,1,0,0:0:0:0:
448,192,52529,1,0,0:0:0:0:
320,192,52529,1,0,0:0:0:0:
64,192,52529,1,0,0:0:0:0:
448,192,52606,1,0,0:0:0:0:
64,192,52683,1,0,0:0:0:0:
192,192,52683,1,0,0:0:0:0:
320,192,52683,1,0,0:0:0:0:
64,192,52760,1,0,0:0:0:0:
192,192,52837,1,0,0:0:0:0:
320,192,52914,1,0,0:0:0:0:
448,192,52991,128,0,53606:0:0:0:0:
192,192,52991,1,0,0:0:0:0:
64,192,52991,1,0,0:0:0:0:
320,192,53299,128,0,53606:0:0:0:0:
64,192,53529,1,0,0:0:0:0:
192,192,53606,1,0,0:0:0:0:
320,192,53683,1,0,0:0:0:0:
64,192,53760,128,0,54068:0:0:0:0:
448,192,53760,1,0,0:0:0:0:
448,192,53914,1,0,0:0:0:0:
192,192,53991,1,0,0:0:0:0:
320,192,54068,1,0,0:0:0:0:
64,192,54145,1,0,0:0:0:0:
320,192,54222,128,0,54529:0:0:0:0:
448,192,54222,1,0,0:0:0:0:
192,192,54299,1,0,0:0:0:0:
448,192,54376,1,0,0:0:0:0:
192,192,54452,1,0,0:0:0:0:
64,192,54529,1,0,0:0:0:0:
320,192,54606,1,0,0:0:0:0:
64,192,54683,1,0,0:0:0:0:
320,192,54760,1,0,0:0:0:0:
64,192,54837,1,0,0:0:0:0:
192,192,54914,1,0,0:0:0:0:
448,192,54991,128,0,55299:0:0:0:0:
320,192,54991,1,0,0:0:0:0:
64,192,55145,128,0,55222:0:0:0:0:
192,192,55222,128,0,55299:0:0:0:0:
320,192,55299,128,0,55376:0:0:0:0:
448,192,55376,128,0,55452:0:0:0:0:
320,192,55452,1,0,0:0:0:0:
192,192,55452,1,0,0:0:0:0:
64,192,55452,1,0,0:0:0:0:
64,192,55606,1,0,0:0:0:0:
192,192,55760,1,0,0:0:0:0:
320,192,55914,1,0,0:0:0:0:
448,192,56222,1,0,0:0:0:0:
448,192,56376,1,0,0:0:0:0:
320,192,56452,1,0,0:0:0:0:
192,192,56529,1,0,0:0:0:0:
64,192,56606,1,0,0:0:0:0:
448,192,56683,1,0,0:0:0:0:
320,192,56683,1,0,0:0:0:0:
192,192,56991,1,0,0:0:0:0:
448,192,57145,1,0,0:0:0:0:
192,192,57299,1,0,0:0:0:0:
320,192,57299,1,0,0:0:0:0:
192,192,57452,128,0,57914:0:0:0:0:
320,192,57452,128,0,57914:0:0:0:0:
64,192,57914,128,0,58376:0:0:0:0:
448,192,57914,128,0,58376:0:0:0:0:
192,192,58222,1,0,0:0:0:0:
320,192,58376,128,0,58683:0:0:0:0:
192,192,58683,1,0,0:0:0:0:
320,192,58837,1,0,0:0:0:0:
448,192,58914,1,0,0:0:0:0:
64,192,58991,1,0,0:0:0:0:
192,192,59068,1,0,0:0:0:0:
320,192,59145,1,0,0:0:0:0:
448,192,59145,1,0,0:0:0:0:
448,192,59376,1,0,0:0:0:0:
192,192,59452,1,0,0:0:0:0:
320,192,59504,1,0,0:0:0:0:
448,192,59606,1,0,0:0:0:0:
64,192,59658,1,0,0:0:0:0:
192,192,59702,1,0,0:0:0:0:
448,192,59760,1,0,0:0:0:0:
320,192,59811,1,0,0:0:0:0:
192,192,59856,1,0,0:0:0:0:
448,192,59914,1,0,0:0:0:0:
64,192,59965,1,0,0:0:0:0:
192,192,60010,1,0,0:0:0:0:
320,192,60068,1,0,0:0:0:0:
448,192,60145,1,0,0:0:0:0:
320,192,60222,1,0,0:0:0:0:
192,192,60299,1,0,0:0:0:0:
448,192,60376,1,0,0:0:0:0:
64,192,60376,1,0,0:0:0:0:
320,192,60452,1,0,0:0:0:0:
192,192,60529,1,0,0:0:0:0:
320,192,60606,1,0,0:0:0:0:
64,192,60683,1,0,0:0:0:0:
320,192,60760,1,0,0:0:0:0:
192,192,60837,1,0,0:0:0:0:
320,192,60914,1,0,0:0:0:0:
64,192,60991,1,0,0:0:0:0:
448,192,60991,1,0,0:0:0:0:
192,192,61068,1,0,0:0:0:0:
448,192,61145,1,0,0:0:0:0:
192,192,61222,1,0,0:0:0:0:
320,192,61299,1,0,0:0:0:0:
448,192,61376,1,0,0:0:0:0:
192,192,61452,1,0,0:0:0:0:
320,192,61529,1,0,0:0:0:0:
64,192,61606,1,0,0:0:0:0:
192,192,61606,1,0,0:0:0:0:
320,192,61683,1,0,0:0:0:0:
192,192,61760,1,0,0:0:0:0:
448,192,61837,1,0,0:0:0:0:
320,192,61914,1,0,0:0:0:0:
64,192,61991,1,0,0:0:0:0:
448,192,62068,1,0,0:0:0:0:
192,192,62145,1,0,0:0:0:0:
64,192,62222,1,0,0:0:0:0:
448,192,62222,1,0,0:0:0:0:
320,192,62299,1,0,0:0:0:0:
192,192,62376,1,0,0:0:0:0:
448,192,62452,1,0,0:0:0:0:
320,192,62529,1,0,0:0:0:0:
64,192,62606,1,0,0:0:0:0:
192,192,62683,1,0,0:0:0:0:
448,192,62683,1,0,0:0:0:0:
320,192,62760,1,0,0:0:0:0:
64,192,62837,1,0,0:0:0:0:
192,192,62837,1,0,0:0:0:0:
448,192,62914,1,0,0:0:0:0:
192,192,62991,1,0,0:0:0:0:
64,192,63068,1,0,0:0:0:0:
320,192,63145,1,0,0:0:0:0:
192,192,63222,1,0,0:0:0:0:
448,192,63299,1,0,0:0:0:0:
64,192,63299,1,0,0:0:0:0:
320,192,63376,1,0,0:0:0:0:
64,192,63452,1,0,0:0:0:0:
192,192,63452,1,0,0:0:0:0:
448,192,63529,1,0,0:0:0:0:
320,192,63606,1,0,0:0:0:0:
64,192,63683,1,0,0:0:0:0:
192,192,63760,1,0,0:0:0:0:
448,192,63837,1,0,0:0:0:0:
64,192,63914,1,0,0:0:0:0:
320,192,63991,1,0,0:0:0:0:
192,192,64068,1,0,0:0:0:0:
448,192,64068,1,0,0:0:0:0:
64,192,64145,1,0,0:0:0:0:
320,192,64222,1,0,0:0:0:0:
192,192,64299,1,0,0:0:0:0:
448,192,64376,1,0,0:0:0:0:
64,192,64376,1,0,0:0:0:0:
320,192,64452,1,0,0:0:0:0:
192,192,64529,1,0,0:0:0:0:
448,192,64606,1,0,0:0:0:0:
320,192,64683,1,0,0:0:0:0:
64,192,64683,1,0,0:0:0:0:
192,192,64760,1,0,0:0:0:0:
320,192,64837,1,0,0:0:0:0:
64,192,64837,1,0,0:0:0:0:
448,192,64914,1,0,0:0:0:0:
192,192,64914,1,0,0:0:0:0:
320,192,64991,1,0,0:0:0:0:
192,192,65068,1,0,0:0:0:0:
448,192,65068,1,0,0:0:0:0:
64,192,65145,1,0,0:0:0:0:
320,192,65145,1,0,0:0:0:0:
192,192,65222,1,0,0:0:0:0:
320,192,65299,1,0,0:0:0:0:
448,192,65299,1,0,0:0:0:0:
64,192,65299,1,0,0:0:0:0:
320,192,65529,128,0,65606:0:0:0:0:
64,192,65606,1,0,0:0:0:0:
192,192,65606,1,0,0:0:0:0:
448,192,65760,128,0,66068:0:0:0:0:
64,192,65914,1,0,0:0:0:0:
192,192,65914,1,0,0:0:0:0:
192,192,66068,128,0,66222:0:0:0:0:
64,192,66222,1,0,0:0:0:0:
320,192,66222,1,0,0:0:0:0:
448,192,66299,1,0,0:0:0:0:
192,192,66376,1,0,0:0:0:0:
320,192,66452,1,0,0:0:0:0:
64,192,66529,1,0,0:0:0:0:
448,192,66529,128,0,66683:0:0:0:0:
192,192,66606,1,0,0:0:0:0:
320,192,66683,1,0,0:0:0:0:
192,192,66760,1,0,0:0:0:0:
64,192,66837,128,0,66991:0:0:0:0:
448,192,66837,1,0,0:0:0:0:
320,192,66914,1,0,0:0:0:0:
448,192,66991,128,0,67068:0:0:0:0:
320,192,67068,1,0,0:0:0:0:
64,192,67145,1,0,0:0:0:0:
448,192,67145,1,0,0:0:0:0:
192,192,67222,1,0,0:0:0:0:
320,192,67299,1,0,0:0:0:0:
448,192,67299,1,0,0:0:0:0:
64,192,67299,1,0,0:0:0:0:
192,192,67376,1,0,0:0:0:0:
64,192,67452,1,0,0:0:0:0:
320,192,67452,1,0,0:0:0:0:
448,192,67529,1,0,0:0:0:0:
320,192,67606,1,0,0:0:0:0:
192,192,67606,1,0,0:0:0:0:
64,192,67606,1,0,0:0:0:0:
448,192,67683,1,0,0:0:0:0:
64,192,67760,1,0,0:0:0:0:
320,192,67760,1,0,0:0:0:0:
192,192,67837,1,0,0:0:0:0:
320,192,67914,1,0,0:0:0:0:
448,192,67914,128,0,67991:0:0:0:0:
64,192,68068,1,0,0:0:0:0:
448,192,68068,128,0,68299:0:0:0:0:
320,192,68068,1,0,0:0:0:0:
192,192,68145,1,0,0:0:0:0:
320,192,68222,1,0,0:0:0:0:
192,192,68299,1,0,0:0:0:0:
448,192,68376,1,0,0:0:0:0:
64,192,68376,128,0,68452:0:0:0:0:
320,192,68452,1,0,0:0:0:0:
192,192,68529,1,0,0:0:0:0:
64,192,68529,1,0,0:0:0:0:
320,192,68606,1,0,0:0:0:0:
64,192,68683,1,0,0:0:0:0:
448,192,68683,1,0,0:0:0:0:
192,192,68760,1,0,0:0:0:0:
320,192,68837,1,0,0:0:0:0:
448,192,68837,128,0,68914:0:0:0:0:
192,192,68914,1,0,0:0:0:0:
448,192,68991,1,0,0:0:0:0:
64,192,68991,128,0,69145:0:0:0:0:
320,192,69068,1,0,0:0:0:0:
192,192,69145,1,0,0:0:0:0:
64,192,69196,1,0,0:0:0:0:
448,192,69241,1,0,0:0:0:0:
320,192,69299,1,0,0:0:0:0:
192,192,69299,128,0,69452:0:0:0:0:
64,192,69299,1,0,0:0:0:0:
64,192,69452,1,0,0:0:0:0:
192,192,69504,1,0,0:0:0:0:
320,192,69549,1,0,0:0:0:0:
64,192,69606,1,0,0:0:0:0:
448,192,69606,128,0,69760:0:0:0:0:
192,192,69606,1,0,0:0:0:0:
320,192,69683,1,0,0:0:0:0:
192,192,69760,1,0,0:0:0:0:
448,192,69837,1,0,0:0:0:0:
64,192,69837,1,0,0:0:0:0:
192,192,69914,1,0,0:0:0:0:
320,192,69914,128,0,70068:0:0:0:0:
64,192,69991,1,0,0:0:0:0:
448,192,70068,1,0,0:0:0:0:
192,192,70068,1,0,0:0:0:0:
320,192,70145,1,0,0:0:0:0:
448,192,70222,1,0,0:0:0:0:
192,192,70222,128,0,70376:0:0:0:0:
64,192,70222,128,0,70376:0:0:0:0:
320,192,70299,1,0,0:0:0:0:
448,192,70376,1,0,0:0:0:0:
320,192,70452,1,0,0:0:0:0:
64,192,70452,128,0,70606:0:0:0:0:
192,192,70452,128,0,70606:0:0:0:0:
448,192,70529,1,0,0:0:0:0:
320,192,70606,1,0,0:0:0:0:
448,192,70683,1,0,0:0:0:0:
192,192,70683,128,0,70837:0:0:0:0:
64,192,70683,128,0,70837:0:0:0:0:
320,192,70760,1,0,0:0:0:0:
448,192,70837,128,0,70991:0:0:0:0:
192,192,70914,1,0,0:0:0:0:
64,192,70914,1,0,0:0:0:0:
320,192,70991,128,0,71145:0:0:0:0:
64,192,71068,1,0,0:0:0:0:
448,192,71068,1,0,0:0:0:0:
192,192,71145,128,0,71299:0:0:0:0:
320,192,71222,1,0,0:0:0:0:
448,192,71222,1,0,0:0:0:0:
64,192,71299,128,0,71452:0:0:0:0:
192,192,71376,1,0,0:0:0:0:
320,192,71452,128,0,71606:0:0:0:0:
448,192,71452,128,0,71606:0:0:0:0:
64,192,71529,1,0,0:0:0:0:
192,192,71606,1,0,0:0:0:0:
448,192,71683,128,0,71837:0:0:0:0:
320,192,71683,128,0,71837:0:0:0:0:
64,192,71683,1,0,0:0:0:0:
192,192,71760,1,0,0:0:0:0:
64,192,71837,1,0,0:0:0:0:
448,192,71914,128,0,72068:0:0:0:0:
192,192,71914,1,0,0:0:0:0:
320,192,71914,128,0,72068:0:0:0:0:
64,192,71991,1,0,0:0:0:0:
192,192,72068,128,0,72222:0:0:0:0:
448,192,72145,1,0,0:0:0:0:
64,192,72145,1,0,0:0:0:0:
320,192,72222,128,0,72376:0:0:0:0:
64,192,72299,1,0,0:0:0:0:
192,192,72299,1,0,0:0:0:0:
448,192,72376,128,0,72529:0:0:0:0:
320,192,72452,1,0,0:0:0:0:
64,192,72452,1,0,0:0:0:0:
192,192,72529,128,0,72683:0:0:0:0:
320,192,72606,1,0,0:0:0:0:
64,192,72606,1,0,0:0:0:0:
448,192,72683,128,0,72914:0:0:0:0:
64,192,72760,1,0,0:0:0:0:
192,192,72837,1,0,0:0:0:0:
320,192,72837,1,0,0:0:0:0:
64,192,72914,128,0,73145:0:0:0:0:
320,192,72991,1,0,0:0:0:0:
448,192,72991,1,0,0:0:0:0:
192,192,72991,1,0,0:0:0:0:
448,192,73145,128,0,73299:0:0:0:0:
320,192,73145,1,0,0:0:0:0:
192,192,73145,1,0,0:0:0:0:
64,192,73299,128,0,73452:0:0:0:0:
192,192,73299,1,0,0:0:0:0:
320,192,73376,1,0,0:0:0:0:
448,192,73452,128,0,73606:0:0:0:0:
192,192,73452,1,0,0:0:0:0:
320,192,73529,1,0,0:0:0:0:
64,192,73606,128,0,73760:0:0:0:0:
192,192,73606,1,0,0:0:0:0:
320,192,73683,1,0,0:0:0:0:
448,192,73760,128,0,73914:0:0:0:0:
192,192,73760,1,0,0:0:0:0:
320,192,73837,1,0,0:0:0:0:
192,192,73914,1,0,0:0:0:0:
64,192,73914,1,0,0:0:0:0:
320,192,73991,1,0,0:0:0:0:
64,192,74068,1,0,0:0:0:0:
448,192,74068,1,0,0:0:0:0:
192,192,74119,1,0,0:0:0:0:
320,192,74164,1,0,0:0:0:0:
448,192,74222,1,0,0:0:0:0:
64,192,74222,1,0,0:0:0:0:
192,192,74299,1,0,0:0:0:0:
320,192,74299,1,0,0:0:0:0:
448,192,74376,1,0,0:0:0:0:
64,192,74376,1,0,0:0:0:0:
320,192,74427,1,0,0:0:0:0:
192,192,74472,1,0,0:0:0:0:
64,192,74529,1,0,0:0:0:0:
448,192,74529,1,0,0:0:0:0:
320,192,74606,1,0,0:0:0:0:
192,192,74606,1,0,0:0:0:0:
64,192,74683,1,0,0:0:0:0:
448,192,74683,1,0,0:0:0:0:
320,192,74760,1,0,0:0:0:0:
192,192,74837,1,0,0:0:0:0:
448,192,74837,1,0,0:0:0:0:
64,192,74876,1,0,0:0:0:0:
320,192,74914,1,0,0:0:0:0:
192,192,74991,1,0,0:0:0:0:
448,192,74991,1,0,0:0:0:0:
64,192,75029,1,0,0:0:0:0:
320,192,75068,1,0,0:0:0:0:
192,192,75145,5,0,0:0:0:0:
448,192,75145,1,0,0:0:0:0:
64,192,75145,1,0,0:0:0:0:
320,192,75222,1,0,0:0:0:0:
64,192,75299,1,0,0:0:0:0:
192,192,75376,1,0,0:0:0:0:
64,192,75452,1,0,0:0:0:0:
448,192,75452,1,0,0:0:0:0:
320,192,75529,1,0,0:0:0:0:
64,192,75606,1,0,0:0:0:0:
320,192,75683,1,0,0:0:0:0:
64,192,75760,1,0,0:0:0:0:
448,192,75760,1,0,0:0:0:0:
192,192,75837,1,0,0:0:0:0:
64,192,75914,1,0,0:0:0:0:
320,192,75991,1,0,0:0:0:0:
192,192,76068,1,0,0:0:0:0:
64,192,76068,1,0,0:0:0:0:
448,192,76145,1,0,0:0:0:0:
320,192,76222,1,0,0:0:0:0:
192,192,76299,1,0,0:0:0:0:
64,192,76376,1,0,0:0:0:0:
448,192,76376,1,0,0:0:0:0:
320,192,76452,1,0,0:0:0:0:
192,192,76529,1,0,0:0:0:0:
64,192,76606,1,0,0:0:0:0:
448,192,76683,1,0,0:0:0:0:
64,192,76683,1,0,0:0:0:0:
192,192,76760,1,0,0:0:0:0:
448,192,76837,1,0,0:0:0:0:
320,192,76914,1,0,0:0:0:0:
64,192,76991,1,0,0:0:0:0:
192,192,76991,1,0,0:0:0:0:
448,192,77068,1,0,0:0:0:0:
64,192,77145,1,0,0:0:0:0:
320,192,77222,1,0,0:0:0:0:
448,192,77299,1,0,0:0:0:0:
64,192,77299,1,0,0:0:0:0:
192,192,77376,1,0,0:0:0:0:
448,192,77452,1,0,0:0:0:0:
320,192,77452,1,0,0:0:0:0:
64,192,77529,1,0,0:0:0:0:
320,192,77606,1,0,0:0:0:0:
448,192,77606,1,0,0:0:0:0:
192,192,77606,1,0,0:0:0:0:
192,192,77683,1,0,0:0:0:0:
448,192,77760,1,0,0:0:0:0:
320,192,77837,1,0,0:0:0:0:
448,192,77914,1,0,0:0:0:0:
64,192,77914,1,0,0:0:0:0:
192,192,77991,1,0,0:0:0:0:
448,192,78068,1,0,0:0:0:0:
192,192,78145,1,0,0:0:0:0:
448,192,78222,1,0,0:0:0:0:
64,192,78222,1,0,0:0:0:0:
320,192,78299,1,0,0:0:0:0:
448,192,78376,1,0,0:0:0:0:
192,192,78452,1,0,0:0:0:0:
320,192,78529,1,0,0:0:0:0:
448,192,78529,1,0,0:0:0:0:
64,192,78606,1,0,0:0:0:0:
192,192,78683,1,0,0:0:0:0:
448,192,78683,1,0,0:0:0:0:
320,192,78760,1,0,0:0:0:0:
64,192,78837,1,0,0:0:0:0:
448,192,78837,1,0,0:0:0:0:
320,192,78837,1,0,0:0:0:0:
192,192,78914,1,0,0:0:0:0:
320,192,78991,1,0,0:0:0:0:
448,192,79042,1,0,0:0:0:0:
64,192,79087,1,0,0:0:0:0:
192,192,79145,1,0,0:0:0:0:
320,192,79145,1,0,0:0:0:0:
448,192,79145,1,0,0:0:0:0:
448,192,79222,1,0,0:0:0:0:
64,192,79299,1,0,0:0:0:0:
192,192,79350,1,0,0:0:0:0:
320,192,79395,1,0,0:0:0:0:
448,192,79452,1,0,0:0:0:0:
192,192,79452,1,0,0:0:0:0:
64,192,79452,1,0,0:0:0:0:
64,192,79529,1,0,0:0:0:0:
320,192,79606,1,0,0:0:0:0:
192,192,79683,1,0,0:0:0:0:
64,192,79760,1,0,0:0:0:0:
448,192,79760,1,0,0:0:0:0:
320,192,79760,1,0,0:0:0:0:
320,192,79837,1,0,0:0:0:0:
192,192,79914,1,0,0:0:0:0:
64,192,79914,1,0,0:0:0:0:
448,192,79991,1,0,0:0:0:0:
64,192,80068,1,0,0:0:0:0:
320,192,80068,1,0,0:0:0:0:
192,192,80145,1,0,0:0:0:0:
448,192,80145,1,0,0:0:0:0:
320,192,80222,1,0,0:0:0:0:
192,192,80299,1,0,0:0:0:0:
448,192,80299,1,0,0:0:0:0:
320,192,80376,1,0,0:0:0:0:
64,192,80376,1,0,0:0:0:0:
192,192,80452,1,0,0:0:0:0:
448,192,80452,1,0,0:0:0:0:
320,192,80529,1,0,0:0:0:0:
192,192,80606,1,0,0:0:0:0:
448,192,80606,1,0,0:0:0:0:
320,192,80683,1,0,0:0:0:0:
64,192,80683,1,0,0:0:0:0:
192,192,80760,1,0,0:0:0:0:
448,192,80760,1,0,0:0:0:0:
320,192,80837,1,0,0:0:0:0:
192,192,80914,1,0,0:0:0:0:
448,192,80914,1,0,0:0:0:0:
448,192,80991,1,0,0:0:0:0:
320,192,80991,1,0,0:0:0:0:
64,192,80991,1,0,0:0:0:0:
192,192,81068,1,0,0:0:0:0:
64,192,81068,1,0,0:0:0:0:
320,192,81145,1,0,0:0:0:0:
448,192,81196,1,0,0:0:0:0:
192,192,81241,1,0,0:0:0:0:
64,192,81299,1,0,0:0:0:0:
320,192,81299,1,0,0:0:0:0:
448,192,81299,1,0,0:0:0:0:
192,192,81376,1,0,0:0:0:0:
320,192,81452,1,0,0:0:0:0:
64,192,81452,1,0,0:0:0:0:
192,192,81529,1,0,0:0:0:0:
64,192,81606,1,0,0:0:0:0:
320,192,81606,1,0,0:0:0:0:
448,192,81606,1,0,0:0:0:0:
192,192,81683,1,0,0:0:0:0:
320,192,81760,1,0,0:0:0:0:
64,192,81760,1,0,0:0:0:0:
192,192,81837,1,0,0:0:0:0:
320,192,81914,1,0,0:0:0:0:
448,192,81914,1,0,0:0:0:0:
64,192,81914,1,0,0:0:0:0:
192,192,81991,1,0,0:0:0:0:
320,192,82068,1,0,0:0:0:0:
448,192,82068,1,0,0:0:0:0:
192,192,82119,1,0,0:0:0:0:
64,192,82164,1,0,0:0:0:0:
320,192,82222,1,0,0:0:0:0:
448,192,82222,1,0,0:0:0:0:
192,192,82299,1,0,0:0:0:0:
64,192,82299,1,0,0:0:0:0:
320,192,82376,1,0,0:0:0:0:
448,192,82376,1,0,0:0:0:0:
192,192,82452,1,0,0:0:0:0:
64,192,82529,1,0,0:0:0:0:
448,192,82529,1,0,0:0:0:0:
320,192,82529,1,0,0:0:0:0:
192,192,82606,1,0,0:0:0:0:
320,192,82683,1,0,0:0:0:0:
448,192,82683,1,0,0:0:0:0:
192,192,82760,1,0,0:0:0:0:
64,192,82837,1,0,0:0:0:0:
448,192,82837,1,0,0:0:0:0:
320,192,82914,1,0,0:0:0:0:
192,192,82991,1,0,0:0:0:0:
64,192,82991,1,0,0:0:0:0:
320,192,83068,1,0,0:0:0:0:
448,192,83145,1,0,0:0:0:0:
64,192,83145,1,0,0:0:0:0:
192,192,83222,1,0,0:0:0:0:
320,192,83299,1,0,0:0:0:0:
448,192,83299,1,0,0:0:0:0:
192,192,83376,1,0,0:0:0:0:
64,192,83452,1,0,0:0:0:0:
448,192,83452,1,0,0:0:0:0:
320,192,83529,1,0,0:0:0:0:
192,192,83606,1,0,0:0:0:0:
64,192,83658,1,0,0:0:0:0:
448,192,83702,1,0,0:0:0:0:
320,192,83760,1,0,0:0:0:0:
192,192,83760,1,0,0:0:0:0:
64,192,83760,1,0,0:0:0:0:
320,192,83914,1,0,0:0:0:0:
192,192,83914,1,0,0:0:0:0:
64,192,83914,1,0,0:0:0:0:
448,192,83965,1,0,0:0:0:0:
64,192,84010,1,0,0:0:0:0:
192,192,84068,1,0,0:0:0:0:
320,192,84068,1,0,0:0:0:0:
448,192,84068,1,0,0:0:0:0:
192,192,84222,1,0,0:0:0:0:
320,192,84222,1,0,0:0:0:0:
448,192,84222,1,0,0:0:0:0:
64,192,84273,1,0,0:0:0:0:
448,192,84318,1,0,0:0:0:0:
192,192,84376,1,0,0:0:0:0:
320,192,84376,1,0,0:0:0:0:
64,192,84376,1,0,0:0:0:0:
320,192,84529,1,0,0:0:0:0:
192,192,84529,1,0,0:0:0:0:
64,192,84529,1,0,0:0:0:0:
448,192,84581,1,0,0:0:0:0:
64,192,84626,1,0,0:0:0:0:
192,192,84683,1,0,0:0:0:0:
320,192,84683,1,0,0:0:0:0:
448,192,84683,1,0,0:0:0:0:
64,192,84760,1,0,0:0:0:0:
448,192,84760,1,0,0:0:0:0:
320,192,84837,1,0,0:0:0:0:
192,192,84837,1,0,0:0:0:0:
64,192,84914,1,0,0:0:0:0:
448,192,84914,1,0,0:0:0:0:
320,192,84991,128,0,85068:0:0:0:0:
192,192,84991,1,0,0:0:0:0:
192,192,85068,128,0,85145:0:0:0:0:
448,192,85145,1,0,0:0:0:0:
64,192,85145,128,0,85299:0:0:0:0:
320,192,85222,1,0,0:0:0:0:
448,192,85299,1,0,0:0:0:0:
192,192,85299,128,0,85376:0:0:0:0:
320,192,85376,128,0,85452:0:0:0:0:
448,192,85452,128,0,85606:0:0:0:0:
64,192,85452,1,0,0:0:0:0:
192,192,85529,1,0,0:0:0:0:
64,192,85606,1,0,0:0:0:0:
320,192,85606,128,0,85683:0:0:0:0:
192,192,85683,128,0,85760:0:0:0:0:
64,192,85760,128,0,85914:0:0:0:0:
448,192,85760,1,0,0:0:0:0:
320,192,85837,1,0,0:0:0:0:
192,192,85914,128,0,85991:0:0:0:0:
448,192,85914,1,0,0:0:0:0:
320,192,85991,128,0,86068:0:0:0:0:
448,192,86068,128,0,86222:0:0:0:0:
64,192,86068,1,0,0:0:0:0:
192,192,86145,1,0,0:0:0:0:
64,192,86222,1,0,0:0:0:0:
320,192,86222,1,0,0:0:0:0:
192,192,86222,1,0,0:0:0:0:
448,192,86299,1,0,0:0:0:0:
320,192,86376,1,0,0:0:0:0:
64,192,86376,1,0,0:0:0:0:
192,192,86452,1,0,0:0:0:0:
448,192,86529,1,0,0:0:0:0:
320,192,86529,1,0,0:0:0:0:
64,192,86529,1,0,0:0:0:0:
192,192,86606,1,0,0:0:0:0:
448,192,86683,1,0,0:0:0:0:
64,192,86683,1,0,0:0:0:0:
320,192,86760,1,0,0:0:0:0:
192,192,86837,1,0,0:0:0:0:
64,192,86837,1,0,0:0:0:0:
448,192,86837,1,0,0:0:0:0:
320,192,86914,1,0,0:0:0:0:
64,192,86991,1,0,0:0:0:0:
448,192,86991,1,0,0:0:0:0:
192,192,87068,1,0,0:0:0:0:
320,192,87145,1,0,0:0:0:0:
448,192,87145,1,0,0:0:0:0:
64,192,87145,1,0,0:0:0:0:
192,192,87222,1,0,0:0:0:0:
448,192,87299,1,0,0:0:0:0:
64,192,87299,1,0,0:0:0:0:
320,192,87376,1,0,0:0:0:0:
64,192,87452,1,0,0:0:0:0:
448,192,87452,1,0,0:0:0:0:
192,192,87452,128,0,87529:0:0:0:0:
320,192,87529,128,0,87606:0:0:0:0:
448,192,87606,128,0,87760:0:0:0:0:
64,192,87606,1,0,0:0:0:0:
192,192,87683,1,0,0:0:0:0:
64,192,87760,1,0,0:0:0:0:
320,192,87760,128,0,87837:0:0:0:0:
192,192,87837,128,0,87914:0:0:0:0:
64,192,87914,128,0,88068:0:0:0:0:
448,192,87914,1,0,0:0:0:0:
320,192,87991,1,0,0:0:0:0:
448,192,88068,1,0,0:0:0:0:
192,192,88068,128,0,88145:0:0:0:0:
320,192,88145,128,0,88222:0:0:0:0:
448,192,88222,128,0,88376:0:0:0:0:
64,192,88222,1,0,0:0:0:0:
192,192,88299,1,0,0:0:0:0:
320,192,88376,128,0,88452:0:0:0:0:
64,192,88376,1,0,0:0:0:0:
192,192,88452,128,0,88529:0:0:0:0:
64,192,88529,128,0,88683:0:0:0:0:
320,192,88529,1,0,0:0:0:0:
448,192,88606,1,0,0:0:0:0:
320,192,88683,1,0,0:0:0:0:
192,192,88683,1,0,0:0:0:0:
448,192,88683,1,0,0:0:0:0:
64,192,88760,1,0,0:0:0:0:
192,192,88837,1,0,0:0:0:0:
448,192,88837,1,0,0:0:0:0:
320,192,88914,1,0,0:0:0:0:
64,192,88991,1,0,0:0:0:0:
192,192,88991,1,0,0:0:0:0:
448,192,88991,1,0,0:0:0:0:
320,192,89068,1,0,0:0:0:0:
64,192,89145,1,0,0:0:0:0:
448,192,89145,1,0,0:0:0:0:
192,192,89222,1,0,0:0:0:0:
320,192,89299,1,0,0:0:0:0:
448,192,89299,1,0,0:0:0:0:
64,192,89299,1,0,0:0:0:0:
192,192,89376,1,0,0:0:0:0:
320,192,89452,1,0,0:0:0:0:
448,192,89452,1,0,0:0:0:0:
64,192,89529,1,0,0:0:0:0:
192,192,89606,1,0,0:0:0:0:
448,192,89606,1,0,0:0:0:0:
320,192,89658,1,0,0:0:0:0:
64,192,89702,1,0,0:0:0:0:
448,192,89760,1,0,0:0:0:0:
192,192,89760,1,0,0:0:0:0:
320,192,89811,1,0,0:0:0:0:
64,192,89856,1,0,0:0:0:0:
192,192,89914,1,0,0:0:0:0:
448,192,89914,1,0,0:0:0:0:
320,192,89914,1,0,0:0:0:0:
64,192,89991,1,0,0:0:0:0:
192,192,90068,1,0,0:0:0:0:
448,192,90145,1,0,0:0:0:0:
320,192,90145,1,0,0:0:0:0:
192,192,90222,1,0,0:0:0:0:
64,192,90222,1,0,0:0:0:0:
448,192,90299,1,0,0:0:0:0:
192,192,90376,1,0,0:0:0:0:
64,192,90376,1,0,0:0:0:0:
448,192,90376,1,0,0:0:0:0:
320,192,90376,1,0,0:0:0:0:
320,192,90452,1,0,0:0:0:0:
192,192,90529,1,0,0:0:0:0:
320,192,90606,1,0,0:0:0:0:
64,192,90606,1,0,0:0:0:0:
448,192,90683,1,0,0:0:0:0:
192,192,90683,1,0,0:0:0:0:
320,192,90760,1,0,0:0:0:0:
192,192,90837,1,0,0:0:0:0:
64,192,90837,1,0,0:0:0:0:
448,192,90837,1,0,0:0:0:0:
448,192,90914,1,0,0:0:0:0:
320,192,90991,1,0,0:0:0:0:
192,192,90991,1,0,0:0:0:0:
64,192,91068,1,0,0:0:0:0:
320,192,91145,1,0,0:0:0:0:
448,192,91145,1,0,0:0:0:0:
192,192,91145,1,0,0:0:0:0:
192,192,91222,1,0,0:0:0:0:
448,192,91299,1,0,0:0:0:0:
64,192,91376,1,0,0:0:0:0:
192,192,91376,1,0,0:0:0:0:
320,192,91452,1,0,0:0:0:0:
448,192,91452,1,0,0:0:0:0:
64,192,91529,1,0,0:0:0:0:
320,192,91606,1,0,0:0:0:0:
448,192,91606,1,0,0:0:0:0:
192,192,91606,1,0,0:0:0:0:
64,192,91606,1,0,0:0:0:0:
192,192,91683,1,0,0:0:0:0:
320,192,91760,1,0,0:0:0:0:
192,192,91837,1,0,0:0:0:0:
448,192,91837,1,0,0:0:0:0:
64,192,91914,1,0,0:0:0:0:
320,192,91914,1,0,0:0:0:0:
192,192,91991,1,0,0:0:0:0:
320,192,92068,1,0,0:0:0:0:
448,192,92068,1,0,0:0:0:0:
64,192,92145,1,0,0:0:0:0:
192,192,92145,1,0,0:0:0:0:
320,192,92222,1,0,0:0:0:0:
448,192,92222,1,0,0:0:0:0:
192,192,92299,1,0,0:0:0:0:
64,192,92376,1,0,0:0:0:0:
448,192,92376,1,0,0:0:0:0:
320,192,92376,1,0,0:0:0:0:
192,192,92452,1,0,0:0:0:0:
448,192,92529,1,0,0:0:0:0:
320,192,92606,1,0,0:0:0:0:
64,192,92606,1,0,0:0:0:0:
448,192,92683,1,0,0:0:0:0:
192,192,92683,1,0,0:0:0:0:
64,192,92760,1,0,0:0:0:0:
448,192,92837,1,0,0:0:0:0:
320,192,92837,1,0,0:0:0:0:
192,192,92837,1,0,0:0:0:0:
64,192,92837,1,0,0:0:0:0:
192,192,92914,1,0,0:0:0:0:
448,192,92991,1,0,0:0:0:0:
64,192,92991,1,0,0:0:0:0:
192,192,93068,1,0,0:0:0:0:
320,192,93068,1,0,0:0:0:0:
64,192,93145,1,0,0:0:0:0:
448,192,93145,1,0,0:0:0:0:
192,192,93222,1,0,0:0:0:0:
448,192,93299,1,0,0:0:0:0:
320,192,93299,1,0,0:0:0:0:
64,192,93299,1,0,0:0:0:0:
64,192,93376,1,0,0:0:0:0:
320,192,93452,1,0,0:0:0:0:
192,192,93452,1,0,0:0:0:0:
448,192,93529,1,0,0:0:0:0:
64,192,93529,1,0,0:0:0:0:
192,192,93606,1,0,0:0:0:0:
320,192,93606,1,0,0:0:0:0:
448,192,93606,1,0,0:0:0:0:
64,192,93683,1,0,0:0:0:0:
320,192,93760,1,0,0:0:0:0:
448,192,93760,1,0,0:0:0:0:
192,192,93837,1,0,0:0:0:0:
64,192,93837,1,0,0:0:0:0:
320,192,93914,1,0,0:0:0:0:
448,192,93914,1,0,0:0:0:0:
64,192,93991,1,0,0:0:0:0:
192,192,93991,1,0,0:0:0:0:
448,192,94068,1,0,0:0:0:0:
320,192,94068,1,0,0:0:0:0:
192,192,94145,1,0,0:0:0:0:
64,192,94222,1,0,0:0:0:0:
448,192,94222,1,0,0:0:0:0:
320,192,94299,1,0,0:0:0:0:
192,192,94337,1,0,0:0:0:0:
64,192,94376,1,0,0:0:0:0:
448,192,94414,1,0,0:0:0:0:
320,192,94452,1,0,0:0:0:0:
192,192,94529,1,0,0:0:0:0:
64,192,94529,1,0,0:0:0:0:
320,192,94606,1,0,0:0:0:0:
448,192,94606,1,0,0:0:0:0:
192,192,94683,1,0,0:0:0:0:
64,192,94722,1,0,0:0:0:0:
448,192,94760,1,0,0:0:0:0:
320,192,94799,1,0,0:0:0:0:
64,192,94837,1,0,0:0:0:0:
192,192,94837,128,0,95760:0:0:0:0:
64,192,95760,1,0,0:0:0:0:
192,192,95914,1,0,0:0:0:0:
320,192,96068,1,0,0:0:0:0:
448,192,96145,1,0,0:0:0:0:
320,192,96222,1,0,0:0:0:0:
448,192,96299,1,0,0:0:0:0:
320,192,96376,1,0,0:0:0:0:
448,192,96452,1,0,0:0:0:0:
320,192,96529,1,0,0:0:0:0:
448,192,96606,1,0,0:0:0:0:
320,192,96683,1,0,0:0:0:0:
192,192,96760,1,0,0:0:0:0:
320,192,96837,1,0,0:0:0:0:
192,192,96914,1,0,0:0:0:0:
320,192,96991,1,0,0:0:0:0:
192,192,97068,1,0,0:0:0:0:
320,192,97145,1,0,0:0:0:0:
192,192,97222,1,0,0:0:0:0:
64,192,97299,1,0,0:0:0:0:
448,192,97376,1,0,0:0:0:0:
64,192,97452,1,0,0:0:0:0:
448,192,97529,1,0,0:0:0:0:
64,192,97606,1,0,0:0:0:0:
448,192,97683,1,0,0:0:0:0:
64,192,97760,1,0,0:0:0:0:
448,192,97837,1,0,0:0:0:0:
64,192,97914,1,0,0:0:0:0:
448,192,97991,1,0,0:0:0:0:
64,192,98068,1,0,0:0:0:0:
448,192,98145,1,0,0:0:0:0:
64,192,98222,1,0,0:0:0:0:
448,192,98299,1,0,0:0:0:0:
64,192,98376,1,0,0:0:0:0:
448,192,98452,1,0,0:0:0:0:
192,192,98529,1,0,0:0:0:0:
64,192,98529,1,0,0:0:0:0:
320,192,98606,1,0,0:0:0:0:
448,192,98606,1,0,0:0:0:0:
192,192,98683,1,0,0:0:0:0:
64,192,98683,1,0,0:0:0:0:
320,192,98760,1,0,0:0:0:0:
448,192,98760,1,0,0:0:0:0:
192,192,98837,1,0,0:0:0:0:
64,192,98837,1,0,0:0:0:0:
320,192,98914,1,0,0:0:0:0:
448,192,98914,1,0,0:0:0:0:
192,192,98991,1,0,0:0:0:0:
64,192,98991,1,0,0:0:0:0:
320,192,99068,1,0,0:0:0:0:
448,192,99068,1,0,0:0:0:0:
192,192,99145,1,0,0:0:0:0:
64,192,99145,1,0,0:0:0:0:
320,192,99222,1,0,0:0:0:0:
448,192,99222,1,0,0:0:0:0:
192,192,99299,1,0,0:0:0:0:
64,192,99299,1,0,0:0:0:0:
320,192,99376,1,0,0:0:0:0:
448,192,99376,1,0,0:0:0:0:
192,192,99452,1,0,0:0:0:0:
64,192,99452,1,0,0:0:0:0:
320,192,99529,1,0,0:0:0:0:
448,192,99529,1,0,0:0:0:0:
192,192,99606,1,0,0:0:0:0:
64,192,99606,1,0,0:0:0:0:
320,192,99683,1,0,0:0:0:0:
448,192,99683,1,0,0:0:0:0:
192,192,99760,1,0,0:0:0:0:
64,192,99760,1,0,0:0:0:0:
320,192,99837,1,0,0:0:0:0:
448,192,99837,1,0,0:0:0:0:
192,192,99914,1,0,0:0:0:0:
64,192,99914,1,0,0:0:0:0:
320,192,99991,1,0,0:0:0:0:
448,192,99991,1,0,0:0:0:0:
64,192,100068,1,0,0:0:0:0:
192,192,100068,1,0,0:0:0:0:
320,192,100145,1,0,0:0:0:0:
448,192,100145,1,0,0:0:0:0:
192,192,100222,1,0,0:0:0:0:
64,192,100222,1,0,0:0:0:0:
320,192,100299,1,0,0:0:0:0:
448,192,100299,1,0,0:0:0:0:
192,192,100376,128,0,100452:0:0:0:0:
64,192,100376,1,0,0:0:0:0:
320,192,100452,128,0,100529:0:0:0:0:
448,192,100452,1,0,0:0:0:0:
192,192,100529,128,0,100606:0:0:0:0:
64,192,100529,1,0,0:0:0:0:
320,192,100606,128,0,100683:0:0:0:0:
448,192,100606,1,0,0:0:0:0:
64,192,100683,128,0,100760:0:0:0:0:
192,192,100683,1,0,0:0:0:0:
320,192,100760,5,0,0:0:0:0:
448,192,100760,128,0,100837:0:0:0:0:
64,192,100837,128,0,100914:0:0:0:0:
192,192,100837,1,0,0:0:0:0:
320,192,100914,1,0,0:0:0:0:
448,192,100914,128,0,100991:0:0:0:0:
192,192,100991,128,0,101068:0:0:0:0:
64,192,100991,1,0,0:0:0:0:
320,192,101068,128,0,101145:0:0:0:0:
192,192,101145,128,0,101222:0:0:0:0:
320,192,101222,128,0,101299:0:0:0:0:
448,192,101299,128,0,101376:0:0:0:0:
64,192,101376,128,0,101452:0:0:0:0:
448,192,101452,128,0,101529:0:0:0:0:
64,192,101529,128,0,101606:0:0:0:0:
192,192,101606,128,0,101683:0:0:0:0:
320,192,101683,128,0,101760:0:0:0:0:
192,192,101760,128,0,101837:0:0:0:0:
320,192,101837,128,0,101914:0:0:0:0:
448,192,101914,1,0,0:0:0:0:
192,192,101914,1,0,0:0:0:0:
64,192,101914,1,0,0:0:0:0:
320,192,101991,1,0,0:0:0:0:
192,192,102068,5,0,0:0:0:0:
448,192,102068,1,0,0:0:0:0:
64,192,102145,1,0,0:0:0:0:
320,192,102145,1,0,0:0:0:0:
448,192,102222,1,0,0:0:0:0:
320,192,102222,1,0,0:0:0:0:
192,192,102222,1,0,0:0:0:0:
64,192,102222,1,0,0:0:0:0:
320,192,102376,1,0,0:0:0:0:
448,192,102376,1,0,0:0:0:0:
64,192,102376,1,0,0:0:0:0:
192,192,102452,1,0,0:0:0:0:
64,192,102529,1,0,0:0:0:0:
448,192,102529,1,0,0:0:0:0:
320,192,102529,1,0,0:0:0:0:
192,192,102683,1,0,0:0:0:0:
320,192,102683,1,0,0:0:0:0:
448,192,102683,1,0,0:0:0:0:
64,192,102760,1,0,0:0:0:0:
192,192,102837,1,0,0:0:0:0:
320,192,102914,1,0,0:0:0:0:
192,192,102991,1,0,0:0:0:0:
448,192,102991,1,0,0:0:0:0:
64,192,102991,1,0,0:0:0:0:
320,192,103068,1,0,0:0:0:0:
192,192,103145,1,0,0:0:0:0:
64,192,103222,1,0,0:0:0:0:
448,192,103299,1,0,0:0:0:0:
320,192,103299,1,0,0:0:0:0:
192,192,103376,1,0,0:0:0:0:
448,192,103452,1,0,0:0:0:0:
64,192,103452,1,0,0:0:0:0:
320,192,103452,1,0,0:0:0:0:
192,192,103606,1,0,0:0:0:0:
448,192,103606,1,0,0:0:0:0:
320,192,103606,1,0,0:0:0:0:
64,192,103683,1,0,0:0:0:0:
448,192,103760,1,0,0:0:0:0:
192,192,103760,1,0,0:0:0:0:
320,192,103760,1,0,0:0:0:0:
320,192,103914,1,0,0:0:0:0:
448,192,103914,1,0,0:0:0:0:
64,192,103914,1,0,0:0:0:0:
192,192,103914,1,0,0:0:0:0:
64,192,104068,1,0,0:0:0:0:
192,192,104068,1,0,0:0:0:0:
320,192,104068,1,0,0:0:0:0:
448,192,104145,1,0,0:0:0:0:
320,192,104222,1,0,0:0:0:0:
64,192,104222,1,0,0:0:0:0:
192,192,104222,1,0,0:0:0:0:
64,192,104376,1,0,0:0:0:0:
448,192,104376,1,0,0:0:0:0:
320,192,104376,1,0,0:0:0:0:
192,192,104452,1,0,0:0:0:0:
448,192,104529,1,0,0:0:0:0:
64,192,104529,1,0,0:0:0:0:
320,192,104529,1,0,0:0:0:0:
192,192,104606,1,0,0:0:0:0:
320,192,104683,1,0,0:0:0:0:
64,192,104683,1,0,0:0:0:0:
448,192,104683,1,0,0:0:0:0:
448,192,104837,1,0,0:0:0:0:
192,192,104837,1,0,0:0:0:0:
64,192,104837,1,0,0:0:0:0:
320,192,104914,1,0,0:0:0:0:
448,192,104991,1,0,0:0:0:0:
64,192,104991,1,0,0:0:0:0:
192,192,104991,1,0,0:0:0:0:
320,192,105145,1,0,0:0:0:0:
448,192,105145,1,0,0:0:0:0:
64,192,105145,1,0,0:0:0:0:
192,192,105222,1,0,0:0:0:0:
320,192,105299,1,0,0:0:0:0:
448,192,105299,1,0,0:0:0:0:
64,192,105299,1,0,0:0:0:0:
448,192,105452,1,0,0:0:0:0:
192,192,105452,1,0,0:0:0:0:
64,192,105452,1,0,0:0:0:0:
320,192,105529,1,0,0:0:0:0:
192,192,105606,1,0,0:0:0:0:
64,192,105606,1,0,0:0:0:0:
448,192,105606,1,0,0:0:0:0:
320,192,105683,1,0,0:0:0:0:
192,192,105760,1,0,0:0:0:0:
64,192,105760,1,0,0:0:0:0:
448,192,105837,1,0,0:0:0:0:
320,192,105914,1,0,0:0:0:0:
192,192,105914,1,0,0:0:0:0:
64,192,105914,1,0,0:0:0:0:
448,192,105914,1,0,0:0:0:0:
448,192,106068,1,0,0:0:0:0:
192,192,106068,1,0,0:0:0:0:
320,192,106145,1,0,0:0:0:0:
192,192,106222,1,0,0:0:0:0:
448,192,106222,1,0,0:0:0:0:
64,192,106222,1,0,0:0:0:0:
320,192,106299,1,0,0:0:0:0:
64,192,106376,1,0,0:0:0:0:
448,192,106376,1,0,0:0:0:0:
192,192,106452,1,0,0:0:0:0:
64,192,106529,1,0,0:0:0:0:
448,192,106529,1,0,0:0:0:0:
320,192,106529,1,0,0:0:0:0:
192,192,106606,1,0,0:0:0:0:
64,192,106683,1,0,0:0:0:0:
320,192,106760,1,0,0:0:0:0:
448,192,106760,1,0,0:0:0:0:
192,192,106837,1,0,0:0:0:0:
64,192,106837,1,0,0:0:0:0:
448,192,106914,1,0,0:0:0:0:
192,192,106991,1,0,0:0:0:0:
320,192,106991,1,0,0:0:0:0:
64,192,107068,1,0,0:0:0:0:
448,192,107068,1,0,0:0:0:0:
320,192,107145,1,0,0:0:0:0:
192,192,107145,128,0,107299:0:0:0:0:
64,192,107222,1,0,0:0:0:0:
448,192,107299,1,0,0:0:0:0:
320,192,107299,1,0,0:0:0:0:
64,192,107376,128,0,107606:0:0:0:0:
192,192,107376,1,0,0:0:0:0:
320,192,107452,1,0,0:0:0:0:
448,192,107452,1,0,0:0:0:0:
192,192,107529,1,0,0:0:0:0:
448,192,107606,128,0,107837:0:0:0:0:
320,192,107606,1,0,0:0:0:0:
192,192,107683,1,0,0:0:0:0:
64,192,107760,1,0,0:0:0:0:
320,192,107837,128,0,108068:0:0:0:0:
192,192,107837,1,0,0:0:0:0:
64,192,107914,1,0,0:0:0:0:
448,192,107991,1,0,0:0:0:0:
192,192,108068,128,0,108222:0:0:0:0:
64,192,108068,1,0,0:0:0:0:
320,192,108145,1,0,0:0:0:0:
64,192,108222,128,0,108376:0:0:0:0:
448,192,108222,1,0,0:0:0:0:
192,192,108299,1,0,0:0:0:0:
448,192,108376,128,0,108529:0:0:0:0:
320,192,108376,1,0,0:0:0:0:
192,192,108452,1,0,0:0:0:0:
64,192,108529,1,0,0:0:0:0:
192,192,108606,1,0,0:0:0:0:
320,192,108606,128,0,108837:0:0:0:0:
448,192,108683,1,0,0:0:0:0:
64,192,108683,1,0,0:0:0:0:
192,192,108760,1,0,0:0:0:0:
64,192,108837,128,0,109068:0:0:0:0:
448,192,108837,1,0,0:0:0:0:
320,192,108914,1,0,0:0:0:0:
192,192,108914,1,0,0:0:0:0:
448,192,108991,1,0,0:0:0:0:
192,192,109068,128,0,109299:0:0:0:0:
320,192,109068,1,0,0:0:0:0:
448,192,109145,1,0,0:0:0:0:
64,192,109145,1,0,0:0:0:0:
320,192,109222,1,0,0:0:0:0:
448,192,109299,128,0,109376:0:0:0:0:
64,192,109299,1,0,0:0:0:0:
320,192,109376,128,0,109452:0:0:0:0:
192,192,109452,128,0,109529:0:0:0:0:
64,192,109529,128,0,109606:0:0:0:0:
448,192,109606,128,0,109760:0:0:0:0:
192,192,109606,1,0,0:0:0:0:
320,192,109683,1,0,0:0:0:0:
64,192,109760,1,0,0:0:0:0:
192,192,109760,1,0,0:0:0:0:
320,192,109837,128,0,110068:0:0:0:0:
448,192,109837,1,0,0:0:0:0:
64,192,109914,1,0,0:0:0:0:
192,192,109914,1,0,0:0:0:0:
448,192,109991,1,0,0:0:0:0:
192,192,110068,128,0,110299:0:0:0:0:
64,192,110068,1,0,0:0:0:0:
320,192,110145,1,0,0:0:0:0:
448,192,110222,1,0,0:0:0:0:
320,192,110299,1,0,0:0:0:0:
64,192,110299,128,0,110376:0:0:0:0:
448,192,110376,128,0,110452:0:0:0:0:
192,192,110376,1,0,0:0:0:0:
320,192,110452,128,0,110529:0:0:0:0:
64,192,110529,128,0,110606:0:0:0:0:
192,192,110606,1,0,0:0:0:0:
448,192,110606,128,0,110683:0:0:0:0:
320,192,110683,128,0,110760:0:0:0:0:
64,192,110683,1,0,0:0:0:0:
192,192,110760,128,0,110837:0:0:0:0:
448,192,110837,1,0,0:0:0:0:
320,192,110837,1,0,0:0:0:0:
64,192,110837,1,0,0:0:0:0:
448,192,110991,1,0,0:0:0:0:
320,192,111042,1,0,0:0:0:0:
192,192,111087,1,0,0:0:0:0:
64,192,111145,1,0,0:0:0:0:
448,192,111145,1,0,0:0:0:0:
320,192,111222,1,0,0:0:0:0:
64,192,111299,1,0,0:0:0:0:
448,192,111299,1,0,0:0:0:0:
192,192,111350,1,0,0:0:0:0:
320,192,111395,1,0,0:0:0:0:
64,192,111452,1,0,0:0:0:0:
448,192,111452,1,0,0:0:0:0:
192,192,111529,1,0,0:0:0:0:
448,192,111606,1,0,0:0:0:0:
320,192,111645,1,0,0:0:0:0:
192,192,111683,1,0,0:0:0:0:
64,192,111722,1,0,0:0:0:0:
448,192,111760,1,0,0:0:0:0:
320,192,111760,1,0,0:0:0:0:
192,192,111837,1,0,0:0:0:0:
448,192,111914,1,0,0:0:0:0:
64,192,111914,1,0,0:0:0:0:
320,192,111991,1,0,0:0:0:0:
192,192,112068,1,0,0:0:0:0:
64,192,112068,1,0,0:0:0:0:
320,192,112145,1,0,0:0:0:0:
192,192,112222,1,0,0:0:0:0:
448,192,112222,1,0,0:0:0:0:
64,192,112299,1,0,0:0:0:0:
320,192,112299,1,0,0:0:0:0:
192,192,112376,1,0,0:0:0:0:
448,192,112452,1,0,0:0:0:0:
64,192,112452,1,0,0:0:0:0:
320,192,112529,1,0,0:0:0:0:
192,192,112529,1,0,0:0:0:0:
64,192,112606,1,0,0:0:0:0:
320,192,112683,1,0,0:0:0:0:
192,192,112683,1,0,0:0:0:0:
448,192,112760,1,0,0:0:0:0:
192,192,112837,1,0,0:0:0:0:
64,192,112837,1,0,0:0:0:0:
320,192,112837,1,0,0:0:0:0:
448,192,112914,1,0,0:0:0:0:
192,192,112991,1,0,0:0:0:0:
64,192,112991,1,0,0:0:0:0:
320,192,113068,1,0,0:0:0:0:
448,192,113068,1,0,0:0:0:0:
192,192,113145,1,0,0:0:0:0:
64,192,113145,1,0,0:0:0:0:
320,192,113222,1,0,0:0:0:0:
448,192,113222,1,0,0:0:0:0:
192,192,113299,1,0,0:0:0:0:
64,192,113299,1,0,0:0:0:0:
320,192,113376,1,0,0:0:0:0:
448,192,113452,1,0,0:0:0:0:
192,192,113452,1,0,0:0:0:0:
64,192,113529,1,0,0:0:0:0:
320,192,113529,1,0,0:0:0:0:
192,192,113606,1,0,0:0:0:0:
448,192,113606,1,0,0:0:0:0:
320,192,113683,1,0,0:0:0:0:
192,192,113760,1,0,0:0:0:0:
448,192,113760,1,0,0:0:0:0:
64,192,113837,1,0,0:0:0:0:
320,192,113914,1,0,0:0:0:0:
448,192,113914,1,0,0:0:0:0:
192,192,113914,1,0,0:0:0:0:
64,192,113991,1,0,0:0:0:0:
320,192,114068,1,0,0:0:0:0:
448,192,114068,1,0,0:0:0:0:
192,192,114145,1,0,0:0:0:0:
64,192,114222,1,0,0:0:0:0:
320,192,114222,1,0,0:0:0:0:
448,192,114222,1,0,0:0:0:0:
192,192,114299,1,0,0:0:0:0:
64,192,114376,1,0,0:0:0:0:
320,192,114376,1,0,0:0:0:0:
448,192,114452,1,0,0:0:0:0:
320,192,114529,1,0,0:0:0:0:
192,192,114529,1,0,0:0:0:0:
64,192,114529,1,0,0:0:0:0:
448,192,114606,1,0,0:0:0:0:
320,192,114683,1,0,0:0:0:0:
64,192,114683,1,0,0:0:0:0:
192,192,114760,1,0,0:0:0:0:
448,192,114837,1,0,0:0:0:0:
64,192,114837,1,0,0:0:0:0:
320,192,114837,1,0,0:0:0:0:
192,192,114914,1,0,0:0:0:0:
320,192,114991,1,0,0:0:0:0:
192,192,115068,1,0,0:0:0:0:
64,192,115145,1,0,0:0:0:0:
320,192,115145,1,0,0:0:0:0:
448,192,115145,1,0,0:0:0:0:
192,192,115222,1,0,0:0:0:0:
64,192,115299,1,0,0:0:0:0:
448,192,115299,1,0,0:0:0:0:
192,192,115376,1,0,0:0:0:0:
320,192,115452,1,0,0:0:0:0:
448,192,115452,1,0,0:0:0:0:
64,192,115452,1,0,0:0:0:0:
192,192,115529,1,0,0:0:0:0:
320,192,115606,1,0,0:0:0:0:
448,192,115683,1,0,0:0:0:0:
192,192,115683,1,0,0:0:0:0:
320,192,115760,1,0,0:0:0:0:
64,192,115760,1,0,0:0:0:0:
192,192,115837,1,0,0:0:0:0:
320,192,115914,1,0,0:0:0:0:
448,192,115991,1,0,0:0:0:0:
192,192,115991,1,0,0:0:0:0:
320,192,116068,1,0,0:0:0:0:
64,192,116068,1,0,0:0:0:0:
192,192,116145,1,0,0:0:0:0:
320,192,116222,1,0,0:0:0:0:
192,192,116299,1,0,0:0:0:0:
448,192,116299,1,0,0:0:0:0:
320,192,116376,1,0,0:0:0:0:
64,192,116376,1,0,0:0:0:0:
192,192,116452,1,0,0:0:0:0:
320,192,116529,1,0,0:0:0:0:
448,192,116606,1,0,0:0:0:0:
192,192,116606,1,0,0:0:0:0:
64,192,116683,1,0,0:0:0:0:
320,192,116683,1,0,0:0:0:0:
192,192,116760,1,0,0:0:0:0:
320,192,116837,1,0,0:0:0:0:
448,192,116914,1,0,0:0:0:0:
64,192,116914,1,0,0:0:0:0:
192,192,116991,1,0,0:0:0:0:
320,192,116991,1,0,0:0:0:0:
448,192,117068,1,0,0:0:0:0:
64,192,117145,1,0,0:0:0:0:
192,192,117145,1,0,0:0:0:0:
320,192,117222,1,0,0:0:0:0:
64,192,117299,1,0,0:0:0:0:
448,192,117299,1,0,0:0:0:0:
192,192,117376,1,0,0:0:0:0:
320,192,117452,1,0,0:0:0:0:
448,192,117452,1,0,0:0:0:0:
64,192,117529,1,0,0:0:0:0:
192,192,117606,1,0,0:0:0:0:
320,192,117606,1,0,0:0:0:0:
448,192,117683,1,0,0:0:0:0:
64,192,117760,1,0,0:0:0:0:
192,192,117760,1,0,0:0:0:0:
320,192,117837,1,0,0:0:0:0:
448,192,117914,1,0,0:0:0:0:
64,192,117914,1,0,0:0:0:0:
192,192,117991,1,0,0:0:0:0:
320,192,118068,1,0,0:0:0:0:
64,192,118068,1,0,0:0:0:0:
448,192,118145,1,0,0:0:0:0:
320,192,118222,1,0,0:0:0:0:
192,192,118222,1,0,0:0:0:0:
64,192,118299,1,0,0:0:0:0:
320,192,118376,1,0,0:0:0:0:
448,192,118376,1,0,0:0:0:0:
192,192,118452,1,0,0:0:0:0:
64,192,118529,1,0,0:0:0:0:
448,192,118529,1,0,0:0:0:0:
320,192,118606,1,0,0:0:0:0:
192,192,118683,1,0,0:0:0:0:
64,192,118683,1,0,0:0:0:0:
448,192,118760,1,0,0:0:0:0:
320,192,118837,1,0,0:0:0:0:
192,192,118837,1,0,0:0:0:0:
64,192,118914,1,0,0:0:0:0:
320,192,118991,1,0,0:0:0:0:
448,192,118991,1,0,0:0:0:0:
192,192,119068,1,0,0:0:0:0:
64,192,119145,1,0,0:0:0:0:
448,192,119145,1,0,0:0:0:0:
320,192,119222,1,0,0:0:0:0:
192,192,119222,1,0,0:0:0:0:
64,192,119299,1,0,0:0:0:0:
448,192,119299,1,0,0:0:0:0:
192,192,119376,1,0,0:0:0:0:
320,192,119376,1,0,0:0:0:0:
448,192,119452,1,0,0:0:0:0:
64,192,119452,1,0,0:0:0:0:
192,192,119529,1,0,0:0:0:0:
320,192,119606,1,0,0:0:0:0:
64,192,119606,1,0,0:0:0:0:
448,192,119683,1,0,0:0:0:0:
64,192,119683,1,0,0:0:0:0:
320,192,119760,1,0,0:0:0:0:
192,192,119760,1,0,0:0:0:0:
448,192,119837,1,0,0:0:0:0:
192,192,119914,1,0,0:0:0:0:
320,192,119914,1,0,0:0:0:0:
64,192,119914,1,0,0:0:0:0:
64,192,119991,1,0,0:0:0:0:
448,192,120068,1,0,0:0:0:0:
320,192,120068,1,0,0:0:0:0:
192,192,120068,1,0,0:0:0:0:
64,192,120145,1,0,0:0:0:0:
448,192,120145,1,0,0:0:0:0:
320,192,120222,1,0,0:0:0:0:
192,192,120222,1,0,0:0:0:0:
64,192,120299,1,0,0:0:0:0:
320,192,120299,1,0,0:0:0:0:
192,192,120376,1,0,0:0:0:0:
448,192,120452,1,0,0:0:0:0:
64,192,120452,1,0,0:0:0:0:
320,192,120529,1,0,0:0:0:0:
192,192,120568,1,0,0:0:0:0:
448,192,120606,1,0,0:0:0:0:
64,192,120606,1,0,0:0:0:0:
320,192,120645,1,0,0:0:0:0:
192,192,120683,1,0,0:0:0:0:
64,192,120683,1,0,0:0:0:0:
448,192,120760,1,0,0:0:0:0:
320,192,120837,1,0,0:0:0:0:
64,192,120914,1,0,0:0:0:0:
448,192,120914,1,0,0:0:0:0:
192,192,120914,1,0,0:0:0:0:
320,192,120991,1,0,0:0:0:0:
448,192,121068,1,0,0:0:0:0:
64,192,121145,1,0,0:0:0:0:
192,192,121145,1,0,0:0:0:0:
320,192,121222,1,0,0:0:0:0:
448,192,121299,1,0,0:0:0:0:
64,192,121376,1,0,0:0:0:0:
320,192,121376,1,0,0:0:0:0:
192,192,121452,1,0,0:0:0:0:
320,192,121491,1,0,0:0:0:0:
448,192,121529,1,0,0:0:0:0:
64,192,121529,1,0,0:0:0:0:
192,192,121568,1,0,0:0:0:0:
448,192,121606,1,0,0:0:0:0:
320,192,121606,128,0,121683:0:0:0:0:
448,192,121760,1,0,0:0:0:0:
64,192,121760,1,0,0:0:0:0:
320,192,121760,1,0,0:0:0:0:
192,192,121760,128,0,121837:0:0:0:0:
320,192,121914,1,0,0:0:0:0:
64,192,121914,1,0,0:0:0:0:
448,192,121914,1,0,0:0:0:0:
192,192,121914,1,0,0:0:0:0:
64,192,122068,128,0,122222:0:0:0:0:
192,192,122068,1,0,0:0:0:0:
320,192,122222,1,0,0:0:0:0:
192,192,122222,1,0,0:0:0:0:
448,192,122273,1,0,0:0:0:0:
64,192,122318,1,0,0:0:0:0:
320,192,122376,1,0,0:0:0:0:
448,192,122427,1,0,0:0:0:0:
64,192,122472,1,0,0:0:0:0:
192,192,122529,1,0,0:0:0:0:
320,192,122529,1,0,0:0:0:0:
448,192,122529,1,0,0:0:0:0:
64,192,122683,1,0,0:0:0:0:
448,192,122683,128,0,122837:0:0:0:0:
320,192,122683,1,0,0:0:0:0:
192,192,122760,1,0,0:0:0:0:
192,192,122837,1,0,0:0:0:0:
320,192,122837,1,0,0:0:0:0:
64,192,122888,1,0,0:0:0:0:
448,192,122933,1,0,0:0:0:0:
192,192,122991,1,0,0:0:0:0:
320,192,122991,1,0,0:0:0:0:
64,192,123042,1,0,0:0:0:0:
448,192,123087,1,0,0:0:0:0:
192,192,123145,1,0,0:0:0:0:
320,192,123145,1,0,0:0:0:0:
320,192,123222,1,0,0:0:0:0:
64,192,123299,128,0,123452:0:0:0:0:
192,192,123299,1,0,0:0:0:0:
448,192,123299,1,0,0:0:0:0:
192,192,123376,1,0,0:0:0:0:
320,192,123452,1,0,0:0:0:0:
448,192,123504,1,0,0:0:0:0:
64,192,123549,1,0,0:0:0:0:
320,192,123606,1,0,0:0:0:0:
448,192,123658,1,0,0:0:0:0:
64,192,123702,1,0,0:0:0:0:
320,192,123760,1,0,0:0:0:0:
192,192,123760,1,0,0:0:0:0:
448,192,123760,1,0,0:0:0:0:
192,192,123837,1,0,0:0:0:0:
64,192,123914,1,0,0:0:0:0:
320,192,123914,1,0,0:0:0:0:
448,192,123914,128,0,124068:0:0:0:0:
64,192,123991,1,0,0:0:0:0:
192,192,124068,1,0,0:0:0:0:
320,192,124068,1,0,0:0:0:0:
64,192,124119,1,0,0:0:0:0:
448,192,124164,1,0,0:0:0:0:
192,192,124222,1,0,0:0:0:0:
320,192,124222,1,0,0:0:0:0:
64,192,124273,1,0,0:0:0:0:
448,192,124318,1,0,0:0:0:0:
320,192,124376,1,0,0:0:0:0:
192,192,124376,1,0,0:0:0:0:
64,192,124452,1,0,0:0:0:0:
192,192,124529,1,0,0:0:0:0:
320,192,124529,1,0,0:0:0:0:
64,192,124606,1,0,0:0:0:0:
448,192,124606,1,0,0:0:0:0:
448,192,124683,1,0,0:0:0:0:
320,192,124683,1,0,0:0:0:0:
192,192,124760,1,0,0:0:0:0:
64,192,124760,1,0,0:0:0:0:
64,192,124837,1,0,0:0:0:0:
192,192,124914,1,0,0:0:0:0:
320,192,124914,1,0,0:0:0:0:
64,192,124991,1,0,0:0:0:0:
448,192,124991,1,0,0:0:0:0:
320,192,125068,1,0,0:0:0:0:
64,192,125145,1,0,0:0:0:0:
192,192,125145,1,0,0:0:0:0:
320,192,125222,1,0,0:0:0:0:
64,192,125299,1,0,0:0:0:0:
192,192,125299,1,0,0:0:0:0:
448,192,125376,1,0,0:0:0:0:
320,192,125376,1,0,0:0:0:0:
64,192,125452,1,0,0:0:0:0:
448,192,125529,1,0,0:0:0:0:
320,192,125529,1,0,0:0:0:0:
320,192,125606,1,0,0:0:0:0:
64,192,125606,1,0,0:0:0:0:
192,192,125683,1,0,0:0:0:0:
448,192,125760,1,0,0:0:0:0:
64,192,125760,1,0,0:0:0:0:
320,192,125837,1,0,0:0:0:0:
448,192,125914,1,0,0:0:0:0:
192,192,125914,1,0,0:0:0:0:
64,192,125914,1,0,0:0:0:0:
320,192,125991,1,0,0:0:0:0:
64,192,126068,1,0,0:0:0:0:
192,192,126145,1,0,0:0:0:0:
64,192,126222,1,0,0:0:0:0:
320,192,126222,1,0,0:0:0:0:
448,192,126222,1,0,0:0:0:0:
192,192,126299,1,0,0:0:0:0:
64,192,126376,1,0,0:0:0:0:
448,192,126376,1,0,0:0:0:0:
320,192,126452,1,0,0:0:0:0:
448,192,126529,1,0,0:0:0:0:
192,192,126529,1,0,0:0:0:0:
64,192,126606,1,0,0:0:0:0:
320,192,126606,1,0,0:0:0:0:
448,192,126683,1,0,0:0:0:0:
192,192,126683,1,0,0:0:0:0:
320,192,126760,1,0,0:0:0:0:
448,192,126837,1,0,0:0:0:0:
64,192,126837,1,0,0:0:0:0:
192,192,126837,1,0,0:0:0:0:
320,192,126914,1,0,0:0:0:0:
320,192,126991,1,0,0:0:0:0:
192,192,126991,1,0,0:0:0:0:
64,192,126991,1,0,0:0:0:0:
448,192,127068,1,0,0:0:0:0:
64,192,127145,1,0,0:0:0:0:
320,192,127145,1,0,0:0:0:0:
192,192,127222,1,0,0:0:0:0:
320,192,127299,1,0,0:0:0:0:
192,192,127376,1,0,0:0:0:0:
448,192,127376,1,0,0:0:0:0:
64,192,127452,1,0,0:0:0:0:
320,192,127452,1,0,0:0:0:0:
192,192,127529,1,0,0:0:0:0:
64,192,127606,1,0,0:0:0:0:
448,192,127606,1,0,0:0:0:0:
320,192,127645,1,0,0:0:0:0:
192,192,127683,1,0,0:0:0:0:
320,192,127722,1,0,0:0:0:0:
64,192,127760,1,0,0:0:0:0:
448,192,127760,1,0,0:0:0:0:
192,192,127837,1,0,0:0:0:0:
448,192,127914,1,0,0:0:0:0:
64,192,127914,1,0,0:0:0:0:
192,192,127952,1,0,0:0:0:0:
320,192,127991,1,0,0:0:0:0:
192,192,128029,1,0,0:0:0:0:
64,192,128068,1,0,0:0:0:0:
448,192,128068,1,0,0:0:0:0:
320,192,128145,1,0,0:0:0:0:
448,192,128222,1,0,0:0:0:0:
320,192,128260,1,0,0:0:0:0:
192,192,128299,1,0,0:0:0:0:
64,192,128337,1,0,0:0:0:0:
320,192,128376,1,0,0:0:0:0:
448,192,128376,1,0,0:0:0:0:
64,192,128452,1,0,0:0:0:0:
64,192,128529,1,0,0:0:0:0:
192,192,128568,1,0,0:0:0:0:
320,192,128606,1,0,0:0:0:0:
448,192,128645,1,0,0:0:0:0:
192,192,128683,1,0,0:0:0:0:
64,192,128683,1,0,0:0:0:0:
448,192,128760,1,0,0:0:0:0:
320,192,128837,1,0,0:0:0:0:
192,192,128876,1,0,0:0:0:0:
64,192,128914,1,0,0:0:0:0:
192,192,128952,1,0,0:0:0:0:
448,192,128991,1,0,0:0:0:0:
320,192,128991,1,0,0:0:0:0:
64,192,129068,1,0,0:0:0:0:
192,192,129145,1,0,0:0:0:0:
320,192,129183,1,0,0:0:0:0:
448,192,129222,1,0,0:0:0:0:
320,192,129260,1,0,0:0:0:0:
192,192,129299,1,0,0:0:0:0:
64,192,129299,1,0,0:0:0:0:
320,192,129376,1,0,0:0:0:0:
448,192,129376,1,0,0:0:0:0:
64,192,129452,1,0,0:0:0:0:
192,192,129452,1,0,0:0:0:0:
448,192,129529,1,0,0:0:0:0:
320,192,129606,1,0,0:0:0:0:
192,192,129606,1,0,0:0:0:0:
64,192,129683,1,0,0:0:0:0:
448,192,129760,1,0,0:0:0:0:
320,192,129760,1,0,0:0:0:0:
192,192,129837,1,0,0:0:0:0:
64,192,129914,1,0,0:0:0:0:
448,192,129914,1,0,0:0:0:0:
320,192,129914,1,0,0:0:0:0:
192,192,129991,1,0,0:0:0:0:
448,192,130068,1,0,0:0:0:0:
320,192,130068,1,0,0:0:0:0:
64,192,130145,1,0,0:0:0:0:
192,192,130222,1,0,0:0:0:0:
320,192,130222,1,0,0:0:0:0:
448,192,130299,1,0,0:0:0:0:
64,192,130376,1,0,0:0:0:0:
192,192,130376,1,0,0:0:0:0:
320,192,130452,1,0,0:0:0:0:
64,192,130529,1,0,0:0:0:0:
448,192,130529,1,0,0:0:0:0:
192,192,130529,1,0,0:0:0:0:
320,192,130606,1,0,0:0:0:0:
192,192,130683,1,0,0:0:0:0:
64,192,130683,1,0,0:0:0:0:
448,192,130760,1,0,0:0:0:0:
320,192,130837,1,0,0:0:0:0:
192,192,130837,1,0,0:0:0:0:
64,192,130914,1,0,0:0:0:0:
320,192,130991,1,0,0:0:0:0:
448,192,130991,1,0,0:0:0:0:
192,192,131068,1,0,0:0:0:0:
64,192,131145,1,0,0:0:0:0:
448,192,131145,1,0,0:0:0:0:
320,192,131145,1,0,0:0:0:0:
192,192,131222,1,0,0:0:0:0:
320,192,131299,1,0,0:0:0:0:
64,192,131376,1,0,0:0:0:0:
448,192,131376,1,0,0:0:0:0:
192,192,131452,1,0,0:0:0:0:
320,192,131452,1,0,0:0:0:0:
448,192,131529,1,0,0:0:0:0:
64,192,131606,1,0,0:0:0:0:
192,192,131606,1,0,0:0:0:0:
320,192,131683,1,0,0:0:0:0:
192,192,131760,1,0,0:0:0:0:
64,192,131760,1,0,0:0:0:0:
448,192,131760,1,0,0:0:0:0:
320,192,131837,1,0,0:0:0:0:
192,192,131914,1,0,0:0:0:0:
64,192,131914,1,0,0:0:0:0:
448,192,131914,1,0,0:0:0:0:
192,192,132068,1,0,0:0:0:0:
64,192,132106,1,0,0:0:0:0:
320,192,132145,1,0,0:0:0:0:
448,192,132183,1,0,0:0:0:0:
192,192,132222,1,0,0:0:0:0:
64,192,132260,1,0,0:0:0:0:
320,192,132299,1,0,0:0:0:0:
448,192,132337,1,0,0:0:0:0:
192,192,132376,1,0,0:0:0:0:
64,192,132376,1,0,0:0:0:0:
320,192,132529,1,0,0:0:0:0:
192,192,132529,1,0,0:0:0:0:
64,192,132529,1,0,0:0:0:0:
448,192,132529,1,0,0:0:0:0:
192,192,132683,1,0,0:0:0:0:
320,192,132722,1,0,0:0:0:0:
64,192,132760,1,0,0:0:0:0:
448,192,132799,1,0,0:0:0:0:
192,192,132837,1,0,0:0:0:0:
320,192,132876,1,0,0:0:0:0:
64,192,132914,1,0,0:0:0:0:
448,192,132952,1,0,0:0:0:0:
192,192,132991,1,0,0:0:0:0:
320,192,132991,1,0,0:0:0:0:
64,192,133145,1,0,0:0:0:0:
192,192,133145,1,0,0:0:0:0:
320,192,133145,1,0,0:0:0:0:
448,192,133145,1,0,0:0:0:0:
192,192,133299,1,0,0:0:0:0:
448,192,133337,1,0,0:0:0:0:
320,192,133376,1,0,0:0:0:0:
64,192,133414,1,0,0:0:0:0:
192,192,133452,1,0,0:0:0:0:
448,192,133491,1,0,0:0:0:0:
320,192,133529,1,0,0:0:0:0:
64,192,133568,1,0,0:0:0:0:
448,192,133606,1,0,0:0:0:0:
192,192,133606,1,0,0:0:0:0:
320,192,133760,1,0,0:0:0:0:
192,192,133760,1,0,0:0:0:0:
448,192,133760,1,0,0:0:0:0:
64,192,133760,1,0,0:0:0:0:
320,192,133914,1,0,0:0:0:0:
448,192,133952,1,0,0:0:0:0:
192,192,133991,1,0,0:0:0:0:
64,192,134029,1,0,0:0:0:0:
320,192,134068,1,0,0:0:0:0:
448,192,134106,1,0,0:0:0:0:
192,192,134145,1,0,0:0:0:0:
64,192,134183,1,0,0:0:0:0:
320,192,134222,1,0,0:0:0:0:
448,192,134222,1,0,0:0:0:0:
192,192,134376,1,0,0:0:0:0:
448,192,134376,1,0,0:0:0:0:
320,192,134376,1,0,0:0:0:0:
64,192,134376,1,0,0:0:0:0:
320,192,134529,1,0,0:0:0:0:
448,192,134529,1,0,0:0:0:0:
192,192,134581,1,0,0:0:0:0:
64,192,134626,1,0,0:0:0:0:
320,192,134683,1,0,0:0:0:0:
448,192,134683,1,0,0:0:0:0:
192,192,134734,1,0,0:0:0:0:
64,192,134779,1,0,0:0:0:0:
448,192,134837,1,0,0:0:0:0:
320,192,134837,1,0,0:0:0:0:
192,192,134837,1,0,0:0:0:0:
192,192,134991,1,0,0:0:0:0:
448,192,134991,1,0,0:0:0:0:
64,192,134991,1,0,0:0:0:0:
320,192,134991,1,0,0:0:0:0:
192,192,135145,1,0,0:0:0:0:
64,192,135145,1,0,0:0:0:0:
320,192,135196,1,0,0:0:0:0:
448,192,135241,1,0,0:0:0:0:
192,192,135299,1,0,0:0:0:0:
64,192,135299,1,0,0:0:0:0:
320,192,135350,1,0,0:0:0:0:
448,192,135395,1,0,0:0:0:0:
192,192,135452,1,0,0:0:0:0:
320,192,135452,1,0,0:0:0:0:
64,192,135452,1,0,0:0:0:0:
448,192,135626,1,0,0:0:0:0:
320,192,135658,1,0,0:0:0:0:
192,192,135702,1,0,0:0:0:0:
64,192,135734,1,0,0:0:0:0:
320,192,135760,1,0,0:0:0:0:
448,192,135760,1,0,0:0:0:0:
64,192,135933,1,0,0:0:0:0:
192,192,135965,1,0,0:0:0:0:
320,192,136010,1,0,0:0:0:0:
448,192,136042,1,0,0:0:0:0:
192,192,136068,1,0,0:0:0:0:
64,192,136068,1,0,0:0:0:0:
192,192,136299,1,0,0:0:0:0:
320,192,136299,1,0,0:0:0:0:
448,192,136529,1,0,0:0:0:0:
320,192,136529,1,0,0:0:0:0:
192,192,136606,1,0,0:0:0:0:
64,192,136606,1,0,0:0:0:0:
448,192,136683,1,0,0:0:0:0:
64,192,136702,1,0,0:0:0:0:
320,192,136702,1,0,0:0:0:0:
192,192,136760,1,0,0:0:0:0:
320,192,136837,1,0,0:0:0:0:
448,192,136837,1,0,0:0:0:0:
192,192,136914,1,0,0:0:0:0:
320,192,136991,1,0,0:0:0:0:
448,192,136991,1,0,0:0:0:0:
64,192,137068,1,0,0:0:0:0:
192,192,137145,1,0,0:0:0:0:
320,192,137145,1,0,0:0:0:0:
448,192,137222,1,0,0:0:0:0:
64,192,137299,1,0,0:0:0:0:
448,192,137318,1,0,0:0:0:0:
192,192,137318,1,0,0:0:0:0:
320,192,137376,1,0,0:0:0:0:
192,192,137452,1,0,0:0:0:0:
64,192,137452,1,0,0:0:0:0:
448,192,137529,1,0,0:0:0:0:
192,192,137606,1,0,0:0:0:0:
64,192,137606,1,0,0:0:0:0:
320,192,137683,1,0,0:0:0:0:
448,192,137760,1,0,0:0:0:0:
64,192,137760,1,0,0:0:0:0:
192,192,137837,1,0,0:0:0:0:
448,192,137914,1,0,0:0:0:0:
192,192,137933,1,0,0:0:0:0:
320,192,137933,1,0,0:0:0:0:
64,192,137991,1,0,0:0:0:0:
192,192,138068,1,0,0:0:0:0:
320,192,138068,1,0,0:0:0:0:
448,192,138087,1,0,0:0:0:0:
64,192,138145,1,0,0:0:0:0:
192,192,138222,1,0,0:0:0:0:
448,192,138222,1,0,0:0:0:0:
320,192,138241,1,0,0:0:0:0:
64,192,138299,1,0,0:0:0:0:
320,192,138376,1,0,0:0:0:0:
192,192,138395,1,0,0:0:0:0:
64,192,138452,1,0,0:0:0:0:
448,192,138452,1,0,0:0:0:0:
320,192,138529,1,0,0:0:0:0:
192,192,138529,1,0,0:0:0:0:
64,192,138549,1,0,0:0:0:0:
448,192,138606,1,0,0:0:0:0:
320,192,138683,1,0,0:0:0:0:
64,192,138683,1,0,0:0:0:0:
192,192,138702,1,0,0:0:0:0:
448,192,138760,1,0,0:0:0:0:
192,192,138837,1,0,0:0:0:0:
64,192,138837,1,0,0:0:0:0:
320,192,138856,1,0,0:0:0:0:
448,192,138914,1,0,0:0:0:0:
320,192,138991,1,0,0:0:0:0:
64,192,138991,1,0,0:0:0:0:
192,192,139010,1,0,0:0:0:0:
448,192,139068,1,0,0:0:0:0:
192,192,139145,1,0,0:0:0:0:
64,192,139164,1,0,0:0:0:0:
448,192,139222,1,0,0:0:0:0:
320,192,139222,1,0,0:0:0:0:
64,192,139299,1,0,0:0:0:0:
192,192,139337,1,0,0:0:0:0:
320,192,139376,1,0,0:0:0:0:
448,192,139414,1,0,0:0:0:0:
64,192,139452,1,0,0:0:0:0:
192,192,139452,1,0,0:0:0:0:
320,192,139529,1,0,0:0:0:0:
448,192,139606,1,0,0:0:0:0:
320,192,139645,1,0,0:0:0:0:
192,192,139683,1,0,0:0:0:0:
64,192,139722,1,0,0:0:0:0:
448,192,139760,1,0,0:0:0:0:
320,192,139760,1,0,0:0:0:0:
192,192,139837,1,0,0:0:0:0:
64,192,139914,1,0,0:0:0:0:
192,192,139952,1,0,0:0:0:0:
320,192,139991,1,0,0:0:0:0:
448,192,140029,1,0,0:0:0:0:
192,192,140068,1,0,0:0:0:0:
64,192,140068,1,0,0:0:0:0:
320,192,140145,1,0,0:0:0:0:
448,192,140222,1,0,0:0:0:0:
320,192,140260,1,0,0:0:0:0:
192,192,140299,1,0,0:0:0:0:
64,192,140337,1,0,0:0:0:0:
448,192,140376,1,0,0:0:0:0:
320,192,140376,1,0,0:0:0:0:
192,192,140452,1,0,0:0:0:0:
320,192,140529,1,0,0:0:0:0:
448,192,140529,1,0,0:0:0:0:
64,192,140606,1,0,0:0:0:0:
192,192,140683,1,0,0:0:0:0:
320,192,140683,1,0,0:0:0:0:
448,192,140683,1,0,0:0:0:0:
64,192,140760,1,0,0:0:0:0:
192,192,140837,1,0,0:0:0:0:
320,192,140837,1,0,0:0:0:0:
448,192,140914,1,0,0:0:0:0:
192,192,140991,1,0,0:0:0:0:
64,192,140991,1,0,0:0:0:0:
320,192,140991,1,0,0:0:0:0:
448,192,141068,1,0,0:0:0:0:
192,192,141145,1,0,0:0:0:0:
64,192,141145,1,0,0:0:0:0:
320,192,141222,1,0,0:0:0:0:
448,192,141299,1,0,0:0:0:0:
64,192,141299,1,0,0:0:0:0:
192,192,141376,1,0,0:0:0:0:
448,192,141452,1,0,0:0:0:0:
64,192,141452,1,0,0:0:0:0:
320,192,141529,1,0,0:0:0:0:
448,192,141606,1,0,0:0:0:0:
64,192,141606,1,0,0:0:0:0:
192,192,141683,1,0,0:0:0:0:
320,192,141760,1,0,0:0:0:0:
64,192,141837,1,0,0:0:0:0:
192,192,141914,1,0,0:0:0:0:
448,192,141991,1,0,0:0:0:0:
64,192,142068,1,0,0:0:0:0:
320,192,142145,1,0,0:0:0:0:
448,192,142222,1,0,0:0:0:0:
192,192,142299,1,0,0:0:0:0:
320,192,142376,1,0,0:0:0:0:
448,192,142452,1,0,0:0:0:0:
64,192,142529,1,0,0:0:0:0:
192,192,142606,1,0,0:0:0:0:
320,192,142683,1,0,0:0:0:0:
448,192,142760,1,0,0:0:0:0:
64,192,142837,1,0,0:0:0:0:
192,192,142837,1,0,0:0:0:0:
320,192,142837,1,0,0:0:0:0:
192,192,142933,1,0,0:0:0:0:
320,192,142933,1,0,0:0:0:0:
320,192,143042,1,0,0:0:0:0:
448,192,143042,1,0,0:0:0:0:
64,192,143145,1,0,0:0:0:0:
192,192,143145,1,0,0:0:0:0:
320,192,143241,1,0,0:0:0:0:
192,192,143241,1,0,0:0:0:0:
320,192,143350,1,0,0:0:0:0:
448,192,143350,1,0,0:0:0:0:
64,192,143452,1,0,0:0:0:0:
448,192,143452,1,0,0:0:0:0:
192,192,143452,1,0,0:0:0:0:
192,192,143549,1,0,0:0:0:0:
320,192,143549,1,0,0:0:0:0:
192,192,143658,1,0,0:0:0:0:
448,192,143658,1,0,0:0:0:0:
64,192,143760,1,0,0:0:0:0:
320,192,143760,1,0,0:0:0:0:
448,192,143856,1,0,0:0:0:0:
192,192,143856,1,0,0:0:0:0:
320,192,143965,1,0,0:0:0:0:
64,192,143965,1,0,0:0:0:0:
64,192,144068,1,0,0:0:0:0:
192,192,144068,1,0,0:0:0:0:
448,192,144164,1,0,0:0:0:0:
320,192,144164,1,0,0:0:0:0:
192,192,144273,1,0,0:0:0:0:
320,192,144273,1,0,0:0:0:0:
64,192,144376,1,0,0:0:0:0:
448,192,144376,1,0,0:0:0:0:
192,192,144376,1,0,0:0:0:0:
320,192,144472,1,0,0:0:0:0:
192,192,144581,1,0,0:0:0:0:
448,192,144581,1,0,0:0:0:0:
64,192,144683,1,0,0:0:0:0:
320,192,144683,1,0,0:0:0:0:
448,192,144779,1,0,0:0:0:0:
320,192,144837,1,0,0:0:0:0:
192,192,144837,1,0,0:0:0:0:
64,192,144888,1,0,0:0:0:0:
448,192,144991,1,0,0:0:0:0:
320,192,145068,1,0,0:0:0:0:
192,192,145068,1,0,0:0:0:0:
64,192,145087,1,0,0:0:0:0:
448,192,145196,1,0,0:0:0:0:
192,192,145299,1,0,0:0:0:0:
320,192,145299,1,0,0:0:0:0:
64,192,145299,1,0,0:0:0:0:
448,192,145299,1,0,0:0:0:0:
192,192,145395,1,0,0:0:0:0:
320,192,145395,1,0,0:0:0:0:
320,192,145504,1,0,0:0:0:0:
448,192,145504,1,0,0:0:0:0:
448,192,145606,1,0,0:0:0:0:
192,192,145606,1,0,0:0:0:0:
320,192,145702,1,0,0:0:0:0:
64,192,145702,1,0,0:0:0:0:
320,192,145811,1,0,0:0:0:0:
64,192,145811,1,0,0:0:0:0:
192,192,145914,1,0,0:0:0:0:
448,192,145914,1,0,0:0:0:0:
64,192,146010,1,0,0:0:0:0:
320,192,146010,1,0,0:0:0:0:
448,192,146068,1,0,0:0:0:0:
64,192,146119,1,0,0:0:0:0:
192,192,146119,1,0,0:0:0:0:
192,192,146222,1,0,0:0:0:0:
320,192,146222,1,0,0:0:0:0:
192,192,146318,1,0,0:0:0:0:
448,192,146318,1,0,0:0:0:0:
320,192,146427,1,0,0:0:0:0:
448,192,146529,1,0,0:0:0:0:
64,192,146529,1,0,0:0:0:0:
192,192,146529,1,0,0:0:0:0:
64,192,146626,1,0,0:0:0:0:
320,192,146626,1,0,0:0:0:0:
320,192,146734,1,0,0:0:0:0:
448,192,146734,1,0,0:0:0:0:
64,192,146837,1,0,0:0:0:0:
448,192,146837,1,0,0:0:0:0:
192,192,146837,1,0,0:0:0:0:
320,192,146933,1,0,0:0:0:0:
64,192,146933,1,0,0:0:0:0:
320,192,147042,1,0,0:0:0:0:
192,192,147042,1,0,0:0:0:0:
64,192,147145,1,0,0:0:0:0:
448,192,147145,1,0,0:0:0:0:
320,192,147145,1,0,0:0:0:0:
192,192,147241,1,0,0:0:0:0:
448,192,147241,1,0,0:0:0:0:
320,192,147350,1,0,0:0:0:0:
64,192,147350,1,0,0:0:0:0:
320,192,147452,1,0,0:0:0:0:
192,192,147452,1,0,0:0:0:0:
192,192,147549,1,0,0:0:0:0:
64,192,147549,1,0,0:0:0:0:
192,192,147658,1,0,0:0:0:0:
320,192,147658,1,0,0:0:0:0:
64,192,147760,1,0,0:0:0:0:
448,192,147760,1,0,0:0:0:0:
320,192,147760,1,0,0:0:0:0:
448,192,147856,1,0,0:0:0:0:
320,192,147856,1,0,0:0:0:0:
192,192,147965,1,0,0:0:0:0:
320,192,147965,1,0,0:0:0:0:
64,192,148068,1,0,0:0:0:0:
192,192,148068,1,0,0:0:0:0:
448,192,148068,1,0,0:0:0:0:
320,192,148164,1,0,0:0:0:0:
448,192,148164,1,0,0:0:0:0:
192,192,148273,1,0,0:0:0:0:
320,192,148273,1,0,0:0:0:0:
448,192,148376,1,0,0:0:0:0:
64,192,148376,1,0,0:0:0:0:
192,192,148376,1,0,0:0:0:0:
320,192,148472,1,0,0:0:0:0:
192,192,148581,1,0,0:0:0:0:
64,192,148683,1,0,0:0:0:0:
320,192,148683,1,0,0:0:0:0:
192,192,148779,1,0,0:0:0:0:
448,192,148779,1,0,0:0:0:0:
320,192,148888,1,0,0:0:0:0:
64,192,148888,1,0,0:0:0:0:
448,192,148991,1,0,0:0:0:0:
64,192,148991,1,0,0:0:0:0:
192,192,148991,1,0,0:0:0:0:
192,192,149087,1,0,0:0:0:0:
320,192,149087,1,0,0:0:0:0:
448,192,149196,1,0,0:0:0:0:
192,192,149196,1,0,0:0:0:0:
64,192,149299,1,0,0:0:0:0:
320,192,149299,1,0,0:0:0:0:
192,192,149395,1,0,0:0:0:0:
320,192,149395,1,0,0:0:0:0:
320,192,149504,1,0,0:0:0:0:
448,192,149504,1,0,0:0:0:0:
64,192,149606,1,0,0:0:0:0:
448,192,149606,1,0,0:0:0:0:
192,192,149606,1,0,0:0:0:0:
448,192,149702,1,0,0:0:0:0:
320,192,149760,1,0,0:0:0:0:
192,192,149760,1,0,0:0:0:0:
64,192,149811,1,0,0:0:0:0:
64,192,149914,1,0,0:0:0:0:
192,192,149991,1,0,0:0:0:0:
320,192,149991,1,0,0:0:0:0:
448,192,150010,1,0,0:0:0:0:
448,192,150119,1,0,0:0:0:0:
320,192,150222,1,0,0:0:0:0:
192,192,150222,1,0,0:0:0:0:
64,192,150222,1,0,0:0:0:0:
448,192,150222,1,0,0:0:0:0:
64,192,150318,1,0,0:0:0:0:
192,192,150318,1,0,0:0:0:0:
320,192,150427,1,0,0:0:0:0:
448,192,150427,1,0,0:0:0:0:
448,192,150529,1,0,0:0:0:0:
64,192,150529,1,0,0:0:0:0:
192,192,150626,1,0,0:0:0:0:
320,192,150626,1,0,0:0:0:0:
320,192,150734,1,0,0:0:0:0:
448,192,150734,1,0,0:0:0:0:
448,192,150837,1,0,0:0:0:0:
64,192,150837,1,0,0:0:0:0:
192,192,150837,1,0,0:0:0:0:
192,192,150933,1,0,0:0:0:0:
448,192,150991,1,0,0:0:0:0:
64,192,150991,1,0,0:0:0:0:
320,192,151042,1,0,0:0:0:0:
448,192,151145,1,0,0:0:0:0:
192,192,151145,1,0,0:0:0:0:
320,192,151241,1,0,0:0:0:0:
64,192,151241,1,0,0:0:0:0:
192,192,151350,1,0,0:0:0:0:
448,192,151350,1,0,0:0:0:0:
448,192,151452,1,0,0:0:0:0:
64,192,151452,1,0,0:0:0:0:
192,192,151549,1,0,0:0:0:0:
320,192,151606,1,0,0:0:0:0:
192,192,151658,1,0,0:0:0:0:
64,192,151760,1,0,0:0:0:0:
448,192,151760,1,0,0:0:0:0:
192,192,151856,1,0,0:0:0:0:
320,192,151856,1,0,0:0:0:0:
320,192,151965,1,0,0:0:0:0:
448,192,152068,1,0,0:0:0:0:
64,192,152068,1,0,0:0:0:0:
192,192,152068,1,0,0:0:0:0:
320,192,152145,1,0,0:0:0:0:
192,192,152222,1,0,0:0:0:0:
448,192,152222,1,0,0:0:0:0:
64,192,152299,1,0,0:0:0:0:
320,192,152299,1,0,0:0:0:0:
448,192,152376,1,0,0:0:0:0:
192,192,152376,1,0,0:0:0:0:
320,192,152452,1,0,0:0:0:0:
448,192,152529,1,0,0:0:0:0:
64,192,152529,1,0,0:0:0:0:
192,192,152606,1,0,0:0:0:0:
320,192,152683,1,0,0:0:0:0:
448,192,152683,1,0,0:0:0:0:
64,192,152683,128,0,152722:0:0:0:0:
192,192,152760,1,0,0:0:0:0:
320,192,152837,1,0,0:0:0:0:
192,192,152914,1,0,0:0:0:0:
320,192,152991,1,0,0:0:0:0:
448,192,152991,1,0,0:0:0:0:
64,192,152991,128,0,153029:0:0:0:0:
192,192,153068,1,0,0:0:0:0:
320,192,153145,1,0,0:0:0:0:
192,192,153222,1,0,0:0:0:0:
320,192,153299,1,0,0:0:0:0:
448,192,153299,1,0,0:0:0:0:
64,192,153299,128,0,153337:0:0:0:0:
192,192,153376,1,0,0:0:0:0:
320,192,153452,1,0,0:0:0:0:
192,192,153529,1,0,0:0:0:0:
320,192,153606,1,0,0:0:0:0:
448,192,153606,1,0,0:0:0:0:
64,192,153606,128,0,153645:0:0:0:0:
192,192,153683,1,0,0:0:0:0:
320,192,153760,1,0,0:0:0:0:
192,192,153837,1,0,0:0:0:0:
320,192,153914,1,0,0:0:0:0:
448,192,153914,1,0,0:0:0:0:
64,192,153914,128,0,153952:0:0:0:0:
192,192,153991,1,0,0:0:0:0:
320,192,154068,1,0,0:0:0:0:
192,192,154145,1,0,0:0:0:0:
448,192,154145,1,0,0:0:0:0:
320,192,154222,1,0,0:0:0:0:
64,192,154222,128,0,154260:0:0:0:0:
192,192,154299,1,0,0:0:0:0:
320,192,154376,1,0,0:0:0:0:
192,192,154452,1,0,0:0:0:0:
448,192,154452,1,0,0:0:0:0:
320,192,154529,1,0,0:0:0:0:
64,192,154529,128,0,154568:0:0:0:0:
192,192,154606,1,0,0:0:0:0:
320,192,154683,1,0,0:0:0:0:
192,192,154760,1,0,0:0:0:0:
448,192,154760,1,0,0:0:0:0:
320,192,154837,1,0,0:0:0:0:
64,192,154837,128,0,154876:0:0:0:0:
192,192,154914,1,0,0:0:0:0:
320,192,154991,1,0,0:0:0:0:
448,192,154991,1,0,0:0:0:0:
192,192,155068,1,0,0:0:0:0:
64,192,155068,1,0,0:0:0:0:
320,192,155145,1,0,0:0:0:0:
448,192,155145,1,0,0:0:0:0:
192,192,155145,128,0,155183:0:0:0:0:
64,192,155222,1,0,0:0:0:0:
448,192,155299,1,0,0:0:0:0:
64,192,155376,1,0,0:0:0:0:
320,192,155452,1,0,0:0:0:0:
448,192,155452,128,0,155491:0:0:0:0:
192,192,155452,1,0,0:0:0:0:
64,192,155529,1,0,0:0:0:0:
448,192,155606,1,0,0:0:0:0:
64,192,155683,1,0,0:0:0:0:
320,192,155760,1,0,0:0:0:0:
192,192,155760,1,0,0:0:0:0:
448,192,155760,128,0,155799:0:0:0:0:
64,192,155837,1,0,0:0:0:0:
448,192,155914,1,0,0:0:0:0:
64,192,155991,1,0,0:0:0:0:
320,192,156068,1,0,0:0:0:0:
448,192,156068,128,0,156106:0:0:0:0:
192,192,156068,1,0,0:0:0:0:
64,192,156145,1,0,0:0:0:0:
448,192,156222,1,0,0:0:0:0:
192,192,156222,1,0,0:0:0:0:
64,192,156299,1,0,0:0:0:0:
320,192,156299,1,0,0:0:0:0:
192,192,156376,1,0,0:0:0:0:
448,192,156376,128,0,156414:0:0:0:0:
64,192,156452,1,0,0:0:0:0:
192,192,156529,1,0,0:0:0:0:
448,192,156529,1,0,0:0:0:0:
64,192,156606,1,0,0:0:0:0:
320,192,156606,1,0,0:0:0:0:
192,192,156683,1,0,0:0:0:0:
448,192,156683,128,0,156722:0:0:0:0:
320,192,156760,1,0,0:0:0:0:
448,192,156837,1,0,0:0:0:0:
192,192,156837,1,0,0:0:0:0:
320,192,156914,1,0,0:0:0:0:
64,192,156914,1,0,0:0:0:0:
192,192,156991,1,0,0:0:0:0:
448,192,156991,128,0,157029:0:0:0:0:
64,192,157068,1,0,0:0:0:0:
192,192,157145,1,0,0:0:0:0:
64,192,157222,1,0,0:0:0:0:
320,192,157222,1,0,0:0:0:0:
192,192,157299,1,0,0:0:0:0:
448,192,157299,128,0,157337:0:0:0:0:
320,192,157376,1,0,0:0:0:0:
448,192,157452,1,0,0:0:0:0:
192,192,157452,1,0,0:0:0:0:
64,192,157452,1,0,0:0:0:0:
320,192,157529,1,0,0:0:0:0:
192,192,157606,1,0,0:0:0:0:
64,192,157606,1,0,0:0:0:0:
448,192,157606,1,0,0:0:0:0:
320,192,157683,1,0,0:0:0:0:
192,192,157760,1,0,0:0:0:0:
320,192,157837,1,0,0:0:0:0:
448,192,157837,1,0,0:0:0:0:
192,192,157914,1,0,0:0:0:0:
64,192,157914,1,0,0:0:0:0:
320,192,157991,1,0,0:0:0:0:
192,192,158068,1,0,0:0:0:0:
320,192,158145,1,0,0:0:0:0:
448,192,158145,1,0,0:0:0:0:
192,192,158222,1,0,0:0:0:0:
64,192,158222,1,0,0:0:0:0:
320,192,158299,1,0,0:0:0:0:
192,192,158376,1,0,0:0:0:0:
448,192,158376,1,0,0:0:0:0:
320,192,158452,1,0,0:0:0:0:
192,192,158529,1,0,0:0:0:0:
64,192,158529,1,0,0:0:0:0:
448,192,158529,1,0,0:0:0:0:
320,192,158606,1,0,0:0:0:0:
192,192,158683,1,0,0:0:0:0:
448,192,158683,1,0,0:0:0:0:
320,192,158760,1,0,0:0:0:0:
448,192,158837,1,0,0:0:0:0:
64,192,158837,1,0,0:0:0:0:
192,192,158837,1,0,0:0:0:0:
320,192,158914,1,0,0:0:0:0:
64,192,158991,1,0,0:0:0:0:
448,192,158991,1,0,0:0:0:0:
320,192,159068,1,0,0:0:0:0:
192,192,159068,1,0,0:0:0:0:
448,192,159145,1,0,0:0:0:0:
64,192,159145,1,0,0:0:0:0:
192,192,159222,1,0,0:0:0:0:
448,192,159299,1,0,0:0:0:0:
64,192,159299,1,0,0:0:0:0:
192,192,159376,1,0,0:0:0:0:
320,192,159376,1,0,0:0:0:0:
64,192,159452,1,0,0:0:0:0:
448,192,159452,1,0,0:0:0:0:
320,192,159529,1,0,0:0:0:0:
64,192,159606,1,0,0:0:0:0:
448,192,159606,1,0,0:0:0:0:
320,192,159683,1,0,0:0:0:0:
192,192,159683,1,0,0:0:0:0:
448,192,159760,1,0,0:0:0:0:
64,192,159760,1,0,0:0:0:0:
192,192,159837,1,0,0:0:0:0:
448,192,159914,1,0,0:0:0:0:
64,192,159914,1,0,0:0:0:0:
192,192,159991,1,0,0:0:0:0:
320,192,159991,1,0,0:0:0:0:
448,192,160068,1,0,0:0:0:0:
64,192,160068,1,0,0:0:0:0:
320,192,160145,1,0,0:0:0:0:
192,192,160222,1,0,0:0:0:0:
64,192,160222,1,0,0:0:0:0:
448,192,160299,1,0,0:0:0:0:
320,192,160376,1,0,0:0:0:0:
192,192,160376,1,0,0:0:0:0:
64,192,160452,1,0,0:0:0:0:
320,192,160529,1,0,0:0:0:0:
448,192,160529,1,0,0:0:0:0:
192,192,160606,1,0,0:0:0:0:
64,192,160683,1,0,0:0:0:0:
448,192,160683,1,0,0:0:0:0:
320,192,160683,1,0,0:0:0:0:
192,192,160760,1,0,0:0:0:0:
320,192,160837,1,0,0:0:0:0:
448,192,160837,1,0,0:0:0:0:
64,192,160914,1,0,0:0:0:0:
192,192,160991,1,0,0:0:0:0:
320,192,160991,1,0,0:0:0:0:
448,192,161068,1,0,0:0:0:0:
192,192,161145,1,0,0:0:0:0:
64,192,161145,1,0,0:0:0:0:
320,192,161222,1,0,0:0:0:0:
448,192,161299,1,0,0:0:0:0:
64,192,161299,1,0,0:0:0:0:
192,192,161299,1,0,0:0:0:0:
320,192,161376,1,0,0:0:0:0:
192,192,161452,1,0,0:0:0:0:
448,192,161452,1,0,0:0:0:0:
64,192,161491,1,0,0:0:0:0:
320,192,161529,1,0,0:0:0:0:
192,192,161568,1,0,0:0:0:0:
64,192,161606,1,0,0:0:0:0:
448,192,161606,1,0,0:0:0:0:
192,192,161683,1,0,0:0:0:0:
320,192,161760,1,0,0:0:0:0:
64,192,161760,1,0,0:0:0:0:
448,192,161799,1,0,0:0:0:0:
192,192,161837,1,0,0:0:0:0:
320,192,161876,1,0,0:0:0:0:
448,192,161914,1,0,0:0:0:0:
64,192,161914,1,0,0:0:0:0:
192,192,161991,1,0,0:0:0:0:
320,192,161991,1,0,0:0:0:0:
448,192,162068,1,0,0:0:0:0:
64,192,162068,1,0,0:0:0:0:
192,192,162145,1,0,0:0:0:0:
320,192,162145,1,0,0:0:0:0:
448,192,162222,1,0,0:0:0:0:
64,192,162222,1,0,0:0:0:0:
192,192,162299,1,0,0:0:0:0:
320,192,162299,1,0,0:0:0:0:
448,192,162376,1,0,0:0:0:0:
64,192,162376,1,0,0:0:0:0:
192,192,162452,1,0,0:0:0:0:
320,192,162452,1,0,0:0:0:0:
448,192,162529,1,0,0:0:0:0:
64,192,162529,1,0,0:0:0:0:
192,192,162606,1,0,0:0:0:0:
320,192,162683,1,0,0:0:0:0:
448,192,162683,1,0,0:0:0:0:
64,192,162760,1,0,0:0:0:0:
192,192,162760,1,0,0:0:0:0:
320,192,162837,1,0,0:0:0:0:
64,192,162837,1,0,0:0:0:0:
448,192,162914,1,0,0:0:0:0:
320,192,162991,1,0,0:0:0:0:
192,192,162991,1,0,0:0:0:0:
64,192,162991,1,0,0:0:0:0:
448,192,163068,1,0,0:0:0:0:
320,192,163145,1,0,0:0:0:0:
192,192,163145,1,0,0:0:0:0:
64,192,163222,1,0,0:0:0:0:
448,192,163299,1,0,0:0:0:0:
320,192,163299,128,0,163337:0:0:0:0:
192,192,163376,1,0,0:0:0:0:
320,192,163452,1,0,0:0:0:0:
448,192,163452,1,0,0:0:0:0:
64,192,163529,1,0,0:0:0:0:
192,192,163529,128,0,163568:0:0:0:0:
448,192,163606,1,0,0:0:0:0:
320,192,163606,1,0,0:0:0:0:
192,192,163683,1,0,0:0:0:0:
64,192,163683,1,0,0:0:0:0:
320,192,163760,1,0,0:0:0:0:
448,192,163760,1,0,0:0:0:0:
64,192,163837,1,0,0:0:0:0:
448,192,163914,1,0,0:0:0:0:
192,192,163914,1,0,0:0:0:0:
320,192,163914,1,0,0:0:0:0:
64,192,163991,1,0,0:0:0:0:
192,192,164068,1,0,0:0:0:0:
320,192,164068,1,0,0:0:0:0:
448,192,164068,1,0,0:0:0:0:
64,192,164145,1,0,0:0:0:0:
192,192,164222,1,0,0:0:0:0:
320,192,164222,128,0,164260:0:0:0:0:
448,192,164299,1,0,0:0:0:0:
320,192,164376,1,0,0:0:0:0:
192,192,164376,1,0,0:0:0:0:
64,192,164376,1,0,0:0:0:0:
448,192,164452,1,0,0:0:0:0:
192,192,164529,1,0,0:0:0:0:
64,192,164529,128,0,164568:0:0:0:0:
320,192,164606,1,0,0:0:0:0:
192,192,164683,1,0,0:0:0:0:
64,192,164683,1,0,0:0:0:0:
448,192,164722,1,0,0:0:0:0:
320,192,164760,1,0,0:0:0:0:
192,192,164799,1,0,0:0:0:0:
64,192,164837,1,0,0:0:0:0:
448,192,164837,1,0,0:0:0:0:
320,192,164914,1,0,0:0:0:0:
192,192,164991,1,0,0:0:0:0:
64,192,164991,1,0,0:0:0:0:
448,192,164991,128,0,165029:0:0:0:0:
320,192,165068,1,0,0:0:0:0:
448,192,165145,1,0,0:0:0:0:
320,192,165222,1,0,0:0:0:0:
192,192,165222,1,0,0:0:0:0:
64,192,165222,1,0,0:0:0:0:
448,192,165299,1,0,0:0:0:0:
320,192,165299,1,0,0:0:0:0:
64,192,165376,1,0,0:0:0:0:
448,192,165452,1,0,0:0:0:0:
192,192,165452,1,0,0:0:0:0:
320,192,165452,1,0,0:0:0:0:
64,192,165529,1,0,0:0:0:0:
192,192,165606,1,0,0:0:0:0:
320,192,165606,1,0,0:0:0:0:
448,192,165683,1,0,0:0:0:0:
64,192,165760,1,0,0:0:0:0:
320,192,165760,1,0,0:0:0:0:
192,192,165760,128,0,165799:0:0:0:0:
448,192,165837,1,0,0:0:0:0:
64,192,165914,1,0,0:0:0:0:
192,192,165914,1,0,0:0:0:0:
320,192,165991,1,0,0:0:0:0:
448,192,165991,128,0,166029:0:0:0:0:
64,192,166068,1,0,0:0:0:0:
192,192,166068,1,0,0:0:0:0:
320,192,166145,1,0,0:0:0:0:
448,192,166145,1,0,0:0:0:0:
192,192,166222,1,0,0:0:0:0:
64,192,166222,1,0,0:0:0:0:
448,192,166299,1,0,0:0:0:0:
320,192,166376,1,0,0:0:0:0:
192,192,166376,1,0,0:0:0:0:
64,192,166376,1,0,0:0:0:0:
448,192,166452,1,0,0:0:0:0:
64,192,166529,1,0,0:0:0:0:
192,192,166529,1,0,0:0:0:0:
320,192,166529,1,0,0:0:0:0:
192,192,166606,1,0,0:0:0:0:
64,192,166683,1,0,0:0:0:0:
448,192,166683,1,0,0:0:0:0:
320,192,166722,1,0,0:0:0:0:
192,192,166760,1,0,0:0:0:0:
448,192,166799,1,0,0:0:0:0:
320,192,166837,1,0,0:0:0:0:
64,192,166837,1,0,0:0:0:0:
192,192,166914,1,0,0:0:0:0:
64,192,166991,1,0,0:0:0:0:
448,192,166991,1,0,0:0:0:0:
192,192,167029,1,0,0:0:0:0:
320,192,167068,1,0,0:0:0:0:
64,192,167106,1,0,0:0:0:0:
448,192,167145,1,0,0:0:0:0:
192,192,167145,1,0,0:0:0:0:
320,192,167222,1,0,0:0:0:0:
192,192,167299,1,0,0:0:0:0:
64,192,167299,1,0,0:0:0:0:
320,192,167376,1,0,0:0:0:0:
448,192,167376,1,0,0:0:0:0:
192,192,167452,1,0,0:0:0:0:
64,192,167452,1,0,0:0:0:0:
448,192,167452,1,0,0:0:0:0:
320,192,167529,1,0,0:0:0:0:
192,192,167606,1,0,0:0:0:0:
448,192,167606,128,0,167645:0:0:0:0:
64,192,167683,1,0,0:0:0:0:
320,192,167683,1,0,0:0:0:0:
64,192,167760,1,0,0:0:0:0:
448,192,167760,1,0,0:0:0:0:
192,192,167837,1,0,0:0:0:0:
448,192,167914,1,0,0:0:0:0:
320,192,167914,1,0,0:0:0:0:
64,192,167991,1,0,0:0:0:0:
448,192,168068,1,0,0:0:0:0:
320,192,168068,1,0,0:0:0:0:
192,192,168068,1,0,0:0:0:0:
64,192,168145,1,0,0:0:0:0:
448,192,168222,1,0,0:0:0:0:
320,192,168222,128,0,168260:0:0:0:0:
192,192,168299,1,0,0:0:0:0:
448,192,168376,1,0,0:0:0:0:
64,192,168376,1,0,0:0:0:0:
320,192,168452,1,0,0:0:0:0:
64,192,168529,1,0,0:0:0:0:
192,192,168529,128,0,168568:0:0:0:0:
448,192,168606,1,0,0:0:0:0:
320,192,168606,1,0,0:0:0:0:
192,192,168683,1,0,0:0:0:0:
64,192,168683,1,0,0:0:0:0:
320,192,168760,1,0,0:0:0:0:
192,192,168837,1,0,0:0:0:0:
448,192,168837,1,0,0:0:0:0:
64,192,168914,1,0,0:0:0:0:
448,192,168991,1,0,0:0:0:0:
192,192,168991,1,0,0:0:0:0:
320,192,168991,128,0,169029:0:0:0:0:
64,192,169068,1,0,0:0:0:0:
192,192,169145,1,0,0:0:0:0:
448,192,169145,1,0,0:0:0:0:
320,192,169222,1,0,0:0:0:0:
448,192,169299,1,0,0:0:0:0:
192,192,169299,1,0,0:0:0:0:
64,192,169299,128,0,169337:0:0:0:0:
320,192,169376,1,0,0:0:0:0:
448,192,169452,1,0,0:0:0:0:
64,192,169452,1,0,0:0:0:0:
192,192,169529,1,0,0:0:0:0:
320,192,169606,1,0,0:0:0:0:
448,192,169645,1,0,0:0:0:0:
64,192,169683,1,0,0:0:0:0:
192,192,169722,1,0,0:0:0:0:
320,192,169760,1,0,0:0:0:0:
448,192,169760,1,0,0:0:0:0:
192,192,169837,1,0,0:0:0:0:
64,192,169837,1,0,0:0:0:0:
320,192,169914,1,0,0:0:0:0:
64,192,169914,1,0,0:0:0:0:
448,192,169914,128,0,169952:0:0:0:0:
192,192,169991,1,0,0:0:0:0:
320,192,170068,1,0,0:0:0:0:
64,192,170068,128,0,170106:0:0:0:0:
448,192,170145,1,0,0:0:0:0:
192,192,170145,1,0,0:0:0:0:
448,192,170222,1,0,0:0:0:0:
64,192,170222,1,0,0:0:0:0:
320,192,170299,1,0,0:0:0:0:
64,192,170376,1,0,0:0:0:0:
192,192,170376,1,0,0:0:0:0:
448,192,170452,1,0,0:0:0:0:
64,192,170529,1,0,0:0:0:0:
192,192,170529,1,0,0:0:0:0:
320,192,170529,128,0,170568:0:0:0:0:
448,192,170606,1,0,0:0:0:0:
64,192,170683,1,0,0:0:0:0:
192,192,170683,1,0,0:0:0:0:
320,192,170760,1,0,0:0:0:0:
448,192,170837,1,0,0:0:0:0:
64,192,170837,128,0,170876:0:0:0:0:
192,192,170914,1,0,0:0:0:0:
320,192,170991,1,0,0:0:0:0:
448,192,170991,128,0,171029:0:0:0:0:
64,192,171068,1,0,0:0:0:0:
192,192,171068,1,0,0:0:0:0:
320,192,171145,1,0,0:0:0:0:
448,192,171145,1,0,0:0:0:0:
192,192,171222,1,0,0:0:0:0:
320,192,171299,1,0,0:0:0:0:
64,192,171299,1,0,0:0:0:0:
448,192,171376,1,0,0:0:0:0:
64,192,171452,1,0,0:0:0:0:
320,192,171452,1,0,0:0:0:0:
192,192,171452,128,0,171491:0:0:0:0:
448,192,171529,1,0,0:0:0:0:
192,192,171606,1,0,0:0:0:0:
64,192,171645,1,0,0:0:0:0:
320,192,171683,1,0,0:0:0:0:
448,192,171722,1,0,0:0:0:0:
64,192,171760,1,0,0:0:0:0:
192,192,171760,128,0,171799:0:0:0:0:
320,192,171837,1,0,0:0:0:0:
448,192,171837,1,0,0:0:0:0:
64,192,171914,1,0,0:0:0:0:
192,192,171952,1,0,0:0:0:0:
448,192,171991,1,0,0:0:0:0:
320,192,172029,1,0,0:0:0:0:
64,192,172068,1,0,0:0:0:0:
192,192,172068,1,0,0:0:0:0:
448,192,172145,1,0,0:0:0:0:
320,192,172145,1,0,0:0:0:0:
192,192,172222,1,0,0:0:0:0:
64,192,172222,1,0,0:0:0:0:
320,192,172299,1,0,0:0:0:0:
448,192,172299,1,0,0:0:0:0:
192,192,172376,1,0,0:0:0:0:
64,192,172376,1,0,0:0:0:0:
320,192,172452,1,0,0:0:0:0:
192,192,172529,1,0,0:0:0:0:
448,192,172606,1,0,0:0:0:0:
64,192,172683,1,0,0:0:0:0:
320,192,172760,1,0,0:0:0:0:
192,192,172837,1,0,0:0:0:0:
448,192,172914,1,0,0:0:0:0:
192,192,172991,1,0,0:0:0:0:
64,192,172991,1,0,0:0:0:0:
320,192,173068,1,0,0:0:0:0:
192,192,173145,1,0,0:0:0:0:
64,192,173145,1,0,0:0:0:0:
448,192,173222,1,0,0:0:0:0:
192,192,173299,1,0,0:0:0:0:
64,192,173299,1,0,0:0:0:0:
320,192,173376,1,0,0:0:0:0:
64,192,173452,1,0,0:0:0:0:
448,192,173529,1,0,0:0:0:0:
192,192,173606,1,0,0:0:0:0:
320,192,173683,1,0,0:0:0:0:
448,192,173683,1,0,0:0:0:0:
64,192,173760,1,0,0:0:0:0:
320,192,173837,1,0,0:0:0:0:
448,192,173837,1,0,0:0:0:0:
192,192,173914,1,0,0:0:0:0:
320,192,173991,1,0,0:0:0:0:
448,192,173991,1,0,0:0:0:0:
64,192,174068,1,0,0:0:0:0:
448,192,174145,1,0,0:0:0:0:
320,192,174145,1,0,0:0:0:0:
192,192,174222,1,0,0:0:0:0:
320,192,174299,1,0,0:0:0:0:
448,192,174299,1,0,0:0:0:0:
64,192,174376,1,0,0:0:0:0:
320,192,174452,1,0,0:0:0:0:
448,192,174452,1,0,0:0:0:0:
192,192,174529,1,0,0:0:0:0:
320,192,174606,1,0,0:0:0:0:
448,192,174606,1,0,0:0:0:0:
64,192,174683,1,0,0:0:0:0:
320,192,174760,1,0,0:0:0:0:
448,192,174760,1,0,0:0:0:0:
192,192,174837,1,0,0:0:0:0:
64,192,174837,1,0,0:0:0:0:
448,192,174914,1,0,0:0:0:0:
192,192,174991,1,0,0:0:0:0:
64,192,174991,1,0,0:0:0:0:
320,192,175068,1,0,0:0:0:0:
192,192,175145,1,0,0:0:0:0:
64,192,175145,1,0,0:0:0:0:
448,192,175222,1,0,0:0:0:0:
192,192,175299,1,0,0:0:0:0:
64,192,175299,1,0,0:0:0:0:
320,192,175376,1,0,0:0:0:0:
192,192,175452,1,0,0:0:0:0:
64,192,175452,1,0,0:0:0:0:
448,192,175529,1,0,0:0:0:0:
192,192,175606,1,0,0:0:0:0:
64,192,175606,1,0,0:0:0:0:
320,192,175683,1,0,0:0:0:0:
192,192,175760,1,0,0:0:0:0:
64,192,175760,1,0,0:0:0:0:
448,192,175837,1,0,0:0:0:0:
192,192,175914,1,0,0:0:0:0:
64,192,175914,1,0,0:0:0:0:
320,192,175991,1,0,0:0:0:0:
192,192,176068,1,0,0:0:0:0:
64,192,176068,1,0,0:0:0:0:
320,192,176145,1,0,0:0:0:0:
448,192,176145,1,0,0:0:0:0:
192,192,176222,1,0,0:0:0:0:
64,192,176222,1,0,0:0:0:0:
320,192,176299,1,0,0:0:0:0:
448,192,176299,1,0,0:0:0:0:
192,192,176376,1,0,0:0:0:0:
64,192,176376,1,0,0:0:0:0:
320,192,176452,1,0,0:0:0:0:
448,192,176452,1,0,0:0:0:0:
192,192,176529,1,0,0:0:0:0:
64,192,176529,1,0,0:0:0:0:
320,192,176606,1,0,0:0:0:0:
448,192,176606,1,0,0:0:0:0:
192,192,176683,1,0,0:0:0:0:
64,192,176683,1,0,0:0:0:0:
320,192,176760,1,0,0:0:0:0:
448,192,176760,1,0,0:0:0:0:
192,192,176837,1,0,0:0:0:0:
64,192,176837,1,0,0:0:0:0:
320,192,176914,1,0,0:0:0:0:
448,192,176914,1,0,0:0:0:0:
192,192,176991,1,0,0:0:0:0:
64,192,176991,1,0,0:0:0:0:
320,192,177068,1,0,0:0:0:0:
448,192,177068,1,0,0:0:0:0:
192,192,177145,1,0,0:0:0:0:
64,192,177145,1,0,0:0:0:0:
320,192,177222,1,0,0:0:0:0:
448,192,177222,1,0,0:0:0:0:
192,192,177299,1,0,0:0:0:0:
64,192,177299,1,0,0:0:0:0:
320,192,177376,1,0,0:0:0:0:
448,192,177376,1,0,0:0:0:0:
192,192,177452,1,0,0:0:0:0:
64,192,177452,1,0,0:0:0:0:
320,192,177529,1,0,0:0:0:0:
448,192,177529,1,0,0:0:0:0:
192,192,177606,1,0,0:0:0:0:
64,192,177606,1,0,0:0:0:0:
320,192,177683,1,0,0:0:0:0:
448,192,177683,1,0,0:0:0:0:
64,192,177760,1,0,0:0:0:0:
192,192,177760,1,0,0:0:0:0:
320,192,177837,1,0,0:0:0:0:
448,192,177837,1,0,0:0:0:0:
192,192,177914,1,0,0:0:0:0:
64,192,177914,1,0,0:0:0:0:
320,192,177991,1,0,0:0:0:0:
448,192,177991,1,0,0:0:0:0:
192,192,178068,1,0,0:0:0:0:
64,192,178068,1,0,0:0:0:0:
320,192,178145,1,0,0:0:0:0:
448,192,178145,1,0,0:0:0:0:
192,192,178222,1,0,0:0:0:0:
64,192,178222,1,0,0:0:0:0:
320,192,178299,1,0,0:0:0:0:
448,192,178299,1,0,0:0:0:0:
192,192,178376,1,0,0:0:0:0:
64,192,178376,1,0,0:0:0:0:
320,192,178452,1,0,0:0:0:0:
448,192,178452,1,0,0:0:0:0:
192,192,178529,1,0,0:0:0:0:
64,192,178529,1,0,0:0:0:0:
448,192,178529,1,0,0:0:0:0:
192,192,178606,1,0,0:0:0:0:
320,192,178683,1,0,0:0:0:0:
320,192,178760,1,0,0:0:0:0:
64,192,178837,1,0,0:0:0:0:
64,192,178914,1,0,0:0:0:0:
320,192,178991,1,0,0:0:0:0:
320,192,179068,1,0,0:0:0:0:
192,192,179145,1,0,0:0:0:0:
192,192,179222,1,0,0:0:0:0:
320,192,179299,1,0,0:0:0:0:
320,192,179376,1,0,0:0:0:0:
192,192,179452,1,0,0:0:0:0:
64,192,179452,1,0,0:0:0:0:
448,192,179529,1,0,0:0:0:0:
320,192,179529,1,0,0:0:0:0:
192,192,179606,1,0,0:0:0:0:
64,192,179606,1,0,0:0:0:0:
320,192,179683,1,0,0:0:0:0:
448,192,179683,1,0,0:0:0:0:
192,192,179760,1,0,0:0:0:0:
448,192,179760,1,0,0:0:0:0:
64,192,179760,1,0,0:0:0:0:
64,192,179837,1,0,0:0:0:0:
448,192,179914,1,0,0:0:0:0:
448,192,179991,1,0,0:0:0:0:
192,192,180068,1,0,0:0:0:0:
192,192,180145,1,0,0:0:0:0:
320,192,180222,1,0,0:0:0:0:
320,192,180299,1,0,0:0:0:0:
64,192,180376,1,0,0:0:0:0:
192,192,180395,1,0,0:0:0:0:
320,192,180414,1,0,0:0:0:0:
448,192,180427,1,0,0:0:0:0:
64,192,180452,1,0,0:0:0:0:
192,192,180472,1,0,0:0:0:0:
320,192,180491,1,0,0:0:0:0:
448,192,180504,1,0,0:0:0:0:
192,192,180529,1,0,0:0:0:0:
64,192,180529,1,0,0:0:0:0:
64,192,180606,1,0,0:0:0:0:
192,192,180606,1,0,0:0:0:0:
448,192,180683,1,0,0:0:0:0:
320,192,180683,1,0,0:0:0:0:
64,192,180760,1,0,0:0:0:0:
192,192,180837,1,0,0:0:0:0:
320,192,180914,1,0,0:0:0:0:
448,192,180991,1,0,0:0:0:0:
64,192,180991,1,0,0:0:0:0:
192,192,181222,1,0,0:0:0:0:
320,192,181299,1,0,0:0:0:0:
448,192,181299,128,0,181529:0:0:0:0:
64,192,181529,128,0,181760:0:0:0:0:
448,192,181760,1,0,0:0:0:0:
320,192,181914,1,0,0:0:0:0:
64,192,181991,1,0,0:0:0:0:
448,192,182068,1,0,0:0:0:0:
192,192,182145,1,0,0:0:0:0:
448,192,182222,1,0,0:0:0:0:
320,192,182222,128,0,182529:0:0:0:0:
64,192,182376,1,0,0:0:0:0:
192,192,182452,1,0,0:0:0:0:
448,192,182529,128,0,182683:0:0:0:0:
64,192,182683,128,0,182760:0:0:0:0:
64,192,182837,1,0,0:0:0:0:
448,192,182837,128,0,182991:0:0:0:0:
64,192,182991,128,0,183299:0:0:0:0:
448,192,183299,1,0,0:0:0:0:
320,192,183376,1,0,0:0:0:0:
448,192,183452,128,0,183914:0:0:0:0:
64,192,183452,1,0,0:0:0:0:
64,192,183837,1,0,0:0:0:0:
192,192,183914,1,0,0:0:0:0:
320,192,183914,128,0,184222:0:0:0:0:
192,192,184222,1,0,0:0:0:0:
64,192,184299,1,0,0:0:0:0:
448,192,184376,1,0,0:0:0:0:
320,192,184452,1,0,0:0:0:0:
192,192,184529,1,0,0:0:0:0:
320,192,184606,1,0,0:0:0:0:
448,192,184683,1,0,0:0:0:0:
64,192,184683,1,0,0:0:0:0:
192,192,184837,1,0,0:0:0:0:
320,192,184914,1,0,0:0:0:0:
448,192,184991,1,0,0:0:0:0:
320,192,185068,1,0,0:0:0:0:
448,192,185145,1,0,0:0:0:0:
192,192,185222,1,0,0:0:0:0:
448,192,185299,1,0,0:0:0:0:
64,192,185376,1,0,0:0:0:0:
448,192,185452,1,0,0:0:0:0:
64,192,185529,1,0,0:0:0:0:
192,192,185606,1,0,0:0:0:0:
320,192,185683,1,0,0:0:0:0:
192,192,185760,1,0,0:0:0:0:
320,192,185837,1,0,0:0:0:0:
64,192,185914,128,0,185965:0:0:0:0:
192,192,185914,128,0,185965:0:0:0:0:
448,192,185914,128,0,185965:0:0:0:0:
320,192,186068,128,0,186119:0:0:0:0:
448,192,186068,128,0,186119:0:0:0:0:
192,192,186145,128,0,186196:0:0:0:0:
64,192,186145,128,0,186196:0:0:0:0:
192,192,186299,128,0,186350:0:0:0:0:
64,192,186299,128,0,186350:0:0:0:0:
320,192,186376,128,0,186427:0:0:0:0:
448,192,186376,128,0,186427:0:0:0:0:
192,192,186529,128,0,186581:0:0:0:0:
64,192,186529,128,0,186581:0:0:0:0:
320,192,186606,128,0,186658:0:0:0:0:
448,192,186606,128,0,186658:0:0:0:0:
64,192,186683,128,0,186734:0:0:0:0:
320,192,186760,128,0,186811:0:0:0:0:
192,192,186837,128,0,186888:0:0:0:0:
448,192,186914,128,0,186965:0:0:0:0:
320,192,186991,128,0,187042:0:0:0:0:
64,192,186991,128,0,187042:0:0:0:0:
192,192,187145,128,0,187196:0:0:0:0:
448,192,187145,128,0,187196:0:0:0:0:
320,192,187145,128,0,187196:0:0:0:0:
64,192,187145,128,0,187196:0:0:0:0:
320,192,187299,128,0,187350:0:0:0:0:
64,192,187299,128,0,187350:0:0:0:0:
192,192,187376,128,0,187427:0:0:0:0:
448,192,187376,128,0,187427:0:0:0:0:
320,192,187529,128,0,187581:0:0:0:0:
64,192,187529,128,0,187581:0:0:0:0:
448,192,187606,128,0,187658:0:0:0:0:
192,192,187606,128,0,187658:0:0:0:0:
64,192,187683,128,0,187734:0:0:0:0:
320,192,187760,128,0,187811:0:0:0:0:
448,192,187760,128,0,187811:0:0:0:0:
192,192,187837,128,0,187888:0:0:0:0:
448,192,187914,128,0,187965:0:0:0:0:
64,192,187991,128,0,188042:0:0:0:0:
320,192,188068,128,0,188119:0:0:0:0:
192,192,188145,128,0,188196:0:0:0:0:
448,192,188222,128,0,188273:0:0:0:0:
64,192,188222,128,0,188273:0:0:0:0:
320,192,188299,128,0,188350:0:0:0:0:
192,192,188376,128,0,188427:0:0:0:0:
448,192,188376,128,0,188427:0:0:0:0:
64,192,188376,128,0,188427:0:0:0:0:
64,192,188529,128,0,188581:0:0:0:0:
448,192,188529,128,0,188581:0:0:0:0:
192,192,188606,128,0,188658:0:0:0:0:
320,192,188606,128,0,188658:0:0:0:0:
64,192,188683,128,0,188734:0:0:0:0:
448,192,188683,128,0,188734:0:0:0:0:
320,192,188760,128,0,188811:0:0:0:0:
64,192,188837,128,0,188888:0:0:0:0:
448,192,188837,128,0,188888:0:0:0:0:
192,192,188914,128,0,188965:0:0:0:0:
320,192,188914,128,0,188965:0:0:0:0:
448,192,188991,128,0,189042:0:0:0:0:
64,192,189068,128,0,189119:0:0:0:0:
192,192,189145,128,0,189196:0:0:0:0:
320,192,189222,128,0,189273:0:0:0:0:
448,192,189299,128,0,189350:0:0:0:0:
64,192,189299,128,0,189350:0:0:0:0:
192,192,189376,128,0,189427:0:0:0:0:
448,192,189452,128,0,189606:0:0:0:0:
64,192,189452,128,0,189529:0:0:0:0:
320,192,189529,128,0,189837:0:0:0:0:
192,192,189606,128,0,189760:0:0:0:0:
64,192,189606,1,0,0:0:0:0:
448,192,189760,128,0,189837:0:0:0:0:
64,192,189760,1,0,0:0:0:0:
192,192,189837,128,0,189914:0:0:0:0:
320,192,189914,128,0,190299:0:0:0:0:
448,192,189914,1,0,0:0:0:0:
192,192,189991,128,0,190145:0:0:0:0:
64,192,190068,128,0,190145:0:0:0:0:
448,192,190145,128,0,190222:0:0:0:0:
192,192,190222,128,0,190529:0:0:0:0:
64,192,190222,1,0,0:0:0:0:
448,192,190299,128,0,190376:0:0:0:0:
320,192,190376,128,0,190452:0:0:0:0:
448,192,190452,1,0,0:0:0:0:
64,192,190452,1,0,0:0:0:0:
320,192,190529,128,0,190606:0:0:0:0:
192,192,190606,128,0,190683:0:0:0:0:
448,192,190683,128,0,190760:0:0:0:0:
64,192,190683,1,0,0:0:0:0:
320,192,190760,128,0,190837:0:0:0:0:
192,192,190837,1,0,0:0:0:0:
64,192,190837,1,0,0:0:0:0:
448,192,190837,1,0,0:0:0:0:
320,192,190914,128,0,190991:0:0:0:0:
448,192,190991,1,0,0:0:0:0:
64,192,190991,1,0,0:0:0:0:
192,192,191068,128,0,191145:0:0:0:0:
320,192,191145,1,0,0:0:0:0:
448,192,191145,1,0,0:0:0:0:
64,192,191222,128,0,191299:0:0:0:0:
192,192,191299,1,0,0:0:0:0:
320,192,191299,1,0,0:0:0:0:
448,192,191376,128,0,191452:0:0:0:0:
320,192,191452,1,0,0:0:0:0:
64,192,191452,1,0,0:0:0:0:
192,192,191529,128,0,191606:0:0:0:0:
64,192,191606,1,0,0:0:0:0:
448,192,191606,1,0,0:0:0:0:
320,192,191683,128,0,191760:0:0:0:0:
192,192,191760,1,0,0:0:0:0:
64,192,191760,1,0,0:0:0:0:
448,192,191837,128,0,191914:0:0:0:0:
320,192,191914,1,0,0:0:0:0:
64,192,191914,1,0,0:0:0:0:
192,192,191991,128,0,192068:0:0:0:0:
64,192,192068,1,0,0:0:0:0:
320,192,192068,1,0,0:0:0:0:
448,192,192068,1,0,0:0:0:0:
192,192,192145,128,0,192222:0:0:0:0:
448,192,192222,1,0,0:0:0:0:
64,192,192222,1,0,0:0:0:0:
320,192,192299,128,0,192376:0:0:0:0:
192,192,192376,1,0,0:0:0:0:
64,192,192376,1,0,0:0:0:0:
448,192,192452,128,0,192529:0:0:0:0:
320,192,192529,1,0,0:0:0:0:
192,192,192529,1,0,0:0:0:0:
64,192,192606,128,0,192683:0:0:0:0:
192,192,192683,1,0,0:0:0:0:
448,192,192683,1,0,0:0:0:0:
320,192,192760,128,0,192837:0:0:0:0:
448,192,192837,1,0,0:0:0:0:
64,192,192837,1,0,0:0:0:0:
192,192,192914,128,0,192991:0:0:0:0:
320,192,192991,1,0,0:0:0:0:
448,192,192991,1,0,0:0:0:0:
64,192,193068,128,0,193145:0:0:0:0:
192,192,193145,1,0,0:0:0:0:
320,192,193145,1,0,0:0:0:0:
448,192,193222,128,0,193299:0:0:0:0:
320,192,193299,1,0,0:0:0:0:
192,192,193299,1,0,0:0:0:0:
64,192,193299,1,0,0:0:0:0:
448,192,193376,128,0,193452:0:0:0:0:
192,192,193452,1,0,0:0:0:0:
64,192,193452,1,0,0:0:0:0:
320,192,193529,128,0,193606:0:0:0:0:
64,192,193606,1,0,0:0:0:0:
448,192,193606,1,0,0:0:0:0:
192,192,193683,128,0,193760:0:0:0:0:
448,192,193760,1,0,0:0:0:0:
320,192,193760,1,0,0:0:0:0:
64,192,193837,128,0,193914:0:0:0:0:
192,192,193914,1,0,0:0:0:0:
320,192,193914,1,0,0:0:0:0:
448,192,193914,1,0,0:0:0:0:
64,192,193991,128,0,194068:0:0:0:0:
320,192,194068,1,0,0:0:0:0:
448,192,194068,1,0,0:0:0:0:
192,192,194145,128,0,194222:0:0:0:0:
64,192,194222,1,0,0:0:0:0:
448,192,194222,1,0,0:0:0:0:
320,192,194299,128,0,194376:0:0:0:0:
192,192,194376,1,0,0:0:0:0:
64,192,194376,1,0,0:0:0:0:
448,192,194452,128,0,194529:0:0:0:0:
64,192,194529,1,0,0:0:0:0:
320,192,194529,1,0,0:0:0:0:
192,192,194606,1,0,0:0:0:0:
448,192,194606,1,0,0:0:0:0:
320,192,194683,1,0,0:0:0:0:
64,192,194722,1,0,0:0:0:0:
448,192,194760,1,0,0:0:0:0:
192,192,194799,1,0,0:0:0:0:
320,192,194837,1,0,0:0:0:0:
64,192,194837,1,0,0:0:0:0:
448,192,194914,1,0,0:0:0:0:
192,192,194914,1,0,0:0:0:0:
320,192,194991,1,0,0:0:0:0:
64,192,195029,1,0,0:0:0:0:
448,192,195068,1,0,0:0:0:0:
192,192,195106,1,0,0:0:0:0:
320,192,195145,1,0,0:0:0:0:
64,192,195145,1,0,0:0:0:0:
448,192,195222,1,0,0:0:0:0:
192,192,195222,1,0,0:0:0:0:
320,192,195299,1,0,0:0:0:0:
64,192,195299,1,0,0:0:0:0:
192,192,195376,1,0,0:0:0:0:
448,192,195376,1,0,0:0:0:0:
64,192,195452,1,0,0:0:0:0:
320,192,195452,1,0,0:0:0:0:
192,192,195529,1,0,0:0:0:0:
64,192,195606,1,0,0:0:0:0:
448,192,195606,1,0,0:0:0:0:
320,192,195683,1,0,0:0:0:0:
448,192,195760,1,0,0:0:0:0:
64,192,195760,1,0,0:0:0:0:
192,192,195760,1,0,0:0:0:0:
320,192,195837,1,0,0:0:0:0:
192,192,195914,1,0,0:0:0:0:
64,192,195914,1,0,0:0:0:0:
320,192,195991,1,0,0:0:0:0:
192,192,196068,1,0,0:0:0:0:
64,192,196068,1,0,0:0:0:0:
448,192,196068,1,0,0:0:0:0:
320,192,196145,1,0,0:0:0:0:
448,192,196222,1,0,0:0:0:0:
64,192,196222,1,0,0:0:0:0:
192,192,196299,1,0,0:0:0:0:
448,192,196376,1,0,0:0:0:0:
64,192,196376,1,0,0:0:0:0:
320,192,196376,1,0,0:0:0:0:
192,192,196452,1,0,0:0:0:0:
320,192,196529,1,0,0:0:0:0:
64,192,196529,1,0,0:0:0:0:
448,192,196606,1,0,0:0:0:0:
192,192,196683,1,0,0:0:0:0:
64,192,196683,1,0,0:0:0:0:
320,192,196683,1,0,0:0:0:0:
448,192,196760,1,0,0:0:0:0:
320,192,196837,1,0,0:0:0:0:
64,192,196837,1,0,0:0:0:0:
192,192,196914,1,0,0:0:0:0:
448,192,196991,1,0,0:0:0:0:
64,192,196991,1,0,0:0:0:0:
320,192,196991,1,0,0:0:0:0:
192,192,197068,1,0,0:0:0:0:
320,192,197145,1,0,0:0:0:0:
448,192,197145,1,0,0:0:0:0:
192,192,197222,1,0,0:0:0:0:
64,192,197299,1,0,0:0:0:0:
320,192,197299,1,0,0:0:0:0:
448,192,197299,1,0,0:0:0:0:
192,192,197376,1,0,0:0:0:0:
64,192,197452,1,0,0:0:0:0:
448,192,197452,1,0,0:0:0:0:
320,192,197529,1,0,0:0:0:0:
192,192,197606,1,0,0:0:0:0:
64,192,197606,1,0,0:0:0:0:
448,192,197606,1,0,0:0:0:0:
320,192,197683,1,0,0:0:0:0:
192,192,197760,1,0,0:0:0:0:
448,192,197760,1,0,0:0:0:0:
64,192,197837,1,0,0:0:0:0:
192,192,197914,1,0,0:0:0:0:
320,192,197914,1,0,0:0:0:0:
448,192,197914,1,0,0:0:0:0:
64,192,197991,1,0,0:0:0:0:
192,192,198068,1,0,0:0:0:0:
448,192,198068,1,0,0:0:0:0:
320,192,198145,1,0,0:0:0:0:
192,192,198222,1,0,0:0:0:0:
64,192,198222,1,0,0:0:0:0:
448,192,198222,1,0,0:0:0:0:
320,192,198299,1,0,0:0:0:0:
448,192,198376,1,0,0:0:0:0:
64,192,198376,1,0,0:0:0:0:
192,192,198452,1,0,0:0:0:0:
320,192,198529,1,0,0:0:0:0:
448,192,198529,1,0,0:0:0:0:
64,192,198529,1,0,0:0:0:0:
192,192,198606,1,0,0:0:0:0:
64,192,198683,1,0,0:0:0:0:
448,192,198683,1,0,0:0:0:0:
320,192,198760,1,0,0:0:0:0:
192,192,198837,1,0,0:0:0:0:
64,192,198837,1,0,0:0:0:0:
448,192,198837,1,0,0:0:0:0:
320,192,198914,1,0,0:0:0:0:
448,192,198991,1,0,0:0:0:0:
64,192,198991,1,0,0:0:0:0:
192,192,199068,1,0,0:0:0:0:
64,192,199145,1,0,0:0:0:0:
320,192,199145,1,0,0:0:0:0:
448,192,199145,1,0,0:0:0:0:
192,192,199222,1,0,0:0:0:0:
320,192,199299,1,0,0:0:0:0:
448,192,199299,1,0,0:0:0:0:
64,192,199299,1,0,0:0:0:0:
192,192,199376,1,0,0:0:0:0:
320,192,199452,1,0,0:0:0:0:
448,192,199452,1,0,0:0:0:0:
64,192,199452,1,0,0:0:0:0:
192,192,199606,1,0,0:0:0:0:
448,192,199606,1,0,0:0:0:0:
64,192,199645,1,0,0:0:0:0:
320,192,199683,1,0,0:0:0:0:
448,192,199722,1,0,0:0:0:0:
64,192,199760,1,0,0:0:0:0:
192,192,199760,1,0,0:0:0:0:
320,192,199914,1,0,0:0:0:0:
64,192,199914,1,0,0:0:0:0:
448,192,199952,1,0,0:0:0:0:
192,192,199991,1,0,0:0:0:0:
64,192,200029,1,0,0:0:0:0:
448,192,200068,1,0,0:0:0:0:
320,192,200068,1,0,0:0:0:0:
192,192,200145,1,0,0:0:0:0:
64,192,200145,1,0,0:0:0:0:
448,192,200222,1,0,0:0:0:0:
320,192,200222,1,0,0:0:0:0:
192,192,200299,1,0,0:0:0:0:
64,192,200299,1,0,0:0:0:0:
320,192,200376,1,0,0:0:0:0:
448,192,200376,1,0,0:0:0:0:
192,192,200376,1,0,0:0:0:0:
64,192,200452,1,0,0:0:0:0:
320,192,200529,1,0,0:0:0:0:
448,192,200529,1,0,0:0:0:0:
64,192,200606,1,0,0:0:0:0:
192,192,200606,1,0,0:0:0:0:
320,192,200683,1,0,0:0:0:0:
448,192,200683,1,0,0:0:0:0:
64,192,200683,1,0,0:0:0:0:
320,192,200914,1,0,0:0:0:0:
192,192,200914,1,0,0:0:0:0:
448,192,200914,1,0,0:0:0:0:
64,192,200914,1,0,0:0:0:0:
448,192,201145,1,0,0:0:0:0:
192,192,201145,128,0,201452:0:0:0:0:
64,192,201145,1,0,0:0:0:0:
320,192,201145,1,0,0:0:0:0:
320,192,201452,1,0,0:0:0:0:
448,192,201452,1,0,0:0:0:0:
64,192,201452,1,0,0:0:0:0:
448,192,201606,1,0,0:0:0:0:
320,192,201683,1,0,0:0:0:0:
448,192,201760,1,0,0:0:0:0:
192,192,201760,1,0,0:0:0:0:
320,192,201837,1,0,0:0:0:0:
64,192,201837,1,0,0:0:0:0:
192,192,201914,1,0,0:0:0:0:
448,192,201914,1,0,0:0:0:0:
64,192,202068,1,0,0:0:0:0:
320,192,202068,1,0,0:0:0:0:
192,192,202145,1,0,0:0:0:0:
448,192,202145,1,0,0:0:0:0:
64,192,202222,1,0,0:0:0:0:
320,192,202222,1,0,0:0:0:0:
320,192,202376,1,0,0:0:0:0:
192,192,202376,1,0,0:0:0:0:
448,192,202376,1,0,0:0:0:0:
64,192,202376,1,0,0:0:0:0:
448,192,202529,1,0,0:0:0:0:
192,192,202529,1,0,0:0:0:0:
64,192,202529,1,0,0:0:0:0:
320,192,202683,1,0,0:0:0:0:
448,192,202683,1,0,0:0:0:0:
64,192,202683,1,0,0:0:0:0:
192,192,202837,1,0,0:0:0:0:
64,192,202837,1,0,0:0:0:0:
320,192,202914,1,0,0:0:0:0:
448,192,202914,1,0,0:0:0:0:
192,192,202991,1,0,0:0:0:0:
64,192,202991,1,0,0:0:0:0:
320,192,203068,1,0,0:0:0:0:
448,192,203068,1,0,0:0:0:0:
192,192,203145,1,0,0:0:0:0:
64,192,203145,1,0,0:0:0:0:
64,192,203299,1,0,0:0:0:0:
320,192,203299,1,0,0:0:0:0:
448,192,203299,1,0,0:0:0:0:
192,192,203376,1,0,0:0:0:0:
64,192,203452,1,0,0:0:0:0:
448,192,203452,1,0,0:0:0:0:
320,192,203452,1,0,0:0:0:0:
192,192,203606,1,0,0:0:0:0:
64,192,203606,1,0,0:0:0:0:
448,192,203606,1,0,0:0:0:0:
320,192,203683,1,0,0:0:0:0:
192,192,203760,1,0,0:0:0:0:
64,192,203760,1,0,0:0:0:0:
448,192,203760,1,0,0:0:0:0:
64,192,203914,1,0,0:0:0:0:
320,192,203914,1,0,0:0:0:0:
192,192,203991,1,0,0:0:0:0:
320,192,204068,1,0,0:0:0:0:
448,192,204068,1,0,0:0:0:0:
64,192,204068,1,0,0:0:0:0:
192,192,204145,1,0,0:0:0:0:
320,192,204222,1,0,0:0:0:0:
64,192,204299,1,0,0:0:0:0:
192,192,204376,1,0,0:0:0:0:
320,192,204376,1,0,0:0:0:0:
448,192,204376,1,0,0:0:0:0:
320,192,204452,1,0,0:0:0:0:
64,192,204529,1,0,0:0:0:0:
192,192,204606,1,0,0:0:0:0:
320,192,204683,1,0,0:0:0:0:
64,192,204683,1,0,0:0:0:0:
448,192,204683,1,0,0:0:0:0:
320,192,204760,1,0,0:0:0:0:
192,192,204837,1,0,0:0:0:0:
320,192,204914,1,0,0:0:0:0:
448,192,204991,1,0,0:0:0:0:
64,192,204991,1,0,0:0:0:0:
192,192,204991,1,0,0:0:0:0:
320,192,205068,1,0,0:0:0:0:
448,192,205145,1,0,0:0:0:0:
192,192,205222,1,0,0:0:0:0:
64,192,205222,1,0,0:0:0:0:
320,192,205299,1,0,0:0:0:0:
448,192,205299,1,0,0:0:0:0:
64,192,205376,1,0,0:0:0:0:
320,192,205452,1,0,0:0:0:0:
192,192,205452,1,0,0:0:0:0:
448,192,205529,1,0,0:0:0:0:
64,192,205529,1,0,0:0:0:0:
192,192,205606,1,0,0:0:0:0:
320,192,205606,1,0,0:0:0:0:
448,192,205683,1,0,0:0:0:0:
64,192,205760,1,0,0:0:0:0:
320,192,205760,1,0,0:0:0:0:
192,192,205837,1,0,0:0:0:0:
448,192,205837,1,0,0:0:0:0:
320,192,205914,1,0,0:0:0:0:
64,192,205914,1,0,0:0:0:0:
448,192,205991,128,0,206068:0:0:0:0:
192,192,206068,1,0,0:0:0:0:
64,192,206068,128,0,206145:0:0:0:0:
320,192,206145,1,0,0:0:0:0:
64,192,206222,1,0,0:0:0:0:
448,192,206222,1,0,0:0:0:0:
192,192,206299,128,0,206376:0:0:0:0:
320,192,206299,1,0,0:0:0:0:
64,192,206376,1,0,0:0:0:0:
448,192,206376,1,0,0:0:0:0:
192,192,206452,1,0,0:0:0:0:
320,192,206529,128,0,206683:0:0:0:0:
448,192,206529,1,0,0:0:0:0:
64,192,206529,1,0,0:0:0:0:
192,192,206606,1,0,0:0:0:0:
448,192,206683,128,0,206837:0:0:0:0:
64,192,206683,1,0,0:0:0:0:
320,192,206760,1,0,0:0:0:0:
64,192,206837,1,0,0:0:0:0:
192,192,206837,1,0,0:0:0:0:
448,192,206914,1,0,0:0:0:0:
320,192,206914,1,0,0:0:0:0:
192,192,206991,1,0,0:0:0:0:
320,192,207068,1,0,0:0:0:0:
64,192,207068,128,0,207145:0:0:0:0:
192,192,207145,1,0,0:0:0:0:
448,192,207145,1,0,0:0:0:0:
320,192,207222,1,0,0:0:0:0:
448,192,207299,128,0,207376:0:0:0:0:
64,192,207299,1,0,0:0:0:0:
320,192,207376,1,0,0:0:0:0:
192,192,207452,1,0,0:0:0:0:
64,192,207452,1,0,0:0:0:0:
320,192,207529,128,0,207683:0:0:0:0:
448,192,207529,1,0,0:0:0:0:
192,192,207606,1,0,0:0:0:0:
64,192,207683,1,0,0:0:0:0:
448,192,207760,1,0,0:0:0:0:
192,192,207760,128,0,207837:0:0:0:0:
320,192,207760,1,0,0:0:0:0:
64,192,207837,128,0,207914:0:0:0:0:
448,192,207914,128,0,207991:0:0:0:0:
192,192,207914,128,0,207991:0:0:0:0:
320,192,207991,128,0,208068:0:0:0:0:
64,192,208068,128,0,208299:0:0:0:0:
192,192,208068,1,0,0:0:0:0:
448,192,208068,1,0,0:0:0:0:
320,192,208145,1,0,0:0:0:0:
448,192,208222,1,0,0:0:0:0:
192,192,208299,128,0,208529:0:0:0:0:
448,192,208376,1,0,0:0:0:0:
320,192,208376,1,0,0:0:0:0:
64,192,208452,1,0,0:0:0:0:
320,192,208529,128,0,208760:0:0:0:0:
448,192,208529,1,0,0:0:0:0:
192,192,208606,1,0,0:0:0:0:
64,192,208683,1,0,0:0:0:0:
448,192,208683,1,0,0:0:0:0:
448,192,208760,128,0,208837:0:0:0:0:
192,192,208837,128,0,208914:0:0:0:0:
64,192,208837,1,0,0:0:0:0:
320,192,208914,128,0,208991:0:0:0:0:
448,192,208914,1,0,0:0:0:0:
64,192,208991,128,0,209068:0:0:0:0:
192,192,208991,1,0,0:0:0:0:
448,192,209068,128,0,209145:0:0:0:0:
320,192,209068,1,0,0:0:0:0:
192,192,209145,128,0,209222:0:0:0:0:
64,192,209145,1,0,0:0:0:0:
320,192,209222,128,0,209299:0:0:0:0:
448,192,209222,1,0,0:0:0:0:
64,192,209299,1,0,0:0:0:0:
192,192,209299,1,0,0:0:0:0:
320,192,209376,1,0,0:0:0:0:
448,192,209452,1,0,0:0:0:0:
64,192,209452,1,0,0:0:0:0:
192,192,209504,1,0,0:0:0:0:
320,192,209549,1,0,0:0:0:0:
64,192,209606,1,0,0:0:0:0:
448,192,209606,1,0,0:0:0:0:
192,192,209683,1,0,0:0:0:0:
448,192,209760,1,0,0:0:0:0:
64,192,209760,1,0,0:0:0:0:
320,192,209811,1,0,0:0:0:0:
192,192,209856,1,0,0:0:0:0:
448,192,209914,1,0,0:0:0:0:
64,192,209914,1,0,0:0:0:0:
320,192,209991,1,0,0:0:0:0:
64,192,210068,1,0,0:0:0:0:
192,192,210106,1,0,0:0:0:0:
320,192,210145,1,0,0:0:0:0:
448,192,210183,1,0,0:0:0:0:
64,192,210222,1,0,0:0:0:0:
192,192,210222,1,0,0:0:0:0:
320,192,210299,1,0,0:0:0:0:
64,192,210376,1,0,0:0:0:0:
448,192,210376,1,0,0:0:0:0:
192,192,210452,1,0,0:0:0:0:
320,192,210529,1,0,0:0:0:0:
448,192,210529,1,0,0:0:0:0:
64,192,210529,1,0,0:0:0:0:
192,192,210683,1,0,0:0:0:0:
64,192,210683,1,0,0:0:0:0:
448,192,210760,1,0,0:0:0:0:
320,192,210760,1,0,0:0:0:0:
192,192,210837,1,0,0:0:0:0:
64,192,210837,1,0,0:0:0:0:
448,192,210991,1,0,0:0:0:0:
192,192,210991,1,0,0:0:0:0:
320,192,210991,1,0,0:0:0:0:
448,192,211145,1,0,0:0:0:0:
320,192,211145,1,0,0:0:0:0:
64,192,211145,1,0,0:0:0:0:
192,192,211222,1,0,0:0:0:0:
448,192,211299,1,0,0:0:0:0:
320,192,211299,1,0,0:0:0:0:
64,192,211299,1,0,0:0:0:0:
320,192,211452,1,0,0:0:0:0:
448,192,211452,1,0,0:0:0:0:
192,192,211529,1,0,0:0:0:0:
64,192,211529,1,0,0:0:0:0:
320,192,211606,1,0,0:0:0:0:
448,192,211606,1,0,0:0:0:0:
192,192,211683,1,0,0:0:0:0:
64,192,211683,1,0,0:0:0:0:
320,192,211760,1,0,0:0:0:0:
448,192,211760,1,0,0:0:0:0:
64,192,211837,1,0,0:0:0:0:
448,192,211914,1,0,0:0:0:0:
320,192,211914,1,0,0:0:0:0:
192,192,211991,1,0,0:0:0:0:
320,192,212068,1,0,0:0:0:0:
64,192,212068,1,0,0:0:0:0:
448,192,212068,1,0,0:0:0:0:
192,192,212145,1,0,0:0:0:0:
320,192,212222,1,0,0:0:0:0:
64,192,212222,1,0,0:0:0:0:
448,192,212299,1,0,0:0:0:0:
192,192,212376,1,0,0:0:0:0:
64,192,212376,1,0,0:0:0:0:
320,192,212376,1,0,0:0:0:0:
448,192,212452,1,0,0:0:0:0:
192,192,212529,1,0,0:0:0:0:
64,192,212529,1,0,0:0:0:0:
320,192,212606,1,0,0:0:0:0:
448,192,212683,1,0,0:0:0:0:
192,192,212683,1,0,0:0:0:0:
64,192,212683,1,0,0:0:0:0:
320,192,212760,1,0,0:0:0:0:
448,192,212837,1,0,0:0:0:0:
192,192,212837,1,0,0:0:0:0:
64,192,212837,1,0,0:0:0:0:
320,192,212914,1,0,0:0:0:0:
192,192,212991,1,0,0:0:0:0:
448,192,212991,1,0,0:0:0:0:
64,192,212991,1,0,0:0:0:0:
320,192,213068,1,0,0:0:0:0:
192,192,213145,1,0,0:0:0:0:
320,192,213222,1,0,0:0:0:0:
192,192,213299,1,0,0:0:0:0:
64,192,213299,1,0,0:0:0:0:
448,192,213299,1,0,0:0:0:0:
320,192,213376,1,0,0:0:0:0:
192,192,213452,1,0,0:0:0:0:
320,192,213529,1,0,0:0:0:0:
448,192,213606,1,0,0:0:0:0:
64,192,213606,1,0,0:0:0:0:
192,192,213606,1,0,0:0:0:0:
320,192,213683,1,0,0:0:0:0:
448,192,213760,1,0,0:0:0:0:
192,192,213760,1,0,0:0:0:0:
320,192,213837,1,0,0:0:0:0:
448,192,213914,1,0,0:0:0:0:
192,192,213914,1,0,0:0:0:0:
64,192,213914,1,0,0:0:0:0:
320,192,213991,1,0,0:0:0:0:
192,192,214068,1,0,0:0:0:0:
64,192,214145,1,0,0:0:0:0:
320,192,214145,1,0,0:0:0:0:
192,192,214222,1,0,0:0:0:0:
448,192,214222,1,0,0:0:0:0:
320,192,214299,1,0,0:0:0:0:
192,192,214376,1,0,0:0:0:0:
64,192,214452,1,0,0:0:0:0:
320,192,214452,1,0,0:0:0:0:
192,192,214529,1,0,0:0:0:0:
448,192,214529,1,0,0:0:0:0:
320,192,214606,1,0,0:0:0:0:
192,192,214683,1,0,0:0:0:0:
320,192,214760,1,0,0:0:0:0:
64,192,214760,1,0,0:0:0:0:
192,192,214837,1,0,0:0:0:0:
448,192,214837,1,0,0:0:0:0:
320,192,214914,1,0,0:0:0:0:
192,192,214991,1,0,0:0:0:0:
64,192,215068,1,0,0:0:0:0:
320,192,215068,1,0,0:0:0:0:
448,192,215145,1,0,0:0:0:0:
192,192,215145,1,0,0:0:0:0:
320,192,215222,1,0,0:0:0:0:
192,192,215299,1,0,0:0:0:0:
448,192,215299,1,0,0:0:0:0:
64,192,215376,1,0,0:0:0:0:
320,192,215376,1,0,0:0:0:0:
320,192,215452,1,0,0:0:0:0:
192,192,215452,1,0,0:0:0:0:
64,192,215529,1,0,0:0:0:0:
448,192,215606,1,0,0:0:0:0:
320,192,215606,1,0,0:0:0:0:
192,192,215683,1,0,0:0:0:0:
64,192,215683,1,0,0:0:0:0:
448,192,215760,1,0,0:0:0:0:
64,192,215760,1,0,0:0:0:0:
320,192,215837,1,0,0:0:0:0:
192,192,215914,1,0,0:0:0:0:
64,192,215914,1,0,0:0:0:0:
320,192,215914,1,0,0:0:0:0:
448,192,215991,1,0,0:0:0:0:
320,192,216068,1,0,0:0:0:0:
192,192,216068,1,0,0:0:0:0:
64,192,216145,1,0,0:0:0:0:
192,192,216145,1,0,0:0:0:0:
448,192,216222,1,0,0:0:0:0:
320,192,216222,1,0,0:0:0:0:
192,192,216299,1,0,0:0:0:0:
64,192,216376,1,0,0:0:0:0:
448,192,216376,1,0,0:0:0:0:
192,192,216376,1,0,0:0:0:0:
320,192,216452,1,0,0:0:0:0:
192,192,216529,1,0,0:0:0:0:
448,192,216529,1,0,0:0:0:0:
64,192,216568,1,0,0:0:0:0:
320,192,216606,1,0,0:0:0:0:
192,192,216645,1,0,0:0:0:0:
448,192,216683,1,0,0:0:0:0:
64,192,216683,1,0,0:0:0:0:
320,192,216683,1,0,0:0:0:0:
192,192,216837,1,0,0:0:0:0:
64,192,216837,1,0,0:0:0:0:
320,192,216914,1,0,0:0:0:0:
448,192,216914,1,0,0:0:0:0:
448,192,216991,1,0,0:0:0:0:
64,192,216991,1,0,0:0:0:0:
192,192,217068,1,0,0:0:0:0:
320,192,217145,1,0,0:0:0:0:
448,192,217145,1,0,0:0:0:0:
192,192,217145,1,0,0:0:0:0:
64,192,217222,1,0,0:0:0:0:
192,192,217299,1,0,0:0:0:0:
320,192,217299,1,0,0:0:0:0:
448,192,217376,1,0,0:0:0:0:
320,192,217376,1,0,0:0:0:0:
192,192,217452,1,0,0:0:0:0:
64,192,217452,1,0,0:0:0:0:
320,192,217529,1,0,0:0:0:0:
448,192,217606,1,0,0:0:0:0:
192,192,217606,1,0,0:0:0:0:
64,192,217683,1,0,0:0:0:0:
320,192,217683,1,0,0:0:0:0:
448,192,217760,1,0,0:0:0:0:
192,192,217799,1,0,0:0:0:0:
320,192,217837,1,0,0:0:0:0:
64,192,217876,1,0,0:0:0:0:
192,192,217914,1,0,0:0:0:0:
448,192,217914,1,0,0:0:0:0:
320,192,218068,1,0,0:0:0:0:
64,192,218068,1,0,0:0:0:0:
448,192,218145,1,0,0:0:0:0:
64,192,218222,1,0,0:0:0:0:
320,192,218222,1,0,0:0:0:0:
192,192,218299,1,0,0:0:0:0:
320,192,218376,1,0,0:0:0:0:
64,192,218376,1,0,0:0:0:0:
448,192,218376,1,0,0:0:0:0:
192,192,218452,1,0,0:0:0:0:
64,192,218529,1,0,0:0:0:0:
320,192,218529,1,0,0:0:0:0:
448,192,218529,1,0,0:0:0:0:
192,192,218606,1,0,0:0:0:0:
320,192,218683,1,0,0:0:0:0:
448,192,218683,1,0,0:0:0:0:
192,192,218760,1,0,0:0:0:0:
64,192,218760,1,0,0:0:0:0:
320,192,218837,1,0,0:0:0:0:
448,192,218837,1,0,0:0:0:0:
64,192,218914,1,0,0:0:0:0:
192,192,218991,1,0,0:0:0:0:
448,192,218991,1,0,0:0:0:0:
320,192,219029,1,0,0:0:0:0:
64,192,219068,1,0,0:0:0:0:
192,192,219106,1,0,0:0:0:0:
448,192,219145,1,0,0:0:0:0:
320,192,219145,1,0,0:0:0:0:
64,192,219222,1,0,0:0:0:0:
192,192,219299,1,0,0:0:0:0:
448,192,219376,1,0,0:0:0:0:
320,192,219376,1,0,0:0:0:0:
64,192,219376,1,0,0:0:0:0:
192,192,219452,1,0,0:0:0:0:
64,192,219529,1,0,0:0:0:0:
448,192,219606,1,0,0:0:0:0:
320,192,219606,1,0,0:0:0:0:
192,192,219683,1,0,0:0:0:0:
64,192,219760,1,0,0:0:0:0:
448,192,219837,1,0,0:0:0:0:
320,192,219837,1,0,0:0:0:0:
192,192,219914,1,0,0:0:0:0:
64,192,219914,1,0,0:0:0:0:
320,192,219952,1,0,0:0:0:0:
448,192,219991,1,0,0:0:0:0:
64,192,220029,1,0,0:0:0:0:
192,192,220068,1,0,0:0:0:0:
320,192,220068,1,0,0:0:0:0:
448,192,220119,1,0,0:0:0:0:
64,192,220164,1,0,0:0:0:0:
192,192,220222,1,0,0:0:0:0:
320,192,220273,1,0,0:0:0:0:
448,192,220318,1,0,0:0:0:0:
64,192,220376,1,0,0:0:0:0:
192,192,220376,1,0,0:0:0:0:
320,192,220452,1,0,0:0:0:0:
448,192,220529,1,0,0:0:0:0:
192,192,220606,1,0,0:0:0:0:
320,192,220683,1,0,0:0:0:0:
64,192,220760,1,0,0:0:0:0:
320,192,220837,1,0,0:0:0:0:
64,192,220914,1,0,0:0:0:0:
192,192,220991,1,0,0:0:0:0:
320,192,221068,1,0,0:0:0:0:
448,192,221145,1,0,0:0:0:0:
192,192,221222,1,0,0:0:0:0:
320,192,221299,1,0,0:0:0:0:
64,192,221376,1,0,0:0:0:0:
192,192,221452,1,0,0:0:0:0:
320,192,221529,1,0,0:0:0:0:
448,192,221606,1,0,0:0:0:0:
192,192,221606,1,0,0:0:0:0:
64,192,221606,1,0,0:0:0:0:
320,192,221683,1,0,0:0:0:0:
448,192,221760,1,0,0:0:0:0:
64,192,221760,1,0,0:0:0:0:
64,192,221837,1,0,0:0:0:0:
320,192,221837,1,0,0:0:0:0:
192,192,221837,1,0,0:0:0:0:
448,192,221914,1,0,0:0:0:0:
320,192,221991,1,0,0:0:0:0:
448,192,222068,1,0,0:0:0:0:
192,192,222068,1,0,0:0:0:0:
64,192,222068,1,0,0:0:0:0:
320,192,222145,1,0,0:0:0:0:
448,192,222222,1,0,0:0:0:0:
192,192,222222,1,0,0:0:0:0:
320,192,222299,1,0,0:0:0:0:
192,192,222299,1,0,0:0:0:0:
64,192,222299,1,0,0:0:0:0:
448,192,222376,1,0,0:0:0:0:
320,192,222452,1,0,0:0:0:0:
448,192,222529,1,0,0:0:0:0:
192,192,222529,1,0,0:0:0:0:
64,192,222529,1,0,0:0:0:0:
320,192,222606,1,0,0:0:0:0:
64,192,222683,1,0,0:0:0:0:
192,192,222683,1,0,0:0:0:0:
448,192,222683,1,0,0:0:0:0:
320,192,222760,1,0,0:0:0:0:
64,192,222837,1,0,0:0:0:0:
448,192,222837,1,0,0:0:0:0:
192,192,222914,1,0,0:0:0:0:
320,192,222914,1,0,0:0:0:0:
64,192,222991,1,0,0:0:0:0:
192,192,223068,1,0,0:0:0:0:
448,192,223068,1,0,0:0:0:0:
320,192,223068,1,0,0:0:0:0:
64,192,223145,1,0,0:0:0:0:
448,192,223145,1,0,0:0:0:0:
192,192,223222,1,0,0:0:0:0:
64,192,223299,1,0,0:0:0:0:
448,192,223299,1,0,0:0:0:0:
320,192,223299,1,0,0:0:0:0:
192,192,223376,1,0,0:0:0:0:
64,192,223452,1,0,0:0:0:0:
192,192,223529,1,0,0:0:0:0:
448,192,223529,1,0,0:0:0:0:
320,192,223529,1,0,0:0:0:0:
448,192,223606,1,0,0:0:0:0:
64,192,223606,1,0,0:0:0:0:
192,192,223683,1,0,0:0:0:0:
64,192,223760,1,0,0:0:0:0:
448,192,223760,1,0,0:0:0:0:
320,192,223760,1,0,0:0:0:0:
192,192,223837,1,0,0:0:0:0:
448,192,223914,1,0,0:0:0:0:
320,192,223914,1,0,0:0:0:0:
64,192,223914,1,0,0:0:0:0:
192,192,223991,1,0,0:0:0:0:
448,192,224068,1,0,0:0:0:0:
320,192,224068,1,0,0:0:0:0:
64,192,224145,1,0,0:0:0:0:
192,192,224145,1,0,0:0:0:0:
448,192,224222,1,0,0:0:0:0:
64,192,224299,1,0,0:0:0:0:
320,192,224299,1,0,0:0:0:0:
192,192,224299,1,0,0:0:0:0:
448,192,224376,1,0,0:0:0:0:
320,192,224376,1,0,0:0:0:0:
64,192,224452,1,0,0:0:0:0:
448,192,224529,1,0,0:0:0:0:
320,192,224529,1,0,0:0:0:0:
192,192,224529,1,0,0:0:0:0:
64,192,224606,1,0,0:0:0:0:
448,192,224683,1,0,0:0:0:0:
64,192,224760,1,0,0:0:0:0:
320,192,224760,1,0,0:0:0:0:
192,192,224760,1,0,0:0:0:0:
448,192,224837,1,0,0:0:0:0:
320,192,224837,1,0,0:0:0:0:
64,192,224914,1,0,0:0:0:0:
448,192,224991,1,0,0:0:0:0:
320,192,224991,1,0,0:0:0:0:
192,192,224991,1,0,0:0:0:0:
64,192,225068,1,0,0:0:0:0:
448,192,225145,1,0,0:0:0:0:
320,192,225145,1,0,0:0:0:0:
192,192,225145,1,0,0:0:0:0:
64,192,225222,1,0,0:0:0:0:
192,192,225299,1,0,0:0:0:0:
448,192,225299,1,0,0:0:0:0:
64,192,225376,1,0,0:0:0:0:
320,192,225376,1,0,0:0:0:0:
192,192,225452,1,0,0:0:0:0:
320,192,225529,1,0,0:0:0:0:
192,192,225606,1,0,0:0:0:0:
64,192,225606,1,0,0:0:0:0:
448,192,225606,1,0,0:0:0:0:
320,192,225683,1,0,0:0:0:0:
448,192,225683,1,0,0:0:0:0:
192,192,225760,1,0,0:0:0:0:
320,192,225837,1,0,0:0:0:0:
448,192,225837,1,0,0:0:0:0:
64,192,225837,1,0,0:0:0:0:
192,192,225914,1,0,0:0:0:0:
320,192,225991,1,0,0:0:0:0:
448,192,225991,1,0,0:0:0:0:
64,192,226029,1,0,0:0:0:0:
192,192,226068,1,0,0:0:0:0:
448,192,226106,1,0,0:0:0:0:
320,192,226145,1,0,0:0:0:0:
64,192,226183,1,0,0:0:0:0:
192,192,226222,1,0,0:0:0:0:
448,192,226222,1,0,0:0:0:0:
320,192,226299,1,0,0:0:0:0:
64,192,226376,1,0,0:0:0:0:
448,192,226376,1,0,0:0:0:0:
192,192,226452,1,0,0:0:0:0:
64,192,226529,1,0,0:0:0:0:
448,192,226529,1,0,0:0:0:0:
320,192,226529,1,0,0:0:0:0:
192,192,226606,1,0,0:0:0:0:
64,192,226683,1,0,0:0:0:0:
320,192,226760,1,0,0:0:0:0:
192,192,226760,1,0,0:0:0:0:
448,192,226760,1,0,0:0:0:0:
64,192,226837,1,0,0:0:0:0:
320,192,226837,1,0,0:0:0:0:
448,192,226837,1,0,0:0:0:0:
192,192,226914,1,0,0:0:0:0:
448,192,226991,1,0,0:0:0:0:
320,192,226991,1,0,0:0:0:0:
64,192,226991,1,0,0:0:0:0:
192,192,227068,1,0,0:0:0:0:
64,192,227145,1,0,0:0:0:0:
448,192,227222,1,0,0:0:0:0:
320,192,227222,1,0,0:0:0:0:
192,192,227222,1,0,0:0:0:0:
320,192,227299,1,0,0:0:0:0:
64,192,227299,1,0,0:0:0:0:
448,192,227299,1,0,0:0:0:0:
192,192,227376,1,0,0:0:0:0:
448,192,227452,1,0,0:0:0:0:
320,192,227452,1,0,0:0:0:0:
64,192,227452,1,0,0:0:0:0:
192,192,227529,1,0,0:0:0:0:
64,192,227606,1,0,0:0:0:0:
320,192,227606,1,0,0:0:0:0:
448,192,227606,1,0,0:0:0:0:
192,192,227683,1,0,0:0:0:0:
64,192,227760,1,0,0:0:0:0:
448,192,227760,1,0,0:0:0:0:
192,192,227837,1,0,0:0:0:0:
320,192,227837,1,0,0:0:0:0:
448,192,227914,1,0,0:0:0:0:
192,192,227991,1,0,0:0:0:0:
64,192,227991,1,0,0:0:0:0:
320,192,227991,1,0,0:0:0:0:
448,192,228068,1,0,0:0:0:0:
192,192,228068,1,0,0:0:0:0:
64,192,228068,1,0,0:0:0:0:
320,192,228145,1,0,0:0:0:0:
192,192,228222,1,0,0:0:0:0:
64,192,228222,1,0,0:0:0:0:
448,192,228222,1,0,0:0:0:0:
320,192,228299,1,0,0:0:0:0:
448,192,228376,1,0,0:0:0:0:
192,192,228452,1,0,0:0:0:0:
64,192,228452,1,0,0:0:0:0:
320,192,228452,1,0,0:0:0:0:
448,192,228529,1,0,0:0:0:0:
192,192,228529,1,0,0:0:0:0:
64,192,228529,1,0,0:0:0:0:
320,192,228606,1,0,0:0:0:0:
192,192,228683,1,0,0:0:0:0:
64,192,228683,1,0,0:0:0:0:
448,192,228683,1,0,0:0:0:0:
320,192,228760,1,0,0:0:0:0:
448,192,228837,1,0,0:0:0:0:
192,192,228837,1,0,0:0:0:0:
64,192,228837,1,0,0:0:0:0:
320,192,228914,1,0,0:0:0:0:
192,192,228991,1,0,0:0:0:0:
64,192,228991,1,0,0:0:0:0:
448,192,228991,1,0,0:0:0:0:
320,192,229068,1,0,0:0:0:0:
192,192,229145,1,0,0:0:0:0:
320,192,229222,1,0,0:0:0:0:
448,192,229222,1,0,0:0:0:0:
64,192,229222,1,0,0:0:0:0:
192,192,229299,1,0,0:0:0:0:
448,192,229299,1,0,0:0:0:0:
64,192,229299,1,0,0:0:0:0:
320,192,229376,1,0,0:0:0:0:
192,192,229452,1,0,0:0:0:0:
64,192,229452,1,0,0:0:0:0:
448,192,229452,1,0,0:0:0:0:
320,192,229529,1,0,0:0:0:0:
192,192,229606,1,0,0:0:0:0:
320,192,229683,1,0,0:0:0:0:
64,192,229683,1,0,0:0:0:0:
448,192,229683,1,0,0:0:0:0:
192,192,229760,1,0,0:0:0:0:
448,192,229760,1,0,0:0:0:0:
64,192,229760,1,0,0:0:0:0:
320,192,229837,1,0,0:0:0:0:
192,192,229914,1,0,0:0:0:0:
448,192,229914,1,0,0:0:0:0:
64,192,229914,1,0,0:0:0:0:
320,192,229991,1,0,0:0:0:0:
192,192,230068,1,0,0:0:0:0:
64,192,230068,1,0,0:0:0:0:
448,192,230068,1,0,0:0:0:0:
320,192,230145,1,0,0:0:0:0:
448,192,230222,1,0,0:0:0:0:
192,192,230222,1,0,0:0:0:0:
64,192,230222,1,0,0:0:0:0:
320,192,230299,1,0,0:0:0:0:
448,192,230376,1,0,0:0:0:0:
320,192,230452,1,0,0:0:0:0:
192,192,230452,1,0,0:0:0:0:
64,192,230452,1,0,0:0:0:0:
448,192,230529,1,0,0:0:0:0:
192,192,230529,1,0,0:0:0:0:
320,192,230529,1,0,0:0:0:0:
64,192,230606,1,0,0:0:0:0:
448,192,230683,1,0,0:0:0:0:
320,192,230683,1,0,0:0:0:0:
192,192,230683,1,0,0:0:0:0:
64,192,230760,1,0,0:0:0:0:
448,192,230837,1,0,0:0:0:0:
320,192,230914,1,0,0:0:0:0:
192,192,230914,1,0,0:0:0:0:
64,192,230952,1,0,0:0:0:0:
448,192,230991,1,0,0:0:0:0:
192,192,231029,1,0,0:0:0:0:
320,192,231068,1,0,0:0:0:0:
64,192,231106,1,0,0:0:0:0:
448,192,231145,1,0,0:0:0:0:
192,192,231145,1,0,0:0:0:0:
320,192,231222,1,0,0:0:0:0:
448,192,231299,1,0,0:0:0:0:
64,192,231299,1,0,0:0:0:0:
192,192,231299,1,0,0:0:0:0:
320,192,231376,1,0,0:0:0:0:
64,192,231452,1,0,0:0:0:0:
448,192,231452,1,0,0:0:0:0:
192,192,231529,1,0,0:0:0:0:
320,192,231529,1,0,0:0:0:0:
64,192,231606,1,0,0:0:0:0:
448,192,231683,1,0,0:0:0:0:
192,192,231683,1,0,0:0:0:0:
320,192,231683,1,0,0:0:0:0:
64,192,231760,1,0,0:0:0:0:
448,192,231760,1,0,0:0:0:0:
192,192,231837,1,0,0:0:0:0:
64,192,231914,1,0,0:0:0:0:
448,192,231914,1,0,0:0:0:0:
320,192,231914,1,0,0:0:0:0:
192,192,231991,1,0,0:0:0:0:
320,192,231991,1,0,0:0:0:0:
448,192,231991,1,0,0:0:0:0:
64,192,232068,1,0,0:0:0:0:
320,192,232145,1,0,0:0:0:0:
448,192,232145,1,0,0:0:0:0:
192,192,232145,1,0,0:0:0:0:
64,192,232222,1,0,0:0:0:0:
320,192,232222,1,0,0:0:0:0:
192,192,232222,1,0,0:0:0:0:
448,192,232299,1,0,0:0:0:0:
64,192,232376,1,0,0:0:0:0:
192,192,232376,1,0,0:0:0:0:
320,192,232376,1,0,0:0:0:0:
448,192,232452,1,0,0:0:0:0:
192,192,232529,1,0,0:0:0:0:
64,192,232529,1,0,0:0:0:0:
320,192,232529,1,0,0:0:0:0:
448,192,232606,1,0,0:0:0:0:
192,192,232683,1,0,0:0:0:0:
64,192,232683,1,0,0:0:0:0:
320,192,232760,1,0,0:0:0:0:
448,192,232760,1,0,0:0:0:0:
64,192,232760,1,0,0:0:0:0:
192,192,232837,1,0,0:0:0:0:
320,192,232914,1,0,0:0:0:0:
448,192,232914,1,0,0:0:0:0:
64,192,232914,1,0,0:0:0:0:
192,192,232991,1,0,0:0:0:0:
320,192,232991,1,0,0:0:0:0:
64,192,233068,1,0,0:0:0:0:
448,192,233145,1,0,0:0:0:0:
192,192,233145,1,0,0:0:0:0:
320,192,233145,1,0,0:0:0:0:
64,192,233222,1,0,0:0:0:0:
320,192,233222,1,0,0:0:0:0:
448,192,233222,1,0,0:0:0:0:
192,192,233299,1,0,0:0:0:0:
64,192,233376,1,0,0:0:0:0:
448,192,233376,1,0,0:0:0:0:
320,192,233376,1,0,0:0:0:0:
192,192,233452,1,0,0:0:0:0:
320,192,233452,1,0,0:0:0:0:
448,192,233452,1,0,0:0:0:0:
64,192,233529,1,0,0:0:0:0:
320,192,233606,1,0,0:0:0:0:
448,192,233606,1,0,0:0:0:0:
192,192,233606,1,0,0:0:0:0:
64,192,233683,1,0,0:0:0:0:
448,192,233760,1,0,0:0:0:0:
320,192,233760,1,0,0:0:0:0:
192,192,233760,1,0,0:0:0:0:
64,192,233837,1,0,0:0:0:0:
448,192,233914,1,0,0:0:0:0:
192,192,233914,1,0,0:0:0:0:
320,192,233991,1,0,0:0:0:0:
64,192,233991,1,0,0:0:0:0:
448,192,234068,1,0,0:0:0:0:
64,192,234145,1,0,0:0:0:0:
320,192,234145,1,0,0:0:0:0:
192,192,234145,1,0,0:0:0:0:
448,192,234222,1,0,0:0:0:0:
320,192,234222,1,0,0:0:0:0:
64,192,234299,1,0,0:0:0:0:
448,192,234376,1,0,0:0:0:0:
320,192,234376,1,0,0:0:0:0:
192,192,234376,1,0,0:0:0:0:
64,192,234452,1,0,0:0:0:0:
192,192,234452,1,0,0:0:0:0:
320,192,234452,1,0,0:0:0:0:
448,192,234529,1,0,0:0:0:0:
64,192,234606,1,0,0:0:0:0:
192,192,234606,1,0,0:0:0:0:
320,192,234606,1,0,0:0:0:0:
448,192,234683,1,0,0:0:0:0:
320,192,234683,1,0,0:0:0:0:
64,192,234683,1,0,0:0:0:0:
192,192,234760,1,0,0:0:0:0:
448,192,234837,1,0,0:0:0:0:
320,192,234837,1,0,0:0:0:0:
64,192,234837,1,0,0:0:0:0:
192,192,234914,1,0,0:0:0:0:
448,192,234991,1,0,0:0:0:0:
64,192,234991,1,0,0:0:0:0:
320,192,234991,1,0,0:0:0:0:
192,192,235068,1,0,0:0:0:0:
64,192,235145,1,0,0:0:0:0:
320,192,235145,1,0,0:0:0:0:
448,192,235145,1,0,0:0:0:0:
448,192,235222,1,0,0:0:0:0:
192,192,235222,1,0,0:0:0:0:
320,192,235299,1,0,0:0:0:0:
64,192,235376,1,0,0:0:0:0:
448,192,235376,1,0,0:0:0:0:
192,192,235376,1,0,0:0:0:0:
320,192,235452,1,0,0:0:0:0:
64,192,235452,1,0,0:0:0:0:
448,192,235529,1,0,0:0:0:0:
320,192,235606,1,0,0:0:0:0:
64,192,235606,1,0,0:0:0:0:
192,192,235606,1,0,0:0:0:0:
448,192,235683,1,0,0:0:0:0:
192,192,235683,1,0,0:0:0:0:
64,192,235683,1,0,0:0:0:0:
320,192,235760,1,0,0:0:0:0:
192,192,235837,1,0,0:0:0:0:
64,192,235837,1,0,0:0:0:0:
448,192,235837,1,0,0:0:0:0:
320,192,235876,1,0,0:0:0:0:
64,192,235914,1,0,0:0:0:0:
192,192,235952,1,0,0:0:0:0:
448,192,235991,1,0,0:0:0:0:
320,192,236029,1,0,0:0:0:0:
192,192,236068,1,0,0:0:0:0:
64,192,236068,1,0,0:0:0:0:
448,192,236145,1,0,0:0:0:0:
320,192,236222,1,0,0:0:0:0:
192,192,236222,1,0,0:0:0:0:
64,192,236222,1,0,0:0:0:0:
448,192,236299,1,0,0:0:0:0:
320,192,236376,1,0,0:0:0:0:
192,192,236376,1,0,0:0:0:0:
64,192,236376,1,0,0:0:0:0:
64,192,236452,1,0,0:0:0:0:
448,192,236452,1,0,0:0:0:0:
320,192,236529,1,0,0:0:0:0:
448,192,236606,1,0,0:0:0:0:
192,192,236606,1,0,0:0:0:0:
64,192,236606,1,0,0:0:0:0:
320,192,236683,1,0,0:0:0:0:
64,192,236683,1,0,0:0:0:0:
448,192,236760,1,0,0:0:0:0:
320,192,236837,1,0,0:0:0:0:
192,192,236837,1,0,0:0:0:0:
64,192,236837,1,0,0:0:0:0:
448,192,236914,1,0,0:0:0:0:
192,192,236914,1,0,0:0:0:0:
64,192,236914,1,0,0:0:0:0:
320,192,236991,1,0,0:0:0:0:
64,192,237068,1,0,0:0:0:0:
192,192,237068,1,0,0:0:0:0:
448,192,237068,1,0,0:0:0:0:
320,192,237145,1,0,0:0:0:0:
192,192,237145,1,0,0:0:0:0:
64,192,237145,1,0,0:0:0:0:
448,192,237222,1,0,0:0:0:0:
320,192,237299,1,0,0:0:0:0:
192,192,237299,1,0,0:0:0:0:
64,192,237299,1,0,0:0:0:0:
448,192,237376,1,0,0:0:0:0:
320,192,237452,1,0,0:0:0:0:
192,192,237452,1,0,0:0:0:0:
64,192,237452,1,0,0:0:0:0:
448,192,237529,1,0,0:0:0:0:
320,192,237606,1,0,0:0:0:0:
64,192,237606,1,0,0:0:0:0:
192,192,237683,1,0,0:0:0:0:
448,192,237683,1,0,0:0:0:0:
320,192,237760,1,0,0:0:0:0:
192,192,237837,1,0,0:0:0:0:
448,192,237837,1,0,0:0:0:0:
64,192,237837,1,0,0:0:0:0:
320,192,237914,1,0,0:0:0:0:
64,192,237914,1,0,0:0:0:0:
192,192,237991,1,0,0:0:0:0:
320,192,238068,1,0,0:0:0:0:
448,192,238068,1,0,0:0:0:0:
64,192,238068,1,0,0:0:0:0:
192,192,238145,1,0,0:0:0:0:
448,192,238145,1,0,0:0:0:0:
64,192,238222,1,0,0:0:0:0:
192,192,238299,1,0,0:0:0:0:
448,192,238299,1,0,0:0:0:0:
320,192,238299,1,0,0:0:0:0:
64,192,238376,1,0,0:0:0:0:
320,192,238376,1,0,0:0:0:0:
448,192,238376,1,0,0:0:0:0:
192,192,238452,1,0,0:0:0:0:
448,192,238529,1,0,0:0:0:0:
64,192,238529,1,0,0:0:0:0:
320,192,238529,1,0,0:0:0:0:
192,192,238606,1,0,0:0:0:0:
320,192,238683,1,0,0:0:0:0:
448,192,238683,1,0,0:0:0:0:
64,192,238683,1,0,0:0:0:0:
192,192,238760,1,0,0:0:0:0:
448,192,238837,1,0,0:0:0:0:
64,192,238837,1,0,0:0:0:0:
320,192,238914,1,0,0:0:0:0:
192,192,238914,1,0,0:0:0:0:
64,192,238991,1,0,0:0:0:0:
448,192,238991,1,0,0:0:0:0:
320,192,239068,1,0,0:0:0:0:
192,192,239068,1,0,0:0:0:0:
192,192,239145,1,0,0:0:0:0:
64,192,239145,1,0,0:0:0:0:
448,192,239222,1,0,0:0:0:0:
192,192,239299,1,0,0:0:0:0:
320,192,239299,1,0,0:0:0:0:
64,192,239299,1,0,0:0:0:0:
448,192,239376,1,0,0:0:0:0:
192,192,239376,1,0,0:0:0:0:
64,192,239376,1,0,0:0:0:0:
320,192,239452,1,0,0:0:0:0:
192,192,239529,1,0,0:0:0:0:
64,192,239529,1,0,0:0:0:0:
448,192,239529,1,0,0:0:0:0:
320,192,239606,1,0,0:0:0:0:
64,192,239606,1,0,0:0:0:0:
192,192,239683,1,0,0:0:0:0:
320,192,239760,1,0,0:0:0:0:
64,192,239760,1,0,0:0:0:0:
448,192,239760,1,0,0:0:0:0:
192,192,239837,1,0,0:0:0:0:
64,192,239914,1,0,0:0:0:0:
320,192,239914,1,0,0:0:0:0:
448,192,239914,1,0,0:0:0:0:
192,192,239991,1,0,0:0:0:0:
320,192,240068,1,0,0:0:0:0:
448,192,240068,1,0,0:0:0:0:
64,192,240068,1,0,0:0:0:0:
192,192,240145,1,0,0:0:0:0:
320,192,240222,1,0,0:0:0:0:
448,192,240222,1,0,0:0:0:0:
192,192,240299,1,0,0:0:0:0:
64,192,240299,1,0,0:0:0:0:
320,192,240376,1,0,0:0:0:0:
448,192,240376,1,0,0:0:0:0:
64,192,240376,1,0,0:0:0:0:
192,192,240452,1,0,0:0:0:0:
64,192,240529,1,0,0:0:0:0:
320,192,240529,1,0,0:0:0:0:
448,192,240529,1,0,0:0:0:0:
192,192,240606,1,0,0:0:0:0:
448,192,240606,1,0,0:0:0:0:
320,192,240683,1,0,0:0:0:0:
64,192,240683,1,0,0:0:0:0:
192,192,240760,1,0,0:0:0:0:
448,192,240760,1,0,0:0:0:0:
64,192,240799,1,0,0:0:0:0:
320,192,240837,1,0,0:0:0:0:
448,192,240876,1,0,0:0:0:0:
192,192,240914,1,0,0:0:0:0:
64,192,240952,1,0,0:0:0:0:
320,192,240991,1,0,0:0:0:0:
448,192,240991,1,0,0:0:0:0:
192,192,241068,1,0,0:0:0:0:
64,192,241068,1,0,0:0:0:0:
320,192,241145,1,0,0:0:0:0:
448,192,241145,1,0,0:0:0:0:
192,192,241222,1,0,0:0:0:0:
64,192,241222,1,0,0:0:0:0:
448,192,241299,1,0,0:0:0:0:
320,192,241318,1,0,0:0:0:0:
192,192,241337,1,0,0:0:0:0:
64,192,241350,1,0,0:0:0:0:
320,192,241376,1,0,0:0:0:0:
192,192,241395,1,0,0:0:0:0:
448,192,241414,1,0,0:0:0:0:
64,192,241452,1,0,0:0:0:0:
320,192,241491,1,0,0:0:0:0:
448,192,241529,1,0,0:0:0:0:
64,192,241606,128,0,242529:0:0:0:0:
320,192,241606,128,0,245606:0:0:0:0:
192,192,241606,128,0,243760:0:0:0:0:
448,192,243760,128,0,246164:0:0:0:0:
448,192,246222,1,0,0:0:0:0:
