osu file format v14

[General]
AudioFilename: audio.mp3
AudioLeadIn: 0
PreviewTime: 1202
Countdown: 0
SampleSet: Normal
StackLeniency: 0.7
Mode: 3
LetterboxInBreaks: 0
SpecialStyle: 0
WidescreenStoryboard: 1

[Editor]
DistanceSpacing: 0.8
BeatDivisor: 4
GridSize: 4
TimelineZoom: 2.899999

[Metadata]
Title:Azalea
TitleUnicode:Azalea
Artist:xi
ArtistUnicode:xi
Creator:LostCool
Version:Finale
Source:PLEiADES - BlackY's BEATFLOOR
Tags:BlackY xi ハードルネッサンス
BeatmapID:1830287
BeatmapSetID:875838

[Difficulty]
HPDrainRate:9
CircleSize:4
OverallDifficulty:8.5
ApproachRate:5
SliderMultiplier:1.4
SliderTickRate:1

[Events]
//Background and Video events
0,0,"azaleabg16-9.jpg",0,0
//Break Periods
//Storyboard Layer 0 (Background)
//Storyboard Layer 1 (Fail)
//Storyboard Layer 2 (Pass)
//Storyboard Layer 3 (Foreground)
//Storyboard Sound Samples

[TimingPoints]
2433,615.384615384615,4,1,0,26,1,0
3048,-99.009900990099,4,1,0,26,0,0
3663,-98.0392156862745,4,1,0,26,0,0
4279,-97.0873786407767,4,1,0,26,0,0
4894,-96.1538461538461,4,1,0,26,0,0
5509,-95.2380952380952,4,1,0,26,0,0
6125,-94.3396226415094,4,1,0,26,0,0
6432,-93.4579439252336,4,1,0,26,0,0
6740,-92.5925925925926,4,1,0,26,0,0
7048,-91.743119266055,4,1,0,26,0,0
7356,559.440559440559,4,1,0,26,1,0
7356,-100,4,1,0,26,0,0
7775,-99.009900990099,4,1,0,26,0,0
8195,-98.0392156862745,4,1,0,26,0,0
8614,-97.0873786407767,4,1,0,26,0,0
9034,-96.1538461538461,4,1,0,26,0,0
9453,-95.2380952380952,4,1,0,26,0,0
9873,-94.3396226415094,4,1,0,26,0,0
10293,-93.4579439252336,4,1,0,26,0,0
10712,-92.5925925925926,4,1,0,26,0,0
11272,-91.743119266055,4,1,0,26,0,0
11831,512.820512820513,4,1,0,26,1,0
11831,-100,4,1,0,26,0,0
12172,-99.009900990099,4,1,0,26,0,0
12514,-98.0392156862745,4,1,0,26,0,0
12856,-97.0873786407767,4,1,0,26,0,0
13198,-96.1538461538461,4,1,0,26,0,0
13540,-95.2380952380952,4,1,0,26,0,0
13882,-94.3396226415094,4,1,0,26,0,0
13882,-93.4579439252336,4,1,0,26,0,0
14138,-92.5925925925926,4,1,0,26,0,0
14395,-91.743119266055,4,1,0,26,0,0
14651,-90.9090909090909,4,1,0,26,0,0
14907,-90.0900900900901,4,1,0,26,0,0
15078,-89.2857142857143,4,1,0,26,0,0
15249,-88.4955752212389,4,1,0,26,0,0
15420,-87.719298245614,4,1,0,26,0,0
15591,-86.9565217391304,4,1,0,26,0,0
15762,-86.2068965517241,4,1,0,26,0,0
15933,439.56043956044,4,1,0,26,1,0
15933,-100,4,1,0,26,0,0
16262,-99.009900990099,4,1,0,26,0,0
16592,-98.0392156862745,4,1,0,26,0,0
16922,-97.0873786407767,4,1,0,26,0,0
17251,-96.1538461538461,4,1,0,26,0,0
17544,-95.2380952380952,4,1,0,26,0,0
17837,-94.3396226415094,4,1,0,26,0,0
18130,-93.4579439252336,4,1,0,26,0,0
18350,-92.5925925925926,4,1,0,26,0,0
18570,-91.743119266055,4,1,0,26,0,0
18716,-90.9090909090909,4,1,0,26,0,0
18863,-90.0900900900901,4,1,0,26,0,0
19009,-89.2857142857143,4,1,0,26,0,0
19156,-88.4955752212389,4,1,0,26,0,0
19302,-87.719298245614,4,1,0,26,0,0
19449,384.615384615385,4,1,0,26,1,0
19449,-100,4,1,0,26,0,0
19641,-99.009900990099,4,1,0,26,0,0
19833,-98.0392156862745,4,1,0,26,0,0
19961,-97.0873786407767,4,1,0,26,0,0
20090,-96.1538461538461,4,1,0,26,0,0
20218,-95.2380952380952,4,1,0,26,0,0
20314,-94.3396226415094,4,1,0,26,0,0
20410,-93.4579439252336,4,1,0,26,0,0
20506,-92.5925925925926,4,1,0,26,0,0
20602,-91.743119266055,4,1,0,26,0,0
20699,-90.9090909090909,4,1,0,26,0,0
20795,-90.0900900900901,4,1,0,26,0,0
20891,-89.2857142857143,4,1,0,26,0,0
20987,341.880341880342,4,1,0,26,1,0
20987,-100,4,1,0,26,0,0
21100,-99.009900990099,4,1,0,26,0,0
21214,-98.0392156862745,4,1,0,26,0,0
21328,-97.0873786407767,4,1,0,26,0,0
21442,-96.1538461538461,4,1,0,26,0,0
21556,-95.2380952380952,4,1,0,26,0,0
21670,-94.3396226415094,4,1,0,26,0,0
21784,-93.4579439252336,4,1,0,26,0,0
21898,-92.5925925925926,4,1,0,26,0,0
22012,-91.743119266055,4,1,0,26,0,0
22126,-90.9090909090909,4,1,0,26,0,0
22240,-90.0900900900901,4,1,0,26,0,0
22354,307.692307692308,4,1,0,26,1,0
22354,-100,4,1,0,26,0,0
23584,279.72027972028,4,1,0,26,1,0
23584,-109.89010989011,4,1,0,26,0,0
24706,256.410256410256,4,1,0,26,1,0
24706,-119.047619047619,4,1,0,26,0,0
25731,236.686390532544,4,1,0,26,1,0
25731,-128.205128205128,4,1,0,26,0,0
26677,219.78021978022,4,1,0,26,1,0
26677,-136.986301369863,4,1,0,26,0,0
27556,205.128205128205,4,1,0,26,1,0
27556,-144.927536231884,4,1,0,26,0,0
28376,615.384615384615,4,1,0,26,1,0
28376,-10,4,1,0,26,0,0
28414,-11.1111111111111,4,1,0,26,0,0
28452,-12.5,4,1,0,26,0,0
28491,-14.2857142857143,4,1,0,26,0,0
28529,-16.6666666666667,4,1,0,26,0,0
28568,-20,4,1,0,26,0,0
28606,-25,4,1,0,26,0,0
28645,-33.3333333333333,4,1,0,26,0,0
28679,492.307692307692,4,1,0,26,1,0
28683,-50,4,1,0,26,0,0
28709,-66.6666666666667,4,1,0,26,0,0
28740,-71.4285714285714,4,1,0,26,0,0
28771,-76.9230769230769,4,1,0,26,0,0
28802,-80,4,1,0,26,0,0
28832,-83.3333333333333,4,1,0,26,0,0
28987,410.25641025641,4,1,0,26,1,0
28987,-100,4,1,0,26,0,0
29021,-98.0392156862745,4,1,0,26,0,0
29055,-96.1538461538461,4,1,0,26,0,0
29089,-94.3396226415094,4,1,0,26,0,0
29123,-92.5925925925926,4,1,0,26,0,0
29157,-90.9090909090909,4,1,0,26,0,0
29192,-89.2857142857143,4,1,0,26,0,0
29226,-87.719298245614,4,1,0,26,0,0
29260,-86.2068965517241,4,1,0,26,0,0
29294,307.692307692308,4,1,0,26,1,0
29294,-113.636363636364,4,1,0,26,0,0
29601,-111.111111111111,4,1,0,26,0,0
29909,-107.52688172043,4,1,0,26,0,0
30217,-105.263157894737,4,1,0,26,0,0
30524,-103.092783505155,4,1,0,26,0,0
31037,-102.040816326531,4,1,0,26,0,0
31550,-101.010101010101,4,1,0,26,0,0
32064,307.692307692308,4,1,0,26,1,0
32064,-100,4,1,0,26,0,0
52987,-102.040816326531,4,1,0,26,0,0
53006,-147.058823529412,4,1,0,26,0,0
53025,-106.382978723404,4,1,0,26,0,0
53044,-156.25,4,1,0,26,0,0
53064,-108.695652173913,4,1,0,26,0,0
53083,-161.290322580645,4,1,0,26,0,0
53102,-128.205128205128,4,1,0,26,0,0
53121,-172.413793103448,4,1,0,26,0,0
53140,-135.135135135135,4,1,0,26,0,0
53159,-185.185185185185,4,1,0,26,0,0
53179,-142.857142857143,4,1,0,26,0,0
53198,-200,4,1,0,26,0,0
53217,-166.666666666667,4,1,0,26,0,0
53237,-142.857142857143,4,1,0,26,0,0
53256,-125,4,1,0,26,0,0
53275,-111.111111111111,4,1,0,26,0,0
53294,-95.2380952380952,4,1,0,26,0,0
53525,-80,4,1,0,26,0,0
53544,-133.333333333333,4,1,0,26,0,0
53551,-111.111111111111,4,1,0,26,0,0
53564,-200,4,1,0,26,0,0
53576,-125,4,1,0,26,0,0
53602,-80,4,1,0,26,0,0
53621,-133.333333333333,4,1,0,26,0,0
53628,-111.111111111111,4,1,0,26,0,0
53641,-200,4,1,0,26,0,0
53653,-125,4,1,0,26,0,0
53679,-80,4,1,0,26,0,0
53698,-133.333333333333,4,1,0,26,0,0
53705,-111.111111111111,4,1,0,26,0,0
53718,-200,4,1,0,26,0,0
53730,-125,4,1,0,26,0,0
53756,-100,4,1,0,26,0,0
53910,-80,4,1,0,26,0,0
53929,-133.333333333333,4,1,0,26,0,0
53936,-111.111111111111,4,1,0,26,0,0
53949,-200,4,1,0,26,0,0
53961,-125,4,1,0,26,0,0
53987,-80,4,1,0,26,0,0
54006,-133.333333333333,4,1,0,26,0,0
54013,-111.111111111111,4,1,0,26,0,0
54026,-200,4,1,0,26,0,0
54038,-125,4,1,0,26,0,0
54064,-80,4,1,0,26,0,0
54083,-133.333333333333,4,1,0,26,0,0
54090,-111.111111111111,4,1,0,26,0,0
54103,-200,4,1,0,26,0,0
54115,-125,4,1,0,26,0,0
54140,-80,4,1,0,26,0,0
54159,-133.333333333333,4,1,0,26,0,0
54166,-111.111111111111,4,1,0,26,0,0
54179,-200,4,1,0,26,0,0
54191,-125,4,1,0,26,0,0
54217,-80,4,1,0,26,0,0
54236,-133.333333333333,4,1,0,26,0,0
54243,-111.111111111111,4,1,0,26,0,0
54256,-200,4,1,0,26,0,0
54268,-125,4,1,0,26,0,0
54294,-80,4,1,0,26,0,0
54313,-133.333333333333,4,1,0,26,0,0
54320,-111.111111111111,4,1,0,26,0,0
54333,-200,4,1,0,26,0,0
54345,-125,4,1,0,26,0,0
54371,-80,4,1,0,26,0,0
54390,-133.333333333333,4,1,0,26,0,0
54397,-111.111111111111,4,1,0,26,0,0
54410,-200,4,1,0,26,0,0
54422,-125,4,1,0,26,0,0
54448,-80,4,1,0,26,0,0
54467,-133.333333333333,4,1,0,26,0,0
54474,-111.111111111111,4,1,0,26,0,0
54487,-200,4,1,0,26,0,0
54499,-125,4,1,0,26,0,0
54525,-80,4,1,0,26,0,0
54544,-133.333333333333,4,1,0,26,0,0
54551,-111.111111111111,4,1,0,26,0,0
54564,-200,4,1,0,26,0,0
54576,-125,4,1,0,26,0,0
54602,-80,4,1,0,26,0,0
54621,-133.333333333333,4,1,0,26,0,0
54628,-111.111111111111,4,1,0,26,0,0
54641,-200,4,1,0,26,0,0
54653,-125,4,1,0,26,0,0
54679,-80,4,1,0,26,0,0
54698,-133.333333333333,4,1,0,26,0,0
54705,-111.111111111111,4,1,0,26,0,0
54718,-200,4,1,0,26,0,0
54730,-125,4,1,0,26,0,0
54756,-80,4,1,0,26,0,0
54775,-133.333333333333,4,1,0,26,0,0
54782,-111.111111111111,4,1,0,26,0,0
54795,-200,4,1,0,26,0,0
54807,-125,4,1,0,26,0,0
54833,-80,4,1,0,26,0,0
54852,-133.333333333333,4,1,0,26,0,0
54859,-111.111111111111,4,1,0,26,0,0
54872,-200,4,1,0,26,0,0
54884,-125,4,1,0,26,0,0
54910,-80,4,1,0,26,0,0
54929,-133.333333333333,4,1,0,26,0,0
54936,-111.111111111111,4,1,0,26,0,0
54949,-200,4,1,0,26,0,0
54961,-125,4,1,0,26,0,0
54987,-100,4,1,0,26,0,0
55140,-66.6666666666667,4,1,0,26,0,0
55179,-125,4,1,0,26,0,0
55198,-101.010101010101,4,1,0,26,0,0
55217,-71.4285714285714,4,1,0,26,0,0
55256,-166.666666666667,4,1,0,26,0,0
55275,-113.636363636364,4,1,0,26,0,0
55294,-76.9230769230769,4,1,0,26,0,0
55333,-250,4,1,0,26,0,0
55352,-129.87012987013,4,1,0,26,0,0
55371,-83.3333333333333,4,1,0,26,0,0
55410,-500,4,1,0,26,0,0
55429,-151.515151515152,4,1,0,26,0,0
55448,-66.6666666666667,4,1,0,26,0,0
55467,-133.333333333333,4,1,0,26,0,0
55474,-114.942528735632,4,1,0,26,0,0
55487,-100,4,1,0,26,0,0
71140,-133.333333333333,4,1,0,26,0,0
71198,-80,4,1,0,26,0,0
71294,-133.333333333333,4,1,0,26,0,0
71352,-80,4,1,0,26,0,0
71448,-100,4,1,0,26,0,0
72371,-133.333333333333,4,1,0,26,0,0
72448,-66.6666666666667,4,1,0,26,0,0
72525,-133.333333333333,4,1,0,26,0,0
72602,-66.6666666666667,4,1,0,26,0,0
72679,-100,4,1,0,26,0,0
83756,-133.333333333333,4,1,0,26,0,0
83833,-66.6666666666667,4,1,0,26,0,0
83910,-100,4,1,0,26,0,0
84064,-133.333333333333,4,1,0,26,0,0
84141,-66.6666666666667,4,1,0,26,0,0
84218,-100,4,1,0,26,0,0
84371,-133.333333333333,4,1,0,26,0,0
84448,-66.6666666666667,4,1,0,26,0,0
84525,-100,4,1,0,26,0,0
94833,-181.818181818182,4,1,0,26,0,0
95756,-166.666666666667,4,1,0,26,0,0
95910,-153.846153846154,4,1,0,26,0,0
96064,-142.857142857143,4,1,0,26,0,0
96371,-138.888888888889,4,1,0,26,0,0
96679,-135.135135135135,4,1,0,26,0,0
96987,-131.578947368421,4,1,0,26,0,0
97294,-128.205128205128,4,1,0,26,0,0
97602,-125,4,1,0,26,0,0
97910,-121.951219512195,4,1,0,26,0,0
98217,-119.047619047619,4,1,0,26,0,0
98525,-116.279069767442,4,1,0,26,0,0
98833,-113.636363636364,4,1,0,26,0,0
99140,-111.111111111111,4,1,0,26,0,0
99448,-108.695652173913,4,1,0,26,0,0
99756,-106.382978723404,4,1,0,26,0,0
100064,-104.166666666667,4,1,0,26,0,0
100371,-102.040816326531,4,1,0,26,0,0
100679,-101.010101010101,4,1,0,26,0,0
100987,-100,4,1,0,26,0,0
104679,-133.333333333333,4,1,0,26,0,0
104756,-66.6666666666667,4,1,0,26,0,0
104833,-100,4,1,0,26,0,0
104987,-133.333333333333,4,1,0,26,0,0
105064,-66.6666666666667,4,1,0,26,0,0
105141,-100,4,1,0,26,0,0
105294,-133.333333333333,4,1,0,26,0,0
105371,-66.6666666666667,4,1,0,26,0,0
105448,-100,4,1,0,26,0,0
105910,-133.333333333333,4,1,0,26,0,0
105987,-66.6666666666667,4,1,0,26,0,0
106064,-100,4,1,0,26,0,0
107140,-80,4,1,0,26,0,0
107217,-133.333333333333,4,1,0,26,0,0
107294,-100,4,1,0,26,0,0
107448,-80,4,1,0,26,0,0
107525,-133.333333333333,4,1,0,26,0,0
107602,-100,4,1,0,26,0,0
107910,-133.333333333333,4,1,0,26,0,0
107987,-80,4,1,0,26,0,0
108064,-133.333333333333,4,1,0,26,0,0
108140,-80,4,1,0,26,0,0
108217,-133.333333333333,4,1,0,26,0,0
108294,-80,4,1,0,26,0,0
108371,-100,4,1,0,26,0,0
108679,-80,4,1,0,26,0,0
108756,-133.333333333333,4,1,0,26,0,0
108833,-100,4,1,0,26,0,0
109602,-133.333333333333,4,1,0,26,0,0
109679,-80,4,1,0,26,0,0
109756,-100,4,1,0,26,0,0
109910,-80,4,1,0,26,0,0
109987,-133.333333333333,4,1,0,26,0,0
110064,-80,4,1,0,26,0,0
110140,-133.333333333333,4,1,0,26,0,0
110217,-100,4,1,0,26,0,0
121602,-66.6666666666667,4,1,0,26,0,0
121679,-133.333333333333,4,1,0,26,0,0
121756,-66.6666666666667,4,1,0,26,0,0
121833,-133.333333333333,4,1,0,26,0,0
121910,-100,4,1,0,26,0,0
121929,-80,4,1,0,26,0,0
121948,-117.647058823529,4,1,0,26,0,0
121967,-66.6666666666667,4,1,0,26,0,0
121987,-133.333333333333,4,1,0,26,0,0
122064,-200,4,1,0,26,0,0
122140,-57.1428571428571,4,1,0,26,0,0
122217,-100,4,1,0,26,0,0
122525,-100,4,1,0,26,0,0
122544,-80,4,1,0,26,0,0
122563,-117.647058823529,4,1,0,26,0,0
122582,-66.6666666666667,4,1,0,26,0,0
122602,-133.333333333333,4,1,0,26,0,0
122679,-200,4,1,0,26,0,0
122755,-57.1428571428571,4,1,0,26,0,0
122832,-100,4,1,0,26,0,0
123140,-100,4,1,0,26,0,0
123159,-80,4,1,0,26,0,0
123178,-117.647058823529,4,1,0,26,0,0
123197,-66.6666666666667,4,1,0,26,0,0
123217,-133.333333333333,4,1,0,26,0,0
123294,-200,4,1,0,26,0,0
123370,-57.1428571428571,4,1,0,26,0,0
123447,-100,4,1,0,26,0,0
123756,-100,4,1,0,26,0,0
123775,-80,4,1,0,26,0,0
123794,-117.647058823529,4,1,0,26,0,0
123813,-66.6666666666667,4,1,0,26,0,0
123833,-133.333333333333,4,1,0,26,0,0
123910,-200,4,1,0,26,0,0
123986,-57.1428571428571,4,1,0,26,0,0
124063,-100,4,1,0,26,0,0
125602,-133.333333333333,4,1,0,26,0,0
125679,-66.6666666666667,4,1,0,26,0,0
125756,-100,4,1,0,26,0,0
125910,-133.333333333333,4,1,0,26,0,0
125987,-66.6666666666667,4,1,0,26,0,0
126064,-100,4,1,0,26,0,0
126833,-133.333333333333,4,1,0,26,0,0
126910,-80,4,1,0,26,0,0
126987,-100,4,1,0,26,0,0
127448,-133.333333333333,4,1,0,26,0,0
127525,-80,4,1,0,26,0,0
127602,-100,4,1,0,26,0,0
131910,-200,4,1,0,26,0,0
132025,-40,4,1,0,26,0,0
132064,-100,4,1,0,26,0,0
132525,-200,4,1,0,26,0,0
132640,-40,4,1,0,26,0,0
132679,-100,4,1,0,26,0,0
133140,-200,4,1,0,26,0,0
133255,-40,4,1,0,26,0,0
133294,-100,4,1,0,26,0,0
133756,-200,4,1,0,26,0,0
133871,-40,4,1,0,26,0,0
133910,-100,4,1,0,26,0,0
134371,-200,4,1,0,26,0,0
134486,-40,4,1,0,26,0,0
134525,-100,4,1,0,26,0,0
134987,-200,4,1,0,26,0,0
135102,-40,4,1,0,26,0,0
135141,-100,4,1,0,26,0,0
135448,-66.6666666666667,4,1,0,26,0,0
135487,-133.333333333333,4,1,0,26,0,0
135564,-100,4,1,0,26,0,0
135756,-66.6666666666667,4,1,0,26,0,0
135795,-133.333333333333,4,1,0,26,0,0
135872,-100,4,1,0,26,0,0
136064,-80,4,1,0,26,0,0
136179,-133.333333333333,4,1,0,26,0,0
136294,-80,4,1,0,26,0,0
136410,-133.333333333333,4,1,0,26,0,0
136525,-74.0740740740741,4,1,0,26,0,0
136564,-125,4,1,0,26,0,0
136602,-74.0740740740741,4,1,0,26,0,0
136641,-125,4,1,0,26,0,0
136679,-100,4,1,0,26,0,0
152217,-133.333333333333,4,1,0,26,0,0
152256,-80,4,1,0,26,0,0
152294,-133.333333333333,4,1,0,26,0,0
152333,-80,4,1,0,26,0,0
152371,-133.333333333333,4,1,0,26,0,0
152410,-80,4,1,0,26,0,0
152448,-133.333333333333,4,1,0,26,0,0
152487,-80,4,1,0,26,0,0
152525,-133.333333333333,4,1,0,26,0,0
152564,-80,4,1,0,26,0,0
152602,-133.333333333333,4,1,0,26,0,0
152641,-80,4,1,0,26,0,0
152679,-200,4,1,0,26,0,0
152717,-66.6666666666667,4,1,0,26,0,0
152756,-100,4,1,0,26,0,0
154910,-200,4,1,0,26,0,0
154948,-66.6666666666667,4,1,0,26,0,0
154987,-100,4,1,0,26,0,0
155064,-200,4,1,0,26,0,0
155102,-66.6666666666667,4,1,0,26,0,0
155140,-100,4,1,0,26,0,0
155679,-200,4,1,0,26,0,0
155717,-66.6666666666667,4,1,0,26,0,0
155755,-100,4,1,0,26,0,0
156294,-200,4,1,0,26,0,0
156332,-66.6666666666667,4,1,0,26,0,0
156370,-100,4,1,0,26,0,0
156602,-200,4,1,0,26,0,0
156640,-66.6666666666667,4,1,0,26,0,0
156678,-100,4,1,0,26,0,0
156910,-200,4,1,0,26,0,0
156948,-66.6666666666667,4,1,0,26,0,0
156986,-100,4,1,0,26,0,0
157140,-200,4,1,0,26,0,0
157178,-66.6666666666667,4,1,0,26,0,0
157216,-100,4,1,0,26,0,0
157448,-200,4,1,0,26,0,0
157486,-66.6666666666667,4,1,0,26,0,0
157524,-100,4,1,0,26,0,0
157602,-200,4,1,0,26,0,0
157640,-66.6666666666667,4,1,0,26,0,0
157678,-100,4,1,0,26,0,0
157910,-200,4,1,0,26,0,0
157948,-66.6666666666667,4,1,0,26,0,0
157986,-100,4,1,0,26,0,0
158217,-200,4,1,0,26,0,0
158255,-66.6666666666667,4,1,0,26,0,0
158293,-100,4,1,0,26,0,0
158525,-200,4,1,0,26,0,0
158563,-66.6666666666667,4,1,0,26,0,0
158601,-100,4,1,0,26,0,0
158833,-200,4,1,0,26,0,0
158871,-66.6666666666667,4,1,0,26,0,0
158909,-100,4,1,0,26,0,0
159140,-200,4,1,0,26,0,0
159178,-66.6666666666667,4,1,0,26,0,0
159216,-100,4,1,0,26,0,0
159448,-200,4,1,0,26,0,0
159486,-66.6666666666667,4,1,0,26,0,0
159524,-100,4,1,0,26,0,0
159756,-200,4,1,0,26,0,0
159794,-66.6666666666667,4,1,0,26,0,0
159832,-100,4,1,0,26,0,0
159910,-200,4,1,0,26,0,0
159948,-66.6666666666667,4,1,0,26,0,0
159986,-100,4,1,0,26,0,0
160064,-80,4,1,0,26,0,0
160103,-133.333333333333,4,1,0,26,0,0
160141,-80,4,1,0,26,0,0
160180,-133.333333333333,4,1,0,26,0,0
160218,-80,4,1,0,26,0,0
160257,-133.333333333333,4,1,0,26,0,0
160294,-80,4,1,0,26,0,0
160333,-133.333333333333,4,1,0,26,0,0
160371,-80,4,1,0,26,0,0
160410,-133.333333333333,4,1,0,26,0,0
160448,-80,4,1,0,26,0,0
160487,-133.333333333333,4,1,0,26,0,0
160525,-80,4,1,0,26,0,0
160564,-133.333333333333,4,1,0,26,0,0
160602,-80,4,1,0,26,0,0
160641,-133.333333333333,4,1,0,26,0,0
160679,-80,4,1,0,26,0,0
160718,-133.333333333333,4,1,0,26,0,0
160756,-80,4,1,0,26,0,0
160795,-133.333333333333,4,1,0,26,0,0
160833,-80,4,1,0,26,0,0
160872,-133.333333333333,4,1,0,26,0,0
160909,-80,4,1,0,26,0,0
160948,-133.333333333333,4,1,0,26,0,0
160986,-80,4,1,0,26,0,0
161025,-133.333333333333,4,1,0,26,0,0
161063,-80,4,1,0,26,0,0
161102,-133.333333333333,4,1,0,26,0,0
161140,-80,4,1,0,26,0,0
161179,-133.333333333333,4,1,0,26,0,0
161217,-80,4,1,0,26,0,0
161256,-133.333333333333,4,1,0,26,0,0
161294,-80,4,1,0,26,0,0
161333,-133.333333333333,4,1,0,26,0,0
161371,-80,4,1,0,26,0,0
161410,-133.333333333333,4,1,0,26,0,0
161448,-80,4,1,0,26,0,0
161467,-133.333333333333,4,1,0,26,0,0
161487,-80,4,1,0,26,0,0
161506,-133.333333333333,4,1,0,26,0,0
161525,-80,4,1,0,26,0,0
161544,-133.333333333333,4,1,0,26,0,0
161564,-80,4,1,0,26,0,0
161583,-133.333333333333,4,1,0,26,0,0
161602,-133.333333333333,4,1,0,26,0,0
161640,-80,4,1,0,26,0,0
161679,-133.333333333333,4,1,0,26,0,0
161717,-80,4,1,0,26,0,0
161756,-80,4,1,0,26,0,0
161775,-133.333333333333,4,1,0,26,0,0
161795,-80,4,1,0,26,0,0
161814,-133.333333333333,4,1,0,26,0,0
161833,-80,4,1,0,26,0,0
161852,-133.333333333333,4,1,0,26,0,0
161872,-80,4,1,0,26,0,0
161891,-133.333333333333,4,1,0,26,0,0
161910,-80,4,1,0,26,0,0
161949,-133.333333333333,4,1,0,26,0,0
161987,-80,4,1,0,26,0,0
162026,-133.333333333333,4,1,0,26,0,0
162064,-80,4,1,0,26,0,0
162103,-133.333333333333,4,1,0,26,0,0
162140,-80,4,1,0,26,0,0
162179,-133.333333333333,4,1,0,26,0,0
162217,-80,4,1,0,26,0,0
162256,-133.333333333333,4,1,0,26,0,0
162294,-80,4,1,0,26,0,0
162333,-133.333333333333,4,1,0,26,0,0
162371,-80,4,1,0,26,0,0
162410,-133.333333333333,4,1,0,26,0,0
162448,-80,4,1,0,26,0,0
162487,-133.333333333333,4,1,0,26,0,0
162525,-100,4,1,0,26,0,0
172371,-100,4,1,0,26,0,0
172410,-101.010101010101,4,1,0,26,0,0
172448,-102.040816326531,4,1,0,26,0,0
172487,-103.092783505155,4,1,0,26,0,0
172525,-104.166666666667,4,1,0,26,0,0
172564,-105.263157894737,4,1,0,26,0,0
172602,-106.382978723404,4,1,0,26,0,0
172640,-107.52688172043,4,1,0,26,0,0
172679,-108.695652173913,4,1,0,26,0,0
172717,-109.89010989011,4,1,0,26,0,0
172756,-111.111111111111,4,1,0,26,0,0
172987,-112.359550561798,4,1,0,26,0,0
173025,-113.636363636364,4,1,0,26,0,0
173064,-114.942528735632,4,1,0,26,0,0
173102,-116.279069767442,4,1,0,26,0,0
173141,-117.64705882353,4,1,0,26,0,0
173179,-119.047619047619,4,1,0,26,0,0
173217,-120.481927710843,4,1,0,26,0,0
173256,-121.951219512195,4,1,0,26,0,0
173294,-123.456790123457,4,1,0,26,0,0
173333,-125,4,1,0,26,0,0
173602,-126.582278481013,4,1,0,26,0,0
173807,-128.205128205128,4,1,0,26,0,0
174012,-129.87012987013,4,1,0,26,0,0
174217,-131.578947368421,4,1,0,26,0,0
174422,-133.333333333333,4,1,0,26,0,0
174833,-135.135135135135,4,1,0,26,0,0
175038,-136.986301369863,4,1,0,26,0,0
175243,-138.888888888889,4,1,0,26,0,0
175448,-140.845070422535,4,1,0,26,0,0
175653,-142.857142857143,4,1,0,26,0,0
176166,-140.845070422535,4,1,0,26,0,0
176269,-138.888888888889,4,1,0,26,0,0
176371,-136.986301369863,4,1,0,26,0,0
176474,-135.135135135135,4,1,0,26,0,0
176576,-133.333333333333,4,1,0,26,0,0
176679,-131.578947368421,4,1,0,26,0,0
176756,-129.87012987013,4,1,0,26,0,0
176833,-128.205128205128,4,1,0,26,0,0
176910,-126.582278481013,4,1,0,26,0,0
176987,-125,4,1,0,26,0,0
177064,-123.456790123457,4,1,0,26,0,0
177140,-121.951219512195,4,1,0,26,0,0
177217,-120.481927710843,4,1,0,26,0,0
177294,-119.047619047619,4,1,0,26,0,0
177333,-117.647058823529,4,1,0,26,0,0
177371,-116.279069767442,4,1,0,26,0,0
177410,-114.942528735632,4,1,0,26,0,0
177448,-113.636363636364,4,1,0,26,0,0
177487,-112.359550561798,4,1,0,26,0,0
177525,-111.111111111111,4,1,0,26,0,0
177564,-109.89010989011,4,1,0,26,0,0
177602,-108.695652173913,4,1,0,26,0,0
177640,-107.52688172043,4,1,0,26,0,0
177679,-106.382978723404,4,1,0,26,0,0
177717,-105.263157894737,4,1,0,26,0,0
177756,-104.166666666667,4,1,0,26,0,0
177794,-103.092783505155,4,1,0,26,0,0
177833,-102.040816326531,4,1,0,26,0,0
177871,-101.010101010101,4,1,0,26,0,0
177910,-100,4,1,0,26,0,0
179448,-80,4,1,0,26,0,0
179487,-133.333333333333,4,1,0,26,0,0
179525,-80,4,1,0,26,0,0
179564,-133.333333333333,4,1,0,26,0,0
179602,-80,4,1,0,26,0,0
179641,-133.333333333333,4,1,0,26,0,0
179679,-80,4,1,0,26,0,0
179718,-133.333333333333,4,1,0,26,0,0
179756,-100,4,1,0,26,0,0
180371,-80,4,1,0,26,0,0
180410,-133.333333333333,4,1,0,26,0,0
180448,-80,4,1,0,26,0,0
180487,-133.333333333333,4,1,0,26,0,0
180525,-80,4,1,0,26,0,0
180564,-133.333333333333,4,1,0,26,0,0
180602,-80,4,1,0,26,0,0
180641,-133.333333333333,4,1,0,26,0,0
180679,-100,4,1,0,26,0,0
199448,-200,4,1,0,26,0,0
199524,-66.6666666666667,4,1,0,26,0,0
199601,-100,4,1,0,26,0,0
199756,-200,4,1,0,26,0,0
199832,-66.6666666666667,4,1,0,26,0,0
199909,-100,4,1,0,26,0,0
200679,-200,4,1,0,26,0,0
200794,-66.6666666666667,4,1,0,26,0,0
200910,-200,4,1,0,26,0,0
201025,-66.6666666666667,4,1,0,26,0,0
201140,-200,4,1,0,26,0,0
201294,-66.6666666666667,4,1,0,26,0,0
201448,-200,4,1,0,26,0,0
201525,-66.6666666666667,4,1,0,26,0,0
201602,-100,4,1,0,26,0,0
201910,-200,4,1,0,26,0,0
201987,-66.6666666666667,4,1,0,26,0,0
202064,-100,4,1,0,26,0,0
202217,-200,4,1,0,26,0,0
202294,-66.6666666666667,4,1,0,26,0,0
202371,-200,4,1,0,26,0,0
202448,-66.6666666666667,4,1,0,26,0,0
202525,-200,4,1,0,26,0,0
202602,-66.6666666666667,4,1,0,26,0,0
202679,-200,4,1,0,26,0,0
202756,-66.6666666666667,4,1,0,26,0,0
202833,-133.333333333333,4,1,0,26,0,0
202871,-66.6666666666667,4,1,0,26,0,0
202910,-133.333333333333,4,1,0,26,0,0
202948,-66.6666666666667,4,1,0,26,0,0
202987,-133.333333333333,4,1,0,26,0,0
203025,-66.6666666666667,4,1,0,26,0,0
203064,-133.333333333333,4,1,0,26,0,0
203102,-66.6666666666667,4,1,0,26,0,0
203140,-200,4,1,0,26,0,0
203217,-66.6666666666667,4,1,0,26,0,0
203294,-100,4,1,0,26,0,0
203448,-200,4,1,0,26,0,0
203525,-66.6666666666667,4,1,0,26,0,0
203602,-100,4,1,0,26,0,0
203756,-200,4,1,0,26,0,0
203833,-66.6666666666667,4,1,0,26,0,0
203910,-100,4,1,0,26,0,0
204371,-200,4,1,0,26,0,0
204448,-66.6666666666667,4,1,0,26,0,0
204525,-100,4,1,0,26,0,0
204679,-200,4,1,0,26,0,0
204756,-66.6666666666667,4,1,0,26,0,0
204833,-100,4,1,0,26,0,0
210525,-200,4,1,0,26,0,0
210602,-66.6666666666667,4,1,0,26,0,0
210679,-100,4,1,0,26,0,0
210987,-200,4,1,0,26,0,0
211064,-66.6666666666667,4,1,0,26,0,0
211141,-100,4,1,0,26,0,0
211448,-133.333333333333,4,1,0,26,0,0
211487,-80,4,1,0,26,0,0
211525,-133.333333333333,4,1,0,26,0,0
211564,-80,4,1,0,26,0,0
211602,-133.333333333333,4,1,0,26,0,0
211641,-80,4,1,0,26,0,0
211679,-133.333333333333,4,1,0,26,0,0
211718,-80,4,1,0,26,0,0
211756,-100,4,1,0,26,0,0
212679,-133.333333333333,4,1,0,26,0,0
212718,-80,4,1,0,26,0,0
212756,-133.333333333333,4,1,0,26,0,0
212795,-80,4,1,0,26,0,0
212833,-133.333333333333,4,1,0,26,0,0
212872,-80,4,1,0,26,0,0
212910,-133.333333333333,4,1,0,26,0,0
212949,-80,4,1,0,26,0,0
212987,-100,4,1,0,26,0,0

[HitObjects]
448,192,2433,5,0,0:0:0:0:
64,192,2740,1,0,0:0:0:0:
320,192,3048,1,0,0:0:0:0:
448,192,3356,1,0,0:0:0:0:
320,192,3509,1,0,0:0:0:0:
192,192,3663,1,0,0:0:0:0:
192,192,3971,1,0,0:0:0:0:
448,192,4279,1,0,0:0:0:0:
320,192,4432,1,0,0:0:0:0:
448,192,4586,1,0,0:0:0:0:
320,192,4740,1,0,0:0:0:0:
64,192,4894,1,0,0:0:0:0:
448,192,5202,1,0,0:0:0:0:
64,192,5509,1,0,0:0:0:0:
320,192,5817,1,0,0:0:0:0:
192,192,6125,1,0,0:0:0:0:
64,192,6125,1,0,0:0:0:0:
64,192,6432,1,0,0:0:0:0:
448,192,6740,1,0,0:0:0:0:
320,192,6894,1,0,0:0:0:0:
64,192,7048,1,0,0:0:0:0:
192,192,7048,1,0,0:0:0:0:
320,192,7202,1,0,0:0:0:0:
64,192,7356,1,0,0:0:0:0:
192,192,7356,1,0,0:0:0:0:
320,192,7635,1,0,0:0:0:0:
448,192,7915,1,0,0:0:0:0:
64,192,8195,1,0,0:0:0:0:
320,192,8335,1,0,0:0:0:0:
192,192,8474,1,0,0:0:0:0:
448,192,8754,1,0,0:0:0:0:
320,192,9034,1,0,0:0:0:0:
192,192,9174,1,0,0:0:0:0:
320,192,9314,1,0,0:0:0:0:
192,192,9453,1,0,0:0:0:0:
64,192,9593,1,0,0:0:0:0:
448,192,9593,1,0,0:0:0:0:
448,192,9873,1,0,0:0:0:0:
64,192,10153,1,0,0:0:0:0:
192,192,10153,1,0,0:0:0:0:
320,192,10432,1,0,0:0:0:0:
448,192,10572,1,0,0:0:0:0:
192,192,10712,1,0,0:0:0:0:
448,192,10992,1,0,0:0:0:0:
320,192,11272,1,0,0:0:0:0:
64,192,11272,1,0,0:0:0:0:
448,192,11411,1,0,0:0:0:0:
192,192,11551,1,0,0:0:0:0:
64,192,11551,1,0,0:0:0:0:
320,192,11691,1,0,0:0:0:0:
64,192,11831,1,0,0:0:0:0:
448,192,11831,1,0,0:0:0:0:
320,192,11831,1,0,0:0:0:0:
192,192,11831,1,0,0:0:0:0:
320,192,12087,1,0,0:0:0:0:
64,192,12343,1,0,0:0:0:0:
448,192,12600,1,0,0:0:0:0:
320,192,12600,1,0,0:0:0:0:
192,192,12856,1,0,0:0:0:0:
320,192,12856,1,0,0:0:0:0:
448,192,12856,1,0,0:0:0:0:
64,192,13113,1,0,0:0:0:0:
192,192,13113,1,0,0:0:0:0:
320,192,13369,1,0,0:0:0:0:
64,192,13369,1,0,0:0:0:0:
320,192,13497,1,0,0:0:0:0:
64,192,13625,1,0,0:0:0:0:
448,192,13625,1,0,0:0:0:0:
64,192,13754,1,0,0:0:0:0:
448,192,13882,1,0,0:0:0:0:
320,192,13882,1,0,0:0:0:0:
192,192,14138,1,0,0:0:0:0:
320,192,14138,1,0,0:0:0:0:
448,192,14395,1,0,0:0:0:0:
64,192,14395,1,0,0:0:0:0:
320,192,14651,1,0,0:0:0:0:
192,192,14651,1,0,0:0:0:0:
448,192,14779,1,0,0:0:0:0:
192,192,14907,1,0,0:0:0:0:
64,192,14907,1,0,0:0:0:0:
320,192,14907,1,0,0:0:0:0:
448,192,15164,1,0,0:0:0:0:
192,192,15164,1,0,0:0:0:0:
320,192,15420,1,0,0:0:0:0:
64,192,15420,1,0,0:0:0:0:
320,192,15548,1,0,0:0:0:0:
64,192,15677,1,0,0:0:0:0:
448,192,15677,1,0,0:0:0:0:
64,192,15805,1,0,0:0:0:0:
448,192,15933,1,0,0:0:0:0:
320,192,15933,1,0,0:0:0:0:
192,192,15933,1,0,0:0:0:0:
320,192,16152,1,0,0:0:0:0:
64,192,16372,1,0,0:0:0:0:
448,192,16592,1,0,0:0:0:0:
320,192,16592,1,0,0:0:0:0:
192,192,16812,1,0,0:0:0:0:
64,192,16812,1,0,0:0:0:0:
448,192,16812,1,0,0:0:0:0:
320,192,17031,1,0,0:0:0:0:
64,192,17251,1,0,0:0:0:0:
320,192,17251,1,0,0:0:0:0:
192,192,17361,1,0,0:0:0:0:
448,192,17361,1,0,0:0:0:0:
320,192,17471,1,0,0:0:0:0:
64,192,17471,1,0,0:0:0:0:
448,192,17581,1,0,0:0:0:0:
192,192,17581,1,0,0:0:0:0:
192,192,17691,1,0,0:0:0:0:
64,192,17691,1,0,0:0:0:0:
320,192,17691,1,0,0:0:0:0:
192,192,17911,1,0,0:0:0:0:
448,192,17911,1,0,0:0:0:0:
64,192,18130,1,0,0:0:0:0:
448,192,18130,1,0,0:0:0:0:
320,192,18130,1,0,0:0:0:0:
320,192,18350,1,0,0:0:0:0:
192,192,18570,1,0,0:0:0:0:
64,192,18570,1,0,0:0:0:0:
448,192,18790,1,0,0:0:0:0:
192,192,18790,1,0,0:0:0:0:
448,192,18900,1,0,0:0:0:0:
192,192,18900,1,0,0:0:0:0:
320,192,19009,1,0,0:0:0:0:
64,192,19009,1,0,0:0:0:0:
320,192,19119,1,0,0:0:0:0:
64,192,19119,1,0,0:0:0:0:
192,192,19229,1,0,0:0:0:0:
448,192,19229,1,0,0:0:0:0:
192,192,19339,1,0,0:0:0:0:
448,192,19339,1,0,0:0:0:0:
320,192,19449,1,0,0:0:0:0:
448,192,19449,128,0,19833:0:0:0:0:
64,192,19449,1,0,0:0:0:0:
192,192,19449,1,0,0:0:0:0:
320,192,19641,1,0,0:0:0:0:
320,192,19833,128,0,20218:0:0:0:0:
192,192,20025,1,0,0:0:0:0:
192,192,20218,128,0,20602:0:0:0:0:
64,192,20218,1,0,0:0:0:0:
320,192,20410,1,0,0:0:0:0:
320,192,20602,128,0,20795:0:0:0:0:
192,192,20795,128,0,20987:0:0:0:0:
320,192,20987,1,0,0:0:0:0:
448,192,20987,1,0,0:0:0:0:
192,192,21157,1,0,0:0:0:0:
64,192,21157,1,0,0:0:0:0:
320,192,21328,128,0,21670:0:0:0:0:
448,192,21328,1,0,0:0:0:0:
192,192,21499,1,0,0:0:0:0:
192,192,21670,128,0,22012:0:0:0:0:
64,192,21670,1,0,0:0:0:0:
448,192,21841,1,0,0:0:0:0:
320,192,21841,1,0,0:0:0:0:
320,192,22012,128,0,22354:0:0:0:0:
64,192,22183,1,0,0:0:0:0:
192,192,22183,1,0,0:0:0:0:
64,192,22354,128,0,22661:0:0:0:0:
192,192,22354,1,0,0:0:0:0:
192,192,22507,1,0,0:0:0:0:
192,192,22661,128,0,22969:0:0:0:0:
320,192,22815,1,0,0:0:0:0:
448,192,22815,1,0,0:0:0:0:
320,192,22969,128,0,23277:0:0:0:0:
448,192,22969,1,0,0:0:0:0:
192,192,23123,1,0,0:0:0:0:
192,192,23277,128,0,23430:0:0:0:0:
320,192,23430,128,0,23584:0:0:0:0:
192,192,23584,1,0,0:0:0:0:
64,192,23584,1,0,0:0:0:0:
320,192,23723,1,0,0:0:0:0:
192,192,23723,1,0,0:0:0:0:
64,192,23863,1,0,0:0:0:0:
192,192,23863,128,0,24143:0:0:0:0:
320,192,24003,1,0,0:0:0:0:
320,192,24143,128,0,24283:0:0:0:0:
448,192,24143,1,0,0:0:0:0:
192,192,24283,128,0,24423:0:0:0:0:
64,192,24423,128,0,24563:0:0:0:0:
320,192,24423,1,0,0:0:0:0:
448,192,24423,1,0,0:0:0:0:
320,192,24563,1,0,0:0:0:0:
192,192,24563,1,0,0:0:0:0:
448,192,24632,1,0,0:0:0:0:
64,192,24632,1,0,0:0:0:0:
192,192,24702,1,0,0:0:0:0:
320,192,24702,1,0,0:0:0:0:
192,192,24962,1,0,0:0:0:0:
64,192,24962,1,0,0:0:0:0:
448,192,24962,1,0,0:0:0:0:
320,192,24962,1,0,0:0:0:0:
320,192,25090,1,0,0:0:0:0:
448,192,25218,1,0,0:0:0:0:
320,192,25218,1,0,0:0:0:0:
192,192,25347,1,0,0:0:0:0:
192,192,25475,1,0,0:0:0:0:
448,192,25475,1,0,0:0:0:0:
64,192,25475,1,0,0:0:0:0:
320,192,25603,1,0,0:0:0:0:
448,192,25731,1,0,0:0:0:0:
320,192,25731,1,0,0:0:0:0:
192,192,25849,1,0,0:0:0:0:
320,192,25967,1,0,0:0:0:0:
448,192,25967,1,0,0:0:0:0:
192,192,26086,1,0,0:0:0:0:
448,192,26086,1,0,0:0:0:0:
192,192,26204,1,0,0:0:0:0:
64,192,26204,1,0,0:0:0:0:
320,192,26204,1,0,0:0:0:0:
448,192,26322,1,0,0:0:0:0:
192,192,26322,1,0,0:0:0:0:
320,192,26441,1,0,0:0:0:0:
64,192,26559,1,0,0:0:0:0:
192,192,26559,1,0,0:0:0:0:
64,192,26677,1,0,0:0:0:0:
192,192,26677,1,0,0:0:0:0:
320,192,26677,1,0,0:0:0:0:
448,192,26677,1,0,0:0:0:0:
320,192,26786,1,0,0:0:0:0:
192,192,26896,1,0,0:0:0:0:
320,192,27006,1,0,0:0:0:0:
320,192,27116,1,0,0:0:0:0:
448,192,27116,1,0,0:0:0:0:
64,192,27116,1,0,0:0:0:0:
192,192,27226,1,0,0:0:0:0:
192,192,27336,1,0,0:0:0:0:
320,192,27336,1,0,0:0:0:0:
320,192,27446,1,0,0:0:0:0:
448,192,27446,1,0,0:0:0:0:
192,192,27556,1,0,0:0:0:0:
64,192,27556,1,0,0:0:0:0:
448,192,27556,1,0,0:0:0:0:
320,192,27658,1,0,0:0:0:0:
192,192,27658,1,0,0:0:0:0:
448,192,27761,1,0,0:0:0:0:
320,192,27761,1,0,0:0:0:0:
64,192,27761,1,0,0:0:0:0:
192,192,27863,1,0,0:0:0:0:
320,192,27863,1,0,0:0:0:0:
64,192,27966,1,0,0:0:0:0:
192,192,27966,1,0,0:0:0:0:
448,192,28068,1,0,0:0:0:0:
320,192,28081,1,0,0:0:0:0:
192,192,28103,1,0,0:0:0:0:
64,192,28107,1,0,0:0:0:0:
448,192,28137,1,0,0:0:0:0:
320,192,28145,1,0,0:0:0:0:
192,192,28171,1,0,0:0:0:0:
64,192,28184,1,0,0:0:0:0:
448,192,28273,1,0,0:0:0:0:
320,192,28273,1,0,0:0:0:0:
192,192,28376,128,0,29294:0:0:0:0:
64,192,28376,128,0,29294:0:0:0:0:
320,192,29294,1,0,0:0:0:0:
448,192,29294,1,0,0:0:0:0:
192,192,29370,1,0,0:0:0:0:
64,192,29370,1,0,0:0:0:0:
320,192,29447,1,0,0:0:0:0:
448,192,29447,1,0,0:0:0:0:
192,192,29524,1,0,0:0:0:0:
64,192,29524,1,0,0:0:0:0:
320,192,29601,1,0,0:0:0:0:
448,192,29601,1,0,0:0:0:0:
192,192,29678,1,0,0:0:0:0:
64,192,29678,1,0,0:0:0:0:
448,192,29755,1,0,0:0:0:0:
320,192,29755,1,0,0:0:0:0:
64,192,29832,1,0,0:0:0:0:
192,192,29832,1,0,0:0:0:0:
448,192,29909,1,0,0:0:0:0:
320,192,29909,1,0,0:0:0:0:
64,192,29986,1,0,0:0:0:0:
192,192,29986,1,0,0:0:0:0:
320,192,30063,1,0,0:0:0:0:
448,192,30063,1,0,0:0:0:0:
192,192,30140,1,0,0:0:0:0:
64,192,30140,1,0,0:0:0:0:
320,192,30217,1,0,0:0:0:0:
448,192,30217,1,0,0:0:0:0:
192,192,30294,1,0,0:0:0:0:
64,192,30294,1,0,0:0:0:0:
448,192,30370,1,0,0:0:0:0:
320,192,30370,1,0,0:0:0:0:
64,192,30447,1,0,0:0:0:0:
192,192,30447,1,0,0:0:0:0:
448,192,30524,1,0,0:0:0:0:
320,192,30524,1,0,0:0:0:0:
64,192,30601,1,0,0:0:0:0:
192,192,30601,1,0,0:0:0:0:
320,192,30678,1,0,0:0:0:0:
448,192,30678,1,0,0:0:0:0:
192,192,30755,1,0,0:0:0:0:
64,192,30755,1,0,0:0:0:0:
448,192,30832,1,0,0:0:0:0:
320,192,30832,1,0,0:0:0:0:
192,192,30909,1,0,0:0:0:0:
64,192,30909,1,0,0:0:0:0:
320,192,30986,1,0,0:0:0:0:
448,192,30986,1,0,0:0:0:0:
64,192,31063,1,0,0:0:0:0:
192,192,31063,1,0,0:0:0:0:
320,192,31140,1,0,0:0:0:0:
448,192,31140,1,0,0:0:0:0:
192,192,31217,1,0,0:0:0:0:
64,192,31217,1,0,0:0:0:0:
320,192,31294,1,0,0:0:0:0:
448,192,31294,1,0,0:0:0:0:
192,192,31370,1,0,0:0:0:0:
64,192,31370,1,0,0:0:0:0:
320,192,31447,128,0,31524:0:0:0:0:
448,192,31447,1,0,0:0:0:0:
192,192,31524,128,0,31601:0:0:0:0:
64,192,31524,1,0,0:0:0:0:
320,192,31601,128,0,31678:0:0:0:0:
448,192,31601,1,0,0:0:0:0:
192,192,31678,128,0,31755:0:0:0:0:
64,192,31678,1,0,0:0:0:0:
448,192,31755,128,0,31832:0:0:0:0:
320,192,31755,1,0,0:0:0:0:
64,192,31832,128,0,31909:0:0:0:0:
192,192,31832,1,0,0:0:0:0:
320,192,31909,1,0,0:0:0:0:
448,192,31909,128,0,31986:0:0:0:0:
64,192,31986,128,0,32064:0:0:0:0:
192,192,31986,1,0,0:0:0:0:
320,192,32064,128,0,32140:0:0:0:0:
448,192,32064,1,0,0:0:0:0:
192,192,32140,128,0,32217:0:0:0:0:
320,192,32217,128,0,32294:0:0:0:0:
192,192,32294,128,0,32371:0:0:0:0:
448,192,32371,128,0,32448:0:0:0:0:
64,192,32448,128,0,32525:0:0:0:0:
448,192,32525,128,0,32602:0:0:0:0:
64,192,32602,128,0,32679:0:0:0:0:
320,192,32679,128,0,32756:0:0:0:0:
192,192,32756,128,0,32833:0:0:0:0:
320,192,32833,128,0,32910:0:0:0:0:
192,192,32910,128,0,32987:0:0:0:0:
448,192,32987,1,0,0:0:0:0:
320,192,32987,1,0,0:0:0:0:
64,192,32987,1,0,0:0:0:0:
192,192,33064,1,0,0:0:0:0:
320,192,33140,1,0,0:0:0:0:
448,192,33217,1,0,0:0:0:0:
192,192,33294,1,0,0:0:0:0:
64,192,33294,1,0,0:0:0:0:
320,192,33294,1,0,0:0:0:0:
448,192,33371,1,0,0:0:0:0:
320,192,33448,1,0,0:0:0:0:
192,192,33525,1,0,0:0:0:0:
320,192,33602,1,0,0:0:0:0:
64,192,33602,1,0,0:0:0:0:
192,192,33679,1,0,0:0:0:0:
320,192,33756,1,0,0:0:0:0:
448,192,33756,1,0,0:0:0:0:
192,192,33833,1,0,0:0:0:0:
320,192,33910,1,0,0:0:0:0:
192,192,33987,1,0,0:0:0:0:
448,192,34064,1,0,0:0:0:0:
64,192,34064,1,0,0:0:0:0:
192,192,34140,1,0,0:0:0:0:
320,192,34217,1,0,0:0:0:0:
448,192,34294,1,0,0:0:0:0:
64,192,34294,1,0,0:0:0:0:
192,192,34371,1,0,0:0:0:0:
320,192,34371,1,0,0:0:0:0:
448,192,34448,1,0,0:0:0:0:
64,192,34448,1,0,0:0:0:0:
320,192,34525,1,0,0:0:0:0:
192,192,34602,1,0,0:0:0:0:
320,192,34679,1,0,0:0:0:0:
448,192,34679,1,0,0:0:0:0:
192,192,34756,1,0,0:0:0:0:
64,192,34756,1,0,0:0:0:0:
320,192,34833,1,0,0:0:0:0:
448,192,34833,1,0,0:0:0:0:
192,192,34910,1,0,0:0:0:0:
320,192,34987,1,0,0:0:0:0:
448,192,35064,1,0,0:0:0:0:
64,192,35140,1,0,0:0:0:0:
192,192,35140,1,0,0:0:0:0:
320,192,35217,1,0,0:0:0:0:
192,192,35294,1,0,0:0:0:0:
64,192,35371,1,0,0:0:0:0:
448,192,35448,1,0,0:0:0:0:
320,192,35448,1,0,0:0:0:0:
192,192,35525,1,0,0:0:0:0:
320,192,35602,1,0,0:0:0:0:
448,192,35679,1,0,0:0:0:0:
192,192,35756,1,0,0:0:0:0:
64,192,35756,1,0,0:0:0:0:
320,192,35833,1,0,0:0:0:0:
64,192,35910,1,0,0:0:0:0:
320,192,35987,1,0,0:0:0:0:
192,192,36064,1,0,0:0:0:0:
448,192,36064,1,0,0:0:0:0:
320,192,36140,1,0,0:0:0:0:
192,192,36217,1,0,0:0:0:0:
64,192,36217,1,0,0:0:0:0:
320,192,36294,1,0,0:0:0:0:
448,192,36371,1,0,0:0:0:0:
192,192,36448,1,0,0:0:0:0:
448,192,36525,1,0,0:0:0:0:
320,192,36525,1,0,0:0:0:0:
192,192,36602,1,0,0:0:0:0:
64,192,36679,1,0,0:0:0:0:
320,192,36756,1,0,0:0:0:0:
192,192,36756,1,0,0:0:0:0:
448,192,36833,1,0,0:0:0:0:
192,192,36910,1,0,0:0:0:0:
320,192,36910,1,0,0:0:0:0:
64,192,36987,1,0,0:0:0:0:
192,192,37064,1,0,0:0:0:0:
320,192,37140,1,0,0:0:0:0:
448,192,37140,1,0,0:0:0:0:
192,192,37217,1,0,0:0:0:0:
64,192,37217,1,0,0:0:0:0:
448,192,37294,1,0,0:0:0:0:
320,192,37294,1,0,0:0:0:0:
64,192,37371,1,0,0:0:0:0:
320,192,37448,1,0,0:0:0:0:
448,192,37525,1,0,0:0:0:0:
192,192,37602,1,0,0:0:0:0:
64,192,37602,1,0,0:0:0:0:
448,192,37679,1,0,0:0:0:0:
192,192,37756,1,0,0:0:0:0:
64,192,37833,1,0,0:0:0:0:
320,192,37910,1,0,0:0:0:0:
448,192,37910,1,0,0:0:0:0:
192,192,37987,1,0,0:0:0:0:
320,192,38064,1,0,0:0:0:0:
192,192,38140,1,0,0:0:0:0:
320,192,38217,1,0,0:0:0:0:
448,192,38217,1,0,0:0:0:0:
64,192,38217,1,0,0:0:0:0:
192,192,38294,1,0,0:0:0:0:
64,192,38371,1,0,0:0:0:0:
320,192,38448,1,0,0:0:0:0:
192,192,38525,1,0,0:0:0:0:
448,192,38525,1,0,0:0:0:0:
320,192,38602,1,0,0:0:0:0:
192,192,38679,1,0,0:0:0:0:
64,192,38679,1,0,0:0:0:0:
320,192,38756,1,0,0:0:0:0:
192,192,38833,1,0,0:0:0:0:
320,192,38910,1,0,0:0:0:0:
64,192,38987,1,0,0:0:0:0:
448,192,38987,1,0,0:0:0:0:
320,192,39064,1,0,0:0:0:0:
192,192,39140,1,0,0:0:0:0:
64,192,39217,1,0,0:0:0:0:
448,192,39217,1,0,0:0:0:0:
320,192,39294,1,0,0:0:0:0:
192,192,39294,1,0,0:0:0:0:
64,192,39371,1,0,0:0:0:0:
448,192,39371,1,0,0:0:0:0:
192,192,39448,1,0,0:0:0:0:
320,192,39525,1,0,0:0:0:0:
192,192,39602,1,0,0:0:0:0:
64,192,39602,1,0,0:0:0:0:
320,192,39679,1,0,0:0:0:0:
448,192,39679,1,0,0:0:0:0:
192,192,39756,1,0,0:0:0:0:
64,192,39756,1,0,0:0:0:0:
320,192,39833,1,0,0:0:0:0:
192,192,39910,1,0,0:0:0:0:
64,192,39987,1,0,0:0:0:0:
448,192,40064,1,0,0:0:0:0:
320,192,40064,1,0,0:0:0:0:
192,192,40140,1,0,0:0:0:0:
320,192,40217,1,0,0:0:0:0:
448,192,40294,1,0,0:0:0:0:
64,192,40371,1,0,0:0:0:0:
192,192,40371,1,0,0:0:0:0:
320,192,40448,1,0,0:0:0:0:
192,192,40525,1,0,0:0:0:0:
64,192,40602,1,0,0:0:0:0:
320,192,40679,1,0,0:0:0:0:
448,192,40679,1,0,0:0:0:0:
192,192,40756,1,0,0:0:0:0:
448,192,40833,1,0,0:0:0:0:
192,192,40910,1,0,0:0:0:0:
320,192,40987,1,0,0:0:0:0:
64,192,40987,1,0,0:0:0:0:
192,192,41064,1,0,0:0:0:0:
320,192,41140,1,0,0:0:0:0:
448,192,41140,1,0,0:0:0:0:
192,192,41217,1,0,0:0:0:0:
64,192,41294,1,0,0:0:0:0:
320,192,41371,1,0,0:0:0:0:
64,192,41448,1,0,0:0:0:0:
192,192,41448,1,0,0:0:0:0:
320,192,41525,1,0,0:0:0:0:
448,192,41602,1,0,0:0:0:0:
192,192,41679,1,0,0:0:0:0:
320,192,41679,1,0,0:0:0:0:
64,192,41756,1,0,0:0:0:0:
320,192,41833,1,0,0:0:0:0:
192,192,41833,1,0,0:0:0:0:
448,192,41910,1,0,0:0:0:0:
320,192,41987,1,0,0:0:0:0:
192,192,42064,1,0,0:0:0:0:
64,192,42064,1,0,0:0:0:0:
320,192,42140,1,0,0:0:0:0:
448,192,42140,1,0,0:0:0:0:
64,192,42217,1,0,0:0:0:0:
192,192,42217,1,0,0:0:0:0:
448,192,42294,1,0,0:0:0:0:
192,192,42371,1,0,0:0:0:0:
64,192,42448,1,0,0:0:0:0:
320,192,42525,1,0,0:0:0:0:
448,192,42525,1,0,0:0:0:0:
64,192,42602,1,0,0:0:0:0:
192,192,42602,1,0,0:0:0:0:
320,192,42679,1,0,0:0:0:0:
448,192,42717,1,0,0:0:0:0:
64,192,42756,1,0,0:0:0:0:
192,192,42794,1,0,0:0:0:0:
448,192,42833,1,0,0:0:0:0:
320,192,42833,1,0,0:0:0:0:
64,192,42910,1,0,0:0:0:0:
448,192,42987,1,0,0:0:0:0:
320,192,42987,1,0,0:0:0:0:
64,192,43064,1,0,0:0:0:0:
448,192,43140,1,0,0:0:0:0:
320,192,43140,1,0,0:0:0:0:
192,192,43140,1,0,0:0:0:0:
64,192,43217,1,0,0:0:0:0:
448,192,43294,1,0,0:0:0:0:
192,192,43294,1,0,0:0:0:0:
320,192,43371,1,0,0:0:0:0:
192,192,43448,1,0,0:0:0:0:
64,192,43448,1,0,0:0:0:0:
448,192,43448,1,0,0:0:0:0:
320,192,43525,1,0,0:0:0:0:
192,192,43602,1,0,0:0:0:0:
320,192,43679,1,0,0:0:0:0:
448,192,43756,1,0,0:0:0:0:
192,192,43833,1,0,0:0:0:0:
448,192,43910,1,0,0:0:0:0:
64,192,43910,1,0,0:0:0:0:
320,192,43987,1,0,0:0:0:0:
192,192,44064,1,0,0:0:0:0:
448,192,44140,1,0,0:0:0:0:
64,192,44140,1,0,0:0:0:0:
192,192,44217,1,0,0:0:0:0:
320,192,44217,1,0,0:0:0:0:
448,192,44294,1,0,0:0:0:0:
64,192,44294,1,0,0:0:0:0:
192,192,44371,1,0,0:0:0:0:
320,192,44448,1,0,0:0:0:0:
64,192,44525,1,0,0:0:0:0:
192,192,44525,1,0,0:0:0:0:
448,192,44602,1,0,0:0:0:0:
320,192,44602,1,0,0:0:0:0:
64,192,44679,1,0,0:0:0:0:
192,192,44679,1,0,0:0:0:0:
320,192,44756,1,0,0:0:0:0:
192,192,44833,1,0,0:0:0:0:
64,192,44910,1,0,0:0:0:0:
320,192,44987,1,0,0:0:0:0:
448,192,44987,1,0,0:0:0:0:
192,192,45064,1,0,0:0:0:0:
320,192,45140,1,0,0:0:0:0:
448,192,45217,1,0,0:0:0:0:
192,192,45294,1,0,0:0:0:0:
64,192,45294,1,0,0:0:0:0:
320,192,45371,1,0,0:0:0:0:
192,192,45448,1,0,0:0:0:0:
64,192,45525,1,0,0:0:0:0:
448,192,45602,1,0,0:0:0:0:
320,192,45602,1,0,0:0:0:0:
192,192,45679,1,0,0:0:0:0:
448,192,45756,1,0,0:0:0:0:
320,192,45833,1,0,0:0:0:0:
192,192,45910,1,0,0:0:0:0:
448,192,45910,1,0,0:0:0:0:
64,192,45987,1,0,0:0:0:0:
448,192,46064,1,0,0:0:0:0:
320,192,46064,1,0,0:0:0:0:
192,192,46140,1,0,0:0:0:0:
64,192,46217,1,0,0:0:0:0:
320,192,46294,1,0,0:0:0:0:
192,192,46371,1,0,0:0:0:0:
64,192,46371,1,0,0:0:0:0:
320,192,46448,1,0,0:0:0:0:
448,192,46525,1,0,0:0:0:0:
320,192,46602,1,0,0:0:0:0:
192,192,46602,1,0,0:0:0:0:
64,192,46679,1,0,0:0:0:0:
192,192,46756,1,0,0:0:0:0:
320,192,46756,1,0,0:0:0:0:
448,192,46833,1,0,0:0:0:0:
64,192,46833,1,0,0:0:0:0:
320,192,46910,1,0,0:0:0:0:
64,192,46987,1,0,0:0:0:0:
192,192,46987,1,0,0:0:0:0:
320,192,47064,1,0,0:0:0:0:
448,192,47140,1,0,0:0:0:0:
192,192,47140,1,0,0:0:0:0:
64,192,47140,1,0,0:0:0:0:
320,192,47217,1,0,0:0:0:0:
192,192,47294,1,0,0:0:0:0:
64,192,47371,1,0,0:0:0:0:
192,192,47448,1,0,0:0:0:0:
448,192,47448,1,0,0:0:0:0:
320,192,47448,1,0,0:0:0:0:
64,192,47525,1,0,0:0:0:0:
320,192,47602,1,0,0:0:0:0:
448,192,47679,1,0,0:0:0:0:
64,192,47756,1,0,0:0:0:0:
192,192,47756,1,0,0:0:0:0:
320,192,47833,1,0,0:0:0:0:
192,192,47910,1,0,0:0:0:0:
64,192,47910,1,0,0:0:0:0:
320,192,47987,1,0,0:0:0:0:
192,192,48064,1,0,0:0:0:0:
64,192,48064,1,0,0:0:0:0:
448,192,48064,1,0,0:0:0:0:
320,192,48140,1,0,0:0:0:0:
448,192,48217,1,0,0:0:0:0:
192,192,48294,1,0,0:0:0:0:
320,192,48371,1,0,0:0:0:0:
448,192,48371,1,0,0:0:0:0:
64,192,48371,1,0,0:0:0:0:
192,192,48448,1,0,0:0:0:0:
320,192,48525,1,0,0:0:0:0:
448,192,48602,1,0,0:0:0:0:
64,192,48679,1,0,0:0:0:0:
192,192,48679,1,0,0:0:0:0:
320,192,48679,1,0,0:0:0:0:
448,192,48756,1,0,0:0:0:0:
192,192,48833,1,0,0:0:0:0:
320,192,48910,1,0,0:0:0:0:
448,192,48987,1,0,0:0:0:0:
192,192,48987,1,0,0:0:0:0:
64,192,48987,1,0,0:0:0:0:
320,192,49064,1,0,0:0:0:0:
448,192,49140,1,0,0:0:0:0:
64,192,49217,1,0,0:0:0:0:
192,192,49294,1,0,0:0:0:0:
320,192,49294,1,0,0:0:0:0:
448,192,49294,1,0,0:0:0:0:
64,192,49371,1,0,0:0:0:0:
320,192,49448,1,0,0:0:0:0:
192,192,49525,1,0,0:0:0:0:
64,192,49602,1,0,0:0:0:0:
448,192,49602,1,0,0:0:0:0:
320,192,49602,1,0,0:0:0:0:
192,192,49679,1,0,0:0:0:0:
64,192,49756,1,0,0:0:0:0:
320,192,49833,1,0,0:0:0:0:
192,192,49910,1,0,0:0:0:0:
64,192,49910,1,0,0:0:0:0:
448,192,49910,1,0,0:0:0:0:
320,192,49987,1,0,0:0:0:0:
192,192,50064,1,0,0:0:0:0:
64,192,50140,1,0,0:0:0:0:
192,192,50217,1,0,0:0:0:0:
320,192,50217,1,0,0:0:0:0:
448,192,50217,1,0,0:0:0:0:
64,192,50294,1,0,0:0:0:0:
320,192,50371,1,0,0:0:0:0:
448,192,50371,1,0,0:0:0:0:
192,192,50448,1,0,0:0:0:0:
64,192,50448,1,0,0:0:0:0:
320,192,50525,1,0,0:0:0:0:
448,192,50525,1,0,0:0:0:0:
64,192,50602,1,0,0:0:0:0:
192,192,50679,1,0,0:0:0:0:
448,192,50679,1,0,0:0:0:0:
320,192,50756,1,0,0:0:0:0:
64,192,50833,1,0,0:0:0:0:
192,192,50833,1,0,0:0:0:0:
448,192,50910,1,0,0:0:0:0:
320,192,50987,1,0,0:0:0:0:
64,192,50987,1,0,0:0:0:0:
192,192,51064,1,0,0:0:0:0:
448,192,51140,1,0,0:0:0:0:
320,192,51140,1,0,0:0:0:0:
64,192,51217,1,0,0:0:0:0:
192,192,51294,1,0,0:0:0:0:
320,192,51346,1,0,0:0:0:0:
448,192,51397,1,0,0:0:0:0:
64,192,51448,1,0,0:0:0:0:
192,192,51448,1,0,0:0:0:0:
192,192,51525,1,0,0:0:0:0:
448,192,51602,1,0,0:0:0:0:
320,192,51653,1,0,0:0:0:0:
192,192,51705,1,0,0:0:0:0:
64,192,51756,1,0,0:0:0:0:
448,192,51756,1,0,0:0:0:0:
320,192,51833,1,0,0:0:0:0:
192,192,51910,1,0,0:0:0:0:
64,192,51910,1,0,0:0:0:0:
448,192,51987,1,0,0:0:0:0:
320,192,51987,1,0,0:0:0:0:
192,192,52064,1,0,0:0:0:0:
64,192,52140,1,0,0:0:0:0:
448,192,52217,1,0,0:0:0:0:
192,192,52217,1,0,0:0:0:0:
320,192,52294,1,0,0:0:0:0:
64,192,52371,1,0,0:0:0:0:
192,192,52371,1,0,0:0:0:0:
448,192,52448,1,0,0:0:0:0:
320,192,52525,1,0,0:0:0:0:
64,192,52525,1,0,0:0:0:0:
192,192,52602,1,0,0:0:0:0:
448,192,52679,1,0,0:0:0:0:
320,192,52679,1,0,0:0:0:0:
64,192,52756,1,0,0:0:0:0:
192,192,52833,1,0,0:0:0:0:
320,192,52910,1,0,0:0:0:0:
448,192,52987,128,0,53602:0:0:0:0:
320,192,53294,128,0,53602:0:0:0:0:
64,192,53525,1,0,0:0:0:0:
192,192,53602,1,0,0:0:0:0:
320,192,53679,1,0,0:0:0:0:
64,192,53756,128,0,54064:0:0:0:0:
448,192,53756,1,0,0:0:0:0:
448,192,53910,1,0,0:0:0:0:
192,192,53987,1,0,0:0:0:0:
320,192,54064,1,0,0:0:0:0:
64,192,54140,1,0,0:0:0:0:
320,192,54217,128,0,54525:0:0:0:0:
448,192,54217,1,0,0:0:0:0:
192,192,54294,1,0,0:0:0:0:
448,192,54371,1,0,0:0:0:0:
192,192,54448,1,0,0:0:0:0:
64,192,54525,1,0,0:0:0:0:
320,192,54602,1,0,0:0:0:0:
64,192,54679,1,0,0:0:0:0:
320,192,54756,1,0,0:0:0:0:
64,192,54833,1,0,0:0:0:0:
192,192,54910,1,0,0:0:0:0:
448,192,54987,128,0,55294:0:0:0:0:
320,192,54987,1,0,0:0:0:0:
64,192,55140,128,0,55217:0:0:0:0:
192,192,55217,128,0,55294:0:0:0:0:
320,192,55294,128,0,55371:0:0:0:0:
448,192,55371,128,0,55448:0:0:0:0:
320,192,55448,1,0,0:0:0:0:
192,192,55448,1,0,0:0:0:0:
64,192,55448,1,0,0:0:0:0:
64,192,55602,1,0,0:0:0:0:
192,192,55756,1,0,0:0:0:0:
320,192,55910,1,0,0:0:0:0:
448,192,56217,1,0,0:0:0:0:
448,192,56371,1,0,0:0:0:0:
320,192,56448,1,0,0:0:0:0:
192,192,56525,1,0,0:0:0:0:
64,192,56602,1,0,0:0:0:0:
448,192,56679,1,0,0:0:0:0:
320,192,56679,1,0,0:0:0:0:
192,192,56987,1,0,0:0:0:0:
448,192,57140,1,0,0:0:0:0:
192,192,57294,1,0,0:0:0:0:
320,192,57294,1,0,0:0:0:0:
192,192,57448,128,0,57910:0:0:0:0:
320,192,57448,128,0,57910:0:0:0:0:
64,192,57910,128,0,58371:0:0:0:0:
448,192,57910,128,0,58371:0:0:0:0:
192,192,58217,1,0,0:0:0:0:
320,192,58371,128,0,58679:0:0:0:0:
192,192,58679,1,0,0:0:0:0:
320,192,58833,1,0,0:0:0:0:
448,192,58910,1,0,0:0:0:0:
64,192,58987,1,0,0:0:0:0:
192,192,59064,1,0,0:0:0:0:
320,192,59140,1,0,0:0:0:0:
448,192,59140,1,0,0:0:0:0:
448,192,59371,1,0,0:0:0:0:
192,192,59448,1,0,0:0:0:0:
320,192,59499,1,0,0:0:0:0:
448,192,59602,1,0,0:0:0:0:
64,192,59653,1,0,0:0:0:0:
192,192,59705,1,0,0:0:0:0:
448,192,59756,1,0,0:0:0:0:
320,192,59807,1,0,0:0:0:0:
192,192,59858,1,0,0:0:0:0:
448,192,59910,1,0,0:0:0:0:
64,192,59961,1,0,0:0:0:0:
192,192,60012,1,0,0:0:0:0:
320,192,60064,1,0,0:0:0:0:
448,192,60140,1,0,0:0:0:0:
320,192,60217,1,0,0:0:0:0:
192,192,60294,1,0,0:0:0:0:
448,192,60371,1,0,0:0:0:0:
64,192,60371,1,0,0:0:0:0:
320,192,60448,1,0,0:0:0:0:
192,192,60525,1,0,0:0:0:0:
320,192,60602,1,0,0:0:0:0:
64,192,60679,1,0,0:0:0:0:
320,192,60756,1,0,0:0:0:0:
192,192,60833,1,0,0:0:0:0:
320,192,60910,1,0,0:0:0:0:
64,192,60987,1,0,0:0:0:0:
448,192,60987,1,0,0:0:0:0:
192,192,61064,1,0,0:0:0:0:
448,192,61140,1,0,0:0:0:0:
192,192,61217,1,0,0:0:0:0:
320,192,61294,1,0,0:0:0:0:
448,192,61371,1,0,0:0:0:0:
192,192,61448,1,0,0:0:0:0:
320,192,61525,1,0,0:0:0:0:
64,192,61602,1,0,0:0:0:0:
192,192,61602,1,0,0:0:0:0:
320,192,61679,1,0,0:0:0:0:
192,192,61756,1,0,0:0:0:0:
448,192,61833,1,0,0:0:0:0:
320,192,61910,1,0,0:0:0:0:
64,192,61987,1,0,0:0:0:0:
448,192,62064,1,0,0:0:0:0:
192,192,62140,1,0,0:0:0:0:
64,192,62217,1,0,0:0:0:0:
448,192,62217,1,0,0:0:0:0:
320,192,62294,1,0,0:0:0:0:
192,192,62371,1,0,0:0:0:0:
448,192,62448,1,0,0:0:0:0:
320,192,62525,1,0,0:0:0:0:
64,192,62602,1,0,0:0:0:0:
192,192,62679,1,0,0:0:0:0:
448,192,62679,1,0,0:0:0:0:
320,192,62756,1,0,0:0:0:0:
64,192,62833,1,0,0:0:0:0:
192,192,62833,1,0,0:0:0:0:
448,192,62910,1,0,0:0:0:0:
192,192,62987,1,0,0:0:0:0:
64,192,63064,1,0,0:0:0:0:
320,192,63140,1,0,0:0:0:0:
192,192,63217,1,0,0:0:0:0:
448,192,63294,1,0,0:0:0:0:
64,192,63294,1,0,0:0:0:0:
320,192,63371,1,0,0:0:0:0:
64,192,63448,1,0,0:0:0:0:
192,192,63448,1,0,0:0:0:0:
448,192,63525,1,0,0:0:0:0:
320,192,63602,1,0,0:0:0:0:
64,192,63679,1,0,0:0:0:0:
192,192,63756,1,0,0:0:0:0:
448,192,63833,1,0,0:0:0:0:
64,192,63910,1,0,0:0:0:0:
320,192,63987,1,0,0:0:0:0:
192,192,64064,1,0,0:0:0:0:
448,192,64064,1,0,0:0:0:0:
64,192,64140,1,0,0:0:0:0:
320,192,64217,1,0,0:0:0:0:
192,192,64294,1,0,0:0:0:0:
448,192,64371,1,0,0:0:0:0:
64,192,64371,1,0,0:0:0:0:
320,192,64448,1,0,0:0:0:0:
192,192,64525,1,0,0:0:0:0:
448,192,64602,1,0,0:0:0:0:
320,192,64679,1,0,0:0:0:0:
64,192,64679,1,0,0:0:0:0:
192,192,64756,1,0,0:0:0:0:
320,192,64833,1,0,0:0:0:0:
64,192,64833,1,0,0:0:0:0:
448,192,64910,1,0,0:0:0:0:
192,192,64910,1,0,0:0:0:0:
320,192,64987,1,0,0:0:0:0:
192,192,65064,1,0,0:0:0:0:
448,192,65064,1,0,0:0:0:0:
64,192,65140,1,0,0:0:0:0:
320,192,65140,1,0,0:0:0:0:
192,192,65217,1,0,0:0:0:0:
320,192,65294,1,0,0:0:0:0:
448,192,65294,1,0,0:0:0:0:
64,192,65294,1,0,0:0:0:0:
320,192,65525,128,0,65602:0:0:0:0:
64,192,65602,1,0,0:0:0:0:
448,192,65756,128,0,66064:0:0:0:0:
64,192,65910,1,0,0:0:0:0:
192,192,66064,128,0,66217:0:0:0:0:
64,192,66217,1,0,0:0:0:0:
320,192,66217,1,0,0:0:0:0:
448,192,66294,1,0,0:0:0:0:
192,192,66371,1,0,0:0:0:0:
320,192,66448,1,0,0:0:0:0:
64,192,66525,1,0,0:0:0:0:
448,192,66525,128,0,66679:0:0:0:0:
192,192,66602,1,0,0:0:0:0:
320,192,66679,1,0,0:0:0:0:
192,192,66756,1,0,0:0:0:0:
64,192,66833,128,0,66987:0:0:0:0:
320,192,66910,1,0,0:0:0:0:
448,192,66987,128,0,67064:0:0:0:0:
320,192,67064,1,0,0:0:0:0:
64,192,67140,1,0,0:0:0:0:
192,192,67217,1,0,0:0:0:0:
320,192,67294,1,0,0:0:0:0:
448,192,67294,1,0,0:0:0:0:
192,192,67371,1,0,0:0:0:0:
64,192,67448,1,0,0:0:0:0:
448,192,67525,1,0,0:0:0:0:
320,192,67602,1,0,0:0:0:0:
192,192,67602,1,0,0:0:0:0:
448,192,67679,1,0,0:0:0:0:
64,192,67756,1,0,0:0:0:0:
320,192,67756,1,0,0:0:0:0:
192,192,67833,1,0,0:0:0:0:
320,192,67910,1,0,0:0:0:0:
448,192,67910,128,0,67987:0:0:0:0:
64,192,68064,1,0,0:0:0:0:
448,192,68064,128,0,68294:0:0:0:0:
192,192,68140,1,0,0:0:0:0:
320,192,68217,1,0,0:0:0:0:
192,192,68294,1,0,0:0:0:0:
448,192,68371,1,0,0:0:0:0:
64,192,68371,128,0,68448:0:0:0:0:
320,192,68448,1,0,0:0:0:0:
192,192,68525,1,0,0:0:0:0:
64,192,68525,1,0,0:0:0:0:
320,192,68602,1,0,0:0:0:0:
64,192,68679,1,0,0:0:0:0:
448,192,68679,1,0,0:0:0:0:
192,192,68756,1,0,0:0:0:0:
320,192,68833,1,0,0:0:0:0:
448,192,68833,128,0,68910:0:0:0:0:
192,192,68910,1,0,0:0:0:0:
448,192,68987,1,0,0:0:0:0:
64,192,68987,128,0,69140:0:0:0:0:
320,192,69064,1,0,0:0:0:0:
192,192,69140,1,0,0:0:0:0:
64,192,69192,1,0,0:0:0:0:
448,192,69243,1,0,0:0:0:0:
320,192,69294,1,0,0:0:0:0:
192,192,69294,128,0,69448:0:0:0:0:
64,192,69448,1,0,0:0:0:0:
192,192,69499,1,0,0:0:0:0:
320,192,69551,1,0,0:0:0:0:
64,192,69602,1,0,0:0:0:0:
448,192,69602,128,0,69756:0:0:0:0:
192,192,69679,1,0,0:0:0:0:
320,192,69756,1,0,0:0:0:0:
448,192,69833,1,0,0:0:0:0:
64,192,69833,1,0,0:0:0:0:
192,192,69910,1,0,0:0:0:0:
320,192,69910,128,0,70064:0:0:0:0:
64,192,69987,1,0,0:0:0:0:
448,192,70064,1,0,0:0:0:0:
192,192,70064,1,0,0:0:0:0:
320,192,70140,1,0,0:0:0:0:
448,192,70217,1,0,0:0:0:0:
192,192,70217,128,0,70371:0:0:0:0:
64,192,70217,128,0,70371:0:0:0:0:
320,192,70294,1,0,0:0:0:0:
448,192,70371,1,0,0:0:0:0:
320,192,70448,1,0,0:0:0:0:
64,192,70448,128,0,70602:0:0:0:0:
192,192,70448,128,0,70602:0:0:0:0:
448,192,70525,1,0,0:0:0:0:
320,192,70602,1,0,0:0:0:0:
448,192,70679,1,0,0:0:0:0:
192,192,70679,128,0,70833:0:0:0:0:
64,192,70679,128,0,70833:0:0:0:0:
320,192,70756,1,0,0:0:0:0:
448,192,70833,128,0,70987:0:0:0:0:
192,192,70910,1,0,0:0:0:0:
320,192,70987,128,0,71140:0:0:0:0:
64,192,71064,1,0,0:0:0:0:
192,192,71140,128,0,71294:0:0:0:0:
448,192,71140,1,0,0:0:0:0:
64,192,71294,128,0,71448:0:0:0:0:
320,192,71294,1,0,0:0:0:0:
448,192,71294,1,0,0:0:0:0:
320,192,71448,128,0,71602:0:0:0:0:
448,192,71448,128,0,71602:0:0:0:0:
192,192,71448,1,0,0:0:0:0:
64,192,71525,1,0,0:0:0:0:
192,192,71602,1,0,0:0:0:0:
448,192,71679,128,0,71833:0:0:0:0:
320,192,71679,128,0,71833:0:0:0:0:
64,192,71679,1,0,0:0:0:0:
192,192,71756,1,0,0:0:0:0:
64,192,71833,1,0,0:0:0:0:
448,192,71910,128,0,72064:0:0:0:0:
192,192,71910,1,0,0:0:0:0:
320,192,71910,128,0,72064:0:0:0:0:
64,192,71987,1,0,0:0:0:0:
192,192,72064,128,0,72217:0:0:0:0:
448,192,72140,1,0,0:0:0:0:
320,192,72217,128,0,72371:0:0:0:0:
64,192,72294,1,0,0:0:0:0:
448,192,72371,128,0,72525:0:0:0:0:
192,192,72371,1,0,0:0:0:0:
320,192,72525,1,0,0:0:0:0:
192,192,72525,128,0,72679:0:0:0:0:
64,192,72525,1,0,0:0:0:0:
320,192,72679,1,0,0:0:0:0:
448,192,72679,128,0,72910:0:0:0:0:
64,192,72679,1,0,0:0:0:0:
192,192,72833,1,0,0:0:0:0:
320,192,72833,1,0,0:0:0:0:
64,192,72910,128,0,73140:0:0:0:0:
320,192,72987,1,0,0:0:0:0:
448,192,72987,1,0,0:0:0:0:
448,192,73140,128,0,73294:0:0:0:0:
320,192,73140,1,0,0:0:0:0:
192,192,73140,1,0,0:0:0:0:
64,192,73294,128,0,73448:0:0:0:0:
192,192,73294,1,0,0:0:0:0:
320,192,73371,1,0,0:0:0:0:
448,192,73448,128,0,73602:0:0:0:0:
192,192,73448,1,0,0:0:0:0:
320,192,73525,1,0,0:0:0:0:
64,192,73602,128,0,73756:0:0:0:0:
192,192,73602,1,0,0:0:0:0:
320,192,73679,1,0,0:0:0:0:
448,192,73756,128,0,73910:0:0:0:0:
192,192,73756,1,0,0:0:0:0:
320,192,73833,1,0,0:0:0:0:
192,192,73910,1,0,0:0:0:0:
64,192,73910,1,0,0:0:0:0:
320,192,73987,1,0,0:0:0:0:
64,192,74064,1,0,0:0:0:0:
192,192,74115,1,0,0:0:0:0:
320,192,74166,1,0,0:0:0:0:
448,192,74217,1,0,0:0:0:0:
64,192,74217,1,0,0:0:0:0:
192,192,74294,1,0,0:0:0:0:
448,192,74371,1,0,0:0:0:0:
320,192,74422,1,0,0:0:0:0:
192,192,74474,1,0,0:0:0:0:
64,192,74525,1,0,0:0:0:0:
448,192,74525,1,0,0:0:0:0:
320,192,74602,1,0,0:0:0:0:
192,192,74679,1,0,0:0:0:0:
320,192,74756,1,0,0:0:0:0:
192,192,74833,1,0,0:0:0:0:
448,192,74833,1,0,0:0:0:0:
64,192,74871,1,0,0:0:0:0:
320,192,74910,1,0,0:0:0:0:
192,192,74987,1,0,0:0:0:0:
448,192,74987,1,0,0:0:0:0:
64,192,75025,1,0,0:0:0:0:
320,192,75064,1,0,0:0:0:0:
192,192,75140,5,0,0:0:0:0:
448,192,75140,1,0,0:0:0:0:
320,192,75217,1,0,0:0:0:0:
64,192,75294,1,0,0:0:0:0:
192,192,75371,1,0,0:0:0:0:
64,192,75448,1,0,0:0:0:0:
320,192,75525,1,0,0:0:0:0:
64,192,75602,1,0,0:0:0:0:
320,192,75679,1,0,0:0:0:0:
64,192,75756,1,0,0:0:0:0:
192,192,75833,1,0,0:0:0:0:
64,192,75910,1,0,0:0:0:0:
320,192,75987,1,0,0:0:0:0:
192,192,76064,1,0,0:0:0:0:
448,192,76140,1,0,0:0:0:0:
320,192,76217,1,0,0:0:0:0:
192,192,76294,1,0,0:0:0:0:
64,192,76371,1,0,0:0:0:0:
320,192,76448,1,0,0:0:0:0:
192,192,76525,1,0,0:0:0:0:
64,192,76602,1,0,0:0:0:0:
448,192,76679,1,0,0:0:0:0:
192,192,76756,1,0,0:0:0:0:
448,192,76833,1,0,0:0:0:0:
320,192,76910,1,0,0:0:0:0:
64,192,76987,1,0,0:0:0:0:
448,192,77064,1,0,0:0:0:0:
64,192,77140,1,0,0:0:0:0:
320,192,77217,1,0,0:0:0:0:
448,192,77294,1,0,0:0:0:0:
192,192,77371,1,0,0:0:0:0:
448,192,77448,1,0,0:0:0:0:
320,192,77448,1,0,0:0:0:0:
64,192,77525,1,0,0:0:0:0:
320,192,77602,1,0,0:0:0:0:
448,192,77602,1,0,0:0:0:0:
192,192,77679,1,0,0:0:0:0:
448,192,77756,1,0,0:0:0:0:
320,192,77833,1,0,0:0:0:0:
448,192,77910,1,0,0:0:0:0:
192,192,77987,1,0,0:0:0:0:
448,192,78064,1,0,0:0:0:0:
192,192,78140,1,0,0:0:0:0:
448,192,78217,1,0,0:0:0:0:
320,192,78294,1,0,0:0:0:0:
448,192,78371,1,0,0:0:0:0:
192,192,78448,1,0,0:0:0:0:
320,192,78525,1,0,0:0:0:0:
64,192,78602,1,0,0:0:0:0:
192,192,78679,1,0,0:0:0:0:
448,192,78679,1,0,0:0:0:0:
320,192,78756,1,0,0:0:0:0:
64,192,78833,1,0,0:0:0:0:
448,192,78833,1,0,0:0:0:0:
192,192,78910,1,0,0:0:0:0:
320,192,78987,1,0,0:0:0:0:
448,192,79038,1,0,0:0:0:0:
64,192,79089,1,0,0:0:0:0:
192,192,79140,1,0,0:0:0:0:
320,192,79140,1,0,0:0:0:0:
448,192,79217,1,0,0:0:0:0:
64,192,79294,1,0,0:0:0:0:
192,192,79346,1,0,0:0:0:0:
320,192,79397,1,0,0:0:0:0:
448,192,79448,1,0,0:0:0:0:
64,192,79525,1,0,0:0:0:0:
320,192,79602,1,0,0:0:0:0:
192,192,79679,1,0,0:0:0:0:
64,192,79756,1,0,0:0:0:0:
448,192,79756,1,0,0:0:0:0:
320,192,79833,1,0,0:0:0:0:
192,192,79910,1,0,0:0:0:0:
448,192,79987,1,0,0:0:0:0:
64,192,80064,1,0,0:0:0:0:
320,192,80064,1,0,0:0:0:0:
192,192,80140,1,0,0:0:0:0:
320,192,80217,1,0,0:0:0:0:
192,192,80294,1,0,0:0:0:0:
320,192,80371,1,0,0:0:0:0:
64,192,80371,1,0,0:0:0:0:
192,192,80448,1,0,0:0:0:0:
320,192,80525,1,0,0:0:0:0:
192,192,80602,1,0,0:0:0:0:
320,192,80679,1,0,0:0:0:0:
64,192,80679,1,0,0:0:0:0:
192,192,80756,1,0,0:0:0:0:
320,192,80833,1,0,0:0:0:0:
192,192,80910,1,0,0:0:0:0:
448,192,80987,1,0,0:0:0:0:
320,192,80987,1,0,0:0:0:0:
192,192,81064,1,0,0:0:0:0:
320,192,81140,1,0,0:0:0:0:
448,192,81192,1,0,0:0:0:0:
192,192,81243,1,0,0:0:0:0:
64,192,81294,1,0,0:0:0:0:
320,192,81294,1,0,0:0:0:0:
192,192,81371,1,0,0:0:0:0:
320,192,81448,1,0,0:0:0:0:
192,192,81525,1,0,0:0:0:0:
320,192,81602,1,0,0:0:0:0:
448,192,81602,1,0,0:0:0:0:
192,192,81679,1,0,0:0:0:0:
320,192,81756,1,0,0:0:0:0:
192,192,81833,1,0,0:0:0:0:
320,192,81910,1,0,0:0:0:0:
448,192,81910,1,0,0:0:0:0:
192,192,81987,1,0,0:0:0:0:
320,192,82064,1,0,0:0:0:0:
192,192,82115,1,0,0:0:0:0:
64,192,82166,1,0,0:0:0:0:
320,192,82217,1,0,0:0:0:0:
448,192,82217,1,0,0:0:0:0:
192,192,82294,1,0,0:0:0:0:
320,192,82371,1,0,0:0:0:0:
192,192,82448,1,0,0:0:0:0:
64,192,82525,1,0,0:0:0:0:
448,192,82525,1,0,0:0:0:0:
192,192,82602,1,0,0:0:0:0:
320,192,82679,1,0,0:0:0:0:
192,192,82756,1,0,0:0:0:0:
64,192,82833,1,0,0:0:0:0:
448,192,82833,1,0,0:0:0:0:
320,192,82910,1,0,0:0:0:0:
192,192,82987,1,0,0:0:0:0:
320,192,83064,1,0,0:0:0:0:
448,192,83140,1,0,0:0:0:0:
64,192,83140,1,0,0:0:0:0:
192,192,83217,1,0,0:0:0:0:
320,192,83294,1,0,0:0:0:0:
192,192,83371,1,0,0:0:0:0:
64,192,83448,1,0,0:0:0:0:
448,192,83448,1,0,0:0:0:0:
320,192,83525,1,0,0:0:0:0:
192,192,83602,1,0,0:0:0:0:
64,192,83653,1,0,0:0:0:0:
448,192,83705,1,0,0:0:0:0:
320,192,83756,1,0,0:0:0:0:
192,192,83756,1,0,0:0:0:0:
320,192,83910,1,0,0:0:0:0:
448,192,83961,1,0,0:0:0:0:
64,192,84012,1,0,0:0:0:0:
192,192,84064,1,0,0:0:0:0:
320,192,84064,1,0,0:0:0:0:
192,192,84217,1,0,0:0:0:0:
64,192,84269,1,0,0:0:0:0:
448,192,84320,1,0,0:0:0:0:
192,192,84371,1,0,0:0:0:0:
320,192,84371,1,0,0:0:0:0:
320,192,84525,1,0,0:0:0:0:
448,192,84576,1,0,0:0:0:0:
64,192,84628,1,0,0:0:0:0:
192,192,84679,1,0,0:0:0:0:
320,192,84679,1,0,0:0:0:0:
64,192,84756,1,0,0:0:0:0:
448,192,84756,1,0,0:0:0:0:
320,192,84833,1,0,0:0:0:0:
192,192,84833,1,0,0:0:0:0:
64,192,84910,1,0,0:0:0:0:
448,192,84910,1,0,0:0:0:0:
320,192,84987,128,0,85064:0:0:0:0:
192,192,85064,128,0,85140:0:0:0:0:
64,192,85140,128,0,85294:0:0:0:0:
448,192,85140,1,0,0:0:0:0:
320,192,85217,1,0,0:0:0:0:
448,192,85294,1,0,0:0:0:0:
192,192,85294,128,0,85371:0:0:0:0:
320,192,85371,128,0,85448:0:0:0:0:
448,192,85448,128,0,85602:0:0:0:0:
64,192,85448,1,0,0:0:0:0:
192,192,85525,1,0,0:0:0:0:
64,192,85602,1,0,0:0:0:0:
320,192,85602,128,0,85679:0:0:0:0:
192,192,85679,128,0,85756:0:0:0:0:
64,192,85756,128,0,85910:0:0:0:0:
448,192,85756,1,0,0:0:0:0:
320,192,85833,1,0,0:0:0:0:
192,192,85910,128,0,85987:0:0:0:0:
448,192,85910,1,0,0:0:0:0:
320,192,85987,128,0,86064:0:0:0:0:
448,192,86064,128,0,86217:0:0:0:0:
64,192,86064,1,0,0:0:0:0:
192,192,86140,1,0,0:0:0:0:
64,192,86217,1,0,0:0:0:0:
320,192,86217,1,0,0:0:0:0:
448,192,86294,1,0,0:0:0:0:
320,192,86371,1,0,0:0:0:0:
192,192,86448,1,0,0:0:0:0:
448,192,86525,1,0,0:0:0:0:
320,192,86525,1,0,0:0:0:0:
64,192,86525,1,0,0:0:0:0:
192,192,86602,1,0,0:0:0:0:
448,192,86679,1,0,0:0:0:0:
320,192,86756,1,0,0:0:0:0:
192,192,86833,1,0,0:0:0:0:
64,192,86833,1,0,0:0:0:0:
448,192,86833,1,0,0:0:0:0:
320,192,86910,1,0,0:0:0:0:
64,192,86987,1,0,0:0:0:0:
192,192,87064,1,0,0:0:0:0:
320,192,87140,1,0,0:0:0:0:
448,192,87140,1,0,0:0:0:0:
64,192,87140,1,0,0:0:0:0:
192,192,87217,1,0,0:0:0:0:
448,192,87294,1,0,0:0:0:0:
320,192,87371,1,0,0:0:0:0:
64,192,87448,1,0,0:0:0:0:
448,192,87448,1,0,0:0:0:0:
192,192,87448,128,0,87525:0:0:0:0:
320,192,87525,128,0,87602:0:0:0:0:
448,192,87602,128,0,87756:0:0:0:0:
64,192,87602,1,0,0:0:0:0:
192,192,87679,1,0,0:0:0:0:
64,192,87756,1,0,0:0:0:0:
320,192,87756,128,0,87833:0:0:0:0:
192,192,87833,128,0,87910:0:0:0:0:
64,192,87910,128,0,88064:0:0:0:0:
448,192,87910,1,0,0:0:0:0:
320,192,87987,1,0,0:0:0:0:
448,192,88064,1,0,0:0:0:0:
192,192,88064,128,0,88140:0:0:0:0:
320,192,88140,128,0,88217:0:0:0:0:
448,192,88217,128,0,88371:0:0:0:0:
64,192,88217,1,0,0:0:0:0:
192,192,88294,1,0,0:0:0:0:
320,192,88371,128,0,88448:0:0:0:0:
64,192,88371,1,0,0:0:0:0:
192,192,88448,128,0,88525:0:0:0:0:
64,192,88525,128,0,88679:0:0:0:0:
320,192,88525,1,0,0:0:0:0:
448,192,88602,1,0,0:0:0:0:
320,192,88679,1,0,0:0:0:0:
192,192,88679,1,0,0:0:0:0:
64,192,88756,1,0,0:0:0:0:
192,192,88833,1,0,0:0:0:0:
448,192,88833,1,0,0:0:0:0:
320,192,88910,1,0,0:0:0:0:
64,192,88987,1,0,0:0:0:0:
192,192,88987,1,0,0:0:0:0:
448,192,88987,1,0,0:0:0:0:
320,192,89064,1,0,0:0:0:0:
64,192,89140,1,0,0:0:0:0:
448,192,89140,1,0,0:0:0:0:
192,192,89217,1,0,0:0:0:0:
320,192,89294,1,0,0:0:0:0:
448,192,89294,1,0,0:0:0:0:
64,192,89294,1,0,0:0:0:0:
192,192,89371,1,0,0:0:0:0:
320,192,89448,1,0,0:0:0:0:
448,192,89448,1,0,0:0:0:0:
64,192,89525,1,0,0:0:0:0:
192,192,89602,1,0,0:0:0:0:
448,192,89602,1,0,0:0:0:0:
320,192,89653,1,0,0:0:0:0:
64,192,89705,1,0,0:0:0:0:
448,192,89756,1,0,0:0:0:0:
192,192,89756,1,0,0:0:0:0:
320,192,89807,1,0,0:0:0:0:
64,192,89858,1,0,0:0:0:0:
192,192,89910,1,0,0:0:0:0:
448,192,89910,1,0,0:0:0:0:
320,192,89910,1,0,0:0:0:0:
64,192,89987,1,0,0:0:0:0:
192,192,90064,1,0,0:0:0:0:
448,192,90140,1,0,0:0:0:0:
320,192,90140,1,0,0:0:0:0:
192,192,90217,1,0,0:0:0:0:
64,192,90217,1,0,0:0:0:0:
448,192,90294,1,0,0:0:0:0:
192,192,90371,1,0,0:0:0:0:
64,192,90371,1,0,0:0:0:0:
320,192,90448,1,0,0:0:0:0:
192,192,90525,1,0,0:0:0:0:
320,192,90602,1,0,0:0:0:0:
64,192,90602,1,0,0:0:0:0:
448,192,90679,1,0,0:0:0:0:
192,192,90679,1,0,0:0:0:0:
320,192,90756,1,0,0:0:0:0:
192,192,90833,1,0,0:0:0:0:
64,192,90833,1,0,0:0:0:0:
448,192,90910,1,0,0:0:0:0:
320,192,90987,1,0,0:0:0:0:
192,192,90987,1,0,0:0:0:0:
64,192,91064,1,0,0:0:0:0:
320,192,91140,1,0,0:0:0:0:
448,192,91140,1,0,0:0:0:0:
192,192,91217,1,0,0:0:0:0:
448,192,91294,1,0,0:0:0:0:
64,192,91371,1,0,0:0:0:0:
192,192,91371,1,0,0:0:0:0:
320,192,91448,1,0,0:0:0:0:
448,192,91448,1,0,0:0:0:0:
64,192,91525,1,0,0:0:0:0:
320,192,91602,1,0,0:0:0:0:
448,192,91602,1,0,0:0:0:0:
192,192,91679,1,0,0:0:0:0:
320,192,91756,1,0,0:0:0:0:
192,192,91833,1,0,0:0:0:0:
448,192,91833,1,0,0:0:0:0:
64,192,91910,1,0,0:0:0:0:
320,192,91910,1,0,0:0:0:0:
192,192,91987,1,0,0:0:0:0:
320,192,92064,1,0,0:0:0:0:
448,192,92064,1,0,0:0:0:0:
64,192,92140,1,0,0:0:0:0:
192,192,92140,1,0,0:0:0:0:
320,192,92217,1,0,0:0:0:0:
448,192,92217,1,0,0:0:0:0:
192,192,92294,1,0,0:0:0:0:
64,192,92371,1,0,0:0:0:0:
448,192,92371,1,0,0:0:0:0:
320,192,92371,1,0,0:0:0:0:
192,192,92448,1,0,0:0:0:0:
448,192,92525,1,0,0:0:0:0:
320,192,92602,1,0,0:0:0:0:
64,192,92602,1,0,0:0:0:0:
448,192,92679,1,0,0:0:0:0:
192,192,92679,1,0,0:0:0:0:
64,192,92756,1,0,0:0:0:0:
448,192,92833,1,0,0:0:0:0:
320,192,92833,1,0,0:0:0:0:
192,192,92910,1,0,0:0:0:0:
448,192,92987,1,0,0:0:0:0:
64,192,92987,1,0,0:0:0:0:
192,192,93064,1,0,0:0:0:0:
320,192,93064,1,0,0:0:0:0:
64,192,93140,1,0,0:0:0:0:
448,192,93140,1,0,0:0:0:0:
192,192,93217,1,0,0:0:0:0:
448,192,93294,1,0,0:0:0:0:
320,192,93294,1,0,0:0:0:0:
64,192,93371,1,0,0:0:0:0:
320,192,93448,1,0,0:0:0:0:
192,192,93448,1,0,0:0:0:0:
448,192,93525,1,0,0:0:0:0:
64,192,93525,1,0,0:0:0:0:
192,192,93602,1,0,0:0:0:0:
320,192,93602,1,0,0:0:0:0:
64,192,93679,1,0,0:0:0:0:
320,192,93756,1,0,0:0:0:0:
448,192,93756,1,0,0:0:0:0:
192,192,93833,1,0,0:0:0:0:
64,192,93833,1,0,0:0:0:0:
320,192,93910,1,0,0:0:0:0:
448,192,93910,1,0,0:0:0:0:
64,192,93987,1,0,0:0:0:0:
192,192,93987,1,0,0:0:0:0:
448,192,94064,1,0,0:0:0:0:
320,192,94064,1,0,0:0:0:0:
192,192,94140,1,0,0:0:0:0:
64,192,94217,1,0,0:0:0:0:
448,192,94217,1,0,0:0:0:0:
320,192,94294,1,0,0:0:0:0:
192,192,94333,1,0,0:0:0:0:
64,192,94371,1,0,0:0:0:0:
448,192,94410,1,0,0:0:0:0:
320,192,94448,1,0,0:0:0:0:
192,192,94525,1,0,0:0:0:0:
64,192,94525,1,0,0:0:0:0:
320,192,94602,1,0,0:0:0:0:
448,192,94602,1,0,0:0:0:0:
192,192,94679,1,0,0:0:0:0:
64,192,94717,1,0,0:0:0:0:
448,192,94756,1,0,0:0:0:0:
320,192,94794,1,0,0:0:0:0:
64,192,94833,1,0,0:0:0:0:
192,192,94833,128,0,95756:0:0:0:0:
64,192,95756,1,0,0:0:0:0:
192,192,95910,1,0,0:0:0:0:
320,192,96064,1,0,0:0:0:0:
448,192,96140,1,0,0:0:0:0:
320,192,96217,1,0,0:0:0:0:
448,192,96294,1,0,0:0:0:0:
320,192,96371,1,0,0:0:0:0:
448,192,96448,1,0,0:0:0:0:
320,192,96525,1,0,0:0:0:0:
448,192,96602,1,0,0:0:0:0:
320,192,96679,1,0,0:0:0:0:
192,192,96756,1,0,0:0:0:0:
320,192,96833,1,0,0:0:0:0:
192,192,96910,1,0,0:0:0:0:
320,192,96987,1,0,0:0:0:0:
192,192,97064,1,0,0:0:0:0:
320,192,97140,1,0,0:0:0:0:
192,192,97217,1,0,0:0:0:0:
64,192,97294,1,0,0:0:0:0:
448,192,97371,1,0,0:0:0:0:
64,192,97448,1,0,0:0:0:0:
448,192,97525,1,0,0:0:0:0:
64,192,97602,1,0,0:0:0:0:
448,192,97679,1,0,0:0:0:0:
64,192,97756,1,0,0:0:0:0:
448,192,97833,1,0,0:0:0:0:
64,192,97910,1,0,0:0:0:0:
448,192,97987,1,0,0:0:0:0:
64,192,98064,1,0,0:0:0:0:
448,192,98140,1,0,0:0:0:0:
64,192,98217,1,0,0:0:0:0:
448,192,98294,1,0,0:0:0:0:
64,192,98371,1,0,0:0:0:0:
448,192,98448,1,0,0:0:0:0:
192,192,98525,1,0,0:0:0:0:
64,192,98525,1,0,0:0:0:0:
320,192,98602,1,0,0:0:0:0:
448,192,98602,1,0,0:0:0:0:
192,192,98679,1,0,0:0:0:0:
64,192,98679,1,0,0:0:0:0:
320,192,98756,1,0,0:0:0:0:
448,192,98756,1,0,0:0:0:0:
192,192,98833,1,0,0:0:0:0:
64,192,98833,1,0,0:0:0:0:
320,192,98910,1,0,0:0:0:0:
448,192,98910,1,0,0:0:0:0:
192,192,98987,1,0,0:0:0:0:
64,192,98987,1,0,0:0:0:0:
320,192,99064,1,0,0:0:0:0:
448,192,99064,1,0,0:0:0:0:
192,192,99140,1,0,0:0:0:0:
64,192,99140,1,0,0:0:0:0:
320,192,99217,1,0,0:0:0:0:
448,192,99217,1,0,0:0:0:0:
192,192,99294,1,0,0:0:0:0:
64,192,99294,1,0,0:0:0:0:
320,192,99371,1,0,0:0:0:0:
448,192,99371,1,0,0:0:0:0:
192,192,99448,1,0,0:0:0:0:
64,192,99448,1,0,0:0:0:0:
320,192,99525,1,0,0:0:0:0:
448,192,99525,1,0,0:0:0:0:
192,192,99602,1,0,0:0:0:0:
64,192,99602,1,0,0:0:0:0:
320,192,99679,1,0,0:0:0:0:
448,192,99679,1,0,0:0:0:0:
192,192,99756,1,0,0:0:0:0:
64,192,99756,1,0,0:0:0:0:
320,192,99833,1,0,0:0:0:0:
448,192,99833,1,0,0:0:0:0:
192,192,99910,1,0,0:0:0:0:
64,192,99910,1,0,0:0:0:0:
320,192,99987,1,0,0:0:0:0:
448,192,99987,1,0,0:0:0:0:
64,192,100064,1,0,0:0:0:0:
192,192,100064,1,0,0:0:0:0:
320,192,100140,1,0,0:0:0:0:
448,192,100140,1,0,0:0:0:0:
192,192,100217,1,0,0:0:0:0:
64,192,100217,1,0,0:0:0:0:
320,192,100294,1,0,0:0:0:0:
448,192,100294,1,0,0:0:0:0:
192,192,100371,128,0,100448:0:0:0:0:
64,192,100371,1,0,0:0:0:0:
320,192,100448,128,0,100525:0:0:0:0:
448,192,100448,1,0,0:0:0:0:
192,192,100525,128,0,100602:0:0:0:0:
64,192,100525,1,0,0:0:0:0:
320,192,100602,128,0,100679:0:0:0:0:
448,192,100602,1,0,0:0:0:0:
64,192,100679,128,0,100756:0:0:0:0:
192,192,100679,1,0,0:0:0:0:
320,192,100756,5,0,0:0:0:0:
448,192,100756,128,0,100833:0:0:0:0:
64,192,100833,128,0,100910:0:0:0:0:
192,192,100833,1,0,0:0:0:0:
320,192,100910,1,0,0:0:0:0:
448,192,100910,128,0,100987:0:0:0:0:
192,192,100987,128,0,101064:0:0:0:0:
64,192,100987,1,0,0:0:0:0:
320,192,101064,128,0,101140:0:0:0:0:
192,192,101140,128,0,101217:0:0:0:0:
320,192,101217,128,0,101294:0:0:0:0:
448,192,101294,128,0,101371:0:0:0:0:
64,192,101371,128,0,101448:0:0:0:0:
448,192,101448,128,0,101525:0:0:0:0:
64,192,101525,128,0,101602:0:0:0:0:
192,192,101602,128,0,101679:0:0:0:0:
320,192,101679,128,0,101756:0:0:0:0:
192,192,101756,128,0,101833:0:0:0:0:
320,192,101833,128,0,101910:0:0:0:0:
448,192,101910,1,0,0:0:0:0:
192,192,101910,1,0,0:0:0:0:
64,192,101910,1,0,0:0:0:0:
320,192,101987,1,0,0:0:0:0:
192,192,102064,5,0,0:0:0:0:
448,192,102064,1,0,0:0:0:0:
64,192,102140,1,0,0:0:0:0:
320,192,102140,1,0,0:0:0:0:
448,192,102217,1,0,0:0:0:0:
320,192,102217,1,0,0:0:0:0:
192,192,102217,1,0,0:0:0:0:
320,192,102371,1,0,0:0:0:0:
448,192,102371,1,0,0:0:0:0:
192,192,102448,1,0,0:0:0:0:
64,192,102525,1,0,0:0:0:0:
448,192,102525,1,0,0:0:0:0:
320,192,102525,1,0,0:0:0:0:
192,192,102679,1,0,0:0:0:0:
320,192,102679,1,0,0:0:0:0:
448,192,102679,1,0,0:0:0:0:
64,192,102756,1,0,0:0:0:0:
192,192,102833,1,0,0:0:0:0:
320,192,102910,1,0,0:0:0:0:
192,192,102987,1,0,0:0:0:0:
448,192,102987,1,0,0:0:0:0:
64,192,102987,1,0,0:0:0:0:
320,192,103064,1,0,0:0:0:0:
192,192,103140,1,0,0:0:0:0:
64,192,103217,1,0,0:0:0:0:
448,192,103294,1,0,0:0:0:0:
320,192,103294,1,0,0:0:0:0:
192,192,103371,1,0,0:0:0:0:
448,192,103448,1,0,0:0:0:0:
64,192,103448,1,0,0:0:0:0:
320,192,103448,1,0,0:0:0:0:
192,192,103602,1,0,0:0:0:0:
64,192,103679,1,0,0:0:0:0:
448,192,103756,1,0,0:0:0:0:
192,192,103756,1,0,0:0:0:0:
320,192,103756,1,0,0:0:0:0:
320,192,103910,1,0,0:0:0:0:
448,192,103910,1,0,0:0:0:0:
64,192,103910,1,0,0:0:0:0:
64,192,104064,1,0,0:0:0:0:
192,192,104064,1,0,0:0:0:0:
320,192,104064,1,0,0:0:0:0:
448,192,104140,1,0,0:0:0:0:
320,192,104217,1,0,0:0:0:0:
64,192,104217,1,0,0:0:0:0:
64,192,104371,1,0,0:0:0:0:
448,192,104371,1,0,0:0:0:0:
320,192,104371,1,0,0:0:0:0:
192,192,104448,1,0,0:0:0:0:
448,192,104525,1,0,0:0:0:0:
64,192,104525,1,0,0:0:0:0:
320,192,104525,1,0,0:0:0:0:
192,192,104602,1,0,0:0:0:0:
320,192,104679,1,0,0:0:0:0:
64,192,104679,1,0,0:0:0:0:
448,192,104679,1,0,0:0:0:0:
448,192,104833,1,0,0:0:0:0:
320,192,104910,1,0,0:0:0:0:
448,192,104987,1,0,0:0:0:0:
64,192,104987,1,0,0:0:0:0:
192,192,104987,1,0,0:0:0:0:
320,192,105140,1,0,0:0:0:0:
192,192,105217,1,0,0:0:0:0:
320,192,105294,1,0,0:0:0:0:
448,192,105294,1,0,0:0:0:0:
64,192,105294,1,0,0:0:0:0:
448,192,105448,1,0,0:0:0:0:
320,192,105525,1,0,0:0:0:0:
192,192,105602,1,0,0:0:0:0:
64,192,105602,1,0,0:0:0:0:
448,192,105602,1,0,0:0:0:0:
320,192,105679,1,0,0:0:0:0:
192,192,105756,1,0,0:0:0:0:
448,192,105833,1,0,0:0:0:0:
320,192,105910,1,0,0:0:0:0:
192,192,105910,1,0,0:0:0:0:
64,192,105910,1,0,0:0:0:0:
448,192,106064,1,0,0:0:0:0:
320,192,106140,1,0,0:0:0:0:
192,192,106217,1,0,0:0:0:0:
448,192,106217,1,0,0:0:0:0:
64,192,106217,1,0,0:0:0:0:
320,192,106294,1,0,0:0:0:0:
64,192,106371,1,0,0:0:0:0:
448,192,106371,1,0,0:0:0:0:
192,192,106448,1,0,0:0:0:0:
64,192,106525,1,0,0:0:0:0:
448,192,106525,1,0,0:0:0:0:
320,192,106525,1,0,0:0:0:0:
192,192,106602,1,0,0:0:0:0:
64,192,106679,1,0,0:0:0:0:
320,192,106756,1,0,0:0:0:0:
448,192,106756,1,0,0:0:0:0:
192,192,106833,1,0,0:0:0:0:
64,192,106833,1,0,0:0:0:0:
448,192,106910,1,0,0:0:0:0:
192,192,106987,1,0,0:0:0:0:
320,192,106987,1,0,0:0:0:0:
64,192,107064,1,0,0:0:0:0:
448,192,107064,1,0,0:0:0:0:
320,192,107140,1,0,0:0:0:0:
192,192,107140,128,0,107294:0:0:0:0:
448,192,107294,1,0,0:0:0:0:
320,192,107294,1,0,0:0:0:0:
64,192,107371,128,0,107602:0:0:0:0:
192,192,107371,1,0,0:0:0:0:
320,192,107448,1,0,0:0:0:0:
448,192,107448,1,0,0:0:0:0:
448,192,107602,128,0,107833:0:0:0:0:
320,192,107602,1,0,0:0:0:0:
192,192,107679,1,0,0:0:0:0:
64,192,107756,1,0,0:0:0:0:
320,192,107833,128,0,108064:0:0:0:0:
192,192,107833,1,0,0:0:0:0:
448,192,107910,1,0,0:0:0:0:
64,192,107910,1,0,0:0:0:0:
192,192,108064,128,0,108217:0:0:0:0:
64,192,108064,1,0,0:0:0:0:
448,192,108064,1,0,0:0:0:0:
64,192,108217,128,0,108371:0:0:0:0:
320,192,108217,1,0,0:0:0:0:
448,192,108217,1,0,0:0:0:0:
448,192,108371,128,0,108525:0:0:0:0:
320,192,108371,1,0,0:0:0:0:
192,192,108371,1,0,0:0:0:0:
64,192,108525,1,0,0:0:0:0:
192,192,108525,1,0,0:0:0:0:
448,192,108602,1,0,0:0:0:0:
320,192,108602,128,0,108833:0:0:0:0:
192,192,108679,1,0,0:0:0:0:
64,192,108679,1,0,0:0:0:0:
64,192,108833,128,0,109064:0:0:0:0:
192,192,108833,1,0,0:0:0:0:
448,192,108833,1,0,0:0:0:0:
320,192,108910,1,0,0:0:0:0:
448,192,108987,1,0,0:0:0:0:
192,192,109064,128,0,109294:0:0:0:0:
320,192,109064,1,0,0:0:0:0:
448,192,109140,1,0,0:0:0:0:
64,192,109140,1,0,0:0:0:0:
320,192,109217,1,0,0:0:0:0:
448,192,109294,128,0,109371:0:0:0:0:
64,192,109294,1,0,0:0:0:0:
320,192,109371,128,0,109448:0:0:0:0:
192,192,109448,128,0,109525:0:0:0:0:
64,192,109525,128,0,109602:0:0:0:0:
448,192,109602,128,0,109756:0:0:0:0:
320,192,109602,1,0,0:0:0:0:
192,192,109602,1,0,0:0:0:0:
64,192,109756,1,0,0:0:0:0:
192,192,109756,1,0,0:0:0:0:
320,192,109833,128,0,110064:0:0:0:0:
448,192,109833,1,0,0:0:0:0:
64,192,109910,1,0,0:0:0:0:
192,192,109910,1,0,0:0:0:0:
192,192,110064,128,0,110294:0:0:0:0:
64,192,110064,1,0,0:0:0:0:
448,192,110064,1,0,0:0:0:0:
448,192,110217,1,0,0:0:0:0:
320,192,110294,1,0,0:0:0:0:
64,192,110294,128,0,110371:0:0:0:0:
448,192,110371,128,0,110448:0:0:0:0:
192,192,110371,1,0,0:0:0:0:
320,192,110448,128,0,110525:0:0:0:0:
64,192,110525,128,0,110602:0:0:0:0:
192,192,110602,1,0,0:0:0:0:
448,192,110602,128,0,110679:0:0:0:0:
320,192,110679,128,0,110756:0:0:0:0:
64,192,110679,1,0,0:0:0:0:
192,192,110756,128,0,110833:0:0:0:0:
448,192,110833,1,0,0:0:0:0:
320,192,110833,1,0,0:0:0:0:
64,192,110833,1,0,0:0:0:0:
448,192,110987,1,0,0:0:0:0:
320,192,111038,1,0,0:0:0:0:
192,192,111089,1,0,0:0:0:0:
64,192,111140,1,0,0:0:0:0:
448,192,111140,1,0,0:0:0:0:
320,192,111217,1,0,0:0:0:0:
64,192,111294,1,0,0:0:0:0:
448,192,111294,1,0,0:0:0:0:
192,192,111346,1,0,0:0:0:0:
320,192,111397,1,0,0:0:0:0:
64,192,111448,1,0,0:0:0:0:
448,192,111448,1,0,0:0:0:0:
192,192,111525,1,0,0:0:0:0:
448,192,111602,1,0,0:0:0:0:
320,192,111640,1,0,0:0:0:0:
192,192,111679,1,0,0:0:0:0:
64,192,111717,1,0,0:0:0:0:
448,192,111756,1,0,0:0:0:0:
320,192,111756,1,0,0:0:0:0:
192,192,111833,1,0,0:0:0:0:
448,192,111910,1,0,0:0:0:0:
64,192,111910,1,0,0:0:0:0:
320,192,111987,1,0,0:0:0:0:
192,192,112064,1,0,0:0:0:0:
64,192,112064,1,0,0:0:0:0:
320,192,112140,1,0,0:0:0:0:
192,192,112217,1,0,0:0:0:0:
448,192,112217,1,0,0:0:0:0:
64,192,112294,1,0,0:0:0:0:
320,192,112294,1,0,0:0:0:0:
192,192,112371,1,0,0:0:0:0:
448,192,112448,1,0,0:0:0:0:
320,192,112525,1,0,0:0:0:0:
192,192,112525,1,0,0:0:0:0:
64,192,112602,1,0,0:0:0:0:
320,192,112679,1,0,0:0:0:0:
448,192,112756,1,0,0:0:0:0:
192,192,112833,1,0,0:0:0:0:
64,192,112833,1,0,0:0:0:0:
448,192,112910,1,0,0:0:0:0:
192,192,112987,1,0,0:0:0:0:
320,192,113064,1,0,0:0:0:0:
448,192,113064,1,0,0:0:0:0:
192,192,113140,1,0,0:0:0:0:
64,192,113140,1,0,0:0:0:0:
320,192,113217,1,0,0:0:0:0:
448,192,113217,1,0,0:0:0:0:
192,192,113294,1,0,0:0:0:0:
64,192,113294,1,0,0:0:0:0:
448,192,113371,1,0,0:0:0:0:
64,192,113448,1,0,0:0:0:0:
320,192,113525,1,0,0:0:0:0:
192,192,113602,1,0,0:0:0:0:
448,192,113602,1,0,0:0:0:0:
320,192,113679,1,0,0:0:0:0:
192,192,113756,1,0,0:0:0:0:
448,192,113756,1,0,0:0:0:0:
64,192,113833,1,0,0:0:0:0:
320,192,113910,1,0,0:0:0:0:
448,192,113910,1,0,0:0:0:0:
64,192,113987,1,0,0:0:0:0:
320,192,114064,1,0,0:0:0:0:
448,192,114064,1,0,0:0:0:0:
192,192,114140,1,0,0:0:0:0:
64,192,114217,1,0,0:0:0:0:
320,192,114217,1,0,0:0:0:0:
192,192,114294,1,0,0:0:0:0:
64,192,114371,1,0,0:0:0:0:
320,192,114371,1,0,0:0:0:0:
448,192,114448,1,0,0:0:0:0:
320,192,114525,1,0,0:0:0:0:
192,192,114525,1,0,0:0:0:0:
64,192,114525,1,0,0:0:0:0:
448,192,114602,1,0,0:0:0:0:
320,192,114679,1,0,0:0:0:0:
192,192,114756,1,0,0:0:0:0:
448,192,114833,1,0,0:0:0:0:
64,192,114833,1,0,0:0:0:0:
192,192,114910,1,0,0:0:0:0:
320,192,114987,1,0,0:0:0:0:
192,192,115064,1,0,0:0:0:0:
64,192,115140,1,0,0:0:0:0:
320,192,115140,1,0,0:0:0:0:
192,192,115217,1,0,0:0:0:0:
64,192,115294,1,0,0:0:0:0:
448,192,115294,1,0,0:0:0:0:
192,192,115371,1,0,0:0:0:0:
320,192,115448,1,0,0:0:0:0:
448,192,115448,1,0,0:0:0:0:
192,192,115525,1,0,0:0:0:0:
320,192,115602,1,0,0:0:0:0:
448,192,115679,1,0,0:0:0:0:
192,192,115679,1,0,0:0:0:0:
320,192,115756,1,0,0:0:0:0:
64,192,115756,1,0,0:0:0:0:
192,192,115833,1,0,0:0:0:0:
320,192,115910,1,0,0:0:0:0:
448,192,115987,1,0,0:0:0:0:
192,192,115987,1,0,0:0:0:0:
320,192,116064,1,0,0:0:0:0:
64,192,116064,1,0,0:0:0:0:
192,192,116140,1,0,0:0:0:0:
320,192,116217,1,0,0:0:0:0:
192,192,116294,1,0,0:0:0:0:
448,192,116294,1,0,0:0:0:0:
320,192,116371,1,0,0:0:0:0:
64,192,116371,1,0,0:0:0:0:
192,192,116448,1,0,0:0:0:0:
320,192,116525,1,0,0:0:0:0:
448,192,116602,1,0,0:0:0:0:
192,192,116602,1,0,0:0:0:0:
64,192,116679,1,0,0:0:0:0:
320,192,116679,1,0,0:0:0:0:
192,192,116756,1,0,0:0:0:0:
320,192,116833,1,0,0:0:0:0:
448,192,116910,1,0,0:0:0:0:
64,192,116910,1,0,0:0:0:0:
192,192,116987,1,0,0:0:0:0:
320,192,116987,1,0,0:0:0:0:
448,192,117064,1,0,0:0:0:0:
64,192,117140,1,0,0:0:0:0:
192,192,117140,1,0,0:0:0:0:
320,192,117217,1,0,0:0:0:0:
64,192,117294,1,0,0:0:0:0:
448,192,117294,1,0,0:0:0:0:
192,192,117371,1,0,0:0:0:0:
320,192,117448,1,0,0:0:0:0:
448,192,117448,1,0,0:0:0:0:
64,192,117525,1,0,0:0:0:0:
192,192,117602,1,0,0:0:0:0:
320,192,117602,1,0,0:0:0:0:
448,192,117679,1,0,0:0:0:0:
64,192,117756,1,0,0:0:0:0:
192,192,117756,1,0,0:0:0:0:
320,192,117833,1,0,0:0:0:0:
448,192,117910,1,0,0:0:0:0:
64,192,117910,1,0,0:0:0:0:
192,192,117987,1,0,0:0:0:0:
320,192,118064,1,0,0:0:0:0:
64,192,118064,1,0,0:0:0:0:
448,192,118140,1,0,0:0:0:0:
320,192,118217,1,0,0:0:0:0:
192,192,118217,1,0,0:0:0:0:
64,192,118294,1,0,0:0:0:0:
320,192,118371,1,0,0:0:0:0:
448,192,118371,1,0,0:0:0:0:
192,192,118448,1,0,0:0:0:0:
64,192,118525,1,0,0:0:0:0:
448,192,118525,1,0,0:0:0:0:
320,192,118602,1,0,0:0:0:0:
192,192,118679,1,0,0:0:0:0:
64,192,118679,1,0,0:0:0:0:
448,192,118756,1,0,0:0:0:0:
320,192,118833,1,0,0:0:0:0:
192,192,118833,1,0,0:0:0:0:
64,192,118910,1,0,0:0:0:0:
320,192,118987,1,0,0:0:0:0:
448,192,118987,1,0,0:0:0:0:
192,192,119064,1,0,0:0:0:0:
64,192,119140,1,0,0:0:0:0:
448,192,119140,1,0,0:0:0:0:
320,192,119217,1,0,0:0:0:0:
192,192,119217,1,0,0:0:0:0:
64,192,119294,1,0,0:0:0:0:
448,192,119294,1,0,0:0:0:0:
192,192,119371,1,0,0:0:0:0:
320,192,119371,1,0,0:0:0:0:
448,192,119448,1,0,0:0:0:0:
64,192,119448,1,0,0:0:0:0:
320,192,119602,1,0,0:0:0:0:
448,192,119679,1,0,0:0:0:0:
320,192,119756,1,0,0:0:0:0:
192,192,119756,1,0,0:0:0:0:
448,192,119833,1,0,0:0:0:0:
192,192,119910,1,0,0:0:0:0:
320,192,119910,1,0,0:0:0:0:
64,192,119910,1,0,0:0:0:0:
448,192,120064,1,0,0:0:0:0:
320,192,120064,1,0,0:0:0:0:
192,192,120064,1,0,0:0:0:0:
64,192,120140,1,0,0:0:0:0:
320,192,120217,1,0,0:0:0:0:
192,192,120217,1,0,0:0:0:0:
64,192,120294,1,0,0:0:0:0:
192,192,120371,1,0,0:0:0:0:
448,192,120448,1,0,0:0:0:0:
64,192,120448,1,0,0:0:0:0:
320,192,120525,1,0,0:0:0:0:
192,192,120564,1,0,0:0:0:0:
448,192,120602,1,0,0:0:0:0:
64,192,120602,1,0,0:0:0:0:
320,192,120640,1,0,0:0:0:0:
192,192,120679,1,0,0:0:0:0:
64,192,120679,1,0,0:0:0:0:
448,192,120756,1,0,0:0:0:0:
320,192,120833,1,0,0:0:0:0:
64,192,120910,1,0,0:0:0:0:
448,192,120910,1,0,0:0:0:0:
192,192,120910,1,0,0:0:0:0:
320,192,120987,1,0,0:0:0:0:
448,192,121064,1,0,0:0:0:0:
64,192,121140,1,0,0:0:0:0:
192,192,121140,1,0,0:0:0:0:
320,192,121217,1,0,0:0:0:0:
448,192,121294,1,0,0:0:0:0:
64,192,121371,1,0,0:0:0:0:
320,192,121371,1,0,0:0:0:0:
192,192,121448,1,0,0:0:0:0:
320,192,121487,1,0,0:0:0:0:
448,192,121525,1,0,0:0:0:0:
64,192,121525,1,0,0:0:0:0:
192,192,121564,1,0,0:0:0:0:
320,192,121602,1,0,0:0:0:0:
448,192,121602,1,0,0:0:0:0:
448,192,121756,1,0,0:0:0:0:
64,192,121756,1,0,0:0:0:0:
192,192,121756,1,0,0:0:0:0:
320,192,121910,1,0,0:0:0:0:
64,192,121910,1,0,0:0:0:0:
448,192,121910,1,0,0:0:0:0:
64,192,122064,128,0,122217:0:0:0:0:
320,192,122217,1,0,0:0:0:0:
448,192,122269,1,0,0:0:0:0:
64,192,122320,1,0,0:0:0:0:
320,192,122371,1,0,0:0:0:0:
448,192,122422,1,0,0:0:0:0:
64,192,122474,1,0,0:0:0:0:
192,192,122525,1,0,0:0:0:0:
320,192,122525,1,0,0:0:0:0:
64,192,122679,1,0,0:0:0:0:
448,192,122679,128,0,122833:0:0:0:0:
320,192,122679,1,0,0:0:0:0:
192,192,122833,1,0,0:0:0:0:
64,192,122884,1,0,0:0:0:0:
448,192,122935,1,0,0:0:0:0:
192,192,122987,1,0,0:0:0:0:
64,192,123038,1,0,0:0:0:0:
448,192,123089,1,0,0:0:0:0:
192,192,123140,1,0,0:0:0:0:
320,192,123140,1,0,0:0:0:0:
64,192,123294,128,0,123448:0:0:0:0:
192,192,123294,1,0,0:0:0:0:
448,192,123294,1,0,0:0:0:0:
320,192,123448,1,0,0:0:0:0:
448,192,123499,1,0,0:0:0:0:
64,192,123551,1,0,0:0:0:0:
320,192,123602,1,0,0:0:0:0:
448,192,123653,1,0,0:0:0:0:
64,192,123705,1,0,0:0:0:0:
320,192,123756,1,0,0:0:0:0:
192,192,123756,1,0,0:0:0:0:
64,192,123910,1,0,0:0:0:0:
320,192,123910,1,0,0:0:0:0:
448,192,123910,128,0,124064:0:0:0:0:
192,192,124064,1,0,0:0:0:0:
64,192,124115,1,0,0:0:0:0:
448,192,124166,1,0,0:0:0:0:
192,192,124217,1,0,0:0:0:0:
64,192,124269,1,0,0:0:0:0:
448,192,124320,1,0,0:0:0:0:
320,192,124371,1,0,0:0:0:0:
192,192,124371,1,0,0:0:0:0:
64,192,124448,1,0,0:0:0:0:
192,192,124525,1,0,0:0:0:0:
64,192,124602,1,0,0:0:0:0:
448,192,124679,1,0,0:0:0:0:
320,192,124679,1,0,0:0:0:0:
192,192,124756,1,0,0:0:0:0:
64,192,124833,1,0,0:0:0:0:
192,192,124910,1,0,0:0:0:0:
64,192,124987,1,0,0:0:0:0:
448,192,124987,1,0,0:0:0:0:
320,192,125064,1,0,0:0:0:0:
64,192,125140,1,0,0:0:0:0:
320,192,125217,1,0,0:0:0:0:
64,192,125294,1,0,0:0:0:0:
192,192,125294,1,0,0:0:0:0:
448,192,125371,1,0,0:0:0:0:
64,192,125448,1,0,0:0:0:0:
448,192,125525,1,0,0:0:0:0:
320,192,125602,1,0,0:0:0:0:
64,192,125602,1,0,0:0:0:0:
448,192,125756,1,0,0:0:0:0:
320,192,125833,1,0,0:0:0:0:
448,192,125910,1,0,0:0:0:0:
192,192,125910,1,0,0:0:0:0:
64,192,125910,1,0,0:0:0:0:
64,192,126064,1,0,0:0:0:0:
192,192,126140,1,0,0:0:0:0:
64,192,126217,1,0,0:0:0:0:
320,192,126217,1,0,0:0:0:0:
448,192,126217,1,0,0:0:0:0:
192,192,126294,1,0,0:0:0:0:
64,192,126371,1,0,0:0:0:0:
448,192,126371,1,0,0:0:0:0:
320,192,126448,1,0,0:0:0:0:
448,192,126525,1,0,0:0:0:0:
192,192,126525,1,0,0:0:0:0:
64,192,126602,1,0,0:0:0:0:
320,192,126602,1,0,0:0:0:0:
448,192,126679,1,0,0:0:0:0:
192,192,126679,1,0,0:0:0:0:
320,192,126756,1,0,0:0:0:0:
448,192,126833,1,0,0:0:0:0:
64,192,126833,1,0,0:0:0:0:
192,192,126833,1,0,0:0:0:0:
320,192,126987,1,0,0:0:0:0:
192,192,126987,1,0,0:0:0:0:
448,192,127064,1,0,0:0:0:0:
64,192,127140,1,0,0:0:0:0:
320,192,127140,1,0,0:0:0:0:
192,192,127217,1,0,0:0:0:0:
320,192,127294,1,0,0:0:0:0:
192,192,127371,1,0,0:0:0:0:
448,192,127371,1,0,0:0:0:0:
64,192,127448,1,0,0:0:0:0:
320,192,127448,1,0,0:0:0:0:
64,192,127602,1,0,0:0:0:0:
192,192,127679,1,0,0:0:0:0:
320,192,127717,1,0,0:0:0:0:
64,192,127756,1,0,0:0:0:0:
448,192,127756,1,0,0:0:0:0:
192,192,127833,1,0,0:0:0:0:
320,192,127910,1,0,0:0:0:0:
448,192,127987,1,0,0:0:0:0:
64,192,128064,1,0,0:0:0:0:
192,192,128064,1,0,0:0:0:0:
320,192,128140,1,0,0:0:0:0:
448,192,128217,1,0,0:0:0:0:
192,192,128269,1,0,0:0:0:0:
64,192,128320,1,0,0:0:0:0:
320,192,128371,1,0,0:0:0:0:
448,192,128371,1,0,0:0:0:0:
64,192,128448,1,0,0:0:0:0:
192,192,128525,1,0,0:0:0:0:
320,192,128576,1,0,0:0:0:0:
448,192,128628,1,0,0:0:0:0:
192,192,128679,1,0,0:0:0:0:
64,192,128679,1,0,0:0:0:0:
448,192,128756,1,0,0:0:0:0:
320,192,128833,1,0,0:0:0:0:
192,192,128884,1,0,0:0:0:0:
64,192,128935,1,0,0:0:0:0:
320,192,128987,1,0,0:0:0:0:
448,192,128987,1,0,0:0:0:0:
192,192,129064,1,0,0:0:0:0:
64,192,129140,1,0,0:0:0:0:
448,192,129140,1,0,0:0:0:0:
320,192,129192,1,0,0:0:0:0:
192,192,129243,1,0,0:0:0:0:
64,192,129294,1,0,0:0:0:0:
448,192,129294,1,0,0:0:0:0:
320,192,129371,1,0,0:0:0:0:
64,192,129448,1,0,0:0:0:0:
448,192,129525,1,0,0:0:0:0:
320,192,129602,1,0,0:0:0:0:
192,192,129602,1,0,0:0:0:0:
64,192,129679,1,0,0:0:0:0:
448,192,129756,1,0,0:0:0:0:
192,192,129833,1,0,0:0:0:0:
64,192,129910,1,0,0:0:0:0:
448,192,129910,1,0,0:0:0:0:
320,192,129910,1,0,0:0:0:0:
192,192,129987,1,0,0:0:0:0:
448,192,130064,1,0,0:0:0:0:
64,192,130140,1,0,0:0:0:0:
192,192,130217,1,0,0:0:0:0:
320,192,130217,1,0,0:0:0:0:
448,192,130294,1,0,0:0:0:0:
64,192,130371,1,0,0:0:0:0:
320,192,130448,1,0,0:0:0:0:
64,192,130525,1,0,0:0:0:0:
448,192,130525,1,0,0:0:0:0:
192,192,130525,1,0,0:0:0:0:
320,192,130602,1,0,0:0:0:0:
192,192,130679,1,0,0:0:0:0:
448,192,130756,1,0,0:0:0:0:
320,192,130833,1,0,0:0:0:0:
192,192,130833,1,0,0:0:0:0:
64,192,130910,1,0,0:0:0:0:
320,192,130987,1,0,0:0:0:0:
192,192,131064,1,0,0:0:0:0:
64,192,131140,1,0,0:0:0:0:
448,192,131140,1,0,0:0:0:0:
320,192,131140,1,0,0:0:0:0:
192,192,131217,1,0,0:0:0:0:
320,192,131294,1,0,0:0:0:0:
64,192,131371,1,0,0:0:0:0:
448,192,131371,1,0,0:0:0:0:
192,192,131448,1,0,0:0:0:0:
320,192,131448,1,0,0:0:0:0:
448,192,131525,1,0,0:0:0:0:
64,192,131602,1,0,0:0:0:0:
192,192,131602,1,0,0:0:0:0:
320,192,131679,1,0,0:0:0:0:
192,192,131756,1,0,0:0:0:0:
64,192,131756,1,0,0:0:0:0:
448,192,131756,1,0,0:0:0:0:
320,192,131833,1,0,0:0:0:0:
192,192,131910,1,0,0:0:0:0:
64,192,131910,1,0,0:0:0:0:
448,192,131910,1,0,0:0:0:0:
192,192,132064,1,0,0:0:0:0:
320,192,132140,1,0,0:0:0:0:
192,192,132217,1,0,0:0:0:0:
320,192,132294,1,0,0:0:0:0:
192,192,132371,1,0,0:0:0:0:
64,192,132371,1,0,0:0:0:0:
448,192,132371,1,0,0:0:0:0:
320,192,132448,1,0,0:0:0:0:
192,192,132525,1,0,0:0:0:0:
64,192,132525,1,0,0:0:0:0:
448,192,132525,1,0,0:0:0:0:
192,192,132679,1,0,0:0:0:0:
64,192,132756,1,0,0:0:0:0:
192,192,132833,1,0,0:0:0:0:
64,192,132910,1,0,0:0:0:0:
192,192,132987,1,0,0:0:0:0:
448,192,132987,1,0,0:0:0:0:
320,192,132987,1,0,0:0:0:0:
64,192,133064,1,0,0:0:0:0:
192,192,133140,1,0,0:0:0:0:
320,192,133140,1,0,0:0:0:0:
448,192,133140,1,0,0:0:0:0:
192,192,133294,1,0,0:0:0:0:
320,192,133371,1,0,0:0:0:0:
192,192,133448,1,0,0:0:0:0:
320,192,133525,1,0,0:0:0:0:
64,192,133602,1,0,0:0:0:0:
448,192,133602,1,0,0:0:0:0:
192,192,133602,1,0,0:0:0:0:
320,192,133679,1,0,0:0:0:0:
192,192,133756,1,0,0:0:0:0:
448,192,133756,1,0,0:0:0:0:
64,192,133756,1,0,0:0:0:0:
320,192,133910,1,0,0:0:0:0:
192,192,133987,1,0,0:0:0:0:
320,192,134064,1,0,0:0:0:0:
192,192,134140,1,0,0:0:0:0:
64,192,134217,1,0,0:0:0:0:
320,192,134217,1,0,0:0:0:0:
448,192,134217,1,0,0:0:0:0:
192,192,134294,1,0,0:0:0:0:
448,192,134371,1,0,0:0:0:0:
320,192,134371,1,0,0:0:0:0:
64,192,134371,1,0,0:0:0:0:
320,192,134525,1,0,0:0:0:0:
192,192,134576,1,0,0:0:0:0:
64,192,134628,1,0,0:0:0:0:
320,192,134679,1,0,0:0:0:0:
192,192,134730,1,0,0:0:0:0:
320,192,134781,1,0,0:0:0:0:
448,192,134833,1,0,0:0:0:0:
64,192,134833,1,0,0:0:0:0:
192,192,134833,1,0,0:0:0:0:
192,192,134987,1,0,0:0:0:0:
448,192,134987,1,0,0:0:0:0:
64,192,134987,1,0,0:0:0:0:
192,192,135140,1,0,0:0:0:0:
320,192,135192,1,0,0:0:0:0:
448,192,135243,1,0,0:0:0:0:
192,192,135294,1,0,0:0:0:0:
320,192,135346,1,0,0:0:0:0:
192,192,135397,1,0,0:0:0:0:
448,192,135448,1,0,0:0:0:0:
320,192,135448,1,0,0:0:0:0:
64,192,135448,1,0,0:0:0:0:
320,192,135602,1,0,0:0:0:0:
448,192,135621,1,0,0:0:0:0:
64,192,135679,1,0,0:0:0:0:
192,192,135698,1,0,0:0:0:0:
320,192,135756,1,0,0:0:0:0:
448,192,135756,1,0,0:0:0:0:
192,192,135910,1,0,0:0:0:0:
64,192,135929,1,0,0:0:0:0:
448,192,135987,1,0,0:0:0:0:
320,192,136006,1,0,0:0:0:0:
192,192,136064,1,0,0:0:0:0:
64,192,136064,1,0,0:0:0:0:
192,192,136294,1,0,0:0:0:0:
320,192,136294,1,0,0:0:0:0:
448,192,136525,1,0,0:0:0:0:
320,192,136525,1,0,0:0:0:0:
192,192,136602,1,0,0:0:0:0:
64,192,136602,1,0,0:0:0:0:
320,192,136679,1,0,0:0:0:0:
448,192,136679,1,0,0:0:0:0:
192,192,136756,1,0,0:0:0:0:
320,192,136833,1,0,0:0:0:0:
448,192,136833,1,0,0:0:0:0:
192,192,136910,1,0,0:0:0:0:
320,192,136987,1,0,0:0:0:0:
448,192,136987,1,0,0:0:0:0:
64,192,137064,1,0,0:0:0:0:
192,192,137140,1,0,0:0:0:0:
320,192,137140,1,0,0:0:0:0:
448,192,137217,1,0,0:0:0:0:
192,192,137294,1,0,0:0:0:0:
64,192,137294,1,0,0:0:0:0:
320,192,137371,1,0,0:0:0:0:
192,192,137448,1,0,0:0:0:0:
64,192,137448,1,0,0:0:0:0:
448,192,137525,1,0,0:0:0:0:
192,192,137602,1,0,0:0:0:0:
64,192,137602,1,0,0:0:0:0:
320,192,137679,1,0,0:0:0:0:
448,192,137756,1,0,0:0:0:0:
64,192,137756,1,0,0:0:0:0:
192,192,137833,1,0,0:0:0:0:
320,192,137910,1,0,0:0:0:0:
448,192,137910,1,0,0:0:0:0:
64,192,137987,1,0,0:0:0:0:
192,192,138064,1,0,0:0:0:0:
320,192,138064,1,0,0:0:0:0:
64,192,138140,1,0,0:0:0:0:
192,192,138217,1,0,0:0:0:0:
448,192,138217,1,0,0:0:0:0:
64,192,138294,1,0,0:0:0:0:
320,192,138371,1,0,0:0:0:0:
192,192,138371,1,0,0:0:0:0:
64,192,138448,1,0,0:0:0:0:
448,192,138448,1,0,0:0:0:0:
320,192,138525,1,0,0:0:0:0:
192,192,138525,1,0,0:0:0:0:
448,192,138602,1,0,0:0:0:0:
320,192,138679,1,0,0:0:0:0:
64,192,138679,1,0,0:0:0:0:
448,192,138756,1,0,0:0:0:0:
192,192,138833,1,0,0:0:0:0:
64,192,138833,1,0,0:0:0:0:
448,192,138910,1,0,0:0:0:0:
320,192,138987,1,0,0:0:0:0:
192,192,138987,1,0,0:0:0:0:
448,192,139064,1,0,0:0:0:0:
64,192,139140,1,0,0:0:0:0:
192,192,139140,1,0,0:0:0:0:
448,192,139217,1,0,0:0:0:0:
320,192,139217,1,0,0:0:0:0:
64,192,139294,1,0,0:0:0:0:
192,192,139333,1,0,0:0:0:0:
320,192,139371,1,0,0:0:0:0:
448,192,139410,1,0,0:0:0:0:
64,192,139448,1,0,0:0:0:0:
192,192,139448,1,0,0:0:0:0:
320,192,139525,1,0,0:0:0:0:
448,192,139602,1,0,0:0:0:0:
320,192,139640,1,0,0:0:0:0:
192,192,139679,1,0,0:0:0:0:
64,192,139717,1,0,0:0:0:0:
448,192,139756,1,0,0:0:0:0:
320,192,139756,1,0,0:0:0:0:
192,192,139833,1,0,0:0:0:0:
64,192,139910,1,0,0:0:0:0:
192,192,139948,1,0,0:0:0:0:
320,192,139987,1,0,0:0:0:0:
448,192,140025,1,0,0:0:0:0:
192,192,140064,1,0,0:0:0:0:
64,192,140064,1,0,0:0:0:0:
320,192,140140,1,0,0:0:0:0:
448,192,140217,1,0,0:0:0:0:
320,192,140256,1,0,0:0:0:0:
192,192,140294,1,0,0:0:0:0:
64,192,140333,1,0,0:0:0:0:
448,192,140371,1,0,0:0:0:0:
320,192,140371,1,0,0:0:0:0:
192,192,140448,1,0,0:0:0:0:
320,192,140525,1,0,0:0:0:0:
448,192,140525,1,0,0:0:0:0:
64,192,140602,1,0,0:0:0:0:
192,192,140679,1,0,0:0:0:0:
320,192,140679,1,0,0:0:0:0:
64,192,140756,1,0,0:0:0:0:
192,192,140833,1,0,0:0:0:0:
320,192,140833,1,0,0:0:0:0:
448,192,140910,1,0,0:0:0:0:
192,192,140987,1,0,0:0:0:0:
64,192,140987,1,0,0:0:0:0:
448,192,141064,1,0,0:0:0:0:
192,192,141140,1,0,0:0:0:0:
64,192,141140,1,0,0:0:0:0:
320,192,141217,1,0,0:0:0:0:
448,192,141294,1,0,0:0:0:0:
64,192,141294,1,0,0:0:0:0:
192,192,141371,1,0,0:0:0:0:
448,192,141448,1,0,0:0:0:0:
64,192,141448,1,0,0:0:0:0:
320,192,141525,1,0,0:0:0:0:
448,192,141602,1,0,0:0:0:0:
64,192,141602,1,0,0:0:0:0:
192,192,141679,1,0,0:0:0:0:
320,192,141756,1,0,0:0:0:0:
64,192,141833,1,0,0:0:0:0:
192,192,141910,1,0,0:0:0:0:
448,192,141987,1,0,0:0:0:0:
64,192,142064,1,0,0:0:0:0:
320,192,142140,1,0,0:0:0:0:
448,192,142217,1,0,0:0:0:0:
192,192,142294,1,0,0:0:0:0:
320,192,142371,1,0,0:0:0:0:
448,192,142448,1,0,0:0:0:0:
64,192,142525,1,0,0:0:0:0:
192,192,142602,1,0,0:0:0:0:
320,192,142679,1,0,0:0:0:0:
448,192,142756,1,0,0:0:0:0:
64,192,142833,1,0,0:0:0:0:
192,192,142833,1,0,0:0:0:0:
192,192,142935,1,0,0:0:0:0:
320,192,143038,1,0,0:0:0:0:
64,192,143140,1,0,0:0:0:0:
320,192,143243,1,0,0:0:0:0:
320,192,143346,1,0,0:0:0:0:
64,192,143448,1,0,0:0:0:0:
448,192,143448,1,0,0:0:0:0:
192,192,143551,1,0,0:0:0:0:
192,192,143653,1,0,0:0:0:0:
64,192,143756,1,0,0:0:0:0:
448,192,143858,1,0,0:0:0:0:
320,192,143961,1,0,0:0:0:0:
64,192,144064,1,0,0:0:0:0:
192,192,144064,1,0,0:0:0:0:
448,192,144166,1,0,0:0:0:0:
192,192,144269,1,0,0:0:0:0:
64,192,144371,1,0,0:0:0:0:
448,192,144371,1,0,0:0:0:0:
320,192,144474,1,0,0:0:0:0:
192,192,144576,1,0,0:0:0:0:
64,192,144679,1,0,0:0:0:0:
448,192,144781,1,0,0:0:0:0:
320,192,144833,1,0,0:0:0:0:
192,192,144833,1,0,0:0:0:0:
64,192,144884,1,0,0:0:0:0:
448,192,144987,1,0,0:0:0:0:
320,192,145064,1,0,0:0:0:0:
192,192,145064,1,0,0:0:0:0:
64,192,145089,1,0,0:0:0:0:
448,192,145192,1,0,0:0:0:0:
192,192,145294,1,0,0:0:0:0:
320,192,145294,1,0,0:0:0:0:
192,192,145397,1,0,0:0:0:0:
320,192,145499,1,0,0:0:0:0:
448,192,145602,1,0,0:0:0:0:
320,192,145705,1,0,0:0:0:0:
320,192,145807,1,0,0:0:0:0:
192,192,145910,1,0,0:0:0:0:
448,192,145910,1,0,0:0:0:0:
64,192,146012,1,0,0:0:0:0:
448,192,146064,1,0,0:0:0:0:
64,192,146115,1,0,0:0:0:0:
192,192,146217,1,0,0:0:0:0:
192,192,146320,1,0,0:0:0:0:
320,192,146422,1,0,0:0:0:0:
448,192,146525,1,0,0:0:0:0:
64,192,146525,1,0,0:0:0:0:
64,192,146628,1,0,0:0:0:0:
320,192,146730,1,0,0:0:0:0:
64,192,146833,1,0,0:0:0:0:
448,192,146833,1,0,0:0:0:0:
320,192,146935,1,0,0:0:0:0:
320,192,147038,1,0,0:0:0:0:
64,192,147140,1,0,0:0:0:0:
448,192,147140,1,0,0:0:0:0:
192,192,147243,1,0,0:0:0:0:
192,192,147346,1,0,0:0:0:0:
320,192,147448,1,0,0:0:0:0:
192,192,147551,1,0,0:0:0:0:
320,192,147653,1,0,0:0:0:0:
64,192,147756,1,0,0:0:0:0:
448,192,147756,1,0,0:0:0:0:
448,192,147858,1,0,0:0:0:0:
192,192,147961,1,0,0:0:0:0:
64,192,148064,1,0,0:0:0:0:
320,192,148166,1,0,0:0:0:0:
192,192,148269,1,0,0:0:0:0:
448,192,148371,1,0,0:0:0:0:
64,192,148371,1,0,0:0:0:0:
320,192,148474,1,0,0:0:0:0:
192,192,148576,1,0,0:0:0:0:
64,192,148679,1,0,0:0:0:0:
192,192,148781,1,0,0:0:0:0:
320,192,148884,1,0,0:0:0:0:
448,192,148987,1,0,0:0:0:0:
64,192,148987,1,0,0:0:0:0:
192,192,149089,1,0,0:0:0:0:
448,192,149192,1,0,0:0:0:0:
64,192,149294,1,0,0:0:0:0:
320,192,149294,1,0,0:0:0:0:
192,192,149397,1,0,0:0:0:0:
320,192,149499,1,0,0:0:0:0:
64,192,149602,1,0,0:0:0:0:
448,192,149602,1,0,0:0:0:0:
448,192,149705,1,0,0:0:0:0:
320,192,149756,1,0,0:0:0:0:
192,192,149756,1,0,0:0:0:0:
64,192,149807,1,0,0:0:0:0:
64,192,149910,1,0,0:0:0:0:
192,192,149987,1,0,0:0:0:0:
320,192,149987,1,0,0:0:0:0:
448,192,150012,1,0,0:0:0:0:
448,192,150115,1,0,0:0:0:0:
320,192,150217,1,0,0:0:0:0:
192,192,150217,1,0,0:0:0:0:
64,192,150320,1,0,0:0:0:0:
320,192,150422,1,0,0:0:0:0:
448,192,150525,1,0,0:0:0:0:
192,192,150628,1,0,0:0:0:0:
320,192,150730,1,0,0:0:0:0:
448,192,150833,1,0,0:0:0:0:
64,192,150833,1,0,0:0:0:0:
192,192,150935,1,0,0:0:0:0:
448,192,150987,1,0,0:0:0:0:
64,192,150987,1,0,0:0:0:0:
320,192,151038,1,0,0:0:0:0:
448,192,151140,1,0,0:0:0:0:
320,192,151243,1,0,0:0:0:0:
192,192,151346,1,0,0:0:0:0:
448,192,151448,1,0,0:0:0:0:
64,192,151448,1,0,0:0:0:0:
192,192,151551,1,0,0:0:0:0:
320,192,151602,1,0,0:0:0:0:
192,192,151653,1,0,0:0:0:0:
64,192,151756,1,0,0:0:0:0:
448,192,151756,1,0,0:0:0:0:
192,192,151858,1,0,0:0:0:0:
320,192,151961,1,0,0:0:0:0:
448,192,152064,1,0,0:0:0:0:
64,192,152064,1,0,0:0:0:0:
320,192,152140,1,0,0:0:0:0:
192,192,152217,1,0,0:0:0:0:
64,192,152294,1,0,0:0:0:0:
448,192,152371,1,0,0:0:0:0:
192,192,152371,1,0,0:0:0:0:
320,192,152448,1,0,0:0:0:0:
448,192,152525,1,0,0:0:0:0:
64,192,152525,1,0,0:0:0:0:
192,192,152602,1,0,0:0:0:0:
320,192,152679,1,0,0:0:0:0:
448,192,152679,1,0,0:0:0:0:
192,192,152756,1,0,0:0:0:0:
320,192,152833,1,0,0:0:0:0:
192,192,152910,1,0,0:0:0:0:
320,192,152987,1,0,0:0:0:0:
448,192,152987,1,0,0:0:0:0:
192,192,153064,1,0,0:0:0:0:
320,192,153140,1,0,0:0:0:0:
192,192,153217,1,0,0:0:0:0:
320,192,153294,1,0,0:0:0:0:
448,192,153294,1,0,0:0:0:0:
192,192,153371,1,0,0:0:0:0:
320,192,153448,1,0,0:0:0:0:
192,192,153525,1,0,0:0:0:0:
320,192,153602,1,0,0:0:0:0:
448,192,153602,1,0,0:0:0:0:
192,192,153679,1,0,0:0:0:0:
320,192,153756,1,0,0:0:0:0:
192,192,153833,1,0,0:0:0:0:
64,192,153910,1,0,0:0:0:0:
320,192,153910,1,0,0:0:0:0:
448,192,153910,1,0,0:0:0:0:
192,192,153987,1,0,0:0:0:0:
320,192,154064,1,0,0:0:0:0:
192,192,154140,1,0,0:0:0:0:
448,192,154140,1,0,0:0:0:0:
320,192,154217,1,0,0:0:0:0:
64,192,154217,1,0,0:0:0:0:
192,192,154294,1,0,0:0:0:0:
320,192,154371,1,0,0:0:0:0:
192,192,154448,1,0,0:0:0:0:
448,192,154448,1,0,0:0:0:0:
320,192,154525,1,0,0:0:0:0:
64,192,154525,1,0,0:0:0:0:
192,192,154602,1,0,0:0:0:0:
320,192,154679,1,0,0:0:0:0:
192,192,154756,1,0,0:0:0:0:
448,192,154756,1,0,0:0:0:0:
320,192,154833,1,0,0:0:0:0:
64,192,154833,1,0,0:0:0:0:
192,192,154910,1,0,0:0:0:0:
320,192,154987,1,0,0:0:0:0:
448,192,154987,1,0,0:0:0:0:
192,192,155064,1,0,0:0:0:0:
64,192,155064,1,0,0:0:0:0:
320,192,155140,1,0,0:0:0:0:
448,192,155140,1,0,0:0:0:0:
64,192,155217,1,0,0:0:0:0:
448,192,155294,1,0,0:0:0:0:
64,192,155371,1,0,0:0:0:0:
448,192,155448,1,0,0:0:0:0:
320,192,155448,1,0,0:0:0:0:
64,192,155525,1,0,0:0:0:0:
448,192,155602,1,0,0:0:0:0:
64,192,155679,1,0,0:0:0:0:
448,192,155756,1,0,0:0:0:0:
320,192,155756,1,0,0:0:0:0:
192,192,155756,1,0,0:0:0:0:
64,192,155833,1,0,0:0:0:0:
448,192,155910,1,0,0:0:0:0:
64,192,155987,1,0,0:0:0:0:
448,192,156064,1,0,0:0:0:0:
320,192,156064,1,0,0:0:0:0:
64,192,156140,1,0,0:0:0:0:
448,192,156217,1,0,0:0:0:0:
192,192,156217,1,0,0:0:0:0:
64,192,156294,1,0,0:0:0:0:
320,192,156294,1,0,0:0:0:0:
448,192,156371,1,0,0:0:0:0:
192,192,156371,1,0,0:0:0:0:
64,192,156448,1,0,0:0:0:0:
192,192,156525,1,0,0:0:0:0:
448,192,156525,1,0,0:0:0:0:
64,192,156602,1,0,0:0:0:0:
320,192,156602,1,0,0:0:0:0:
448,192,156679,1,0,0:0:0:0:
192,192,156679,1,0,0:0:0:0:
320,192,156756,1,0,0:0:0:0:
448,192,156833,1,0,0:0:0:0:
192,192,156833,1,0,0:0:0:0:
320,192,156910,1,0,0:0:0:0:
64,192,156910,1,0,0:0:0:0:
192,192,156987,1,0,0:0:0:0:
448,192,156987,1,0,0:0:0:0:
64,192,157064,1,0,0:0:0:0:
192,192,157140,1,0,0:0:0:0:
64,192,157217,1,0,0:0:0:0:
320,192,157217,1,0,0:0:0:0:
448,192,157294,1,0,0:0:0:0:
192,192,157294,1,0,0:0:0:0:
320,192,157371,1,0,0:0:0:0:
448,192,157448,1,0,0:0:0:0:
192,192,157448,1,0,0:0:0:0:
64,192,157448,1,0,0:0:0:0:
320,192,157525,1,0,0:0:0:0:
192,192,157602,1,0,0:0:0:0:
64,192,157602,1,0,0:0:0:0:
448,192,157602,1,0,0:0:0:0:
320,192,157679,1,0,0:0:0:0:
192,192,157756,1,0,0:0:0:0:
320,192,157833,1,0,0:0:0:0:
448,192,157833,1,0,0:0:0:0:
192,192,157910,1,0,0:0:0:0:
64,192,157910,1,0,0:0:0:0:
320,192,157987,1,0,0:0:0:0:
192,192,158064,1,0,0:0:0:0:
320,192,158140,1,0,0:0:0:0:
448,192,158140,1,0,0:0:0:0:
192,192,158217,1,0,0:0:0:0:
64,192,158217,1,0,0:0:0:0:
320,192,158294,1,0,0:0:0:0:
192,192,158371,1,0,0:0:0:0:
448,192,158371,1,0,0:0:0:0:
320,192,158448,1,0,0:0:0:0:
192,192,158525,1,0,0:0:0:0:
64,192,158525,1,0,0:0:0:0:
320,192,158602,1,0,0:0:0:0:
192,192,158679,1,0,0:0:0:0:
448,192,158679,1,0,0:0:0:0:
320,192,158756,1,0,0:0:0:0:
448,192,158833,1,0,0:0:0:0:
64,192,158833,1,0,0:0:0:0:
192,192,158833,1,0,0:0:0:0:
320,192,158910,1,0,0:0:0:0:
64,192,158987,1,0,0:0:0:0:
448,192,158987,1,0,0:0:0:0:
320,192,159064,1,0,0:0:0:0:
192,192,159064,1,0,0:0:0:0:
448,192,159140,1,0,0:0:0:0:
64,192,159140,1,0,0:0:0:0:
192,192,159217,1,0,0:0:0:0:
448,192,159294,1,0,0:0:0:0:
64,192,159294,1,0,0:0:0:0:
192,192,159371,1,0,0:0:0:0:
320,192,159371,1,0,0:0:0:0:
64,192,159448,1,0,0:0:0:0:
448,192,159448,1,0,0:0:0:0:
320,192,159525,1,0,0:0:0:0:
64,192,159602,1,0,0:0:0:0:
448,192,159602,1,0,0:0:0:0:
320,192,159679,1,0,0:0:0:0:
192,192,159679,1,0,0:0:0:0:
448,192,159756,1,0,0:0:0:0:
64,192,159756,1,0,0:0:0:0:
192,192,159833,1,0,0:0:0:0:
448,192,159910,1,0,0:0:0:0:
64,192,159910,1,0,0:0:0:0:
192,192,159987,1,0,0:0:0:0:
320,192,159987,1,0,0:0:0:0:
448,192,160064,1,0,0:0:0:0:
64,192,160064,1,0,0:0:0:0:
320,192,160140,1,0,0:0:0:0:
192,192,160217,1,0,0:0:0:0:
64,192,160217,1,0,0:0:0:0:
448,192,160294,1,0,0:0:0:0:
320,192,160371,1,0,0:0:0:0:
192,192,160371,1,0,0:0:0:0:
64,192,160448,1,0,0:0:0:0:
320,192,160525,1,0,0:0:0:0:
448,192,160525,1,0,0:0:0:0:
192,192,160602,1,0,0:0:0:0:
64,192,160679,1,0,0:0:0:0:
448,192,160679,1,0,0:0:0:0:
320,192,160679,1,0,0:0:0:0:
192,192,160756,1,0,0:0:0:0:
320,192,160833,1,0,0:0:0:0:
448,192,160833,1,0,0:0:0:0:
64,192,160910,1,0,0:0:0:0:
192,192,160987,1,0,0:0:0:0:
320,192,160987,1,0,0:0:0:0:
448,192,161064,1,0,0:0:0:0:
192,192,161140,1,0,0:0:0:0:
64,192,161140,1,0,0:0:0:0:
320,192,161217,1,0,0:0:0:0:
448,192,161294,1,0,0:0:0:0:
64,192,161294,1,0,0:0:0:0:
192,192,161294,1,0,0:0:0:0:
320,192,161371,1,0,0:0:0:0:
192,192,161448,1,0,0:0:0:0:
448,192,161448,1,0,0:0:0:0:
64,192,161487,1,0,0:0:0:0:
320,192,161525,1,0,0:0:0:0:
192,192,161564,1,0,0:0:0:0:
64,192,161602,1,0,0:0:0:0:
448,192,161602,1,0,0:0:0:0:
192,192,161679,1,0,0:0:0:0:
320,192,161756,1,0,0:0:0:0:
64,192,161756,1,0,0:0:0:0:
448,192,161794,1,0,0:0:0:0:
192,192,161833,1,0,0:0:0:0:
320,192,161871,1,0,0:0:0:0:
448,192,161910,1,0,0:0:0:0:
64,192,161910,1,0,0:0:0:0:
192,192,161987,1,0,0:0:0:0:
320,192,161987,1,0,0:0:0:0:
448,192,162064,1,0,0:0:0:0:
64,192,162064,1,0,0:0:0:0:
192,192,162140,1,0,0:0:0:0:
320,192,162140,1,0,0:0:0:0:
448,192,162217,1,0,0:0:0:0:
64,192,162217,1,0,0:0:0:0:
192,192,162294,1,0,0:0:0:0:
320,192,162294,1,0,0:0:0:0:
448,192,162371,1,0,0:0:0:0:
64,192,162371,1,0,0:0:0:0:
192,192,162448,1,0,0:0:0:0:
320,192,162448,1,0,0:0:0:0:
448,192,162525,1,0,0:0:0:0:
64,192,162525,1,0,0:0:0:0:
192,192,162602,1,0,0:0:0:0:
320,192,162679,1,0,0:0:0:0:
448,192,162679,1,0,0:0:0:0:
64,192,162756,1,0,0:0:0:0:
192,192,162756,1,0,0:0:0:0:
320,192,162833,1,0,0:0:0:0:
64,192,162833,1,0,0:0:0:0:
448,192,162910,1,0,0:0:0:0:
320,192,162987,1,0,0:0:0:0:
192,192,162987,1,0,0:0:0:0:
64,192,162987,1,0,0:0:0:0:
448,192,163064,1,0,0:0:0:0:
320,192,163140,1,0,0:0:0:0:
192,192,163140,1,0,0:0:0:0:
64,192,163217,1,0,0:0:0:0:
448,192,163294,1,0,0:0:0:0:
192,192,163371,1,0,0:0:0:0:
320,192,163448,1,0,0:0:0:0:
448,192,163448,1,0,0:0:0:0:
64,192,163525,1,0,0:0:0:0:
448,192,163602,1,0,0:0:0:0:
320,192,163602,1,0,0:0:0:0:
192,192,163679,1,0,0:0:0:0:
64,192,163679,1,0,0:0:0:0:
320,192,163756,1,0,0:0:0:0:
448,192,163756,1,0,0:0:0:0:
64,192,163833,1,0,0:0:0:0:
448,192,163910,1,0,0:0:0:0:
192,192,163910,1,0,0:0:0:0:
320,192,163910,1,0,0:0:0:0:
64,192,163987,1,0,0:0:0:0:
192,192,164064,1,0,0:0:0:0:
320,192,164064,1,0,0:0:0:0:
448,192,164064,1,0,0:0:0:0:
64,192,164140,1,0,0:0:0:0:
192,192,164217,1,0,0:0:0:0:
448,192,164294,1,0,0:0:0:0:
320,192,164371,1,0,0:0:0:0:
192,192,164371,1,0,0:0:0:0:
64,192,164371,1,0,0:0:0:0:
448,192,164448,1,0,0:0:0:0:
192,192,164525,1,0,0:0:0:0:
320,192,164602,1,0,0:0:0:0:
192,192,164679,1,0,0:0:0:0:
64,192,164679,1,0,0:0:0:0:
448,192,164717,1,0,0:0:0:0:
320,192,164756,1,0,0:0:0:0:
192,192,164794,1,0,0:0:0:0:
64,192,164833,1,0,0:0:0:0:
448,192,164833,1,0,0:0:0:0:
320,192,164910,1,0,0:0:0:0:
192,192,164987,1,0,0:0:0:0:
64,192,164987,1,0,0:0:0:0:
320,192,165064,1,0,0:0:0:0:
448,192,165140,1,0,0:0:0:0:
320,192,165217,1,0,0:0:0:0:
192,192,165217,1,0,0:0:0:0:
64,192,165217,1,0,0:0:0:0:
448,192,165294,1,0,0:0:0:0:
320,192,165294,1,0,0:0:0:0:
64,192,165371,1,0,0:0:0:0:
448,192,165448,1,0,0:0:0:0:
192,192,165448,1,0,0:0:0:0:
320,192,165448,1,0,0:0:0:0:
64,192,165525,1,0,0:0:0:0:
192,192,165602,1,0,0:0:0:0:
320,192,165602,1,0,0:0:0:0:
448,192,165679,1,0,0:0:0:0:
64,192,165756,1,0,0:0:0:0:
320,192,165756,1,0,0:0:0:0:
448,192,165833,1,0,0:0:0:0:
64,192,165910,1,0,0:0:0:0:
192,192,165910,1,0,0:0:0:0:
320,192,165987,1,0,0:0:0:0:
64,192,166064,1,0,0:0:0:0:
192,192,166064,1,0,0:0:0:0:
320,192,166140,1,0,0:0:0:0:
448,192,166140,1,0,0:0:0:0:
192,192,166217,1,0,0:0:0:0:
64,192,166217,1,0,0:0:0:0:
448,192,166294,1,0,0:0:0:0:
320,192,166371,1,0,0:0:0:0:
192,192,166371,1,0,0:0:0:0:
64,192,166371,1,0,0:0:0:0:
448,192,166448,1,0,0:0:0:0:
64,192,166525,1,0,0:0:0:0:
192,192,166525,1,0,0:0:0:0:
320,192,166525,1,0,0:0:0:0:
192,192,166602,1,0,0:0:0:0:
64,192,166679,1,0,0:0:0:0:
448,192,166679,1,0,0:0:0:0:
320,192,166717,1,0,0:0:0:0:
192,192,166756,1,0,0:0:0:0:
448,192,166794,1,0,0:0:0:0:
320,192,166833,1,0,0:0:0:0:
64,192,166833,1,0,0:0:0:0:
192,192,166910,1,0,0:0:0:0:
64,192,166987,1,0,0:0:0:0:
448,192,166987,1,0,0:0:0:0:
192,192,167025,1,0,0:0:0:0:
320,192,167064,1,0,0:0:0:0:
64,192,167102,1,0,0:0:0:0:
448,192,167140,1,0,0:0:0:0:
192,192,167140,1,0,0:0:0:0:
320,192,167217,1,0,0:0:0:0:
192,192,167294,1,0,0:0:0:0:
64,192,167294,1,0,0:0:0:0:
320,192,167371,1,0,0:0:0:0:
448,192,167371,1,0,0:0:0:0:
192,192,167448,1,0,0:0:0:0:
64,192,167448,1,0,0:0:0:0:
448,192,167448,1,0,0:0:0:0:
320,192,167525,1,0,0:0:0:0:
192,192,167602,1,0,0:0:0:0:
64,192,167679,1,0,0:0:0:0:
320,192,167679,1,0,0:0:0:0:
64,192,167756,1,0,0:0:0:0:
448,192,167756,1,0,0:0:0:0:
192,192,167833,1,0,0:0:0:0:
448,192,167910,1,0,0:0:0:0:
320,192,167910,1,0,0:0:0:0:
64,192,167987,1,0,0:0:0:0:
448,192,168064,1,0,0:0:0:0:
320,192,168064,1,0,0:0:0:0:
192,192,168064,1,0,0:0:0:0:
64,192,168140,1,0,0:0:0:0:
448,192,168217,1,0,0:0:0:0:
320,192,168217,1,0,0:0:0:0:
192,192,168294,1,0,0:0:0:0:
448,192,168371,1,0,0:0:0:0:
64,192,168371,1,0,0:0:0:0:
320,192,168448,1,0,0:0:0:0:
64,192,168525,1,0,0:0:0:0:
192,192,168525,1,0,0:0:0:0:
448,192,168602,1,0,0:0:0:0:
320,192,168602,1,0,0:0:0:0:
192,192,168679,1,0,0:0:0:0:
64,192,168679,1,0,0:0:0:0:
320,192,168756,1,0,0:0:0:0:
192,192,168833,1,0,0:0:0:0:
448,192,168833,1,0,0:0:0:0:
64,192,168910,1,0,0:0:0:0:
448,192,168987,1,0,0:0:0:0:
320,192,168987,1,0,0:0:0:0:
192,192,168987,1,0,0:0:0:0:
64,192,169064,1,0,0:0:0:0:
192,192,169140,1,0,0:0:0:0:
448,192,169140,1,0,0:0:0:0:
320,192,169217,1,0,0:0:0:0:
64,192,169294,1,0,0:0:0:0:
448,192,169294,1,0,0:0:0:0:
192,192,169294,1,0,0:0:0:0:
320,192,169371,1,0,0:0:0:0:
448,192,169448,1,0,0:0:0:0:
64,192,169448,1,0,0:0:0:0:
192,192,169525,1,0,0:0:0:0:
320,192,169602,1,0,0:0:0:0:
448,192,169640,1,0,0:0:0:0:
64,192,169679,1,0,0:0:0:0:
192,192,169717,1,0,0:0:0:0:
320,192,169756,1,0,0:0:0:0:
448,192,169756,1,0,0:0:0:0:
192,192,169833,1,0,0:0:0:0:
64,192,169833,1,0,0:0:0:0:
320,192,169910,1,0,0:0:0:0:
448,192,169910,1,0,0:0:0:0:
64,192,169910,1,0,0:0:0:0:
192,192,169987,1,0,0:0:0:0:
320,192,170064,1,0,0:0:0:0:
448,192,170140,1,0,0:0:0:0:
192,192,170140,1,0,0:0:0:0:
448,192,170217,1,0,0:0:0:0:
64,192,170217,1,0,0:0:0:0:
320,192,170294,1,0,0:0:0:0:
64,192,170371,1,0,0:0:0:0:
192,192,170371,1,0,0:0:0:0:
448,192,170448,1,0,0:0:0:0:
64,192,170525,1,0,0:0:0:0:
192,192,170525,1,0,0:0:0:0:
320,192,170525,1,0,0:0:0:0:
448,192,170602,1,0,0:0:0:0:
64,192,170679,1,0,0:0:0:0:
192,192,170679,1,0,0:0:0:0:
320,192,170756,1,0,0:0:0:0:
64,192,170833,1,0,0:0:0:0:
448,192,170833,1,0,0:0:0:0:
192,192,170910,1,0,0:0:0:0:
448,192,170987,1,0,0:0:0:0:
320,192,170987,1,0,0:0:0:0:
64,192,171064,1,0,0:0:0:0:
192,192,171064,1,0,0:0:0:0:
320,192,171140,1,0,0:0:0:0:
448,192,171140,1,0,0:0:0:0:
192,192,171217,1,0,0:0:0:0:
320,192,171294,1,0,0:0:0:0:
64,192,171294,1,0,0:0:0:0:
448,192,171371,1,0,0:0:0:0:
64,192,171448,1,0,0:0:0:0:
192,192,171448,1,0,0:0:0:0:
320,192,171448,1,0,0:0:0:0:
448,192,171525,1,0,0:0:0:0:
192,192,171602,1,0,0:0:0:0:
64,192,171640,1,0,0:0:0:0:
320,192,171679,1,0,0:0:0:0:
448,192,171717,1,0,0:0:0:0:
64,192,171756,1,0,0:0:0:0:
192,192,171756,1,0,0:0:0:0:
320,192,171833,1,0,0:0:0:0:
448,192,171833,1,0,0:0:0:0:
64,192,171910,1,0,0:0:0:0:
192,192,171948,1,0,0:0:0:0:
448,192,171987,1,0,0:0:0:0:
320,192,172025,1,0,0:0:0:0:
64,192,172064,1,0,0:0:0:0:
192,192,172064,1,0,0:0:0:0:
448,192,172140,1,0,0:0:0:0:
320,192,172140,1,0,0:0:0:0:
192,192,172217,1,0,0:0:0:0:
64,192,172217,1,0,0:0:0:0:
320,192,172294,1,0,0:0:0:0:
448,192,172294,1,0,0:0:0:0:
192,192,172371,1,0,0:0:0:0:
64,192,172371,1,0,0:0:0:0:
320,192,172448,1,0,0:0:0:0:
192,192,172525,1,0,0:0:0:0:
448,192,172602,1,0,0:0:0:0:
64,192,172679,1,0,0:0:0:0:
320,192,172756,1,0,0:0:0:0:
192,192,172833,1,0,0:0:0:0:
448,192,172910,1,0,0:0:0:0:
192,192,172987,1,0,0:0:0:0:
64,192,172987,1,0,0:0:0:0:
320,192,173064,1,0,0:0:0:0:
192,192,173140,1,0,0:0:0:0:
64,192,173140,1,0,0:0:0:0:
448,192,173217,1,0,0:0:0:0:
192,192,173294,1,0,0:0:0:0:
64,192,173294,1,0,0:0:0:0:
320,192,173371,1,0,0:0:0:0:
64,192,173448,1,0,0:0:0:0:
448,192,173525,1,0,0:0:0:0:
192,192,173602,1,0,0:0:0:0:
320,192,173679,1,0,0:0:0:0:
448,192,173679,1,0,0:0:0:0:
64,192,173756,1,0,0:0:0:0:
320,192,173833,1,0,0:0:0:0:
448,192,173833,1,0,0:0:0:0:
192,192,173910,1,0,0:0:0:0:
320,192,173987,1,0,0:0:0:0:
448,192,173987,1,0,0:0:0:0:
64,192,174064,1,0,0:0:0:0:
448,192,174140,1,0,0:0:0:0:
320,192,174140,1,0,0:0:0:0:
192,192,174217,1,0,0:0:0:0:
320,192,174294,1,0,0:0:0:0:
448,192,174294,1,0,0:0:0:0:
64,192,174371,1,0,0:0:0:0:
320,192,174448,1,0,0:0:0:0:
448,192,174448,1,0,0:0:0:0:
192,192,174525,1,0,0:0:0:0:
320,192,174602,1,0,0:0:0:0:
448,192,174602,1,0,0:0:0:0:
64,192,174679,1,0,0:0:0:0:
320,192,174756,1,0,0:0:0:0:
448,192,174756,1,0,0:0:0:0:
192,192,174833,1,0,0:0:0:0:
64,192,174833,1,0,0:0:0:0:
448,192,174910,1,0,0:0:0:0:
192,192,174987,1,0,0:0:0:0:
64,192,174987,1,0,0:0:0:0:
320,192,175064,1,0,0:0:0:0:
192,192,175140,1,0,0:0:0:0:
64,192,175140,1,0,0:0:0:0:
448,192,175217,1,0,0:0:0:0:
192,192,175294,1,0,0:0:0:0:
64,192,175294,1,0,0:0:0:0:
320,192,175371,1,0,0:0:0:0:
192,192,175448,1,0,0:0:0:0:
64,192,175448,1,0,0:0:0:0:
448,192,175525,1,0,0:0:0:0:
192,192,175602,1,0,0:0:0:0:
64,192,175602,1,0,0:0:0:0:
320,192,175679,1,0,0:0:0:0:
192,192,175756,1,0,0:0:0:0:
64,192,175756,1,0,0:0:0:0:
448,192,175833,1,0,0:0:0:0:
192,192,175910,1,0,0:0:0:0:
64,192,175910,1,0,0:0:0:0:
320,192,175987,1,0,0:0:0:0:
192,192,176064,1,0,0:0:0:0:
64,192,176064,1,0,0:0:0:0:
320,192,176140,1,0,0:0:0:0:
448,192,176140,1,0,0:0:0:0:
192,192,176217,1,0,0:0:0:0:
64,192,176217,1,0,0:0:0:0:
320,192,176294,1,0,0:0:0:0:
448,192,176294,1,0,0:0:0:0:
192,192,176371,1,0,0:0:0:0:
64,192,176371,1,0,0:0:0:0:
320,192,176448,1,0,0:0:0:0:
448,192,176448,1,0,0:0:0:0:
192,192,176525,1,0,0:0:0:0:
64,192,176525,1,0,0:0:0:0:
320,192,176602,1,0,0:0:0:0:
448,192,176602,1,0,0:0:0:0:
192,192,176679,1,0,0:0:0:0:
64,192,176679,1,0,0:0:0:0:
320,192,176756,1,0,0:0:0:0:
448,192,176756,1,0,0:0:0:0:
192,192,176833,1,0,0:0:0:0:
64,192,176833,1,0,0:0:0:0:
320,192,176910,1,0,0:0:0:0:
448,192,176910,1,0,0:0:0:0:
192,192,176987,1,0,0:0:0:0:
64,192,176987,1,0,0:0:0:0:
320,192,177064,1,0,0:0:0:0:
448,192,177064,1,0,0:0:0:0:
192,192,177140,1,0,0:0:0:0:
64,192,177140,1,0,0:0:0:0:
320,192,177217,1,0,0:0:0:0:
448,192,177217,1,0,0:0:0:0:
192,192,177294,1,0,0:0:0:0:
64,192,177294,1,0,0:0:0:0:
320,192,177371,1,0,0:0:0:0:
448,192,177371,1,0,0:0:0:0:
192,192,177448,1,0,0:0:0:0:
64,192,177448,1,0,0:0:0:0:
320,192,177525,1,0,0:0:0:0:
448,192,177525,1,0,0:0:0:0:
192,192,177602,1,0,0:0:0:0:
64,192,177602,1,0,0:0:0:0:
320,192,177679,1,0,0:0:0:0:
448,192,177679,1,0,0:0:0:0:
64,192,177756,1,0,0:0:0:0:
192,192,177756,1,0,0:0:0:0:
320,192,177833,1,0,0:0:0:0:
448,192,177833,1,0,0:0:0:0:
192,192,177910,1,0,0:0:0:0:
64,192,177910,1,0,0:0:0:0:
320,192,177987,1,0,0:0:0:0:
448,192,177987,1,0,0:0:0:0:
192,192,178064,1,0,0:0:0:0:
64,192,178064,1,0,0:0:0:0:
320,192,178140,1,0,0:0:0:0:
448,192,178140,1,0,0:0:0:0:
192,192,178217,1,0,0:0:0:0:
64,192,178217,1,0,0:0:0:0:
320,192,178294,1,0,0:0:0:0:
448,192,178294,1,0,0:0:0:0:
192,192,178371,1,0,0:0:0:0:
64,192,178371,1,0,0:0:0:0:
320,192,178448,1,0,0:0:0:0:
448,192,178448,1,0,0:0:0:0:
192,192,178525,1,0,0:0:0:0:
64,192,178525,1,0,0:0:0:0:
448,192,178525,1,0,0:0:0:0:
192,192,178602,1,0,0:0:0:0:
320,192,178679,1,0,0:0:0:0:
320,192,178756,1,0,0:0:0:0:
64,192,178833,1,0,0:0:0:0:
64,192,178910,1,0,0:0:0:0:
320,192,178987,1,0,0:0:0:0:
320,192,179064,1,0,0:0:0:0:
192,192,179140,1,0,0:0:0:0:
192,192,179217,1,0,0:0:0:0:
320,192,179294,1,0,0:0:0:0:
320,192,179371,1,0,0:0:0:0:
192,192,179448,1,0,0:0:0:0:
64,192,179448,1,0,0:0:0:0:
448,192,179525,1,0,0:0:0:0:
320,192,179525,1,0,0:0:0:0:
192,192,179602,1,0,0:0:0:0:
64,192,179602,1,0,0:0:0:0:
320,192,179679,1,0,0:0:0:0:
448,192,179679,1,0,0:0:0:0:
192,192,179756,1,0,0:0:0:0:
448,192,179756,1,0,0:0:0:0:
64,192,179756,1,0,0:0:0:0:
64,192,179833,1,0,0:0:0:0:
448,192,179910,1,0,0:0:0:0:
448,192,179987,1,0,0:0:0:0:
192,192,180064,1,0,0:0:0:0:
192,192,180140,1,0,0:0:0:0:
320,192,180217,1,0,0:0:0:0:
320,192,180294,1,0,0:0:0:0:
64,192,180371,1,0,0:0:0:0:
192,192,180390,1,0,0:0:0:0:
320,192,180410,1,0,0:0:0:0:
448,192,180429,1,0,0:0:0:0:
64,192,180448,1,0,0:0:0:0:
192,192,180467,1,0,0:0:0:0:
320,192,180487,1,0,0:0:0:0:
448,192,180506,1,0,0:0:0:0:
192,192,180525,1,0,0:0:0:0:
64,192,180525,1,0,0:0:0:0:
64,192,180602,1,0,0:0:0:0:
192,192,180602,1,0,0:0:0:0:
448,192,180679,1,0,0:0:0:0:
320,192,180679,1,0,0:0:0:0:
64,192,180756,1,0,0:0:0:0:
192,192,180833,1,0,0:0:0:0:
320,192,180910,1,0,0:0:0:0:
448,192,180987,1,0,0:0:0:0:
64,192,180987,1,0,0:0:0:0:
192,192,181217,1,0,0:0:0:0:
320,192,181294,1,0,0:0:0:0:
448,192,181294,128,0,181525:0:0:0:0:
64,192,181525,128,0,181756:0:0:0:0:
448,192,181756,1,0,0:0:0:0:
320,192,181910,1,0,0:0:0:0:
64,192,181987,1,0,0:0:0:0:
448,192,182064,1,0,0:0:0:0:
192,192,182140,1,0,0:0:0:0:
448,192,182217,1,0,0:0:0:0:
320,192,182217,128,0,182525:0:0:0:0:
64,192,182371,1,0,0:0:0:0:
192,192,182448,1,0,0:0:0:0:
448,192,182525,128,0,182679:0:0:0:0:
64,192,182679,128,0,182756:0:0:0:0:
64,192,182833,1,0,0:0:0:0:
448,192,182833,128,0,182987:0:0:0:0:
64,192,182987,128,0,183294:0:0:0:0:
448,192,183294,1,0,0:0:0:0:
320,192,183371,1,0,0:0:0:0:
448,192,183448,128,0,183910:0:0:0:0:
64,192,183448,1,0,0:0:0:0:
64,192,183833,1,0,0:0:0:0:
192,192,183910,1,0,0:0:0:0:
320,192,183910,128,0,184217:0:0:0:0:
192,192,184217,1,0,0:0:0:0:
64,192,184294,1,0,0:0:0:0:
448,192,184371,1,0,0:0:0:0:
320,192,184448,1,0,0:0:0:0:
192,192,184525,1,0,0:0:0:0:
320,192,184602,1,0,0:0:0:0:
448,192,184679,1,0,0:0:0:0:
64,192,184679,1,0,0:0:0:0:
192,192,184833,1,0,0:0:0:0:
320,192,184910,1,0,0:0:0:0:
448,192,184987,1,0,0:0:0:0:
320,192,185064,1,0,0:0:0:0:
448,192,185140,1,0,0:0:0:0:
192,192,185217,1,0,0:0:0:0:
448,192,185294,1,0,0:0:0:0:
64,192,185371,1,0,0:0:0:0:
448,192,185448,1,0,0:0:0:0:
64,192,185525,1,0,0:0:0:0:
192,192,185602,1,0,0:0:0:0:
320,192,185679,1,0,0:0:0:0:
192,192,185756,1,0,0:0:0:0:
320,192,185833,1,0,0:0:0:0:
64,192,185910,128,0,185961:0:0:0:0:
192,192,185910,128,0,185961:0:0:0:0:
320,192,186064,128,0,186115:0:0:0:0:
448,192,186064,128,0,186115:0:0:0:0:
192,192,186140,128,0,186192:0:0:0:0:
64,192,186140,128,0,186192:0:0:0:0:
192,192,186294,128,0,186346:0:0:0:0:
64,192,186294,128,0,186346:0:0:0:0:
320,192,186371,128,0,186422:0:0:0:0:
448,192,186371,128,0,186422:0:0:0:0:
192,192,186525,128,0,186576:0:0:0:0:
64,192,186525,128,0,186576:0:0:0:0:
320,192,186602,128,0,186653:0:0:0:0:
448,192,186602,128,0,186653:0:0:0:0:
64,192,186679,128,0,186730:0:0:0:0:
320,192,186756,128,0,186807:0:0:0:0:
192,192,186833,128,0,186884:0:0:0:0:
448,192,186910,128,0,186961:0:0:0:0:
320,192,186987,128,0,187038:0:0:0:0:
64,192,186987,128,0,187038:0:0:0:0:
192,192,187140,128,0,187192:0:0:0:0:
448,192,187140,128,0,187192:0:0:0:0:
320,192,187294,128,0,187346:0:0:0:0:
64,192,187294,128,0,187346:0:0:0:0:
192,192,187371,128,0,187422:0:0:0:0:
448,192,187371,128,0,187422:0:0:0:0:
320,192,187525,128,0,187576:0:0:0:0:
64,192,187525,128,0,187576:0:0:0:0:
448,192,187602,128,0,187653:0:0:0:0:
192,192,187602,128,0,187653:0:0:0:0:
64,192,187679,128,0,187730:0:0:0:0:
320,192,187756,128,0,187807:0:0:0:0:
192,192,187833,128,0,187884:0:0:0:0:
448,192,187910,128,0,187961:0:0:0:0:
64,192,187987,128,0,188038:0:0:0:0:
320,192,188064,128,0,188115:0:0:0:0:
192,192,188140,128,0,188192:0:0:0:0:
448,192,188217,128,0,188269:0:0:0:0:
64,192,188217,128,0,188269:0:0:0:0:
320,192,188294,128,0,188346:0:0:0:0:
192,192,188371,128,0,188422:0:0:0:0:
448,192,188371,128,0,188422:0:0:0:0:
64,192,188525,128,0,188576:0:0:0:0:
192,192,188602,128,0,188653:0:0:0:0:
320,192,188602,128,0,188653:0:0:0:0:
64,192,188679,128,0,188730:0:0:0:0:
448,192,188679,128,0,188730:0:0:0:0:
320,192,188756,128,0,188807:0:0:0:0:
64,192,188833,128,0,188884:0:0:0:0:
448,192,188833,128,0,188884:0:0:0:0:
192,192,188910,128,0,188961:0:0:0:0:
320,192,188910,128,0,188961:0:0:0:0:
448,192,188987,128,0,189038:0:0:0:0:
64,192,189064,128,0,189115:0:0:0:0:
192,192,189140,128,0,189192:0:0:0:0:
320,192,189217,128,0,189269:0:0:0:0:
448,192,189294,128,0,189346:0:0:0:0:
64,192,189294,128,0,189346:0:0:0:0:
192,192,189371,128,0,189422:0:0:0:0:
448,192,189448,128,0,189602:0:0:0:0:
320,192,189525,128,0,189833:0:0:0:0:
192,192,189602,128,0,189756:0:0:0:0:
64,192,189602,1,0,0:0:0:0:
448,192,189756,128,0,189833:0:0:0:0:
192,192,189833,128,0,189910:0:0:0:0:
320,192,189910,128,0,190294:0:0:0:0:
448,192,189910,1,0,0:0:0:0:
192,192,189987,128,0,190140:0:0:0:0:
64,192,190064,128,0,190140:0:0:0:0:
448,192,190140,128,0,190217:0:0:0:0:
192,192,190217,128,0,190525:0:0:0:0:
64,192,190217,1,0,0:0:0:0:
448,192,190294,128,0,190371:0:0:0:0:
320,192,190371,128,0,190448:0:0:0:0:
448,192,190448,1,0,0:0:0:0:
64,192,190448,1,0,0:0:0:0:
320,192,190525,128,0,190602:0:0:0:0:
192,192,190602,128,0,190679:0:0:0:0:
448,192,190679,128,0,190756:0:0:0:0:
64,192,190679,1,0,0:0:0:0:
320,192,190756,128,0,190833:0:0:0:0:
192,192,190833,1,0,0:0:0:0:
64,192,190833,1,0,0:0:0:0:
320,192,190910,128,0,190987:0:0:0:0:
448,192,190987,1,0,0:0:0:0:
64,192,190987,1,0,0:0:0:0:
192,192,191064,128,0,191140:0:0:0:0:
320,192,191140,1,0,0:0:0:0:
448,192,191140,1,0,0:0:0:0:
64,192,191217,128,0,191294:0:0:0:0:
192,192,191294,1,0,0:0:0:0:
448,192,191371,128,0,191448:0:0:0:0:
320,192,191448,1,0,0:0:0:0:
64,192,191448,1,0,0:0:0:0:
192,192,191525,128,0,191602:0:0:0:0:
64,192,191602,1,0,0:0:0:0:
448,192,191602,1,0,0:0:0:0:
320,192,191679,128,0,191756:0:0:0:0:
192,192,191756,1,0,0:0:0:0:
64,192,191756,1,0,0:0:0:0:
448,192,191833,128,0,191910:0:0:0:0:
320,192,191910,1,0,0:0:0:0:
192,192,191987,128,0,192064:0:0:0:0:
64,192,192064,1,0,0:0:0:0:
320,192,192064,1,0,0:0:0:0:
192,192,192140,128,0,192217:0:0:0:0:
448,192,192217,1,0,0:0:0:0:
64,192,192217,1,0,0:0:0:0:
320,192,192294,128,0,192371:0:0:0:0:
192,192,192371,1,0,0:0:0:0:
64,192,192371,1,0,0:0:0:0:
448,192,192448,128,0,192525:0:0:0:0:
320,192,192525,1,0,0:0:0:0:
64,192,192602,128,0,192679:0:0:0:0:
192,192,192679,1,0,0:0:0:0:
448,192,192679,1,0,0:0:0:0:
320,192,192756,128,0,192833:0:0:0:0:
448,192,192833,1,0,0:0:0:0:
64,192,192833,1,0,0:0:0:0:
192,192,192910,128,0,192987:0:0:0:0:
320,192,192987,1,0,0:0:0:0:
448,192,192987,1,0,0:0:0:0:
64,192,193064,128,0,193140:0:0:0:0:
192,192,193140,1,0,0:0:0:0:
320,192,193140,1,0,0:0:0:0:
448,192,193217,128,0,193294:0:0:0:0:
320,192,193294,1,0,0:0:0:0:
192,192,193294,1,0,0:0:0:0:
64,192,193294,1,0,0:0:0:0:
448,192,193371,128,0,193448:0:0:0:0:
192,192,193448,1,0,0:0:0:0:
64,192,193448,1,0,0:0:0:0:
320,192,193525,128,0,193602:0:0:0:0:
64,192,193602,1,0,0:0:0:0:
448,192,193602,1,0,0:0:0:0:
192,192,193679,128,0,193756:0:0:0:0:
448,192,193756,1,0,0:0:0:0:
320,192,193756,1,0,0:0:0:0:
64,192,193833,128,0,193910:0:0:0:0:
192,192,193910,1,0,0:0:0:0:
320,192,193910,1,0,0:0:0:0:
448,192,193910,1,0,0:0:0:0:
64,192,193987,128,0,194064:0:0:0:0:
320,192,194064,1,0,0:0:0:0:
448,192,194064,1,0,0:0:0:0:
192,192,194140,128,0,194217:0:0:0:0:
64,192,194217,1,0,0:0:0:0:
448,192,194217,1,0,0:0:0:0:
320,192,194294,128,0,194371:0:0:0:0:
192,192,194371,1,0,0:0:0:0:
64,192,194371,1,0,0:0:0:0:
448,192,194448,128,0,194525:0:0:0:0:
64,192,194525,1,0,0:0:0:0:
192,192,194602,1,0,0:0:0:0:
320,192,194679,1,0,0:0:0:0:
64,192,194717,1,0,0:0:0:0:
448,192,194756,1,0,0:0:0:0:
192,192,194794,1,0,0:0:0:0:
320,192,194833,1,0,0:0:0:0:
64,192,194833,1,0,0:0:0:0:
448,192,194910,1,0,0:0:0:0:
192,192,194910,1,0,0:0:0:0:
320,192,194987,1,0,0:0:0:0:
64,192,195025,1,0,0:0:0:0:
448,192,195064,1,0,0:0:0:0:
192,192,195102,1,0,0:0:0:0:
320,192,195140,1,0,0:0:0:0:
64,192,195140,1,0,0:0:0:0:
448,192,195217,1,0,0:0:0:0:
320,192,195294,1,0,0:0:0:0:
64,192,195294,1,0,0:0:0:0:
192,192,195371,1,0,0:0:0:0:
448,192,195371,1,0,0:0:0:0:
64,192,195448,1,0,0:0:0:0:
192,192,195525,1,0,0:0:0:0:
64,192,195602,1,0,0:0:0:0:
448,192,195602,1,0,0:0:0:0:
320,192,195679,1,0,0:0:0:0:
448,192,195756,1,0,0:0:0:0:
64,192,195756,1,0,0:0:0:0:
192,192,195756,1,0,0:0:0:0:
320,192,195833,1,0,0:0:0:0:
192,192,195910,1,0,0:0:0:0:
320,192,195987,1,0,0:0:0:0:
192,192,196064,1,0,0:0:0:0:
64,192,196064,1,0,0:0:0:0:
448,192,196064,1,0,0:0:0:0:
320,192,196140,1,0,0:0:0:0:
448,192,196217,1,0,0:0:0:0:
192,192,196294,1,0,0:0:0:0:
448,192,196371,1,0,0:0:0:0:
64,192,196371,1,0,0:0:0:0:
320,192,196371,1,0,0:0:0:0:
192,192,196448,1,0,0:0:0:0:
320,192,196525,1,0,0:0:0:0:
448,192,196602,1,0,0:0:0:0:
192,192,196679,1,0,0:0:0:0:
64,192,196679,1,0,0:0:0:0:
320,192,196679,1,0,0:0:0:0:
448,192,196756,1,0,0:0:0:0:
320,192,196833,1,0,0:0:0:0:
192,192,196910,1,0,0:0:0:0:
448,192,196987,1,0,0:0:0:0:
64,192,196987,1,0,0:0:0:0:
320,192,196987,1,0,0:0:0:0:
192,192,197064,1,0,0:0:0:0:
320,192,197140,1,0,0:0:0:0:
192,192,197217,1,0,0:0:0:0:
64,192,197294,1,0,0:0:0:0:
320,192,197294,1,0,0:0:0:0:
448,192,197294,1,0,0:0:0:0:
192,192,197371,1,0,0:0:0:0:
64,192,197448,1,0,0:0:0:0:
320,192,197525,1,0,0:0:0:0:
192,192,197602,1,0,0:0:0:0:
64,192,197602,1,0,0:0:0:0:
448,192,197602,1,0,0:0:0:0:
320,192,197679,1,0,0:0:0:0:
192,192,197756,1,0,0:0:0:0:
64,192,197833,1,0,0:0:0:0:
192,192,197910,1,0,0:0:0:0:
320,192,197910,1,0,0:0:0:0:
448,192,197910,1,0,0:0:0:0:
64,192,197987,1,0,0:0:0:0:
192,192,198064,1,0,0:0:0:0:
448,192,198064,1,0,0:0:0:0:
320,192,198140,1,0,0:0:0:0:
192,192,198217,1,0,0:0:0:0:
64,192,198217,1,0,0:0:0:0:
448,192,198217,1,0,0:0:0:0:
320,192,198294,1,0,0:0:0:0:
448,192,198371,1,0,0:0:0:0:
64,192,198371,1,0,0:0:0:0:
192,192,198448,1,0,0:0:0:0:
320,192,198525,1,0,0:0:0:0:
448,192,198525,1,0,0:0:0:0:
64,192,198525,1,0,0:0:0:0:
192,192,198602,1,0,0:0:0:0:
64,192,198679,1,0,0:0:0:0:
448,192,198679,1,0,0:0:0:0:
320,192,198756,1,0,0:0:0:0:
192,192,198833,1,0,0:0:0:0:
64,192,198833,1,0,0:0:0:0:
448,192,198833,1,0,0:0:0:0:
320,192,198910,1,0,0:0:0:0:
448,192,198987,1,0,0:0:0:0:
64,192,198987,1,0,0:0:0:0:
192,192,199064,1,0,0:0:0:0:
64,192,199140,1,0,0:0:0:0:
320,192,199140,1,0,0:0:0:0:
448,192,199140,1,0,0:0:0:0:
192,192,199217,1,0,0:0:0:0:
320,192,199294,1,0,0:0:0:0:
448,192,199294,1,0,0:0:0:0:
192,192,199371,1,0,0:0:0:0:
320,192,199448,1,0,0:0:0:0:
448,192,199448,1,0,0:0:0:0:
64,192,199448,1,0,0:0:0:0:
192,192,199602,1,0,0:0:0:0:
448,192,199602,1,0,0:0:0:0:
64,192,199640,1,0,0:0:0:0:
320,192,199679,1,0,0:0:0:0:
448,192,199717,1,0,0:0:0:0:
64,192,199756,1,0,0:0:0:0:
192,192,199756,1,0,0:0:0:0:
320,192,199910,1,0,0:0:0:0:
64,192,199910,1,0,0:0:0:0:
448,192,199948,1,0,0:0:0:0:
192,192,199987,1,0,0:0:0:0:
64,192,200025,1,0,0:0:0:0:
448,192,200064,1,0,0:0:0:0:
320,192,200064,1,0,0:0:0:0:
192,192,200140,1,0,0:0:0:0:
64,192,200140,1,0,0:0:0:0:
448,192,200217,1,0,0:0:0:0:
320,192,200217,1,0,0:0:0:0:
192,192,200294,1,0,0:0:0:0:
64,192,200294,1,0,0:0:0:0:
320,192,200371,1,0,0:0:0:0:
448,192,200371,1,0,0:0:0:0:
192,192,200371,1,0,0:0:0:0:
64,192,200448,1,0,0:0:0:0:
320,192,200525,1,0,0:0:0:0:
448,192,200525,1,0,0:0:0:0:
64,192,200602,1,0,0:0:0:0:
192,192,200602,1,0,0:0:0:0:
320,192,200679,1,0,0:0:0:0:
448,192,200679,1,0,0:0:0:0:
320,192,200910,1,0,0:0:0:0:
192,192,200910,1,0,0:0:0:0:
448,192,200910,1,0,0:0:0:0:
448,192,201140,1,0,0:0:0:0:
192,192,201140,128,0,201448:0:0:0:0:
64,192,201140,1,0,0:0:0:0:
320,192,201448,1,0,0:0:0:0:
448,192,201448,1,0,0:0:0:0:
64,192,201448,1,0,0:0:0:0:
448,192,201602,1,0,0:0:0:0:
320,192,201679,1,0,0:0:0:0:
448,192,201756,1,0,0:0:0:0:
192,192,201756,1,0,0:0:0:0:
320,192,201833,1,0,0:0:0:0:
64,192,201833,1,0,0:0:0:0:
192,192,201910,1,0,0:0:0:0:
448,192,201910,1,0,0:0:0:0:
64,192,202064,1,0,0:0:0:0:
320,192,202064,1,0,0:0:0:0:
192,192,202140,1,0,0:0:0:0:
448,192,202140,1,0,0:0:0:0:
64,192,202217,1,0,0:0:0:0:
320,192,202217,1,0,0:0:0:0:
320,192,202371,1,0,0:0:0:0:
192,192,202371,1,0,0:0:0:0:
448,192,202525,1,0,0:0:0:0:
192,192,202525,1,0,0:0:0:0:
64,192,202525,1,0,0:0:0:0:
320,192,202679,1,0,0:0:0:0:
448,192,202679,1,0,0:0:0:0:
192,192,202833,1,0,0:0:0:0:
64,192,202833,1,0,0:0:0:0:
320,192,202910,1,0,0:0:0:0:
448,192,202910,1,0,0:0:0:0:
192,192,202987,1,0,0:0:0:0:
64,192,202987,1,0,0:0:0:0:
320,192,203064,1,0,0:0:0:0:
448,192,203064,1,0,0:0:0:0:
192,192,203140,1,0,0:0:0:0:
64,192,203140,1,0,0:0:0:0:
64,192,203294,1,0,0:0:0:0:
192,192,203371,1,0,0:0:0:0:
64,192,203448,1,0,0:0:0:0:
448,192,203448,1,0,0:0:0:0:
320,192,203448,1,0,0:0:0:0:
192,192,203602,1,0,0:0:0:0:
320,192,203679,1,0,0:0:0:0:
192,192,203756,1,0,0:0:0:0:
64,192,203756,1,0,0:0:0:0:
448,192,203756,1,0,0:0:0:0:
64,192,203910,1,0,0:0:0:0:
192,192,203987,1,0,0:0:0:0:
320,192,204064,1,0,0:0:0:0:
448,192,204064,1,0,0:0:0:0:
64,192,204064,1,0,0:0:0:0:
192,192,204140,1,0,0:0:0:0:
320,192,204217,1,0,0:0:0:0:
64,192,204294,1,0,0:0:0:0:
192,192,204371,1,0,0:0:0:0:
320,192,204371,1,0,0:0:0:0:
448,192,204371,1,0,0:0:0:0:
64,192,204525,1,0,0:0:0:0:
192,192,204602,1,0,0:0:0:0:
320,192,204679,1,0,0:0:0:0:
64,192,204679,1,0,0:0:0:0:
448,192,204679,1,0,0:0:0:0:
192,192,204833,1,0,0:0:0:0:
320,192,204910,1,0,0:0:0:0:
448,192,204987,1,0,0:0:0:0:
64,192,204987,1,0,0:0:0:0:
192,192,204987,1,0,0:0:0:0:
320,192,205064,1,0,0:0:0:0:
448,192,205140,1,0,0:0:0:0:
192,192,205217,1,0,0:0:0:0:
64,192,205217,1,0,0:0:0:0:
320,192,205294,1,0,0:0:0:0:
448,192,205294,1,0,0:0:0:0:
64,192,205371,1,0,0:0:0:0:
320,192,205448,1,0,0:0:0:0:
192,192,205448,1,0,0:0:0:0:
448,192,205525,1,0,0:0:0:0:
64,192,205525,1,0,0:0:0:0:
192,192,205602,1,0,0:0:0:0:
320,192,205602,1,0,0:0:0:0:
448,192,205679,1,0,0:0:0:0:
64,192,205756,1,0,0:0:0:0:
320,192,205756,1,0,0:0:0:0:
192,192,205833,1,0,0:0:0:0:
448,192,205833,1,0,0:0:0:0:
320,192,205910,1,0,0:0:0:0:
64,192,205910,1,0,0:0:0:0:
448,192,205987,128,0,206064:0:0:0:0:
192,192,206064,1,0,0:0:0:0:
64,192,206064,128,0,206140:0:0:0:0:
320,192,206140,1,0,0:0:0:0:
64,192,206217,1,0,0:0:0:0:
448,192,206217,1,0,0:0:0:0:
192,192,206294,128,0,206371:0:0:0:0:
320,192,206294,1,0,0:0:0:0:
64,192,206371,1,0,0:0:0:0:
448,192,206371,1,0,0:0:0:0:
192,192,206448,1,0,0:0:0:0:
320,192,206525,128,0,206679:0:0:0:0:
448,192,206525,1,0,0:0:0:0:
64,192,206525,1,0,0:0:0:0:
192,192,206602,1,0,0:0:0:0:
448,192,206679,128,0,206833:0:0:0:0:
64,192,206679,1,0,0:0:0:0:
320,192,206756,1,0,0:0:0:0:
64,192,206833,1,0,0:0:0:0:
192,192,206833,1,0,0:0:0:0:
448,192,206910,1,0,0:0:0:0:
192,192,206987,1,0,0:0:0:0:
320,192,207064,1,0,0:0:0:0:
64,192,207064,128,0,207140:0:0:0:0:
192,192,207140,1,0,0:0:0:0:
448,192,207140,1,0,0:0:0:0:
320,192,207217,1,0,0:0:0:0:
448,192,207294,128,0,207371:0:0:0:0:
64,192,207294,1,0,0:0:0:0:
320,192,207371,1,0,0:0:0:0:
192,192,207448,1,0,0:0:0:0:
64,192,207448,1,0,0:0:0:0:
320,192,207525,128,0,207679:0:0:0:0:
448,192,207525,1,0,0:0:0:0:
192,192,207602,1,0,0:0:0:0:
64,192,207679,1,0,0:0:0:0:
448,192,207756,1,0,0:0:0:0:
192,192,207756,128,0,207833:0:0:0:0:
320,192,207756,1,0,0:0:0:0:
64,192,207833,128,0,207910:0:0:0:0:
448,192,207910,128,0,207987:0:0:0:0:
320,192,207987,128,0,208064:0:0:0:0:
64,192,208064,128,0,208294:0:0:0:0:
192,192,208064,1,0,0:0:0:0:
448,192,208064,1,0,0:0:0:0:
320,192,208140,1,0,0:0:0:0:
448,192,208217,1,0,0:0:0:0:
192,192,208294,128,0,208525:0:0:0:0:
448,192,208371,1,0,0:0:0:0:
320,192,208371,1,0,0:0:0:0:
64,192,208448,1,0,0:0:0:0:
320,192,208525,128,0,208756:0:0:0:0:
448,192,208525,1,0,0:0:0:0:
192,192,208602,1,0,0:0:0:0:
64,192,208679,1,0,0:0:0:0:
448,192,208756,128,0,208833:0:0:0:0:
192,192,208833,128,0,208910:0:0:0:0:
64,192,208833,1,0,0:0:0:0:
320,192,208910,128,0,208987:0:0:0:0:
448,192,208910,1,0,0:0:0:0:
64,192,208987,128,0,209064:0:0:0:0:
192,192,208987,1,0,0:0:0:0:
448,192,209064,128,0,209140:0:0:0:0:
320,192,209064,1,0,0:0:0:0:
192,192,209140,128,0,209217:0:0:0:0:
64,192,209140,1,0,0:0:0:0:
320,192,209217,128,0,209294:0:0:0:0:
448,192,209217,1,0,0:0:0:0:
64,192,209294,1,0,0:0:0:0:
192,192,209294,1,0,0:0:0:0:
320,192,209371,1,0,0:0:0:0:
448,192,209448,1,0,0:0:0:0:
64,192,209448,1,0,0:0:0:0:
192,192,209499,1,0,0:0:0:0:
320,192,209551,1,0,0:0:0:0:
64,192,209602,1,0,0:0:0:0:
448,192,209602,1,0,0:0:0:0:
192,192,209679,1,0,0:0:0:0:
448,192,209756,1,0,0:0:0:0:
64,192,209756,1,0,0:0:0:0:
320,192,209807,1,0,0:0:0:0:
192,192,209858,1,0,0:0:0:0:
448,192,209910,1,0,0:0:0:0:
64,192,209910,1,0,0:0:0:0:
320,192,209987,1,0,0:0:0:0:
64,192,210064,1,0,0:0:0:0:
192,192,210102,1,0,0:0:0:0:
320,192,210140,1,0,0:0:0:0:
448,192,210179,1,0,0:0:0:0:
64,192,210217,1,0,0:0:0:0:
192,192,210217,1,0,0:0:0:0:
320,192,210294,1,0,0:0:0:0:
64,192,210371,1,0,0:0:0:0:
448,192,210371,1,0,0:0:0:0:
192,192,210448,1,0,0:0:0:0:
320,192,210525,1,0,0:0:0:0:
448,192,210525,1,0,0:0:0:0:
64,192,210525,1,0,0:0:0:0:
192,192,210679,1,0,0:0:0:0:
64,192,210679,1,0,0:0:0:0:
448,192,210756,1,0,0:0:0:0:
320,192,210756,1,0,0:0:0:0:
192,192,210833,1,0,0:0:0:0:
64,192,210833,1,0,0:0:0:0:
448,192,210987,1,0,0:0:0:0:
192,192,210987,1,0,0:0:0:0:
320,192,210987,1,0,0:0:0:0:
448,192,211140,1,0,0:0:0:0:
320,192,211140,1,0,0:0:0:0:
64,192,211140,1,0,0:0:0:0:
192,192,211217,1,0,0:0:0:0:
448,192,211294,1,0,0:0:0:0:
320,192,211294,1,0,0:0:0:0:
64,192,211294,1,0,0:0:0:0:
320,192,211448,1,0,0:0:0:0:
448,192,211448,1,0,0:0:0:0:
192,192,211525,1,0,0:0:0:0:
64,192,211525,1,0,0:0:0:0:
320,192,211602,1,0,0:0:0:0:
448,192,211602,1,0,0:0:0:0:
192,192,211679,1,0,0:0:0:0:
64,192,211679,1,0,0:0:0:0:
320,192,211756,1,0,0:0:0:0:
448,192,211756,1,0,0:0:0:0:
64,192,211833,1,0,0:0:0:0:
448,192,211910,1,0,0:0:0:0:
320,192,211910,1,0,0:0:0:0:
192,192,211987,1,0,0:0:0:0:
320,192,212064,1,0,0:0:0:0:
64,192,212064,1,0,0:0:0:0:
448,192,212064,1,0,0:0:0:0:
192,192,212140,1,0,0:0:0:0:
320,192,212217,1,0,0:0:0:0:
64,192,212217,1,0,0:0:0:0:
448,192,212294,1,0,0:0:0:0:
192,192,212371,1,0,0:0:0:0:
64,192,212371,1,0,0:0:0:0:
320,192,212371,1,0,0:0:0:0:
448,192,212448,1,0,0:0:0:0:
192,192,212525,1,0,0:0:0:0:
64,192,212525,1,0,0:0:0:0:
320,192,212602,1,0,0:0:0:0:
448,192,212679,1,0,0:0:0:0:
192,192,212679,1,0,0:0:0:0:
64,192,212679,1,0,0:0:0:0:
320,192,212756,1,0,0:0:0:0:
448,192,212833,1,0,0:0:0:0:
192,192,212833,1,0,0:0:0:0:
64,192,212833,1,0,0:0:0:0:
320,192,212910,1,0,0:0:0:0:
192,192,212987,1,0,0:0:0:0:
448,192,212987,1,0,0:0:0:0:
64,192,212987,1,0,0:0:0:0:
320,192,213064,1,0,0:0:0:0:
192,192,213140,1,0,0:0:0:0:
320,192,213217,1,0,0:0:0:0:
192,192,213294,1,0,0:0:0:0:
64,192,213294,1,0,0:0:0:0:
448,192,213294,1,0,0:0:0:0:
320,192,213371,1,0,0:0:0:0:
192,192,213448,1,0,0:0:0:0:
320,192,213525,1,0,0:0:0:0:
448,192,213602,1,0,0:0:0:0:
64,192,213602,1,0,0:0:0:0:
192,192,213602,1,0,0:0:0:0:
320,192,213679,1,0,0:0:0:0:
448,192,213756,1,0,0:0:0:0:
192,192,213756,1,0,0:0:0:0:
320,192,213833,1,0,0:0:0:0:
448,192,213910,1,0,0:0:0:0:
192,192,213910,1,0,0:0:0:0:
64,192,213910,1,0,0:0:0:0:
320,192,213987,1,0,0:0:0:0:
192,192,214064,1,0,0:0:0:0:
64,192,214140,1,0,0:0:0:0:
320,192,214140,1,0,0:0:0:0:
192,192,214217,1,0,0:0:0:0:
448,192,214217,1,0,0:0:0:0:
320,192,214294,1,0,0:0:0:0:
192,192,214371,1,0,0:0:0:0:
64,192,214448,1,0,0:0:0:0:
320,192,214448,1,0,0:0:0:0:
192,192,214525,1,0,0:0:0:0:
448,192,214525,1,0,0:0:0:0:
320,192,214602,1,0,0:0:0:0:
192,192,214679,1,0,0:0:0:0:
320,192,214756,1,0,0:0:0:0:
64,192,214756,1,0,0:0:0:0:
192,192,214833,1,0,0:0:0:0:
448,192,214833,1,0,0:0:0:0:
320,192,214910,1,0,0:0:0:0:
192,192,214987,1,0,0:0:0:0:
64,192,215064,1,0,0:0:0:0:
320,192,215064,1,0,0:0:0:0:
448,192,215140,1,0,0:0:0:0:
192,192,215140,1,0,0:0:0:0:
320,192,215217,1,0,0:0:0:0:
192,192,215294,1,0,0:0:0:0:
448,192,215294,1,0,0:0:0:0:
64,192,215371,1,0,0:0:0:0:
320,192,215371,1,0,0:0:0:0:
320,192,215448,1,0,0:0:0:0:
192,192,215448,1,0,0:0:0:0:
64,192,215525,1,0,0:0:0:0:
448,192,215602,1,0,0:0:0:0:
320,192,215602,1,0,0:0:0:0:
192,192,215679,1,0,0:0:0:0:
64,192,215679,1,0,0:0:0:0:
448,192,215756,1,0,0:0:0:0:
64,192,215756,1,0,0:0:0:0:
320,192,215833,1,0,0:0:0:0:
192,192,215910,1,0,0:0:0:0:
64,192,215910,1,0,0:0:0:0:
320,192,215910,1,0,0:0:0:0:
448,192,215987,1,0,0:0:0:0:
320,192,216064,1,0,0:0:0:0:
192,192,216064,1,0,0:0:0:0:
64,192,216140,1,0,0:0:0:0:
192,192,216140,1,0,0:0:0:0:
448,192,216217,1,0,0:0:0:0:
320,192,216217,1,0,0:0:0:0:
192,192,216294,1,0,0:0:0:0:
64,192,216371,1,0,0:0:0:0:
448,192,216371,1,0,0:0:0:0:
192,192,216371,1,0,0:0:0:0:
320,192,216448,1,0,0:0:0:0:
192,192,216525,1,0,0:0:0:0:
448,192,216525,1,0,0:0:0:0:
64,192,216564,1,0,0:0:0:0:
320,192,216602,1,0,0:0:0:0:
192,192,216640,1,0,0:0:0:0:
448,192,216679,1,0,0:0:0:0:
64,192,216679,1,0,0:0:0:0:
320,192,216679,1,0,0:0:0:0:
192,192,216833,1,0,0:0:0:0:
64,192,216833,1,0,0:0:0:0:
320,192,216910,1,0,0:0:0:0:
448,192,216910,1,0,0:0:0:0:
448,192,216987,1,0,0:0:0:0:
64,192,216987,1,0,0:0:0:0:
192,192,217064,1,0,0:0:0:0:
320,192,217140,1,0,0:0:0:0:
448,192,217140,1,0,0:0:0:0:
192,192,217140,1,0,0:0:0:0:
64,192,217217,1,0,0:0:0:0:
192,192,217294,1,0,0:0:0:0:
320,192,217294,1,0,0:0:0:0:
448,192,217371,1,0,0:0:0:0:
320,192,217371,1,0,0:0:0:0:
192,192,217448,1,0,0:0:0:0:
64,192,217448,1,0,0:0:0:0:
320,192,217525,1,0,0:0:0:0:
448,192,217602,1,0,0:0:0:0:
192,192,217602,1,0,0:0:0:0:
64,192,217679,1,0,0:0:0:0:
320,192,217679,1,0,0:0:0:0:
448,192,217756,1,0,0:0:0:0:
192,192,217794,1,0,0:0:0:0:
320,192,217833,1,0,0:0:0:0:
64,192,217871,1,0,0:0:0:0:
192,192,217910,1,0,0:0:0:0:
448,192,217910,1,0,0:0:0:0:
320,192,218064,1,0,0:0:0:0:
64,192,218064,1,0,0:0:0:0:
448,192,218140,1,0,0:0:0:0:
64,192,218217,1,0,0:0:0:0:
320,192,218217,1,0,0:0:0:0:
192,192,218294,1,0,0:0:0:0:
320,192,218371,1,0,0:0:0:0:
64,192,218371,1,0,0:0:0:0:
448,192,218371,1,0,0:0:0:0:
192,192,218448,1,0,0:0:0:0:
64,192,218525,1,0,0:0:0:0:
320,192,218525,1,0,0:0:0:0:
448,192,218525,1,0,0:0:0:0:
192,192,218602,1,0,0:0:0:0:
320,192,218679,1,0,0:0:0:0:
448,192,218679,1,0,0:0:0:0:
192,192,218756,1,0,0:0:0:0:
64,192,218756,1,0,0:0:0:0:
320,192,218833,1,0,0:0:0:0:
448,192,218833,1,0,0:0:0:0:
64,192,218910,1,0,0:0:0:0:
192,192,218987,1,0,0:0:0:0:
448,192,218987,1,0,0:0:0:0:
320,192,219025,1,0,0:0:0:0:
64,192,219064,1,0,0:0:0:0:
192,192,219102,1,0,0:0:0:0:
448,192,219140,1,0,0:0:0:0:
320,192,219140,1,0,0:0:0:0:
64,192,219217,1,0,0:0:0:0:
192,192,219294,1,0,0:0:0:0:
448,192,219371,1,0,0:0:0:0:
320,192,219371,1,0,0:0:0:0:
64,192,219371,1,0,0:0:0:0:
192,192,219448,1,0,0:0:0:0:
64,192,219525,1,0,0:0:0:0:
448,192,219602,1,0,0:0:0:0:
320,192,219602,1,0,0:0:0:0:
192,192,219679,1,0,0:0:0:0:
64,192,219756,1,0,0:0:0:0:
448,192,219833,1,0,0:0:0:0:
320,192,219833,1,0,0:0:0:0:
192,192,219910,1,0,0:0:0:0:
64,192,219910,1,0,0:0:0:0:
320,192,219948,1,0,0:0:0:0:
448,192,219987,1,0,0:0:0:0:
64,192,220025,1,0,0:0:0:0:
192,192,220064,1,0,0:0:0:0:
320,192,220064,1,0,0:0:0:0:
448,192,220115,1,0,0:0:0:0:
64,192,220166,1,0,0:0:0:0:
192,192,220217,1,0,0:0:0:0:
320,192,220269,1,0,0:0:0:0:
448,192,220320,1,0,0:0:0:0:
64,192,220371,1,0,0:0:0:0:
192,192,220371,1,0,0:0:0:0:
320,192,220448,1,0,0:0:0:0:
448,192,220525,1,0,0:0:0:0:
192,192,220602,1,0,0:0:0:0:
320,192,220679,1,0,0:0:0:0:
64,192,220756,1,0,0:0:0:0:
320,192,220833,1,0,0:0:0:0:
64,192,220910,1,0,0:0:0:0:
192,192,220987,1,0,0:0:0:0:
320,192,221064,1,0,0:0:0:0:
448,192,221140,1,0,0:0:0:0:
192,192,221217,1,0,0:0:0:0:
320,192,221294,1,0,0:0:0:0:
64,192,221371,1,0,0:0:0:0:
192,192,221448,1,0,0:0:0:0:
320,192,221525,1,0,0:0:0:0:
448,192,221602,1,0,0:0:0:0:
192,192,221602,1,0,0:0:0:0:
64,192,221602,1,0,0:0:0:0:
320,192,221679,1,0,0:0:0:0:
448,192,221756,1,0,0:0:0:0:
64,192,221833,1,0,0:0:0:0:
320,192,221833,1,0,0:0:0:0:
192,192,221833,1,0,0:0:0:0:
448,192,221910,1,0,0:0:0:0:
320,192,221987,1,0,0:0:0:0:
448,192,222064,1,0,0:0:0:0:
192,192,222064,1,0,0:0:0:0:
64,192,222064,1,0,0:0:0:0:
320,192,222140,1,0,0:0:0:0:
448,192,222217,1,0,0:0:0:0:
320,192,222294,1,0,0:0:0:0:
192,192,222294,1,0,0:0:0:0:
64,192,222294,1,0,0:0:0:0:
448,192,222371,1,0,0:0:0:0:
320,192,222448,1,0,0:0:0:0:
448,192,222525,1,0,0:0:0:0:
192,192,222525,1,0,0:0:0:0:
64,192,222525,1,0,0:0:0:0:
320,192,222602,1,0,0:0:0:0:
64,192,222679,1,0,0:0:0:0:
192,192,222679,1,0,0:0:0:0:
448,192,222679,1,0,0:0:0:0:
320,192,222756,1,0,0:0:0:0:
64,192,222833,1,0,0:0:0:0:
448,192,222833,1,0,0:0:0:0:
192,192,222910,1,0,0:0:0:0:
320,192,222910,1,0,0:0:0:0:
64,192,222987,1,0,0:0:0:0:
192,192,223064,1,0,0:0:0:0:
448,192,223064,1,0,0:0:0:0:
320,192,223064,1,0,0:0:0:0:
64,192,223140,1,0,0:0:0:0:
192,192,223217,1,0,0:0:0:0:
64,192,223294,1,0,0:0:0:0:
448,192,223294,1,0,0:0:0:0:
320,192,223294,1,0,0:0:0:0:
192,192,223371,1,0,0:0:0:0:
64,192,223448,1,0,0:0:0:0:
192,192,223525,1,0,0:0:0:0:
448,192,223525,1,0,0:0:0:0:
320,192,223525,1,0,0:0:0:0:
64,192,223602,1,0,0:0:0:0:
192,192,223679,1,0,0:0:0:0:
64,192,223756,1,0,0:0:0:0:
448,192,223756,1,0,0:0:0:0:
320,192,223756,1,0,0:0:0:0:
192,192,223833,1,0,0:0:0:0:
448,192,223910,1,0,0:0:0:0:
320,192,223910,1,0,0:0:0:0:
64,192,223910,1,0,0:0:0:0:
192,192,223987,1,0,0:0:0:0:
448,192,224064,1,0,0:0:0:0:
320,192,224064,1,0,0:0:0:0:
64,192,224140,1,0,0:0:0:0:
192,192,224140,1,0,0:0:0:0:
448,192,224217,1,0,0:0:0:0:
64,192,224294,1,0,0:0:0:0:
320,192,224294,1,0,0:0:0:0:
192,192,224294,1,0,0:0:0:0:
448,192,224371,1,0,0:0:0:0:
64,192,224448,1,0,0:0:0:0:
448,192,224525,1,0,0:0:0:0:
320,192,224525,1,0,0:0:0:0:
192,192,224525,1,0,0:0:0:0:
64,192,224602,1,0,0:0:0:0:
448,192,224679,1,0,0:0:0:0:
64,192,224756,1,0,0:0:0:0:
320,192,224756,1,0,0:0:0:0:
192,192,224756,1,0,0:0:0:0:
448,192,224833,1,0,0:0:0:0:
64,192,224910,1,0,0:0:0:0:
448,192,224987,1,0,0:0:0:0:
320,192,224987,1,0,0:0:0:0:
192,192,224987,1,0,0:0:0:0:
64,192,225064,1,0,0:0:0:0:
448,192,225140,1,0,0:0:0:0:
320,192,225140,1,0,0:0:0:0:
192,192,225140,1,0,0:0:0:0:
64,192,225217,1,0,0:0:0:0:
192,192,225294,1,0,0:0:0:0:
448,192,225294,1,0,0:0:0:0:
64,192,225371,1,0,0:0:0:0:
320,192,225371,1,0,0:0:0:0:
192,192,225448,1,0,0:0:0:0:
320,192,225525,1,0,0:0:0:0:
192,192,225602,1,0,0:0:0:0:
64,192,225602,1,0,0:0:0:0:
448,192,225602,1,0,0:0:0:0:
320,192,225679,1,0,0:0:0:0:
192,192,225756,1,0,0:0:0:0:
320,192,225833,1,0,0:0:0:0:
448,192,225833,1,0,0:0:0:0:
64,192,225833,1,0,0:0:0:0:
192,192,225910,1,0,0:0:0:0:
320,192,225987,1,0,0:0:0:0:
448,192,225987,1,0,0:0:0:0:
64,192,226025,1,0,0:0:0:0:
192,192,226064,1,0,0:0:0:0:
448,192,226102,1,0,0:0:0:0:
320,192,226140,1,0,0:0:0:0:
64,192,226179,1,0,0:0:0:0:
192,192,226217,1,0,0:0:0:0:
448,192,226217,1,0,0:0:0:0:
320,192,226294,1,0,0:0:0:0:
64,192,226371,1,0,0:0:0:0:
448,192,226371,1,0,0:0:0:0:
192,192,226448,1,0,0:0:0:0:
64,192,226525,1,0,0:0:0:0:
448,192,226525,1,0,0:0:0:0:
320,192,226525,1,0,0:0:0:0:
192,192,226602,1,0,0:0:0:0:
64,192,226679,1,0,0:0:0:0:
320,192,226756,1,0,0:0:0:0:
192,192,226756,1,0,0:0:0:0:
448,192,226756,1,0,0:0:0:0:
64,192,226833,1,0,0:0:0:0:
192,192,226910,1,0,0:0:0:0:
448,192,226987,1,0,0:0:0:0:
320,192,226987,1,0,0:0:0:0:
64,192,226987,1,0,0:0:0:0:
192,192,227064,1,0,0:0:0:0:
64,192,227140,1,0,0:0:0:0:
448,192,227217,1,0,0:0:0:0:
320,192,227217,1,0,0:0:0:0:
192,192,227217,1,0,0:0:0:0:
64,192,227294,1,0,0:0:0:0:
192,192,227371,1,0,0:0:0:0:
448,192,227448,1,0,0:0:0:0:
320,192,227448,1,0,0:0:0:0:
64,192,227448,1,0,0:0:0:0:
192,192,227525,1,0,0:0:0:0:
64,192,227602,1,0,0:0:0:0:
320,192,227602,1,0,0:0:0:0:
448,192,227602,1,0,0:0:0:0:
192,192,227679,1,0,0:0:0:0:
64,192,227756,1,0,0:0:0:0:
448,192,227756,1,0,0:0:0:0:
192,192,227833,1,0,0:0:0:0:
320,192,227833,1,0,0:0:0:0:
448,192,227910,1,0,0:0:0:0:
192,192,227987,1,0,0:0:0:0:
64,192,227987,1,0,0:0:0:0:
320,192,227987,1,0,0:0:0:0:
448,192,228064,1,0,0:0:0:0:
320,192,228140,1,0,0:0:0:0:
192,192,228217,1,0,0:0:0:0:
64,192,228217,1,0,0:0:0:0:
448,192,228217,1,0,0:0:0:0:
320,192,228294,1,0,0:0:0:0:
448,192,228371,1,0,0:0:0:0:
192,192,228448,1,0,0:0:0:0:
64,192,228448,1,0,0:0:0:0:
320,192,228448,1,0,0:0:0:0:
448,192,228525,1,0,0:0:0:0:
320,192,228602,1,0,0:0:0:0:
192,192,228679,1,0,0:0:0:0:
64,192,228679,1,0,0:0:0:0:
448,192,228679,1,0,0:0:0:0:
320,192,228756,1,0,0:0:0:0:
448,192,228833,1,0,0:0:0:0:
192,192,228833,1,0,0:0:0:0:
64,192,228833,1,0,0:0:0:0:
320,192,228910,1,0,0:0:0:0:
192,192,228987,1,0,0:0:0:0:
64,192,228987,1,0,0:0:0:0:
448,192,228987,1,0,0:0:0:0:
320,192,229064,1,0,0:0:0:0:
192,192,229140,1,0,0:0:0:0:
320,192,229217,1,0,0:0:0:0:
448,192,229217,1,0,0:0:0:0:
64,192,229217,1,0,0:0:0:0:
192,192,229294,1,0,0:0:0:0:
320,192,229371,1,0,0:0:0:0:
192,192,229448,1,0,0:0:0:0:
64,192,229448,1,0,0:0:0:0:
448,192,229448,1,0,0:0:0:0:
320,192,229525,1,0,0:0:0:0:
192,192,229602,1,0,0:0:0:0:
320,192,229679,1,0,0:0:0:0:
64,192,229679,1,0,0:0:0:0:
448,192,229679,1,0,0:0:0:0:
192,192,229756,1,0,0:0:0:0:
320,192,229833,1,0,0:0:0:0:
192,192,229910,1,0,0:0:0:0:
448,192,229910,1,0,0:0:0:0:
64,192,229910,1,0,0:0:0:0:
320,192,229987,1,0,0:0:0:0:
192,192,230064,1,0,0:0:0:0:
64,192,230064,1,0,0:0:0:0:
448,192,230064,1,0,0:0:0:0:
320,192,230140,1,0,0:0:0:0:
448,192,230217,1,0,0:0:0:0:
192,192,230217,1,0,0:0:0:0:
64,192,230217,1,0,0:0:0:0:
320,192,230294,1,0,0:0:0:0:
448,192,230371,1,0,0:0:0:0:
320,192,230448,1,0,0:0:0:0:
192,192,230448,1,0,0:0:0:0:
64,192,230448,1,0,0:0:0:0:
448,192,230525,1,0,0:0:0:0:
64,192,230602,1,0,0:0:0:0:
448,192,230679,1,0,0:0:0:0:
320,192,230679,1,0,0:0:0:0:
192,192,230679,1,0,0:0:0:0:
64,192,230756,1,0,0:0:0:0:
448,192,230833,1,0,0:0:0:0:
320,192,230910,1,0,0:0:0:0:
192,192,230910,1,0,0:0:0:0:
64,192,230948,1,0,0:0:0:0:
448,192,230987,1,0,0:0:0:0:
192,192,231025,1,0,0:0:0:0:
320,192,231064,1,0,0:0:0:0:
64,192,231102,1,0,0:0:0:0:
448,192,231140,1,0,0:0:0:0:
192,192,231140,1,0,0:0:0:0:
320,192,231217,1,0,0:0:0:0:
448,192,231294,1,0,0:0:0:0:
64,192,231294,1,0,0:0:0:0:
192,192,231294,1,0,0:0:0:0:
320,192,231371,1,0,0:0:0:0:
64,192,231448,1,0,0:0:0:0:
448,192,231448,1,0,0:0:0:0:
192,192,231525,1,0,0:0:0:0:
320,192,231525,1,0,0:0:0:0:
64,192,231602,1,0,0:0:0:0:
448,192,231679,1,0,0:0:0:0:
192,192,231679,1,0,0:0:0:0:
320,192,231679,1,0,0:0:0:0:
64,192,231756,1,0,0:0:0:0:
192,192,231833,1,0,0:0:0:0:
64,192,231910,1,0,0:0:0:0:
448,192,231910,1,0,0:0:0:0:
320,192,231910,1,0,0:0:0:0:
192,192,231987,1,0,0:0:0:0:
64,192,232064,1,0,0:0:0:0:
320,192,232140,1,0,0:0:0:0:
448,192,232140,1,0,0:0:0:0:
192,192,232140,1,0,0:0:0:0:
64,192,232217,1,0,0:0:0:0:
448,192,232294,1,0,0:0:0:0:
64,192,232371,1,0,0:0:0:0:
192,192,232371,1,0,0:0:0:0:
320,192,232371,1,0,0:0:0:0:
448,192,232448,1,0,0:0:0:0:
192,192,232525,1,0,0:0:0:0:
64,192,232525,1,0,0:0:0:0:
320,192,232525,1,0,0:0:0:0:
448,192,232602,1,0,0:0:0:0:
192,192,232679,1,0,0:0:0:0:
64,192,232679,1,0,0:0:0:0:
320,192,232756,1,0,0:0:0:0:
448,192,232756,1,0,0:0:0:0:
192,192,232833,1,0,0:0:0:0:
320,192,232910,1,0,0:0:0:0:
448,192,232910,1,0,0:0:0:0:
64,192,232910,1,0,0:0:0:0:
192,192,232987,1,0,0:0:0:0:
64,192,233064,1,0,0:0:0:0:
448,192,233140,1,0,0:0:0:0:
192,192,233140,1,0,0:0:0:0:
320,192,233140,1,0,0:0:0:0:
64,192,233217,1,0,0:0:0:0:
192,192,233294,1,0,0:0:0:0:
64,192,233371,1,0,0:0:0:0:
448,192,233371,1,0,0:0:0:0:
320,192,233371,1,0,0:0:0:0:
192,192,233448,1,0,0:0:0:0:
64,192,233525,1,0,0:0:0:0:
320,192,233602,1,0,0:0:0:0:
448,192,233602,1,0,0:0:0:0:
192,192,233602,1,0,0:0:0:0:
64,192,233679,1,0,0:0:0:0:
448,192,233756,1,0,0:0:0:0:
320,192,233756,1,0,0:0:0:0:
192,192,233756,1,0,0:0:0:0:
64,192,233833,1,0,0:0:0:0:
448,192,233910,1,0,0:0:0:0:
192,192,233910,1,0,0:0:0:0:
320,192,233987,1,0,0:0:0:0:
64,192,233987,1,0,0:0:0:0:
448,192,234064,1,0,0:0:0:0:
64,192,234140,1,0,0:0:0:0:
320,192,234140,1,0,0:0:0:0:
192,192,234140,1,0,0:0:0:0:
448,192,234217,1,0,0:0:0:0:
64,192,234294,1,0,0:0:0:0:
448,192,234371,1,0,0:0:0:0:
320,192,234371,1,0,0:0:0:0:
192,192,234371,1,0,0:0:0:0:
64,192,234448,1,0,0:0:0:0:
448,192,234525,1,0,0:0:0:0:
64,192,234602,1,0,0:0:0:0:
192,192,234602,1,0,0:0:0:0:
320,192,234602,1,0,0:0:0:0:
448,192,234679,1,0,0:0:0:0:
192,192,234756,1,0,0:0:0:0:
448,192,234833,1,0,0:0:0:0:
320,192,234833,1,0,0:0:0:0:
64,192,234833,1,0,0:0:0:0:
192,192,234910,1,0,0:0:0:0:
448,192,234987,1,0,0:0:0:0:
64,192,234987,1,0,0:0:0:0:
320,192,234987,1,0,0:0:0:0:
192,192,235064,1,0,0:0:0:0:
64,192,235140,1,0,0:0:0:0:
320,192,235140,1,0,0:0:0:0:
448,192,235217,1,0,0:0:0:0:
192,192,235217,1,0,0:0:0:0:
320,192,235294,1,0,0:0:0:0:
64,192,235371,1,0,0:0:0:0:
448,192,235371,1,0,0:0:0:0:
192,192,235371,1,0,0:0:0:0:
320,192,235448,1,0,0:0:0:0:
448,192,235525,1,0,0:0:0:0:
320,192,235602,1,0,0:0:0:0:
64,192,235602,1,0,0:0:0:0:
192,192,235602,1,0,0:0:0:0:
448,192,235679,1,0,0:0:0:0:
320,192,235756,1,0,0:0:0:0:
192,192,235833,1,0,0:0:0:0:
64,192,235833,1,0,0:0:0:0:
448,192,235833,1,0,0:0:0:0:
320,192,235871,1,0,0:0:0:0:
64,192,235910,1,0,0:0:0:0:
192,192,235948,1,0,0:0:0:0:
448,192,235987,1,0,0:0:0:0:
320,192,236025,1,0,0:0:0:0:
192,192,236064,1,0,0:0:0:0:
64,192,236064,1,0,0:0:0:0:
448,192,236140,1,0,0:0:0:0:
320,192,236217,1,0,0:0:0:0:
192,192,236217,1,0,0:0:0:0:
64,192,236217,1,0,0:0:0:0:
448,192,236294,1,0,0:0:0:0:
320,192,236371,1,0,0:0:0:0:
192,192,236371,1,0,0:0:0:0:
64,192,236448,1,0,0:0:0:0:
448,192,236448,1,0,0:0:0:0:
320,192,236525,1,0,0:0:0:0:
448,192,236602,1,0,0:0:0:0:
192,192,236602,1,0,0:0:0:0:
64,192,236602,1,0,0:0:0:0:
320,192,236679,1,0,0:0:0:0:
448,192,236756,1,0,0:0:0:0:
320,192,236833,1,0,0:0:0:0:
192,192,236833,1,0,0:0:0:0:
64,192,236833,1,0,0:0:0:0:
448,192,236910,1,0,0:0:0:0:
320,192,236987,1,0,0:0:0:0:
64,192,237064,1,0,0:0:0:0:
192,192,237064,1,0,0:0:0:0:
448,192,237064,1,0,0:0:0:0:
320,192,237140,1,0,0:0:0:0:
448,192,237217,1,0,0:0:0:0:
320,192,237294,1,0,0:0:0:0:
192,192,237294,1,0,0:0:0:0:
64,192,237294,1,0,0:0:0:0:
448,192,237371,1,0,0:0:0:0:
320,192,237448,1,0,0:0:0:0:
192,192,237448,1,0,0:0:0:0:
64,192,237448,1,0,0:0:0:0:
448,192,237525,1,0,0:0:0:0:
320,192,237602,1,0,0:0:0:0:
64,192,237602,1,0,0:0:0:0:
192,192,237679,1,0,0:0:0:0:
448,192,237679,1,0,0:0:0:0:
320,192,237756,1,0,0:0:0:0:
192,192,237833,1,0,0:0:0:0:
448,192,237833,1,0,0:0:0:0:
64,192,237833,1,0,0:0:0:0:
320,192,237910,1,0,0:0:0:0:
192,192,237987,1,0,0:0:0:0:
320,192,238064,1,0,0:0:0:0:
448,192,238064,1,0,0:0:0:0:
64,192,238064,1,0,0:0:0:0:
192,192,238140,1,0,0:0:0:0:
64,192,238217,1,0,0:0:0:0:
192,192,238294,1,0,0:0:0:0:
448,192,238294,1,0,0:0:0:0:
320,192,238294,1,0,0:0:0:0:
64,192,238371,1,0,0:0:0:0:
192,192,238448,1,0,0:0:0:0:
448,192,238525,1,0,0:0:0:0:
64,192,238525,1,0,0:0:0:0:
320,192,238525,1,0,0:0:0:0:
192,192,238602,1,0,0:0:0:0:
320,192,238679,1,0,0:0:0:0:
448,192,238679,1,0,0:0:0:0:
64,192,238679,1,0,0:0:0:0:
192,192,238756,1,0,0:0:0:0:
448,192,238833,1,0,0:0:0:0:
64,192,238833,1,0,0:0:0:0:
320,192,238910,1,0,0:0:0:0:
192,192,238910,1,0,0:0:0:0:
64,192,238987,1,0,0:0:0:0:
448,192,238987,1,0,0:0:0:0:
320,192,239064,1,0,0:0:0:0:
192,192,239140,1,0,0:0:0:0:
64,192,239140,1,0,0:0:0:0:
448,192,239217,1,0,0:0:0:0:
192,192,239294,1,0,0:0:0:0:
320,192,239294,1,0,0:0:0:0:
64,192,239294,1,0,0:0:0:0:
448,192,239371,1,0,0:0:0:0:
320,192,239448,1,0,0:0:0:0:
192,192,239525,1,0,0:0:0:0:
64,192,239525,1,0,0:0:0:0:
448,192,239525,1,0,0:0:0:0:
320,192,239602,1,0,0:0:0:0:
192,192,239679,1,0,0:0:0:0:
320,192,239756,1,0,0:0:0:0:
64,192,239756,1,0,0:0:0:0:
448,192,239756,1,0,0:0:0:0:
192,192,239833,1,0,0:0:0:0:
64,192,239910,1,0,0:0:0:0:
320,192,239910,1,0,0:0:0:0:
448,192,239910,1,0,0:0:0:0:
192,192,239987,1,0,0:0:0:0:
320,192,240064,1,0,0:0:0:0:
448,192,240064,1,0,0:0:0:0:
64,192,240064,1,0,0:0:0:0:
192,192,240140,1,0,0:0:0:0:
320,192,240217,1,0,0:0:0:0:
448,192,240217,1,0,0:0:0:0:
192,192,240294,1,0,0:0:0:0:
64,192,240294,1,0,0:0:0:0:
320,192,240371,1,0,0:0:0:0:
448,192,240371,1,0,0:0:0:0:
192,192,240448,1,0,0:0:0:0:
64,192,240525,1,0,0:0:0:0:
320,192,240525,1,0,0:0:0:0:
448,192,240525,1,0,0:0:0:0:
192,192,240602,1,0,0:0:0:0:
320,192,240679,1,0,0:0:0:0:
64,192,240679,1,0,0:0:0:0:
192,192,240756,1,0,0:0:0:0:
448,192,240756,1,0,0:0:0:0:
64,192,240794,1,0,0:0:0:0:
320,192,240833,1,0,0:0:0:0:
448,192,240871,1,0,0:0:0:0:
192,192,240910,1,0,0:0:0:0:
64,192,240948,1,0,0:0:0:0:
320,192,240987,1,0,0:0:0:0:
448,192,240987,1,0,0:0:0:0:
192,192,241064,1,0,0:0:0:0:
64,192,241064,1,0,0:0:0:0:
320,192,241140,1,0,0:0:0:0:
448,192,241140,1,0,0:0:0:0:
192,192,241217,1,0,0:0:0:0:
64,192,241217,1,0,0:0:0:0:
64,192,241602,128,0,242525:0:0:0:0:
320,192,241602,128,0,245602:0:0:0:0:
192,192,241602,128,0,243756:0:0:0:0:
448,192,243756,128,0,246166:0:0:0:0:
448,192,246217,1,0,0:0:0:0:
