osu file format v14

[General]
AudioFilename: audio.mp3
AudioLeadIn: 0
PreviewTime: 240680
Countdown: 0
SampleSet: Normal
StackLeniency: 0.7
Mode: 1
LetterboxInBreaks: 0
WidescreenStoryboard: 1

[Editor]
DistanceSpacing: 1.5
BeatDivisor: 4
GridSize: 32
TimelineZoom: 2.899999

[Metadata]
Title:Ascension to Heaven
TitleUnicode:Ascension to Heaven
Artist:xi
ArtistUnicode:xi
Creator:Serial Dreemurr
Version:Descending to Hell
Source:
Tags:artcore electronic piano parousia 100sec records bms of fighters 2009 diverse system instrumental
BeatmapID:2154597
BeatmapSetID:1030315

[Difficulty]
HPDrainRate:5
CircleSize:5
OverallDifficulty:7
ApproachRate:5
SliderMultiplier:1.4
SliderTickRate:1

[Events]
//Background and Video events
0,0,"Heaven.png",0,-80
//Break Periods
//Storyboard Layer 0 (Background)
//Storyboard Layer 1 (Fail)
//Storyboard Layer 2 (Pass)
//Storyboard Layer 3 (Foreground)
//Storyboard Layer 4 (Overlay)
//Storyboard Sound Samples

[TimingPoints]
980,300,4,1,0,40,1,0
980,-125,4,1,0,40,0,0
24380,-121.624908781318,4,1,0,50,0,0
24455,-118.427285646613,4,1,0,50,0,0
24530,-115.393491807062,4,1,0,50,0,0
24605,-112.511251125113,4,1,0,50,0,0
24680,-109.757436066293,4,1,0,50,0,0
24755,-107.146683810136,4,1,0,50,0,0
24830,-104.65724751439,4,1,0,50,0,0
24905,-102.280863250486,4,1,0,50,0,0
24980,-100,4,1,0,70,0,0
43130,-86.9565217391304,4,1,0,70,0,0
43880,-80,4,1,0,70,0,0
44180,-97.0873786407767,4,1,0,70,0,0
82580,-66.6666666666667,4,1,0,70,0,0
83780,-90.9090909090909,4,1,0,70,0,0
84980,-111.111111111111,4,1,0,40,0,0
86180,-125,4,1,0,40,0,0
105380,-111.111111111111,4,1,0,45,0,0
106580,-105.263157894737,4,1,0,50,0,0
120980,-104.166666666667,4,1,0,55,0,0
121055,-103.092783505155,4,1,0,55,0,0
121130,-102.040816326531,4,1,0,55,0,0
121205,-101.010101010101,4,1,0,55,0,0
121280,-100,4,1,0,55,0,0
123155,-100,4,1,0,60,0,0
124730,-86.9565217391304,4,1,0,60,0,0
125480,-80,4,1,0,50,0,0
125780,-100,4,1,0,70,0,0
162830,-99.009900990099,4,1,0,60,0,0
162905,-98.0392156862745,4,1,0,60,0,0
162980,-97.0873786407767,4,1,0,60,0,0
163055,-96.1538461538461,4,1,0,60,0,0
163130,-95.2380952380952,4,1,0,60,0,0
163205,-94.3396226415094,4,1,0,60,0,0
163280,-93.4579439252336,4,1,0,60,0,0
163355,-92.5925925925926,4,1,0,60,0,0
163430,-91.743119266055,4,1,0,60,0,0
164180,-90.9090909090909,4,1,0,70,0,1
173780,-90.9090909090909,4,1,0,65,0,1
183380,-90.9090909090909,4,1,0,70,0,1
191855,-90.9090909090909,4,1,0,65,0,1
192980,-90.9090909090909,4,1,0,70,0,1
202580,-66.6666666666667,4,1,0,65,0,0
202630,-66.6666666666667,4,1,0,25,0,0
207305,-125,4,1,0,50,0,0
216230,-111.111111111111,4,1,0,30,0,0
216980,-111.111111111111,4,1,0,50,0,0
220955,-111.111111111111,4,1,0,55,0,0
221030,-108.695652173913,4,1,0,55,0,0
221105,-106.382978723404,4,1,0,50,0,0
221180,-104.166666666667,4,1,0,55,0,0
221255,-102.040816326531,4,1,0,55,0,0
221330,-100,4,1,0,55,0,0
221405,-98.0392156862745,4,1,0,55,0,0
221480,-96.1538461538461,4,1,0,55,0,0
221555,-94.3396226415094,4,1,0,55,0,0
221630,-92.5925925925926,4,1,0,55,0,0
221705,-92.5925925925926,4,1,0,60,0,0
221780,-89.2857142857143,4,1,0,60,0,0
221855,-111.111111111111,4,1,0,50,0,0
230180,-108.695652173913,4,1,0,50,0,0
230480,-106.382978723404,4,1,0,50,0,0
230780,-104.166666666667,4,1,0,50,0,0
231080,-102.040816326531,4,1,0,50,0,0
231380,-100,4,1,0,60,0,0
239930,-86.9565217391304,4,1,0,60,0,0
240680,-80,4,1,0,60,0,0
240980,-89.2857142857143,4,1,0,75,0,1
250580,-89.2857142857143,4,1,0,70,0,1
260180,-89.2857142857143,4,1,0,75,0,1
268655,-89.2857142857143,4,1,0,70,0,1
269780,-89.2857142857143,4,1,0,75,0,1
276830,-89.2857142857143,4,1,0,75,0,1
279380,-66.6666666666667,4,1,0,75,0,0
279430,-66.6666666666667,4,1,0,35,0,0
284105,-100,4,1,0,40,0,0
291380,302.762709726252,4,1,0,50,1,0
292591,303.79746835443,4,1,0,40,1,0
293806,310.880829015544,4,1,0,50,1,0
295049,315.789473684211,4,1,0,40,1,0
296312,319.148936170213,4,1,0,50,1,0
297586,329.67032967033,4,1,0,40,1,0
298959,-33.3333333333333,4,1,0,20,0,0
299069,-100,4,1,0,20,0,0

[HitObjects]
256,192,5780,5,0,0:0:0:0:
256,192,8180,1,0,0:0:0:0:
256,192,9380,1,8,0:0:0:0:
256,192,9417,1,8,0:0:0:0:
256,192,10580,1,0,0:0:0:0:
256,192,12980,1,0,0:0:0:0:
256,192,14180,1,8,0:0:0:0:
256,192,14217,1,8,0:0:0:0:
256,192,15380,1,0,0:0:0:0:
256,192,17780,1,0,0:0:0:0:
256,192,18980,1,8,0:0:0:0:
256,192,19017,1,8,0:0:0:0:
256,192,20180,1,0,0:0:0:0:
256,192,22580,1,0,0:0:0:0:
256,192,23780,1,8,0:0:0:0:
256,192,24230,1,8,0:0:0:0:
256,192,24380,1,8,0:0:0:0:
256,192,24455,1,0,0:0:0:0:
256,192,24530,1,8,0:0:0:0:
256,192,24605,1,8,0:0:0:0:
256,192,24680,1,0,0:0:0:0:
256,192,24755,1,0,0:0:0:0:
256,192,24830,1,8,0:0:0:0:
256,192,24905,1,8,0:0:0:0:
256,192,24980,1,0,0:0:0:0:
256,192,25130,1,0,0:0:0:0:
256,192,25205,1,0,0:0:0:0:
256,192,25280,1,8,0:0:0:0:
256,192,25430,1,0,0:0:0:0:
256,192,25505,1,8,0:0:0:0:
256,192,25655,1,0,0:0:0:0:
256,192,25730,1,0,0:0:0:0:
256,192,25805,1,8,0:0:0:0:
256,192,25880,1,8,0:0:0:0:
256,192,26030,1,0,0:0:0:0:
256,192,26105,1,0,0:0:0:0:
256,192,26180,1,8,0:0:0:0:
256,192,26330,1,8,0:0:0:0:
256,192,26480,1,0,0:0:0:0:
256,192,26555,1,0,0:0:0:0:
256,192,26705,1,0,0:0:0:0:
256,192,26780,1,8,0:0:0:0:
256,192,26855,1,0,0:0:0:0:
256,192,26930,1,8,0:0:0:0:
256,192,27005,1,0,0:0:0:0:
256,192,27080,1,8,0:0:0:0:
256,192,27155,1,0,0:0:0:0:
256,192,27230,1,8,0:0:0:0:
256,192,27280,1,8,0:0:0:0:
256,192,27330,1,8,0:0:0:0:
256,192,27380,1,0,0:0:0:0:
256,192,27530,1,0,0:0:0:0:
256,192,27605,1,0,0:0:0:0:
256,192,27680,1,8,0:0:0:0:
256,192,27830,1,0,0:0:0:0:
256,192,27905,1,8,0:0:0:0:
263,191,28055,1,0,0:0:0:0:
256,192,28130,1,0,0:0:0:0:
256,192,28280,1,8,0:0:0:0:
256,192,28430,1,0,0:0:0:0:
256,192,28505,1,0,0:0:0:0:
256,192,28580,1,8,0:0:0:0:
256,192,28655,1,0,0:0:0:0:
256,192,28730,1,8,0:0:0:0:
256,192,28880,1,0,0:0:0:0:
256,192,28955,1,8,0:0:0:0:
256,192,29030,1,0,0:0:0:0:
256,192,29080,1,0,0:0:0:0:
256,192,29130,1,0,0:0:0:0:
256,192,29180,1,8,0:0:0:0:
256,192,29330,1,8,0:0:0:0:
261,193,29405,1,0,0:0:0:0:
256,192,29480,1,8,0:0:0:0:
256,192,29555,1,0,0:0:0:0:
256,192,29630,1,0,0:0:0:0:
256,192,29705,1,0,0:0:0:0:
256,192,29780,1,8,0:0:0:0:
256,192,29930,1,0,0:0:0:0:
256,192,30005,1,0,0:0:0:0:
256,184,30080,1,8,0:0:0:0:
256,192,30230,1,0,0:0:0:0:
256,192,30305,1,8,0:0:0:0:
261,196,30455,1,8,0:0:0:0:
256,192,30530,1,0,0:0:0:0:
256,192,30605,1,8,0:0:0:0:
256,192,30680,1,8,0:0:0:0:
256,192,30830,1,0,0:0:0:0:
262,186,30980,1,8,0:0:0:0:
256,192,31055,1,0,0:0:0:0:
256,192,31130,1,8,0:0:0:0:
256,192,31280,1,0,0:0:0:0:
256,192,31355,1,0,0:0:0:0:
256,192,31505,1,0,0:0:0:0:
256,192,31580,1,8,0:0:0:0:
256,192,31655,1,0,0:0:0:0:
256,192,31730,1,8,0:0:0:0:
256,192,31805,1,0,0:0:0:0:
256,192,31880,1,8,0:0:0:0:
256,192,31955,1,0,0:0:0:0:
256,192,32030,1,8,0:0:0:0:
256,192,32080,1,8,0:0:0:0:
256,192,32130,1,8,0:0:0:0:
256,192,32180,1,0,0:0:0:0:
256,192,32330,1,0,0:0:0:0:
256,192,32405,1,0,0:0:0:0:
256,192,32480,1,8,0:0:0:0:
256,192,32630,1,0,0:0:0:0:
256,192,32705,1,8,0:0:0:0:
250,192,32855,1,0,0:0:0:0:
256,192,32930,1,0,0:0:0:0:
256,192,33080,1,8,0:0:0:0:
266,193,33155,1,0,0:0:0:0:
256,192,33230,1,8,0:0:0:0:
265,193,33305,1,8,0:0:0:0:
256,192,33380,1,8,0:0:0:0:
256,192,33455,1,0,0:0:0:0:
256,192,33530,1,0,0:0:0:0:
256,192,33605,1,8,0:0:0:0:
256,192,33680,1,0,0:0:0:0:
256,192,33830,1,0,0:0:0:0:
256,192,33880,1,0,0:0:0:0:
256,192,33930,1,0,0:0:0:0:
256,192,33980,1,8,0:0:0:0:
256,192,34055,1,8,0:0:0:0:
256,192,34130,1,0,0:0:0:0:
256,191,34280,1,8,0:0:0:0:
256,192,34355,1,0,0:0:0:0:
254,198,34430,1,0,0:0:0:0:
254,198,34505,1,0,0:0:0:0:
254,198,34580,1,8,0:0:0:0:
256,192,34730,1,0,0:0:0:0:
256,192,34805,1,0,0:0:0:0:
256,192,34880,1,8,0:0:0:0:
256,192,35030,1,0,0:0:0:0:
256,192,35105,1,8,0:0:0:0:
256,192,35255,1,0,0:0:0:0:
256,192,35330,1,0,0:0:0:0:
256,192,35405,1,8,0:0:0:0:
256,192,35480,1,8,0:0:0:0:
224,160,35630,1,0,0:0:0:0:
224,160,35705,1,0,0:0:0:0:
256,192,35780,1,8,0:0:0:0:
256,192,35930,1,8,0:0:0:0:
224,160,36080,1,0,0:0:0:0:
256,192,36155,1,0,0:0:0:0:
224,160,36305,1,0,0:0:0:0:
224,160,36380,1,8,0:0:0:0:
262,193,36455,1,0,0:0:0:0:
262,194,36530,1,8,0:0:0:0:
256,192,36605,1,0,0:0:0:0:
253,187,36680,1,8,0:0:0:0:
224,160,36755,1,0,0:0:0:0:
256,192,36830,1,8,0:0:0:0:
256,192,36880,1,8,0:0:0:0:
256,192,36930,1,8,0:0:0:0:
256,192,36980,1,0,0:0:0:0:
256,192,37130,1,0,0:0:0:0:
256,192,37205,1,0,0:0:0:0:
256,192,37280,1,8,0:0:0:0:
256,192,37430,1,0,0:0:0:0:
256,192,37505,1,8,0:0:0:0:
256,192,37655,1,0,0:0:0:0:
256,192,37730,1,0,0:0:0:0:
256,192,37880,1,8,0:0:0:0:
256,192,38030,1,0,0:0:0:0:
256,192,38105,1,0,0:0:0:0:
256,192,38180,1,8,0:0:0:0:
256,192,38330,1,8,0:0:0:0:
256,192,38480,1,0,0:0:0:0:
256,192,38555,1,8,0:0:0:0:
256,192,38630,1,0,0:0:0:0:
256,160,38680,1,0,0:0:0:0:
256,192,38730,1,0,0:0:0:0:
256,192,38780,1,8,0:0:0:0:
256,192,38855,1,0,0:0:0:0:
256,192,39005,1,0,0:0:0:0:
256,192,39080,1,8,0:0:0:0:
256,192,39155,1,0,0:0:0:0:
256,192,39230,1,0,0:0:0:0:
262,194,39305,1,8,0:0:0:0:
260,196,39380,1,0,0:0:0:0:
256,192,39530,1,0,0:0:0:0:
256,192,39605,1,0,0:0:0:0:
256,192,39680,1,8,0:0:0:0:
256,192,39830,1,0,0:0:0:0:
256,192,39905,1,8,0:0:0:0:
256,192,40055,1,8,0:0:0:0:
256,192,40130,1,0,0:0:0:0:
256,192,40280,1,8,0:0:0:0:
256,192,40430,1,0,0:0:0:0:
256,192,40580,1,8,0:0:0:0:
250,194,40655,1,0,0:0:0:0:
256,192,40730,1,8,0:0:0:0:
256,192,40880,1,0,0:0:0:0:
256,192,40955,1,0,0:0:0:0:
262,191,41105,1,0,0:0:0:0:
256,192,41180,1,0,0:0:0:0:
251,186,41255,1,8,0:0:0:0:
256,192,41330,1,0,0:0:0:0:
251,186,41405,1,8,0:0:0:0:
256,192,41480,1,8,0:0:0:0:
251,186,41555,1,0,0:0:0:0:
258,191,41630,1,8,0:0:0:0:
256,192,41705,1,8,0:0:0:0:
251,186,41780,1,0,0:0:0:0:
251,186,41930,1,0,0:0:0:0:
251,186,42005,1,0,0:0:0:0:
251,186,42080,1,8,0:0:0:0:
256,192,42230,1,0,0:0:0:0:
256,192,42305,1,8,0:0:0:0:
256,192,42380,1,0,0:0:0:0:
256,192,42455,1,0,0:0:0:0:
256,192,42530,1,8,0:0:0:0:
260,195,42580,1,8,0:0:0:0:
260,195,42630,1,8,0:0:0:0:
256,192,42680,1,0,0:0:0:0:
256,192,42755,1,8,0:0:0:0:
256,192,42830,1,8,0:0:0:0:
256,192,42905,1,0,0:0:0:0:
261,195,42980,1,8,0:0:0:0:
256,192,43130,8,0,43730,0:0:0:0:
256,192,43880,5,12,0:0:0:0:
256,192,44180,1,4,0:0:0:0:
256,192,44330,1,0,0:0:0:0:
256,192,44405,1,0,0:0:0:0:
256,192,44480,1,8,0:0:0:0:
256,192,44555,1,0,0:0:0:0:
256,192,44630,1,8,0:0:0:0:
256,192,44705,1,8,0:0:0:0:
256,192,44780,1,0,0:0:0:0:
256,192,44930,1,0,0:0:0:0:
256,192,45080,1,8,0:0:0:0:
256,192,45155,1,8,0:0:0:0:
256,192,45230,1,0,0:0:0:0:
256,192,45380,1,0,0:0:0:0:
256,192,45530,1,0,0:0:0:0:
256,192,45605,1,0,0:0:0:0:
256,192,45680,1,8,0:0:0:0:
256,192,45830,1,8,0:0:0:0:
256,192,45980,1,0,0:0:0:0:
256,192,46130,1,8,0:0:0:0:
256,192,46205,1,0,0:0:0:0:
256,192,46280,1,8,0:0:0:0:
256,192,46355,1,8,0:0:0:0:
256,192,46430,1,0,0:0:0:0:
256,192,46505,1,0,0:0:0:0:
256,192,46580,1,8,0:0:0:0:
256,192,46730,1,0,0:0:0:0:
256,192,46880,1,8,0:0:0:0:
256,192,46955,1,8,0:0:0:0:
256,192,47030,1,8,0:0:0:0:
256,192,47105,1,0,0:0:0:0:
256,192,47180,1,8,0:0:0:0:
256,192,47255,1,8,0:0:0:0:
256,192,47330,1,0,0:0:0:0:
256,192,47480,1,8,0:0:0:0:
256,192,47630,1,0,0:0:0:0:
256,192,47780,1,0,0:0:0:0:
256,192,47930,1,0,0:0:0:0:
256,192,48005,1,0,0:0:0:0:
256,192,48080,1,8,0:0:0:0:
256,192,48155,1,0,0:0:0:0:
256,192,48230,1,8,0:0:0:0:
256,192,48305,1,0,0:0:0:0:
256,192,48380,1,0,0:0:0:0:
256,192,48530,1,8,0:0:0:0:
256,192,48680,1,8,0:0:0:0:
256,192,48755,1,0,0:0:0:0:
256,192,48830,1,0,0:0:0:0:
256,192,48905,1,0,0:0:0:0:
256,192,48980,1,8,0:0:0:0:
256,192,49130,1,0,0:0:0:0:
256,192,49280,1,8,0:0:0:0:
256,192,49430,1,8,0:0:0:0:
256,192,49505,1,0,0:0:0:0:
256,192,49580,1,8,0:0:0:0:
256,192,49730,1,0,0:0:0:0:
256,192,49880,1,8,0:0:0:0:
256,192,50030,1,0,0:0:0:0:
256,192,50180,1,8,0:0:0:0:
256,192,50255,1,8,0:0:0:0:
256,192,50330,1,0,0:0:0:0:
256,192,50480,1,8,0:0:0:0:
256,192,50630,1,0,0:0:0:0:
256,192,50705,1,8,0:0:0:0:
256,192,50780,1,0,0:0:0:0:
256,192,50855,1,0,0:0:0:0:
256,192,50930,1,8,0:0:0:0:
256,192,51005,1,0,0:0:0:0:
256,192,51080,1,8,0:0:0:0:
256,192,51230,1,0,0:0:0:0:
256,192,51380,1,8,0:0:0:0:
256,192,51530,1,0,0:0:0:0:
256,192,51680,1,8,0:0:0:0:
256,192,51755,1,8,0:0:0:0:
256,192,51830,1,8,0:0:0:0:
256,192,51905,1,0,0:0:0:0:
256,192,51980,1,8,0:0:0:0:
256,192,52130,1,0,0:0:0:0:
256,192,52205,1,0,0:0:0:0:
256,192,52280,1,8,0:0:0:0:
256,192,52430,1,0,0:0:0:0:
256,192,52580,1,8,0:0:0:0:
256,192,52655,1,8,0:0:0:0:
256,192,52730,1,8,0:0:0:0:
256,192,52805,1,0,0:0:0:0:
256,192,52880,1,8,0:0:0:0:
256,192,52955,1,8,0:0:0:0:
256,192,53030,1,0,0:0:0:0:
256,192,53105,1,0,0:0:0:0:
256,192,53180,1,8,0:0:0:0:
256,192,53255,1,0,0:0:0:0:
256,192,53330,1,8,0:0:0:0:
256,192,53405,1,8,0:0:0:0:
256,192,53480,1,8,0:0:0:0:
256,192,53555,1,0,0:0:0:0:
256,192,53630,1,0,0:0:0:0:
256,192,53705,1,0,0:0:0:0:
256,192,53780,1,8,0:0:0:0:
256,192,53930,1,0,0:0:0:0:
256,192,54005,1,0,0:0:0:0:
256,192,54080,1,8,0:0:0:0:
256,192,54230,1,8,0:0:0:0:
256,192,54305,1,0,0:0:0:0:
256,192,54380,1,8,0:0:0:0:
256,192,54455,1,8,0:0:0:0:
256,192,54530,1,0,0:0:0:0:
256,192,54680,1,8,0:0:0:0:
256,192,54830,1,0,0:0:0:0:
256,192,54980,1,8,0:0:0:0:
256,192,55055,1,0,0:0:0:0:
256,192,55130,1,8,0:0:0:0:
256,192,55205,1,8,0:0:0:0:
256,192,55280,1,0,0:0:0:0:
256,192,55355,1,0,0:0:0:0:
256,192,55430,1,8,0:0:0:0:
256,192,55580,1,8,0:0:0:0:
256,192,55730,1,8,0:0:0:0:
256,192,55805,1,0,0:0:0:0:
256,192,55880,1,0,0:0:0:0:
256,192,55955,1,8,0:0:0:0:
256,192,56030,1,0,0:0:0:0:
256,192,56180,1,8,0:0:0:0:
256,192,56330,1,0,0:0:0:0:
256,192,56480,1,8,0:0:0:0:
256,192,56555,1,8,0:0:0:0:
256,192,56630,1,8,0:0:0:0:
256,192,56705,1,0,0:0:0:0:
256,192,56780,1,8,0:0:0:0:
256,192,56930,1,0,0:0:0:0:
256,192,57080,1,8,0:0:0:0:
256,192,57230,1,0,0:0:0:0:
256,192,57305,1,8,0:0:0:0:
256,192,57380,1,8,0:0:0:0:
256,192,57530,1,0,0:0:0:0:
256,192,57680,1,8,0:0:0:0:
256,192,57830,1,8,0:0:0:0:
256,192,57905,1,8,0:0:0:0:
256,192,57980,1,0,0:0:0:0:
256,192,58130,1,0,0:0:0:0:
256,192,58205,1,0,0:0:0:0:
256,192,58280,1,8,0:0:0:0:
256,192,58355,1,0,0:0:0:0:
256,192,58430,1,8,0:0:0:0:
256,192,58505,1,8,0:0:0:0:
256,192,58580,1,0,0:0:0:0:
256,192,58730,1,0,0:0:0:0:
256,192,58805,1,0,0:0:0:0:
256,192,58880,1,8,0:0:0:0:
256,192,59030,1,8,0:0:0:0:
256,192,59105,1,0,0:0:0:0:
256,192,59180,1,8,0:0:0:0:
256,192,59330,1,0,0:0:0:0:
256,192,59480,1,8,0:0:0:0:
256,192,59630,1,0,0:0:0:0:
256,192,59705,1,0,0:0:0:0:
256,192,59780,1,0,0:0:0:0:
256,192,59930,1,0,0:0:0:0:
256,192,60080,1,8,0:0:0:0:
256,192,60155,1,0,0:0:0:0:
256,192,60230,1,0,0:0:0:0:
256,192,60305,1,0,0:0:0:0:
256,192,60380,1,8,0:0:0:0:
256,192,60530,1,0,0:0:0:0:
256,192,60680,1,8,0:0:0:0:
256,192,60755,1,0,0:0:0:0:
256,192,60830,1,0,0:0:0:0:
256,192,60980,1,0,0:0:0:0:
256,192,61130,1,0,0:0:0:0:
256,192,61205,1,0,0:0:0:0:
256,192,61280,1,8,0:0:0:0:
256,192,61355,1,8,0:0:0:0:
256,192,61430,1,8,0:0:0:0:
253,196,61505,1,0,0:0:0:0:
256,192,61580,1,8,0:0:0:0:
256,192,61730,1,0,0:0:0:0:
256,192,61880,1,8,0:0:0:0:
256,192,62030,1,0,0:0:0:0:
256,192,62105,1,8,0:0:0:0:
256,192,62180,1,0,0:0:0:0:
256,192,62255,1,0,0:0:0:0:
256,192,62330,1,8,0:0:0:0:
256,192,62480,1,8,0:0:0:0:
256,192,62555,1,8,0:0:0:0:
256,192,62630,1,0,0:0:0:0:
256,192,62705,1,0,0:0:0:0:
256,192,62780,1,8,0:0:0:0:
256,192,62855,1,8,0:0:0:0:
256,192,62930,1,0,0:0:0:0:
256,192,62980,1,0,0:0:0:0:
256,192,63030,1,0,0:0:0:0:
256,192,63080,1,8,0:0:0:0:
256,192,63155,1,8,0:0:0:0:
256,192,63230,1,0,0:0:0:0:
256,192,63305,1,0,0:0:0:0:
256,192,63380,1,8,0:0:0:0:
256,192,63530,1,0,0:0:0:0:
256,192,63680,1,8,0:0:0:0:
256,192,63755,1,8,0:0:0:0:
256,192,63830,1,8,0:0:0:0:
256,198,63905,1,0,0:0:0:0:
256,192,63980,1,8,0:0:0:0:
256,192,64055,1,8,0:0:0:0:
256,192,64130,1,0,0:0:0:0:
256,192,64280,1,8,0:0:0:0:
256,192,64430,1,0,0:0:0:0:
256,192,64580,1,8,0:0:0:0:
256,192,64655,1,8,0:0:0:0:
256,192,64730,1,0,0:0:0:0:
256,192,64805,1,0,0:0:0:0:
256,192,64880,1,8,0:0:0:0:
256,192,65030,1,0,0:0:0:0:
256,192,65180,1,0,0:0:0:0:
256,192,65255,1,0,0:0:0:0:
256,192,65330,1,8,0:0:0:0:
256,192,65480,1,0,0:0:0:0:
256,192,65630,1,8,0:0:0:0:
256,192,65705,1,0,0:0:0:0:
256,192,65780,1,8,0:0:0:0:
256,192,65855,1,8,0:0:0:0:
256,192,65930,1,0,0:0:0:0:
256,192,66080,1,8,0:0:0:0:
256,192,66230,1,8,0:0:0:0:
256,192,66305,1,8,0:0:0:0:
256,192,66380,1,0,0:0:0:0:
256,192,66530,1,0,0:0:0:0:
256,192,66680,1,8,0:0:0:0:
256,192,66830,1,0,0:0:0:0:
256,192,66905,1,0,0:0:0:0:
256,192,66980,1,8,0:0:0:0:
256,192,67055,1,0,0:0:0:0:
256,192,67130,1,0,0:0:0:0:
256,192,67205,1,8,0:0:0:0:
256,192,67280,1,0,0:0:0:0:
256,192,67430,1,0,0:0:0:0:
256,192,67580,1,0,0:0:0:0:
256,192,67655,1,0,0:0:0:0:
256,192,67730,1,0,0:0:0:0:
256,192,67880,1,8,0:0:0:0:
256,192,68030,1,8,0:0:0:0:
256,192,68105,1,8,0:0:0:0:
256,192,68180,1,0,0:0:0:0:
256,192,68330,1,0,0:0:0:0:
256,192,68480,1,8,0:0:0:0:
256,192,68555,1,0,0:0:0:0:
256,192,68630,1,8,0:0:0:0:
256,192,68705,1,8,0:0:0:0:
256,192,68780,1,8,0:0:0:0:
256,192,68855,1,0,0:0:0:0:
256,192,68930,1,8,0:0:0:0:
256,192,69080,1,8,0:0:0:0:
256,192,69230,1,0,0:0:0:0:
256,192,69380,1,0,0:0:0:0:
256,192,69530,1,0,0:0:0:0:
256,192,69605,1,0,0:0:0:0:
256,192,69680,1,8,0:0:0:0:
256,192,69830,1,0,0:0:0:0:
256,192,69980,1,8,0:0:0:0:
256,192,70055,1,8,0:0:0:0:
256,192,70130,1,0,0:0:0:0:
256,192,70205,1,0,0:0:0:0:
256,192,70280,1,8,0:0:0:0:
256,192,70430,1,8,0:0:0:0:
256,192,70505,1,0,0:0:0:0:
256,192,70580,1,0,0:0:0:0:
256,192,70730,1,0,0:0:0:0:
256,192,70880,1,8,0:0:0:0:
256,192,71030,1,8,0:0:0:0:
256,192,71105,1,8,0:0:0:0:
256,192,71180,1,0,0:0:0:0:
256,192,71255,1,8,0:0:0:0:
256,192,71330,1,0,0:0:0:0:
256,192,71480,1,8,0:0:0:0:
256,192,71630,1,0,0:0:0:0:
256,192,71780,1,8,0:0:0:0:
256,192,71855,1,8,0:0:0:0:
256,192,71930,1,8,0:0:0:0:
256,192,72005,1,0,0:0:0:0:
256,192,72080,1,8,0:0:0:0:
256,192,72155,1,8,0:0:0:0:
256,192,72230,1,0,0:0:0:0:
256,192,72305,1,0,0:0:0:0:
256,192,72380,1,8,0:0:0:0:
256,192,72455,1,8,0:0:0:0:
256,192,72530,1,8,0:0:0:0:
256,192,72605,1,0,0:0:0:0:
256,192,72680,1,8,0:0:0:0:
256,192,72755,1,8,0:0:0:0:
256,192,72830,1,0,0:0:0:0:
256,192,72905,1,0,0:0:0:0:
256,192,72980,1,8,0:0:0:0:
256,192,73130,1,0,0:0:0:0:
256,192,73280,1,8,0:0:0:0:
256,192,73355,1,0,0:0:0:0:
256,192,73430,1,8,0:0:0:0:
256,192,73505,1,8,0:0:0:0:
256,192,73580,1,0,0:0:0:0:
256,192,73655,1,8,0:0:0:0:
256,192,73730,1,8,0:0:0:0:
256,192,73805,1,0,0:0:0:0:
256,192,73880,1,8,0:0:0:0:
256,192,74030,1,0,0:0:0:0:
256,192,74180,1,8,0:0:0:0:
256,192,74255,1,8,0:0:0:0:
256,192,74330,1,0,0:0:0:0:
256,192,74405,1,0,0:0:0:0:
256,192,74480,1,8,0:0:0:0:
256,192,74630,1,0,0:0:0:0:
256,192,74780,1,8,0:0:0:0:
256,192,74930,1,0,0:0:0:0:
256,192,75005,1,8,0:0:0:0:
256,192,75080,1,8,0:0:0:0:
256,192,75230,1,8,0:0:0:0:
256,192,75380,1,0,0:0:0:0:
256,192,75455,1,0,0:0:0:0:
256,192,75530,1,0,0:0:0:0:
256,192,75680,1,8,0:0:0:0:
256,192,75755,1,8,0:0:0:0:
256,192,75830,1,8,0:0:0:0:
224,192,75905,1,0,0:0:0:0:
256,192,75980,1,8,0:0:0:0:
256,192,76130,1,0,0:0:0:0:
256,192,76280,1,8,0:0:0:0:
256,192,76430,1,0,0:0:0:0:
256,192,76505,1,0,0:0:0:0:
256,192,76580,1,8,0:0:0:0:
256,192,76730,1,0,0:0:0:0:
256,192,76880,1,8,0:0:0:0:
256,192,76955,1,8,0:0:0:0:
256,192,77030,1,8,0:0:0:0:
256,192,77180,1,0,0:0:0:0:
256,192,77330,1,8,0:0:0:0:
256,192,77480,1,8,0:0:0:0:
256,192,77630,1,0,0:0:0:0:
256,192,77705,1,0,0:0:0:0:
256,192,77780,1,8,0:0:0:0:
256,192,77930,1,0,0:0:0:0:
256,192,78080,1,8,0:0:0:0:
256,192,78155,1,0,0:0:0:0:
256,192,78230,1,8,0:0:0:0:
256,192,78305,1,8,0:0:0:0:
256,192,78380,1,0,0:0:0:0:
256,192,78530,1,0,0:0:0:0:
256,192,78680,1,8,0:0:0:0:
256,192,78830,1,8,0:0:0:0:
256,192,78905,1,8,0:0:0:0:
256,192,78980,1,0,0:0:0:0:
256,192,79055,1,0,0:0:0:0:
256,192,79130,1,8,0:0:0:0:
256,192,79280,1,0,0:0:0:0:
256,192,79355,1,8,0:0:0:0:
256,192,79430,1,0,0:0:0:0:
256,192,79505,1,8,0:0:0:0:
256,192,79580,1,8,0:0:0:0:
256,192,79655,1,0,0:0:0:0:
256,192,79730,1,8,0:0:0:0:
256,192,79880,1,8,0:0:0:0:
256,192,79955,1,0,0:0:0:0:
256,192,80030,1,8,0:0:0:0:
256,192,80105,1,8,0:0:0:0:
256,192,80180,1,0,0:0:0:0:
256,192,80255,1,8,0:0:0:0:
256,192,80330,1,0,0:0:0:0:
256,192,80405,1,8,0:0:0:0:
256,192,80480,1,0,0:0:0:0:
256,192,80555,1,0,0:0:0:0:
256,192,80630,1,8,0:0:0:0:
256,192,80705,1,8,0:0:0:0:
256,192,80780,1,0,0:0:0:0:
256,192,80930,1,0,0:0:0:0:
256,192,81080,1,8,0:0:0:0:
256,192,81230,1,8,0:0:0:0:
256,192,81305,1,0,0:0:0:0:
256,192,81380,1,8,0:0:0:0:
256,192,81455,1,8,0:0:0:0:
256,192,81530,1,0,0:0:0:0:
256,192,81605,1,8,0:0:0:0:
256,192,81680,1,0,0:0:0:0:
256,192,81755,1,0,0:0:0:0:
256,192,81830,1,8,0:0:0:0:
256,192,81905,1,0,0:0:0:0:
256,192,81980,1,0,0:0:0:0:
256,192,82055,1,8,0:0:0:0:
256,192,82130,1,0,0:0:0:0:
256,192,82180,1,0,0:0:0:0:
256,192,82230,1,0,0:0:0:0:
256,192,82280,1,8,0:0:0:0:
256,192,82430,1,8,0:0:0:0:
256,192,82580,1,4,0:0:0:0:
256,192,84980,1,0,0:0:0:0:
256,192,86180,1,0,0:0:0:0:
256,192,86480,1,0,0:0:0:0:
256,192,86780,1,8,0:0:0:0:
256,192,87080,1,8,0:0:0:0:
256,192,87380,1,8,0:0:0:0:
256,192,87530,1,0,0:0:0:0:
256,192,87680,1,0,0:0:0:0:
256,192,87830,1,0,0:0:0:0:
256,192,88280,1,8,0:0:0:0:
256,192,88430,1,8,0:0:0:0:
256,192,89780,1,8,0:0:0:0:
256,192,89817,1,8,0:0:0:0:
256,192,90980,1,8,0:0:0:0:
256,192,91580,1,0,0:0:0:0:
256,192,92180,1,8,0:0:0:0:
256,192,92330,1,0,0:0:0:0:
256,192,92480,1,0,0:0:0:0:
256,192,92630,1,0,0:0:0:0:
256,192,93080,1,8,0:0:0:0:
256,192,93230,1,8,0:0:0:0:
256,192,94580,1,0,0:0:0:0:
256,192,95180,1,8,0:0:0:0:
256,192,95780,1,8,0:0:0:0:
256,192,96380,1,8,0:0:0:0:
256,192,96980,1,8,0:0:0:0:
256,192,97130,1,0,0:0:0:0:
256,192,97280,1,0,0:0:0:0:
256,192,97430,1,0,0:0:0:0:
256,192,97880,1,0,0:0:0:0:
256,192,98030,1,0,0:0:0:0:
256,192,99380,1,0,0:0:0:0:
256,192,99980,1,8,0:0:0:0:
256,192,100580,1,8,0:0:0:0:
256,192,101180,1,0,0:0:0:0:
256,192,101780,1,8,0:0:0:0:
256,192,101930,1,0,0:0:0:0:
256,192,102080,1,0,0:0:0:0:
256,192,102230,1,0,0:0:0:0:
256,192,102980,1,0,0:0:0:0:
256,192,104180,1,8,0:0:0:0:
256,192,105380,1,8,0:0:0:0:
256,192,105680,1,0,0:0:0:0:
256,192,105980,1,8,0:0:0:0:
256,192,106280,1,8,0:0:0:0:
256,192,106580,1,8,0:0:0:0:
256,192,106730,1,0,0:0:0:0:
256,192,106880,1,0,0:0:0:0:
256,192,107030,1,0,0:0:0:0:
256,192,107480,1,0,0:0:0:0:
256,192,107630,1,0,0:0:0:0:
256,192,108980,1,8,0:0:0:0:
256,192,110180,1,8,0:0:0:0:
256,192,110780,1,8,0:0:0:0:
256,192,111380,1,0,0:0:0:0:
256,192,111980,1,8,0:0:0:0:
256,192,112580,1,0,0:0:0:0:
256,192,113030,1,8,0:0:0:0:
256,192,113480,1,8,0:0:0:0:
256,192,113780,1,8,0:0:0:0:
256,192,114980,1,8,0:0:0:0:
256,192,115580,1,0,0:0:0:0:
256,192,116180,1,8,0:0:0:0:
256,192,116330,1,0,0:0:0:0:
256,192,116480,1,0,0:0:0:0:
256,192,116630,1,0,0:0:0:0:
256,192,118580,1,0,0:0:0:0:
256,192,118730,1,0,0:0:0:0:
256,192,118880,1,0,0:0:0:0:
256,192,119030,1,8,0:0:0:0:
256,192,119780,1,8,0:0:0:0:
256,192,120980,1,0,0:0:0:0:
256,192,121055,1,8,0:0:0:0:
256,192,121130,1,0,0:0:0:0:
256,192,121205,1,0,0:0:0:0:
256,192,121280,1,8,0:0:0:0:
256,192,121730,1,0,0:0:0:0:
256,192,121880,1,8,0:0:0:0:
256,192,122030,1,0,0:0:0:0:
256,192,122180,1,0,0:0:0:0:
257,197,122255,1,8,0:0:0:0:
256,192,122330,1,0,0:0:0:0:
256,192,122405,1,0,0:0:0:0:
256,192,122480,1,8,0:0:0:0:
256,192,122630,1,0,0:0:0:0:
256,192,122780,1,8,0:0:0:0:
256,192,122855,1,0,0:0:0:0:
256,192,122930,1,0,0:0:0:0:
256,192,123005,1,0,0:0:0:0:
256,192,123080,1,8,0:0:0:0:
256,192,123230,1,0,0:0:0:0:
256,192,123305,1,0,0:0:0:0:
256,192,123380,1,8,0:0:0:0:
256,192,123455,1,0,0:0:0:0:
256,192,123530,1,0,0:0:0:0:
256,192,123605,1,8,0:0:0:0:
256,192,123680,1,0,0:0:0:0:
256,192,123755,1,0,0:0:0:0:
256,192,123830,1,8,0:0:0:0:
256,192,123905,1,0,0:0:0:0:
256,192,123980,1,8,0:0:0:0:
256,192,124055,1,8,0:0:0:0:
256,192,124130,1,0,0:0:0:0:
256,192,124180,1,0,0:0:0:0:
256,192,124230,1,0,0:0:0:0:
256,192,124280,1,8,0:0:0:0:
256,192,124355,1,8,0:0:0:0:
256,192,124430,1,0,0:0:0:0:
256,192,124505,1,0,0:0:0:0:
256,192,124580,1,8,0:0:0:0:
256,192,124730,8,8,125330,0:0:0:0:
256,192,125480,5,12,0:0:0:0:
256,192,125780,1,4,0:0:0:0:
256,192,125930,1,0,0:0:0:0:
256,192,126005,1,0,0:0:0:0:
256,192,126080,1,8,0:0:0:0:
256,192,126155,1,0,0:0:0:0:
256,192,126230,1,8,0:0:0:0:
256,192,126305,1,0,0:0:0:0:
256,192,126380,1,0,0:0:0:0:
256,192,126530,1,0,0:0:0:0:
256,192,126680,1,8,0:0:0:0:
256,192,126755,1,8,0:0:0:0:
256,192,126830,1,0,0:0:0:0:
256,192,126980,1,0,0:0:0:0:
256,192,127130,1,0,0:0:0:0:
256,192,127280,1,8,0:0:0:0:
265,194,127355,1,8,0:0:0:0:
256,192,127430,1,0,0:0:0:0:
256,192,127580,1,0,0:0:0:0:
256,192,127730,1,0,0:0:0:0:
256,192,127805,1,0,0:0:0:0:
256,192,127880,1,8,0:0:0:0:
256,192,128030,1,8,0:0:0:0:
256,192,128180,1,0,0:0:0:0:
256,192,128330,1,0,0:0:0:0:
256,192,128480,1,8,0:0:0:0:
256,192,128555,1,0,0:0:0:0:
256,192,128630,1,8,0:0:0:0:
256,192,128780,1,8,0:0:0:0:
256,192,128855,1,8,0:0:0:0:
256,192,128930,1,0,0:0:0:0:
256,192,129005,1,0,0:0:0:0:
256,192,129080,1,8,0:0:0:0:
256,192,129230,1,0,0:0:0:0:
256,192,129380,1,8,0:0:0:0:
256,192,129530,1,0,0:0:0:0:
256,192,129605,1,0,0:0:0:0:
256,192,129680,1,8,0:0:0:0:
256,192,129755,1,0,0:0:0:0:
256,192,129830,1,8,0:0:0:0:
256,192,129980,1,0,0:0:0:0:
256,192,130130,1,0,0:0:0:0:
256,192,130205,1,0,0:0:0:0:
256,192,130280,1,8,0:0:0:0:
256,192,130355,1,0,0:0:0:0:
256,192,130430,1,8,0:0:0:0:
256,192,130505,1,8,0:0:0:0:
256,192,130580,1,0,0:0:0:0:
256,192,130730,1,0,0:0:0:0:
256,192,130880,1,8,0:0:0:0:
256,192,131030,1,0,0:0:0:0:
256,192,131105,1,8,0:0:0:0:
256,192,131180,1,0,0:0:0:0:
256,192,131330,1,0,0:0:0:0:
256,192,131480,1,8,0:0:0:0:
252,197,131555,1,8,0:0:0:0:
256,192,131630,1,0,0:0:0:0:
256,192,131780,1,8,0:0:0:0:
256,192,131930,1,0,0:0:0:0:
256,192,132080,1,8,0:0:0:0:
256,192,132230,1,0,0:0:0:0:
256,192,132305,1,8,0:0:0:0:
256,192,132380,1,0,0:0:0:0:
256,192,132455,1,0,0:0:0:0:
256,192,132530,1,8,0:0:0:0:
256,192,132605,1,0,0:0:0:0:
256,192,132680,1,8,0:0:0:0:
256,192,132830,1,0,0:0:0:0:
256,192,132980,1,8,0:0:0:0:
256,192,133130,1,0,0:0:0:0:
256,192,133280,1,8,0:0:0:0:
256,192,133355,1,8,0:0:0:0:
256,192,133430,1,8,0:0:0:0:
256,192,133505,1,0,0:0:0:0:
256,192,133580,1,8,0:0:0:0:
256,192,133730,1,0,0:0:0:0:
256,192,133805,1,0,0:0:0:0:
256,192,133880,1,8,0:0:0:0:
256,192,134030,1,0,0:0:0:0:
256,192,134180,1,8,0:0:0:0:
256,192,134255,1,0,0:0:0:0:
256,192,134330,1,0,0:0:0:0:
256,192,134405,1,0,0:0:0:0:
256,192,134480,1,8,0:0:0:0:
256,192,134630,1,0,0:0:0:0:
256,192,134780,1,8,0:0:0:0:
256,192,134930,1,0,0:0:0:0:
256,192,135080,1,8,0:0:0:0:
256,192,135155,1,8,0:0:0:0:
256,192,135230,1,0,0:0:0:0:
256,192,135305,1,0,0:0:0:0:
256,192,135380,1,8,0:0:0:0:
256,192,135530,1,0,0:0:0:0:
256,192,135605,1,8,0:0:0:0:
256,192,135680,1,8,0:0:0:0:
256,192,135830,1,8,0:0:0:0:
256,192,135905,1,0,0:0:0:0:
256,192,135980,1,8,0:0:0:0:
256,192,136055,1,8,0:0:0:0:
256,192,136130,1,0,0:0:0:0:
256,192,136280,1,8,0:0:0:0:
256,192,136430,1,0,0:0:0:0:
256,192,136580,1,0,0:0:0:0:
256,192,136730,1,0,0:0:0:0:
256,192,136805,1,8,0:0:0:0:
256,192,136880,1,8,0:0:0:0:
256,192,136955,1,0,0:0:0:0:
256,192,137030,1,8,0:0:0:0:
256,192,137180,1,8,0:0:0:0:
256,192,137330,1,0,0:0:0:0:
256,192,137480,1,8,0:0:0:0:
256,192,137555,1,8,0:0:0:0:
256,192,137630,1,0,0:0:0:0:
256,192,137780,1,8,0:0:0:0:
256,192,137930,1,0,0:0:0:0:
256,192,138080,1,8,0:0:0:0:
256,192,138155,1,8,0:0:0:0:
256,192,138230,1,8,0:0:0:0:
256,192,138305,1,0,0:0:0:0:
256,192,138380,1,8,0:0:0:0:
256,192,138530,1,0,0:0:0:0:
256,192,138680,1,8,0:0:0:0:
256,192,138830,1,0,0:0:0:0:
256,192,138980,1,8,0:0:0:0:
256,192,139055,1,0,0:0:0:0:
256,192,139130,1,0,0:0:0:0:
253,185,139205,1,0,0:0:0:0:
256,192,139280,1,8,0:0:0:0:
256,192,139430,1,8,0:0:0:0:
256,192,139505,1,8,0:0:0:0:
256,192,139580,1,0,0:0:0:0:
256,192,139730,1,0,0:0:0:0:
256,192,139805,1,0,0:0:0:0:
256,192,139880,1,8,0:0:0:0:
256,192,139955,1,0,0:0:0:0:
256,192,140030,1,8,0:0:0:0:
256,192,140105,1,8,0:0:0:0:
256,192,140180,1,0,0:0:0:0:
256,192,140330,1,0,0:0:0:0:
256,192,140480,1,8,0:0:0:0:
256,192,140630,1,8,0:0:0:0:
256,192,140705,1,0,0:0:0:0:
256,192,140780,1,8,0:0:0:0:
256,192,140930,1,0,0:0:0:0:
256,192,141080,1,8,0:0:0:0:
256,192,141230,1,0,0:0:0:0:
256,192,141305,1,0,0:0:0:0:
256,192,141380,1,0,0:0:0:0:
256,192,141530,1,0,0:0:0:0:
256,192,141680,1,8,0:0:0:0:
256,192,141755,1,0,0:0:0:0:
256,192,141830,1,0,0:0:0:0:
256,192,141905,1,0,0:0:0:0:
256,192,141980,1,8,0:0:0:0:
256,192,142130,1,0,0:0:0:0:
256,192,142280,1,8,0:0:0:0:
256,192,142355,1,0,0:0:0:0:
256,192,142430,1,0,0:0:0:0:
256,192,142580,1,8,0:0:0:0:
256,192,142730,1,0,0:0:0:0:
256,192,142805,1,0,0:0:0:0:
256,192,142880,1,8,0:0:0:0:
256,192,142955,1,0,0:0:0:0:
256,192,143030,1,8,0:0:0:0:
256,192,143180,1,8,0:0:0:0:
256,192,143330,1,0,0:0:0:0:
256,192,143480,1,8,0:0:0:0:
256,192,143630,1,0,0:0:0:0:
256,192,143705,1,8,0:0:0:0:
256,192,143780,1,0,0:0:0:0:
256,192,143930,1,8,0:0:0:0:
253,198,144005,1,0,0:0:0:0:
256,192,144080,1,8,0:0:0:0:
256,192,144155,1,8,0:0:0:0:
256,192,144230,1,0,0:0:0:0:
256,192,144305,1,0,0:0:0:0:
256,192,144380,1,8,0:0:0:0:
256,192,144455,1,8,0:0:0:0:
256,192,144530,1,0,0:0:0:0:
256,192,144580,1,0,0:0:0:0:
256,192,144630,1,0,0:0:0:0:
256,192,144680,1,8,0:0:0:0:
256,192,144755,1,8,0:0:0:0:
256,192,144830,1,0,0:0:0:0:
256,192,144905,1,0,0:0:0:0:
256,192,144980,1,8,0:0:0:0:
256,192,145130,1,0,0:0:0:0:
256,192,145280,1,8,0:0:0:0:
256,192,145355,1,0,0:0:0:0:
256,192,145430,1,8,0:0:0:0:
256,192,145580,1,0,0:0:0:0:
256,192,145655,1,0,0:0:0:0:
256,192,145730,1,8,0:0:0:0:
256,192,145805,1,0,0:0:0:0:
256,192,145880,1,8,0:0:0:0:
256,192,145955,1,8,0:0:0:0:
256,192,146030,1,0,0:0:0:0:
251,210,146105,1,0,0:0:0:0:
256,192,146180,1,8,0:0:0:0:
256,192,146255,1,8,0:0:0:0:
256,192,146330,1,8,0:0:0:0:
256,192,146405,1,0,0:0:0:0:
256,192,146480,1,8,0:0:0:0:
256,192,146555,1,8,0:0:0:0:
256,192,146630,1,0,0:0:0:0:
256,192,146705,1,0,0:0:0:0:
256,192,146780,1,8,0:0:0:0:
256,192,146855,1,0,0:0:0:0:
256,192,146930,1,8,0:0:0:0:
256,192,147080,1,8,0:0:0:0:
256,192,147230,1,0,0:0:0:0:
256,192,147305,1,8,0:0:0:0:
256,192,147380,1,0,0:0:0:0:
256,192,147455,1,0,0:0:0:0:
256,192,147530,1,8,0:0:0:0:
256,192,147680,1,8,0:0:0:0:
256,192,147830,1,8,0:0:0:0:
256,192,147905,1,8,0:0:0:0:
256,192,147980,1,0,0:0:0:0:
256,192,148130,1,0,0:0:0:0:
256,192,148280,1,8,0:0:0:0:
256,192,148430,1,0,0:0:0:0:
256,192,148505,1,0,0:0:0:0:
256,192,148580,1,8,0:0:0:0:
256,192,148655,1,0,0:0:0:0:
256,192,148730,1,8,0:0:0:0:
256,192,148805,1,8,0:0:0:0:
256,192,148880,1,0,0:0:0:0:
256,192,148955,1,8,0:0:0:0:
256,192,149030,1,8,0:0:0:0:
256,192,149105,1,0,0:0:0:0:
256,192,149180,1,8,0:0:0:0:
256,192,149255,1,8,0:0:0:0:
256,192,149330,1,0,0:0:0:0:
256,192,149405,1,0,0:0:0:0:
256,192,149480,1,8,0:0:0:0:
256,192,149555,1,0,0:0:0:0:
256,192,149630,1,8,0:0:0:0:
256,192,149705,1,8,0:0:0:0:
256,192,149780,1,0,0:0:0:0:
256,192,149930,1,8,0:0:0:0:
256,192,150005,1,0,0:0:0:0:
256,192,150080,1,8,0:0:0:0:
256,192,150230,1,8,0:0:0:0:
256,192,150380,1,0,0:0:0:0:
256,192,150530,1,0,0:0:0:0:
256,192,150605,1,0,0:0:0:0:
256,192,150680,1,8,0:0:0:0:
256,192,150755,1,8,0:0:0:0:
256,192,150830,1,0,0:0:0:0:
256,192,150980,1,8,0:0:0:0:
246,194,151055,1,0,0:0:0:0:
256,192,151130,1,8,0:0:0:0:
256,192,151205,1,8,0:0:0:0:
256,192,151280,1,0,0:0:0:0:
246,193,151355,1,8,0:0:0:0:
256,192,151430,1,0,0:0:0:0:
246,193,151505,1,0,0:0:0:0:
256,192,151580,1,8,0:0:0:0:
256,192,151655,1,0,0:0:0:0:
256,192,151730,1,0,0:0:0:0:
256,192,151805,1,0,0:0:0:0:
256,192,151880,1,8,0:0:0:0:
249,172,151955,1,0,0:0:0:0:
256,192,152030,1,8,0:0:0:0:
256,192,152105,1,8,0:0:0:0:
256,192,152180,1,0,0:0:0:0:
256,192,152330,1,0,0:0:0:0:
256,192,152405,1,0,0:0:0:0:
256,192,152480,1,8,0:0:0:0:
256,192,152555,1,0,0:0:0:0:
256,192,152630,1,8,0:0:0:0:
256,192,152705,1,8,0:0:0:0:
256,192,152780,1,0,0:0:0:0:
256,192,152855,1,8,0:0:0:0:
256,192,152930,1,0,0:0:0:0:
256,192,153005,1,0,0:0:0:0:
256,192,153080,1,8,0:0:0:0:
258,187,153155,1,8,0:0:0:0:
256,192,153230,1,0,0:0:0:0:
256,192,153380,1,8,0:0:0:0:
256,192,153455,1,0,0:0:0:0:
256,192,153530,1,8,0:0:0:0:
256,192,153605,1,0,0:0:0:0:
256,192,153680,1,8,0:0:0:0:
256,192,153755,1,8,0:0:0:0:
256,192,153830,1,8,0:0:0:0:
256,192,153905,1,0,0:0:0:0:
256,192,153980,1,8,0:0:0:0:
256,192,154055,1,8,0:0:0:0:
256,192,154130,1,0,0:0:0:0:
256,192,154205,1,0,0:0:0:0:
256,192,154280,1,8,0:0:0:0:
256,192,154355,1,0,0:0:0:0:
256,192,154430,1,8,0:0:0:0:
256,192,154505,1,0,0:0:0:0:
256,192,154580,1,0,0:0:0:0:
256,192,154730,1,0,0:0:0:0:
256,192,154880,1,8,0:0:0:0:
256,192,154955,1,0,0:0:0:0:
256,192,155030,1,8,0:0:0:0:
256,192,155180,1,0,0:0:0:0:
256,192,155330,1,8,0:0:0:0:
256,192,155405,1,0,0:0:0:0:
256,192,155480,1,8,0:0:0:0:
256,192,155630,1,0,0:0:0:0:
256,192,155780,1,8,0:0:0:0:
256,192,155855,1,8,0:0:0:0:
256,192,155930,1,8,0:0:0:0:
256,192,156005,1,0,0:0:0:0:
256,192,156080,1,8,0:0:0:0:
256,192,156230,1,8,0:0:0:0:
252,196,156305,1,0,0:0:0:0:
256,192,156380,1,8,0:0:0:0:
256,192,156530,1,0,0:0:0:0:
256,192,156680,1,8,0:0:0:0:
256,192,156830,1,8,0:0:0:0:
256,192,156980,1,8,0:0:0:0:
256,192,157055,1,8,0:0:0:0:
256,192,157130,1,0,0:0:0:0:
257,197,157205,1,0,0:0:0:0:
256,192,157280,1,8,0:0:0:0:
256,192,157355,1,8,0:0:0:0:
256,192,157430,1,8,0:0:0:0:
224,192,157505,1,0,0:0:0:0:
256,192,157580,1,8,0:0:0:0:
257,197,157655,1,8,0:0:0:0:
256,192,157730,1,0,0:0:0:0:
257,197,157805,1,0,0:0:0:0:
256,192,157880,1,8,0:0:0:0:
256,192,157955,1,8,0:0:0:0:
256,192,158030,1,0,0:0:0:0:
256,192,158105,1,0,0:0:0:0:
256,192,158180,1,8,0:0:0:0:
256,192,158255,1,8,0:0:0:0:
256,192,158330,1,8,0:0:0:0:
256,192,158405,1,0,0:0:0:0:
256,192,158480,1,8,0:0:0:0:
256,192,158555,1,8,0:0:0:0:
256,192,158630,1,0,0:0:0:0:
256,192,158705,1,0,0:0:0:0:
256,192,158780,1,8,0:0:0:0:
256,192,158855,1,0,0:0:0:0:
256,192,158930,1,8,0:0:0:0:
256,192,159005,1,0,0:0:0:0:
256,192,159080,1,8,0:0:0:0:
256,192,159155,1,8,0:0:0:0:
256,192,159230,1,0,0:0:0:0:
256,192,159305,1,0,0:0:0:0:
256,192,159380,1,8,0:0:0:0:
266,190,159455,1,0,0:0:0:0:
263,189,159530,1,0,0:0:0:0:
263,189,159605,1,0,0:0:0:0:
256,192,159680,1,8,0:0:0:0:
256,192,159830,1,8,0:0:0:0:
256,192,159980,1,8,0:0:0:0:
262,193,160055,1,0,0:0:0:0:
256,192,160130,1,0,0:0:0:0:
256,192,160205,1,0,0:0:0:0:
256,192,160280,1,8,0:0:0:0:
251,196,160355,1,0,0:0:0:0:
256,192,160430,1,8,0:0:0:0:
256,192,160505,1,0,0:0:0:0:
256,192,160580,1,8,0:0:0:0:
256,192,160655,1,8,0:0:0:0:
256,192,160730,1,8,0:0:0:0:
256,192,160805,1,0,0:0:0:0:
256,192,160880,1,0,0:0:0:0:
256,192,160955,1,0,0:0:0:0:
256,192,161030,1,8,0:0:0:0:
256,192,161105,1,8,0:0:0:0:
256,192,161180,1,0,0:0:0:0:
256,192,161255,1,8,0:0:0:0:
256,192,161330,1,0,0:0:0:0:
256,192,161405,1,0,0:0:0:0:
256,192,161480,1,8,0:0:0:0:
256,192,161555,1,0,0:0:0:0:
256,192,161630,1,8,0:0:0:0:
256,192,161705,1,0,0:0:0:0:
256,192,161780,1,8,0:0:0:0:
256,192,161855,1,8,0:0:0:0:
256,192,161930,1,0,0:0:0:0:
256,192,162005,1,8,0:0:0:0:
256,192,162080,1,0,0:0:0:0:
256,192,162155,1,8,0:0:0:0:
256,192,162230,1,8,0:0:0:0:
256,192,162305,1,8,0:0:0:0:
256,192,162380,1,0,0:0:0:0:
256,192,162530,1,0,0:0:0:0:
256,192,162680,1,8,0:0:0:0:
256,192,162830,1,8,0:0:0:0:
256,192,162905,1,0,0:0:0:0:
256,192,162980,1,8,0:0:0:0:
256,192,163055,1,8,0:0:0:0:
256,192,163130,1,0,0:0:0:0:
256,192,163205,1,8,0:0:0:0:
256,192,163280,1,0,0:0:0:0:
256,192,163355,1,0,0:0:0:0:
256,192,163430,1,8,0:0:0:0:
256,192,163505,1,0,0:0:0:0:
256,192,163580,1,0,0:0:0:0:
256,192,163655,1,8,0:0:0:0:
256,192,163730,1,0,0:0:0:0:
271,196,163780,1,0,0:0:0:0:
256,192,163830,1,0,0:0:0:0:
271,196,163880,1,8,0:0:0:0:
256,192,164030,1,0,0:0:0:0:
256,192,164180,1,8,0:0:0:0:
256,192,164255,1,8,0:0:0:0:
256,192,164330,1,8,0:0:0:0:
256,192,164405,1,0,0:0:0:0:
256,192,164480,1,8,0:0:0:0:
256,192,164555,1,0,0:0:0:0:
256,192,164630,1,8,0:0:0:0:
256,192,164705,1,8,0:0:0:0:
256,192,164780,1,8,0:0:0:0:
256,192,164855,1,0,0:0:0:0:
256,192,164930,1,8,0:0:0:0:
256,192,165005,1,8,0:0:0:0:
256,192,165080,1,0,0:0:0:0:
256,192,165155,1,0,0:0:0:0:
256,192,165230,1,8,0:0:0:0:
256,192,165305,1,0,0:0:0:0:
256,192,165380,1,8,0:0:0:0:
256,192,165455,1,8,0:0:0:0:
256,192,165530,1,8,0:0:0:0:
256,192,165605,1,0,0:0:0:0:
256,192,165680,1,8,0:0:0:0:
256,192,165755,1,0,0:0:0:0:
256,192,165830,1,8,0:0:0:0:
256,192,165905,1,8,0:0:0:0:
256,192,165980,1,8,0:0:0:0:
256,192,166055,1,0,0:0:0:0:
256,192,166130,1,8,0:0:0:0:
256,192,166205,1,8,0:0:0:0:
256,192,166280,1,0,0:0:0:0:
256,192,166355,1,0,0:0:0:0:
256,192,166430,1,8,0:0:0:0:
256,192,166505,1,0,0:0:0:0:
256,192,166580,1,8,0:0:0:0:
256,192,166655,1,8,0:0:0:0:
256,192,166730,1,8,0:0:0:0:
256,192,166805,1,0,0:0:0:0:
256,192,166880,1,8,0:0:0:0:
256,192,166955,1,0,0:0:0:0:
256,192,167030,1,8,0:0:0:0:
256,192,167105,1,0,0:0:0:0:
256,192,167180,1,0,0:0:0:0:
256,192,167255,1,8,0:0:0:0:
256,192,167330,1,0,0:0:0:0:
256,192,167405,1,0,0:0:0:0:
256,192,167480,1,8,0:0:0:0:
256,192,167555,1,0,0:0:0:0:
256,192,167630,1,0,0:0:0:0:
256,192,167705,1,0,0:0:0:0:
256,192,167780,1,8,0:0:0:0:
256,192,167855,1,8,0:0:0:0:
256,192,167930,1,0,0:0:0:0:
256,192,168005,1,0,0:0:0:0:
256,192,168080,1,8,0:0:0:0:
256,192,168155,1,0,0:0:0:0:
256,192,168230,1,8,0:0:0:0:
256,192,168305,1,8,0:0:0:0:
256,192,168380,1,0,0:0:0:0:
256,192,168455,1,0,0:0:0:0:
256,192,168530,1,8,0:0:0:0:
256,192,168605,1,0,0:0:0:0:
256,192,168680,1,0,0:0:0:0:
256,192,168755,1,0,0:0:0:0:
256,192,168830,1,8,0:0:0:0:
256,192,168980,1,0,0:0:0:0:
256,192,169055,1,0,0:0:0:0:
256,192,169130,1,8,0:0:0:0:
256,192,169205,1,0,0:0:0:0:
256,192,169280,1,0,0:0:0:0:
256,192,169355,1,8,0:0:0:0:
256,192,169430,1,0,0:0:0:0:
256,192,169505,1,0,0:0:0:0:
256,192,169580,1,8,0:0:0:0:
256,192,169730,1,8,0:0:0:0:
256,192,169805,1,0,0:0:0:0:
256,192,169880,1,8,0:0:0:0:
256,192,169955,1,8,0:0:0:0:
256,192,170030,1,0,0:0:0:0:
256,192,170105,1,8,0:0:0:0:
256,192,170180,1,0,0:0:0:0:
256,192,170330,1,0,0:0:0:0:
256,192,170405,1,0,0:0:0:0:
256,192,170480,1,8,0:0:0:0:
256,192,170555,1,0,0:0:0:0:
256,192,170630,1,8,0:0:0:0:
256,192,170705,1,8,0:0:0:0:
256,192,170780,1,0,0:0:0:0:
256,192,170855,1,0,0:0:0:0:
256,192,170930,1,8,0:0:0:0:
256,192,171005,1,0,0:0:0:0:
256,192,171080,1,8,0:0:0:0:
256,192,171155,1,8,0:0:0:0:
256,192,171230,1,0,0:0:0:0:
256,192,171305,1,0,0:0:0:0:
256,192,171380,1,8,0:0:0:0:
256,192,171455,1,8,0:0:0:0:
256,192,171530,1,8,0:0:0:0:
256,192,171605,1,0,0:0:0:0:
256,192,171680,1,8,0:0:0:0:
256,192,171755,1,8,0:0:0:0:
256,192,171830,1,0,0:0:0:0:
256,192,171905,1,0,0:0:0:0:
256,192,171980,1,8,0:0:0:0:
256,192,172055,1,8,0:0:0:0:
256,192,172130,1,8,0:0:0:0:
256,192,172205,1,0,0:0:0:0:
256,192,172280,1,8,0:0:0:0:
256,192,172355,1,8,0:0:0:0:
256,192,172430,1,0,0:0:0:0:
256,192,172505,1,0,0:0:0:0:
256,192,172580,1,8,0:0:0:0:
256,192,172730,1,0,0:0:0:0:
256,192,172805,1,0,0:0:0:0:
256,192,172880,1,8,0:0:0:0:
256,192,172955,1,0,0:0:0:0:
256,192,173030,1,0,0:0:0:0:
256,192,173105,1,0,0:0:0:0:
256,192,173180,1,8,0:0:0:0:
256,192,173330,1,8,0:0:0:0:
256,192,173405,1,0,0:0:0:0:
256,192,173480,1,8,0:0:0:0:
256,192,173555,1,8,0:0:0:0:
256,192,173630,1,0,0:0:0:0:
256,192,173780,1,8,0:0:0:0:
256,192,173855,1,8,0:0:0:0:
256,192,173930,1,8,0:0:0:0:
256,192,174005,1,0,0:0:0:0:
256,192,174080,1,8,0:0:0:0:
256,192,174155,1,8,0:0:0:0:
256,192,174230,1,0,0:0:0:0:
256,192,174305,1,0,0:0:0:0:
256,192,174380,1,8,0:0:0:0:
256,192,174455,1,8,0:0:0:0:
256,192,174530,1,8,0:0:0:0:
256,192,174605,1,0,0:0:0:0:
256,192,174680,1,8,0:0:0:0:
256,192,174755,1,8,0:0:0:0:
256,192,174830,1,0,0:0:0:0:
256,192,174905,1,0,0:0:0:0:
256,192,174980,1,8,0:0:0:0:
256,192,175055,1,8,0:0:0:0:
256,192,175130,1,8,0:0:0:0:
256,192,175205,1,0,0:0:0:0:
256,192,175280,1,8,0:0:0:0:
256,192,175355,1,8,0:0:0:0:
256,192,175430,1,0,0:0:0:0:
256,192,175505,1,0,0:0:0:0:
256,192,175580,1,8,0:0:0:0:
256,192,175655,1,8,0:0:0:0:
256,192,175730,1,8,0:0:0:0:
256,192,175805,1,0,0:0:0:0:
256,192,175880,1,8,0:0:0:0:
256,192,175955,1,0,0:0:0:0:
256,192,176030,1,8,0:0:0:0:
256,192,176105,1,0,0:0:0:0:
256,192,176180,1,8,0:0:0:0:
256,192,176255,1,8,0:0:0:0:
256,192,176330,1,8,0:0:0:0:
256,192,176405,1,0,0:0:0:0:
256,192,176480,1,8,0:0:0:0:
256,192,176555,1,0,0:0:0:0:
256,192,176630,1,8,0:0:0:0:
256,192,176705,1,0,0:0:0:0:
256,192,176780,1,0,0:0:0:0:
256,192,176855,1,8,0:0:0:0:
256,192,176930,1,0,0:0:0:0:
256,192,177005,1,0,0:0:0:0:
256,192,177080,1,8,0:0:0:0:
256,192,177155,1,0,0:0:0:0:
256,192,177230,1,0,0:0:0:0:
256,192,177305,1,0,0:0:0:0:
256,192,177380,1,8,0:0:0:0:
256,192,177455,1,8,0:0:0:0:
256,192,177530,1,0,0:0:0:0:
256,192,177605,1,0,0:0:0:0:
256,192,177680,1,8,0:0:0:0:
256,192,177755,1,0,0:0:0:0:
256,192,177830,1,8,0:0:0:0:
256,192,177905,1,8,0:0:0:0:
256,192,177980,1,0,0:0:0:0:
256,192,178055,1,0,0:0:0:0:
256,192,178130,1,8,0:0:0:0:
256,192,178205,1,0,0:0:0:0:
256,192,178280,1,0,0:0:0:0:
256,192,178355,1,0,0:0:0:0:
256,192,178430,1,8,0:0:0:0:
256,192,178580,1,8,0:0:0:0:
256,192,178655,1,0,0:0:0:0:
256,192,178730,1,0,0:0:0:0:
256,192,178805,1,8,0:0:0:0:
256,192,178880,1,8,0:0:0:0:
256,192,179030,1,8,0:0:0:0:
256,192,179105,1,8,0:0:0:0:
256,192,179180,1,8,0:0:0:0:
256,192,179255,1,0,0:0:0:0:
256,192,179330,1,8,0:0:0:0:
256,192,179405,1,0,0:0:0:0:
256,192,179480,1,0,0:0:0:0:
256,192,179555,1,8,0:0:0:0:
256,192,179630,1,0,0:0:0:0:
256,192,179705,1,0,0:0:0:0:
256,192,179780,1,8,0:0:0:0:
256,192,179930,1,8,0:0:0:0:
256,192,180005,1,0,0:0:0:0:
256,192,180080,1,0,0:0:0:0:
256,192,180230,1,0,0:0:0:0:
256,192,180380,1,8,0:0:0:0:
256,192,180455,1,8,0:0:0:0:
256,192,180530,1,0,0:0:0:0:
256,192,180680,1,0,0:0:0:0:
256,192,180755,1,8,0:0:0:0:
256,192,180830,1,0,0:0:0:0:
256,192,180980,1,8,0:0:0:0:
256,192,181055,1,8,0:0:0:0:
256,192,181130,1,8,0:0:0:0:
256,192,181205,1,8,0:0:0:0:
256,192,181280,1,8,0:0:0:0:
256,192,181355,1,8,0:0:0:0:
256,192,181430,1,8,0:0:0:0:
256,192,181505,1,8,0:0:0:0:
256,192,181580,1,0,0:0:0:0:
256,192,181655,1,8,0:0:0:0:
256,192,181730,1,8,0:0:0:0:
256,192,181805,1,8,0:0:0:0:
256,192,181880,1,8,0:0:0:0:
256,192,181955,1,8,0:0:0:0:
256,192,182030,1,8,0:0:0:0:
256,192,182105,1,8,0:0:0:0:
256,192,182180,1,0,0:0:0:0:
256,192,182255,1,8,0:0:0:0:
256,192,182330,1,8,0:0:0:0:
256,192,182405,1,8,0:0:0:0:
256,192,182480,1,8,0:0:0:0:
256,192,182555,1,8,0:0:0:0:
256,192,182630,1,0,0:0:0:0:
256,192,182705,1,8,0:0:0:0:
256,192,182780,1,0,0:0:0:0:
256,192,182855,1,8,0:0:0:0:
256,192,182930,1,0,0:0:0:0:
256,192,182980,1,0,0:0:0:0:
256,192,183030,1,0,0:0:0:0:
256,192,183080,1,8,0:0:0:0:
256,192,183155,1,8,0:0:0:0:
256,192,183230,1,0,0:0:0:0:
256,192,183380,1,8,0:0:0:0:
256,192,183455,1,8,0:0:0:0:
256,192,183530,1,8,0:0:0:0:
256,192,183605,1,0,0:0:0:0:
256,192,183680,1,8,0:0:0:0:
256,192,183755,1,8,0:0:0:0:
256,192,183830,1,0,0:0:0:0:
256,192,183905,1,0,0:0:0:0:
256,192,183980,1,8,0:0:0:0:
256,192,184055,1,8,0:0:0:0:
256,192,184130,1,8,0:0:0:0:
256,192,184205,1,0,0:0:0:0:
256,192,184280,1,8,0:0:0:0:
256,192,184355,1,8,0:0:0:0:
256,192,184430,1,0,0:0:0:0:
256,192,184505,1,0,0:0:0:0:
256,192,184580,1,8,0:0:0:0:
256,192,184655,1,8,0:0:0:0:
256,192,184730,1,8,0:0:0:0:
256,192,184805,1,0,0:0:0:0:
256,192,184880,1,8,0:0:0:0:
256,192,184955,1,8,0:0:0:0:
256,192,185030,1,0,0:0:0:0:
256,192,185105,1,0,0:0:0:0:
256,192,185180,1,8,0:0:0:0:
256,192,185255,1,8,0:0:0:0:
256,192,185330,1,8,0:0:0:0:
256,192,185405,1,0,0:0:0:0:
256,192,185480,1,8,0:0:0:0:
256,192,185555,1,0,0:0:0:0:
256,192,185630,1,0,0:0:0:0:
256,192,185705,1,0,0:0:0:0:
256,192,185780,1,8,0:0:0:0:
256,192,185855,1,0,0:0:0:0:
256,192,185930,1,8,0:0:0:0:
256,192,186005,1,8,0:0:0:0:
256,192,186080,1,0,0:0:0:0:
256,192,186155,1,8,0:0:0:0:
256,192,186230,1,0,0:0:0:0:
256,192,186305,1,0,0:0:0:0:
256,192,186380,1,8,0:0:0:0:
256,192,186455,1,8,0:0:0:0:
256,192,186530,1,0,0:0:0:0:
256,192,186605,1,8,0:0:0:0:
256,192,186680,1,8,0:0:0:0:
256,192,186755,1,0,0:0:0:0:
256,192,186830,1,0,0:0:0:0:
256,192,186905,1,0,0:0:0:0:
256,192,186980,1,8,0:0:0:0:
256,192,187055,1,0,0:0:0:0:
256,192,187130,1,8,0:0:0:0:
256,192,187205,1,8,0:0:0:0:
256,192,187280,1,0,0:0:0:0:
256,192,187355,1,0,0:0:0:0:
256,192,187430,1,8,0:0:0:0:
256,192,187505,1,0,0:0:0:0:
256,192,187580,1,8,0:0:0:0:
256,192,187655,1,8,0:0:0:0:
256,192,187730,1,0,0:0:0:0:
256,192,187805,1,0,0:0:0:0:
256,192,187880,1,8,0:0:0:0:
256,192,187955,1,0,0:0:0:0:
256,192,188030,1,8,0:0:0:0:
256,192,188180,1,0,0:0:0:0:
256,192,188255,1,0,0:0:0:0:
256,192,188330,1,8,0:0:0:0:
256,192,188405,1,0,0:0:0:0:
256,192,188480,1,0,0:0:0:0:
256,192,188555,1,0,0:0:0:0:
256,192,188630,1,8,0:0:0:0:
256,192,188780,1,0,0:0:0:0:
256,192,188930,1,8,0:0:0:0:
268,182,189005,1,0,0:0:0:0:
256,192,189080,1,8,0:0:0:0:
256,192,189230,1,8,0:0:0:0:
256,192,189305,1,0,0:0:0:0:
256,192,189380,1,8,0:0:0:0:
256,192,189455,1,0,0:0:0:0:
256,192,189530,1,8,0:0:0:0:
256,192,189605,1,8,0:0:0:0:
256,192,189680,1,0,0:0:0:0:
256,192,189755,1,8,0:0:0:0:
256,192,189830,1,8,0:0:0:0:
256,192,189905,1,0,0:0:0:0:
257,192,189980,1,8,0:0:0:0:
256,192,190130,1,0,0:0:0:0:
256,192,190205,1,8,0:0:0:0:
256,192,190280,1,8,0:0:0:0:
256,192,190430,1,0,0:0:0:0:
256,192,190580,1,8,0:0:0:0:
256,192,190655,1,8,0:0:0:0:
256,192,190730,1,8,0:0:0:0:
256,192,190805,1,8,0:0:0:0:
256,192,190880,1,0,0:0:0:0:
257,192,190955,1,0,0:0:0:0:
256,192,191030,1,8,0:0:0:0:
256,192,191105,1,0,0:0:0:0:
256,192,191180,1,8,0:0:0:0:
256,192,191255,1,8,0:0:0:0:
256,192,191330,1,0,0:0:0:0:
256,192,191405,1,0,0:0:0:0:
256,192,191480,1,8,0:0:0:0:
256,192,191555,1,8,0:0:0:0:
256,192,191630,1,0,0:0:0:0:
256,192,191705,1,8,0:0:0:0:
256,192,191780,1,0,0:0:0:0:
257,192,191930,1,0,0:0:0:0:
256,192,192005,1,0,0:0:0:0:
256,192,192080,1,8,0:0:0:0:
256,192,192155,1,0,0:0:0:0:
256,192,192230,1,0,0:0:0:0:
256,192,192380,1,8,0:0:0:0:
256,192,192455,1,0,0:0:0:0:
256,192,192530,1,8,0:0:0:0:
256,192,192605,1,8,0:0:0:0:
256,192,192680,1,0,0:0:0:0:
256,192,192755,1,8,0:0:0:0:
257,192,192830,1,8,0:0:0:0:
256,192,192980,1,8,0:0:0:0:
256,192,193055,1,8,0:0:0:0:
256,192,193130,1,8,0:0:0:0:
256,192,193205,1,0,0:0:0:0:
256,192,193280,1,8,0:0:0:0:
256,192,193355,1,8,0:0:0:0:
256,192,193430,1,0,0:0:0:0:
256,192,193505,1,0,0:0:0:0:
256,192,193580,1,8,0:0:0:0:
256,192,193655,1,8,0:0:0:0:
256,192,193730,1,8,0:0:0:0:
256,192,193805,1,0,0:0:0:0:
256,192,193880,1,8,0:0:0:0:
256,192,193955,1,8,0:0:0:0:
256,192,194030,1,0,0:0:0:0:
256,192,194105,1,0,0:0:0:0:
256,192,194180,1,8,0:0:0:0:
256,192,194255,1,8,0:0:0:0:
256,192,194330,1,8,0:0:0:0:
256,192,194405,1,8,0:0:0:0:
256,192,194480,1,0,0:0:0:0:
256,192,194555,1,0,0:0:0:0:
256,192,194630,1,8,0:0:0:0:
256,192,194705,1,8,0:0:0:0:
256,192,194780,1,8,0:0:0:0:
256,192,194855,1,0,0:0:0:0:
256,192,194930,1,8,0:0:0:0:
256,192,195005,1,8,0:0:0:0:
256,192,195080,1,0,0:0:0:0:
256,192,195155,1,0,0:0:0:0:
256,192,195230,1,8,0:0:0:0:
256,192,195305,1,0,0:0:0:0:
256,192,195380,1,8,0:0:0:0:
256,192,195455,1,8,0:0:0:0:
256,192,195530,1,8,0:0:0:0:
256,192,195605,1,0,0:0:0:0:
256,192,195680,1,8,0:0:0:0:
256,192,195755,1,0,0:0:0:0:
256,192,195830,1,8,0:0:0:0:
256,192,195905,1,0,0:0:0:0:
256,192,195980,1,0,0:0:0:0:
256,192,196055,1,8,0:0:0:0:
256,192,196130,1,0,0:0:0:0:
256,192,196205,1,0,0:0:0:0:
256,192,196280,1,8,0:0:0:0:
256,192,196355,1,0,0:0:0:0:
256,192,196430,1,0,0:0:0:0:
256,192,196505,1,0,0:0:0:0:
256,192,196580,1,8,0:0:0:0:
256,192,196655,1,8,0:0:0:0:
256,192,196730,1,0,0:0:0:0:
256,192,196805,1,0,0:0:0:0:
256,192,196880,1,8,0:0:0:0:
256,192,196955,1,0,0:0:0:0:
256,192,197030,1,8,0:0:0:0:
256,192,197105,1,8,0:0:0:0:
256,192,197180,1,0,0:0:0:0:
256,192,197255,1,0,0:0:0:0:
256,192,197330,1,8,0:0:0:0:
256,192,197405,1,0,0:0:0:0:
256,192,197480,1,0,0:0:0:0:
256,192,197555,1,0,0:0:0:0:
256,192,197630,1,8,0:0:0:0:
256,192,197780,1,8,0:0:0:0:
256,192,197855,1,8,0:0:0:0:
256,192,197930,1,0,0:0:0:0:
256,192,198080,1,8,0:0:0:0:
256,192,198230,1,0,0:0:0:0:
256,192,198305,1,8,0:0:0:0:
256,192,198380,1,0,0:0:0:0:
256,192,198530,1,8,0:0:0:0:
256,192,198605,1,0,0:0:0:0:
256,192,198680,1,8,0:0:0:0:
256,192,198755,1,8,0:0:0:0:
256,192,198830,1,0,0:0:0:0:
256,192,198980,1,0,0:0:0:0:
256,192,199130,1,0,0:0:0:0:
256,192,199205,1,8,0:0:0:0:
256,192,199280,1,0,0:0:0:0:
256,192,199355,1,0,0:0:0:0:
256,192,199430,1,8,0:0:0:0:
256,192,199505,1,0,0:0:0:0:
256,192,199580,1,8,0:0:0:0:
256,192,199730,1,0,0:0:0:0:
256,192,199805,1,8,0:0:0:0:
256,192,199880,1,8,0:0:0:0:
256,192,200030,1,8,0:0:0:0:
256,192,200105,1,8,0:0:0:0:
256,192,200180,1,0,0:0:0:0:
256,192,200255,1,8,0:0:0:0:
256,192,200330,1,0,0:0:0:0:
256,192,200405,1,8,0:0:0:0:
256,192,200480,1,0,0:0:0:0:
256,192,200555,1,8,0:0:0:0:
256,192,200630,1,0,0:0:0:0:
256,192,200705,1,8,0:0:0:0:
256,192,200780,1,0,0:0:0:0:
256,192,200855,1,0,0:0:0:0:
256,192,200930,1,8,0:0:0:0:
256,192,201005,1,8,0:0:0:0:
256,192,201080,1,0,0:0:0:0:
256,192,201155,1,0,0:0:0:0:
256,192,201230,1,8,0:0:0:0:
256,192,201305,1,8,0:0:0:0:
256,192,201380,1,0,0:0:0:0:
256,192,201455,1,8,0:0:0:0:
256,192,201530,1,0,0:0:0:0:
256,192,201605,1,0,0:0:0:0:
256,192,201680,1,8,0:0:0:0:
256,192,201755,1,0,0:0:0:0:
256,192,201830,1,8,0:0:0:0:
256,192,201880,1,8,0:0:0:0:
256,192,201930,1,8,0:0:0:0:
256,192,201980,1,0,0:0:0:0:
256,192,202055,1,0,0:0:0:0:
256,192,202130,1,8,0:0:0:0:
256,192,202180,1,0,0:0:0:0:
256,192,202230,1,0,0:0:0:0:
261,180,202280,1,8,0:0:0:0:
256,183,202355,1,0,0:0:0:0:
256,183,202430,1,8,0:0:0:0:
256,183,202580,1,4,0:0:0:0:
256,192,202655,12,0,207230,0:0:0:0:
256,191,207380,5,0,0:0:0:0:
256,191,208580,1,0,0:0:0:0:
256,191,209780,1,0,0:0:0:0:
256,191,210980,1,0,0:0:0:0:
256,191,211280,1,8,0:0:0:0:
256,191,211580,1,8,0:0:0:0:
256,191,211880,1,8,0:0:0:0:
256,191,212180,1,0,0:0:0:0:
256,192,214580,1,0,0:0:0:0:
256,192,215780,1,0,0:0:0:0:
256,192,216230,1,8,0:0:0:0:
256,192,216305,1,0,0:0:0:0:
256,192,216380,1,8,0:0:0:0:
256,192,216455,1,8,0:0:0:0:
256,192,216530,1,8,0:0:0:0:
256,192,216605,1,0,0:0:0:0:
256,192,216680,1,8,0:0:0:0:
256,192,216755,1,0,0:0:0:0:
256,192,216830,1,8,0:0:0:0:
256,192,216980,1,0,0:0:0:0:
259,193,218180,1,0,0:0:0:0:
259,193,218930,1,0,0:0:0:0:
259,193,219080,1,8,0:0:0:0:
259,193,219230,1,8,0:0:0:0:
259,193,219380,1,0,0:0:0:0:
254,193,220580,1,0,0:0:0:0:
254,193,221030,1,0,0:0:0:0:
254,193,221105,1,0,0:0:0:0:
254,193,221180,1,8,0:0:0:0:
254,193,221255,1,0,0:0:0:0:
254,193,221330,1,8,0:0:0:0:
254,193,221405,1,8,0:0:0:0:
254,193,221480,1,0,0:0:0:0:
254,193,221555,1,0,0:0:0:0:
254,193,221630,1,8,0:0:0:0:
252,192,221780,1,4,0:0:0:0:
255,193,224180,1,8,0:0:0:0:
255,193,225380,1,0,0:0:0:0:
255,193,226580,1,0,0:0:0:0:
255,193,227780,1,0,0:0:0:0:
255,193,228380,1,8,0:0:0:0:
255,193,228980,1,0,0:0:0:0:
255,193,230180,1,0,0:0:0:0:
255,193,230480,1,0,0:0:0:0:
255,193,230780,1,8,0:0:0:0:
255,193,231080,1,8,0:0:0:0:
255,193,231380,1,4,0:0:0:0:
255,193,231530,1,8,0:0:0:0:
255,193,231605,1,0,0:0:0:0:
255,193,231680,1,8,0:0:0:0:
255,193,232130,1,0,0:0:0:0:
255,193,232280,1,8,0:0:0:0:
255,193,232430,1,0,0:0:0:0:
255,193,232580,1,0,0:0:0:0:
255,193,232730,1,8,0:0:0:0:
255,193,232805,1,0,0:0:0:0:
255,193,232880,1,8,0:0:0:0:
255,193,233330,1,0,0:0:0:0:
255,193,233480,1,8,0:0:0:0:
255,193,233630,1,8,0:0:0:0:
255,193,233680,1,0,0:0:0:0:
255,193,233730,1,0,0:0:0:0:
255,193,233780,1,8,0:0:0:0:
255,193,233930,1,8,0:0:0:0:
255,193,234005,1,0,0:0:0:0:
255,193,234080,1,8,0:0:0:0:
260,191,234530,1,0,0:0:0:0:
260,191,234680,1,8,0:0:0:0:
255,193,234830,1,0,0:0:0:0:
255,193,234905,1,0,0:0:0:0:
255,193,234980,1,0,0:0:0:0:
253,190,235130,1,8,0:0:0:0:
253,190,235205,1,0,0:0:0:0:
253,190,235280,1,8,0:0:0:0:
255,177,235580,1,0,0:0:0:0:
255,177,235655,1,8,0:0:0:0:
255,177,235730,1,0,0:0:0:0:
255,177,235805,1,0,0:0:0:0:
255,177,235880,1,8,0:0:0:0:
255,177,236030,1,0,0:0:0:0:
255,177,236180,1,0,0:0:0:0:
254,177,236255,1,0,0:0:0:0:
255,177,236330,1,0,0:0:0:0:
255,177,236405,1,0,0:0:0:0:
255,177,236480,1,8,0:0:0:0:
250,176,236780,1,0,0:0:0:0:
255,177,236930,1,8,0:0:0:0:
261,185,237005,1,8,0:0:0:0:
261,185,237080,1,0,0:0:0:0:
261,185,237230,1,0,0:0:0:0:
259,183,237380,1,8,0:0:0:0:
259,183,237455,1,8,0:0:0:0:
261,185,237530,1,0,0:0:0:0:
259,183,237605,1,0,0:0:0:0:
261,185,237680,1,8,0:0:0:0:
261,185,237980,1,0,0:0:0:0:
261,185,238055,1,0,0:0:0:0:
261,185,238130,1,8,0:0:0:0:
261,185,238205,1,0,0:0:0:0:
261,185,238280,1,8,0:0:0:0:
261,185,238330,1,8,0:0:0:0:
261,185,238380,1,8,0:0:0:0:
261,185,238430,1,8,0:0:0:0:
261,185,238480,1,8,0:0:0:0:
261,185,238530,1,8,0:0:0:0:
261,185,238580,1,0,0:0:0:0:
261,185,238805,1,4,0:0:0:0:
261,185,239030,1,4,0:0:0:0:
266,188,239180,1,0,0:0:0:0:
266,188,239255,1,0,0:0:0:0:
266,188,239330,1,8,0:0:0:0:
265,182,239380,1,0,0:0:0:0:
265,182,239430,1,0,0:0:0:0:
265,182,239480,1,8,0:0:0:0:
261,185,239555,1,0,0:0:0:0:
261,185,239630,1,0,0:0:0:0:
261,185,239705,1,8,0:0:0:0:
261,185,239780,1,0,0:0:0:0:
256,192,239930,8,0,240530,0:0:0:0:
255,193,240680,5,12,0:0:0:0:
256,192,240980,1,8,0:0:0:0:
256,192,241055,1,8,0:0:0:0:
256,192,241130,1,8,0:0:0:0:
256,192,241205,1,8,0:0:0:0:
256,192,241280,1,0,0:0:0:0:
256,192,241355,1,0,0:0:0:0:
256,192,241430,1,8,0:0:0:0:
256,192,241505,1,0,0:0:0:0:
251,198,241580,1,8,0:0:0:0:
251,197,241655,1,8,0:0:0:0:
256,192,241730,1,8,0:0:0:0:
256,192,241805,1,8,0:0:0:0:
256,192,241880,1,0,0:0:0:0:
256,192,241955,1,0,0:0:0:0:
256,192,242030,1,8,0:0:0:0:
256,192,242105,1,8,0:0:0:0:
256,192,242180,1,8,0:0:0:0:
256,192,242255,1,0,0:0:0:0:
256,192,242330,1,8,0:0:0:0:
256,192,242405,1,8,0:0:0:0:
256,192,242480,1,0,0:0:0:0:
256,192,242555,1,0,0:0:0:0:
256,192,242630,1,8,0:0:0:0:
256,192,242705,1,0,0:0:0:0:
256,192,242780,1,8,0:0:0:0:
256,192,242855,1,8,0:0:0:0:
256,192,242930,1,0,0:0:0:0:
256,192,243005,1,0,0:0:0:0:
256,192,243080,1,8,0:0:0:0:
256,192,243155,1,8,0:0:0:0:
256,192,243230,1,0,0:0:0:0:
256,192,243305,1,0,0:0:0:0:
256,192,243380,1,8,0:0:0:0:
256,192,243455,1,8,0:0:0:0:
256,192,243530,1,8,0:0:0:0:
256,192,243605,1,0,0:0:0:0:
256,192,243680,1,8,0:0:0:0:
256,192,243755,1,0,0:0:0:0:
256,192,243830,1,8,0:0:0:0:
256,192,243905,1,0,0:0:0:0:
256,192,243980,1,0,0:0:0:0:
256,192,244055,1,8,0:0:0:0:
256,192,244130,1,0,0:0:0:0:
256,192,244205,1,0,0:0:0:0:
256,192,244280,1,8,0:0:0:0:
256,192,244355,1,0,0:0:0:0:
256,192,244430,1,0,0:0:0:0:
256,192,244505,1,0,0:0:0:0:
256,192,244580,1,8,0:0:0:0:
256,192,244655,1,8,0:0:0:0:
256,192,244730,1,0,0:0:0:0:
256,192,244805,1,0,0:0:0:0:
256,192,244880,1,8,0:0:0:0:
256,192,244955,1,0,0:0:0:0:
256,192,245030,1,8,0:0:0:0:
256,192,245105,1,8,0:0:0:0:
256,192,245180,1,0,0:0:0:0:
256,192,245255,1,0,0:0:0:0:
256,192,245330,1,8,0:0:0:0:
256,192,245405,1,0,0:0:0:0:
256,192,245480,1,0,0:0:0:0:
256,192,245555,1,0,0:0:0:0:
256,192,245630,1,8,0:0:0:0:
256,192,245780,1,8,0:0:0:0:
256,192,245855,1,8,0:0:0:0:
256,192,245930,1,8,0:0:0:0:
256,192,246005,1,0,0:0:0:0:
256,192,246080,1,8,0:0:0:0:
256,192,246155,1,8,0:0:0:0:
256,192,246230,1,0,0:0:0:0:
256,192,246305,1,0,0:0:0:0:
256,192,246380,1,8,0:0:0:0:
256,192,246530,1,8,0:0:0:0:
256,192,246605,1,0,0:0:0:0:
256,192,246680,1,8,0:0:0:0:
256,192,246755,1,8,0:0:0:0:
256,192,246830,1,0,0:0:0:0:
256,192,246905,1,8,0:0:0:0:
256,192,246980,1,0,0:0:0:0:
256,192,247130,1,8,0:0:0:0:
256,192,247205,1,0,0:0:0:0:
256,192,247280,1,8,0:0:0:0:
256,192,247355,1,0,0:0:0:0:
256,192,247430,1,8,0:0:0:0:
256,192,247505,1,8,0:0:0:0:
256,192,247580,1,0,0:0:0:0:
256,192,247655,1,0,0:0:0:0:
256,192,247730,1,8,0:0:0:0:
256,192,247805,1,0,0:0:0:0:
256,192,247880,1,8,0:0:0:0:
256,192,247955,1,8,0:0:0:0:
256,192,248030,1,0,0:0:0:0:
256,192,248105,1,0,0:0:0:0:
256,192,248180,1,8,0:0:0:0:
256,192,248255,1,8,0:0:0:0:
256,192,248330,1,8,0:0:0:0:
256,192,248405,1,0,0:0:0:0:
256,192,248480,1,8,0:0:0:0:
256,192,248555,1,8,0:0:0:0:
256,192,248630,1,0,0:0:0:0:
256,192,248705,1,0,0:0:0:0:
256,192,248780,1,8,0:0:0:0:
256,192,248855,1,8,0:0:0:0:
256,192,248930,1,8,0:0:0:0:
256,192,249005,1,0,0:0:0:0:
256,192,249080,1,8,0:0:0:0:
256,192,249155,1,8,0:0:0:0:
256,192,249230,1,0,0:0:0:0:
256,192,249305,1,0,0:0:0:0:
256,192,249380,1,8,0:0:0:0:
256,192,249530,1,8,0:0:0:0:
256,192,249605,1,0,0:0:0:0:
256,192,249680,1,8,0:0:0:0:
256,192,249755,1,8,0:0:0:0:
256,192,249830,1,0,0:0:0:0:
256,192,249905,1,0,0:0:0:0:
256,192,249980,1,8,0:0:0:0:
256,192,250130,1,8,0:0:0:0:
256,192,250205,1,0,0:0:0:0:
256,192,250280,1,8,0:0:0:0:
256,192,250355,1,8,0:0:0:0:
256,192,250430,1,0,0:0:0:0:
256,192,250580,1,8,0:0:0:0:
256,192,250655,1,8,0:0:0:0:
256,192,250730,1,8,0:0:0:0:
256,192,250805,1,0,0:0:0:0:
256,192,250880,1,8,0:0:0:0:
256,192,250955,1,8,0:0:0:0:
256,192,251030,1,0,0:0:0:0:
256,192,251105,1,0,0:0:0:0:
256,192,251180,1,8,0:0:0:0:
256,192,251255,1,8,0:0:0:0:
256,192,251330,1,8,0:0:0:0:
256,192,251405,1,0,0:0:0:0:
256,192,251480,1,8,0:0:0:0:
256,192,251555,1,0,0:0:0:0:
256,192,251630,1,0,0:0:0:0:
256,192,251705,1,0,0:0:0:0:
256,192,251780,1,8,0:0:0:0:
256,192,251855,1,8,0:0:0:0:
256,192,251930,1,8,0:0:0:0:
256,192,252005,1,0,0:0:0:0:
256,192,252080,1,8,0:0:0:0:
256,192,252155,1,8,0:0:0:0:
256,192,252230,1,0,0:0:0:0:
256,192,252305,1,0,0:0:0:0:
256,192,252380,1,8,0:0:0:0:
256,192,252455,1,8,0:0:0:0:
256,192,252530,1,8,0:0:0:0:
256,192,252605,1,0,0:0:0:0:
256,192,252680,1,8,0:0:0:0:
256,192,252755,1,0,0:0:0:0:
256,192,252830,1,0,0:0:0:0:
256,192,252905,1,0,0:0:0:0:
256,192,252980,1,8,0:0:0:0:
256,192,253055,1,8,0:0:0:0:
256,192,253130,1,8,0:0:0:0:
256,192,253205,1,0,0:0:0:0:
256,192,253280,1,8,0:0:0:0:
256,192,253355,1,0,0:0:0:0:
256,192,253430,1,0,0:0:0:0:
256,192,253505,1,8,0:0:0:0:
256,192,253580,1,0,0:0:0:0:
256,192,253655,1,0,0:0:0:0:
256,192,253730,1,8,0:0:0:0:
256,192,253805,1,0,0:0:0:0:
256,192,253880,1,8,0:0:0:0:
256,192,253955,1,0,0:0:0:0:
256,192,254030,1,0,0:0:0:0:
256,192,254105,1,0,0:0:0:0:
256,192,254180,1,8,0:0:0:0:
256,192,254255,1,8,0:0:0:0:
256,192,254330,1,0,0:0:0:0:
256,192,254405,1,0,0:0:0:0:
256,192,254480,1,8,0:0:0:0:
256,192,254555,1,0,0:0:0:0:
256,192,254630,1,8,0:0:0:0:
256,192,254705,1,8,0:0:0:0:
256,192,254780,1,0,0:0:0:0:
256,192,254855,1,0,0:0:0:0:
256,192,254930,1,8,0:0:0:0:
256,192,255005,1,0,0:0:0:0:
256,192,255080,1,0,0:0:0:0:
256,192,255155,1,0,0:0:0:0:
256,192,255230,1,8,0:0:0:0:
256,192,255380,1,8,0:0:0:0:
256,192,255455,1,0,0:0:0:0:
256,192,255530,1,0,0:0:0:0:
256,192,255605,1,8,0:0:0:0:
256,192,255680,1,8,0:0:0:0:
256,192,255830,1,8,0:0:0:0:
256,192,255905,1,8,0:0:0:0:
256,192,255980,1,8,0:0:0:0:
256,192,256055,1,0,0:0:0:0:
256,192,256130,1,8,0:0:0:0:
256,192,256205,1,0,0:0:0:0:
256,192,256280,1,0,0:0:0:0:
256,192,256355,1,8,0:0:0:0:
256,192,256430,1,0,0:0:0:0:
256,192,256505,1,0,0:0:0:0:
256,192,256580,1,8,0:0:0:0:
256,192,256730,1,8,0:0:0:0:
256,192,256805,1,0,0:0:0:0:
256,192,256880,1,0,0:0:0:0:
256,192,257030,1,0,0:0:0:0:
256,192,257180,1,8,0:0:0:0:
256,192,257255,1,8,0:0:0:0:
256,192,257330,1,0,0:0:0:0:
256,192,257480,1,0,0:0:0:0:
256,192,257555,1,0,0:0:0:0:
256,192,257630,1,8,0:0:0:0:
256,192,257780,1,8,0:0:0:0:
256,192,257855,1,8,0:0:0:0:
256,192,257930,1,8,0:0:0:0:
256,192,258005,1,8,0:0:0:0:
256,192,258080,1,8,0:0:0:0:
256,192,258155,1,8,0:0:0:0:
256,192,258230,1,8,0:0:0:0:
256,192,258305,1,8,0:0:0:0:
256,192,258380,1,0,0:0:0:0:
256,192,258455,1,8,0:0:0:0:
256,192,258530,1,8,0:0:0:0:
256,192,258605,1,8,0:0:0:0:
256,192,258680,1,8,0:0:0:0:
256,192,258755,1,8,0:0:0:0:
256,192,258830,1,8,0:0:0:0:
256,192,258905,1,8,0:0:0:0:
256,192,258980,1,0,0:0:0:0:
256,192,259055,1,8,0:0:0:0:
256,192,259130,1,8,0:0:0:0:
256,192,259205,1,8,0:0:0:0:
256,192,259280,1,8,0:0:0:0:
256,192,259355,1,8,0:0:0:0:
256,192,259430,1,0,0:0:0:0:
256,192,259505,1,8,0:0:0:0:
256,192,259580,1,0,0:0:0:0:
256,192,259655,1,8,0:0:0:0:
256,192,259730,1,0,0:0:0:0:
256,192,259780,1,0,0:0:0:0:
256,192,259830,1,0,0:0:0:0:
256,192,259880,1,8,0:0:0:0:
256,192,259955,1,8,0:0:0:0:
256,192,260030,1,0,0:0:0:0:
256,192,260180,1,8,0:0:0:0:
256,192,260255,1,8,0:0:0:0:
256,192,260330,1,8,0:0:0:0:
256,192,260405,1,8,0:0:0:0:
256,192,260480,1,0,0:0:0:0:
256,192,260555,1,0,0:0:0:0:
256,192,260630,1,8,0:0:0:0:
256,192,260705,1,0,0:0:0:0:
256,192,260780,1,8,0:0:0:0:
256,192,260855,1,8,0:0:0:0:
256,192,260930,1,8,0:0:0:0:
256,192,261005,1,0,0:0:0:0:
256,192,261080,1,8,0:0:0:0:
256,192,261155,1,8,0:0:0:0:
256,192,261230,1,0,0:0:0:0:
256,192,261305,1,0,0:0:0:0:
256,192,261380,1,8,0:0:0:0:
256,192,261455,1,8,0:0:0:0:
256,192,261530,1,8,0:0:0:0:
256,192,261605,1,8,0:0:0:0:
256,192,261680,1,0,0:0:0:0:
256,192,261755,1,0,0:0:0:0:
256,192,261830,1,8,0:0:0:0:
256,192,261905,1,0,0:0:0:0:
256,192,261980,1,8,0:0:0:0:
256,192,262055,1,8,0:0:0:0:
256,192,262130,1,8,0:0:0:0:
256,192,262205,1,0,0:0:0:0:
256,192,262280,1,8,0:0:0:0:
256,192,262355,1,8,0:0:0:0:
256,192,262430,1,0,0:0:0:0:
256,192,262505,1,0,0:0:0:0:
256,192,262580,1,8,0:0:0:0:
256,192,262655,1,8,0:0:0:0:
256,192,262730,1,8,0:0:0:0:
256,192,262805,1,0,0:0:0:0:
256,192,262880,1,8,0:0:0:0:
256,192,262955,1,0,0:0:0:0:
256,192,263030,1,8,0:0:0:0:
256,192,263105,1,0,0:0:0:0:
256,192,263180,1,8,0:0:0:0:
256,192,263255,1,8,0:0:0:0:
256,192,263330,1,0,0:0:0:0:
256,192,263405,1,8,0:0:0:0:
256,192,263480,1,8,0:0:0:0:
256,192,263555,1,0,0:0:0:0:
256,192,263630,1,0,0:0:0:0:
256,192,263705,1,0,0:0:0:0:
256,192,263780,1,8,0:0:0:0:
256,192,263855,1,0,0:0:0:0:
256,192,263930,1,8,0:0:0:0:
256,192,264005,1,8,0:0:0:0:
256,192,264080,1,0,0:0:0:0:
256,192,264155,1,0,0:0:0:0:
256,192,264230,1,8,0:0:0:0:
256,192,264305,1,0,0:0:0:0:
256,192,264380,1,8,0:0:0:0:
256,192,264455,1,8,0:0:0:0:
256,192,264530,1,0,0:0:0:0:
256,192,264605,1,0,0:0:0:0:
256,192,264680,1,8,0:0:0:0:
256,192,264755,1,0,0:0:0:0:
256,192,264830,1,8,0:0:0:0:
256,192,264980,1,0,0:0:0:0:
256,192,265055,1,0,0:0:0:0:
256,192,265130,1,8,0:0:0:0:
256,192,265205,1,8,0:0:0:0:
256,192,265280,1,0,0:0:0:0:
256,192,265355,1,0,0:0:0:0:
256,192,265430,1,8,0:0:0:0:
256,192,265580,1,0,0:0:0:0:
256,192,265730,1,8,0:0:0:0:
268,182,265805,1,0,0:0:0:0:
256,192,265880,1,8,0:0:0:0:
256,192,266030,1,8,0:0:0:0:
256,192,266105,1,0,0:0:0:0:
256,192,266180,1,8,0:0:0:0:
256,192,266255,1,0,0:0:0:0:
256,192,266330,1,8,0:0:0:0:
256,192,266405,1,8,0:0:0:0:
256,192,266480,1,0,0:0:0:0:
256,192,266555,1,8,0:0:0:0:
256,192,266630,1,8,0:0:0:0:
256,192,266705,1,0,0:0:0:0:
257,192,266780,1,8,0:0:0:0:
256,192,266930,1,0,0:0:0:0:
256,192,267005,1,8,0:0:0:0:
256,192,267080,1,8,0:0:0:0:
256,192,267230,1,0,0:0:0:0:
256,192,267380,1,8,0:0:0:0:
256,192,267455,1,8,0:0:0:0:
256,192,267530,1,8,0:0:0:0:
256,192,267605,1,8,0:0:0:0:
256,192,267680,1,0,0:0:0:0:
257,192,267755,1,0,0:0:0:0:
256,192,267830,1,8,0:0:0:0:
256,192,267905,1,0,0:0:0:0:
256,192,267980,1,8,0:0:0:0:
256,192,268055,1,8,0:0:0:0:
256,192,268130,1,0,0:0:0:0:
256,192,268205,1,0,0:0:0:0:
256,192,268280,1,8,0:0:0:0:
256,192,268355,1,8,0:0:0:0:
256,192,268430,1,0,0:0:0:0:
256,192,268505,1,8,0:0:0:0:
256,192,268580,1,0,0:0:0:0:
257,192,268730,1,0,0:0:0:0:
256,192,268805,1,0,0:0:0:0:
256,192,268880,1,8,0:0:0:0:
256,192,268955,1,0,0:0:0:0:
256,192,269030,1,8,0:0:0:0:
256,192,269180,1,8,0:0:0:0:
256,192,269255,1,0,0:0:0:0:
256,192,269330,1,8,0:0:0:0:
256,192,269405,1,8,0:0:0:0:
256,192,269480,1,0,0:0:0:0:
256,192,269555,1,8,0:0:0:0:
257,192,269630,1,8,0:0:0:0:
256,192,269780,1,8,0:0:0:0:
256,192,269855,1,8,0:0:0:0:
256,192,269930,1,8,0:0:0:0:
256,192,270005,1,0,0:0:0:0:
256,192,270080,1,8,0:0:0:0:
256,192,270155,1,8,0:0:0:0:
256,192,270230,1,0,0:0:0:0:
256,192,270305,1,0,0:0:0:0:
256,192,270380,1,8,0:0:0:0:
256,192,270455,1,8,0:0:0:0:
256,192,270530,1,8,0:0:0:0:
256,192,270605,1,0,0:0:0:0:
256,192,270680,1,8,0:0:0:0:
256,192,270755,1,8,0:0:0:0:
256,192,270830,1,0,0:0:0:0:
256,192,270905,1,0,0:0:0:0:
256,192,270980,1,8,0:0:0:0:
256,192,271055,1,8,0:0:0:0:
256,192,271130,1,8,0:0:0:0:
256,192,271205,1,8,0:0:0:0:
256,192,271280,1,0,0:0:0:0:
256,192,271355,1,0,0:0:0:0:
256,192,271430,1,8,0:0:0:0:
256,192,271505,1,0,0:0:0:0:
256,192,271580,1,8,0:0:0:0:
256,192,271655,1,8,0:0:0:0:
256,192,271730,1,8,0:0:0:0:
256,192,271805,1,8,0:0:0:0:
256,192,271880,1,0,0:0:0:0:
256,192,271955,1,0,0:0:0:0:
256,192,272030,1,8,0:0:0:0:
256,192,272105,1,0,0:0:0:0:
256,192,272180,1,8,0:0:0:0:
256,192,272255,1,8,0:0:0:0:
256,192,272330,1,8,0:0:0:0:
256,192,272405,1,0,0:0:0:0:
256,192,272480,1,8,0:0:0:0:
256,192,272555,1,0,0:0:0:0:
256,192,272630,1,8,0:0:0:0:
256,192,272705,1,0,0:0:0:0:
256,192,272780,1,0,0:0:0:0:
256,192,272855,1,8,0:0:0:0:
256,192,272930,1,0,0:0:0:0:
256,192,273005,1,0,0:0:0:0:
256,192,273080,1,8,0:0:0:0:
256,192,273155,1,0,0:0:0:0:
256,192,273230,1,0,0:0:0:0:
256,192,273305,1,0,0:0:0:0:
256,192,273380,1,8,0:0:0:0:
256,192,273455,1,8,0:0:0:0:
256,192,273530,1,0,0:0:0:0:
256,192,273605,1,0,0:0:0:0:
256,192,273680,1,8,0:0:0:0:
256,192,273755,1,0,0:0:0:0:
256,192,273830,1,8,0:0:0:0:
256,192,273905,1,8,0:0:0:0:
256,192,273980,1,0,0:0:0:0:
256,192,274055,1,0,0:0:0:0:
256,192,274130,1,8,0:0:0:0:
256,192,274205,1,0,0:0:0:0:
256,192,274280,1,0,0:0:0:0:
256,192,274355,1,0,0:0:0:0:
256,192,274430,1,8,0:0:0:0:
256,192,274580,1,8,0:0:0:0:
256,192,274655,1,8,0:0:0:0:
256,192,274730,1,0,0:0:0:0:
256,192,274880,1,8,0:0:0:0:
256,192,275030,1,0,0:0:0:0:
256,192,275105,1,8,0:0:0:0:
256,192,275180,1,8,0:0:0:0:
256,192,275330,1,8,0:0:0:0:
256,192,275405,1,0,0:0:0:0:
256,192,275480,1,8,0:0:0:0:
256,192,275555,1,8,0:0:0:0:
256,192,275630,1,0,0:0:0:0:
256,192,275780,1,8,0:0:0:0:
256,192,275930,1,8,0:0:0:0:
256,192,276005,1,8,0:0:0:0:
256,192,276080,1,8,0:0:0:0:
256,192,276155,1,0,0:0:0:0:
256,192,276230,1,8,0:0:0:0:
256,192,276305,1,0,0:0:0:0:
256,192,276380,1,8,0:0:0:0:
256,192,276530,1,0,0:0:0:0:
256,192,276605,1,8,0:0:0:0:
256,192,276680,1,8,0:0:0:0:
256,192,276830,1,8,0:0:0:0:
256,192,276905,1,8,0:0:0:0:
256,192,276980,1,0,0:0:0:0:
256,192,277055,1,8,0:0:0:0:
256,192,277130,1,0,0:0:0:0:
256,192,277205,1,8,0:0:0:0:
256,192,277280,1,0,0:0:0:0:
256,192,277355,1,8,0:0:0:0:
256,192,277430,1,0,0:0:0:0:
256,192,277505,1,8,0:0:0:0:
256,192,277580,1,0,0:0:0:0:
256,192,277655,1,0,0:0:0:0:
256,192,277730,1,8,0:0:0:0:
256,192,277805,1,8,0:0:0:0:
256,192,277880,1,0,0:0:0:0:
256,192,277955,1,0,0:0:0:0:
256,192,278030,1,8,0:0:0:0:
256,192,278105,1,8,0:0:0:0:
256,192,278180,1,0,0:0:0:0:
256,192,278255,1,8,0:0:0:0:
256,192,278330,1,0,0:0:0:0:
256,192,278405,1,0,0:0:0:0:
256,192,278480,1,8,0:0:0:0:
256,192,278555,1,0,0:0:0:0:
256,192,278630,1,8,0:0:0:0:
256,192,278680,1,8,0:0:0:0:
256,192,278730,1,8,0:0:0:0:
256,192,278780,1,0,0:0:0:0:
256,192,278855,1,0,0:0:0:0:
256,192,278930,1,8,0:0:0:0:
256,192,278980,1,0,0:0:0:0:
256,192,279030,1,0,0:0:0:0:
261,180,279080,1,8,0:0:0:0:
256,183,279155,1,0,0:0:0:0:
256,183,279230,1,8,0:0:0:0:
256,183,279380,1,4,0:0:0:0:
256,192,279455,8,0,284030,0:0:0:0:
255,192,284180,5,0,0:0:0:0:
253,192,285380,1,0,0:0:0:0:
253,192,286580,1,0,0:0:0:0:
253,192,287780,1,0,0:0:0:0:
253,192,288080,1,8,0:0:0:0:
253,192,288380,1,8,0:0:0:0:
253,192,288680,1,8,0:0:0:0:
253,192,288980,1,0,0:0:0:0:
253,192,291380,1,0,0:0:0:0:
253,192,292591,1,0,0:0:0:0:
253,192,293806,1,0,0:0:0:0:
253,192,295049,1,8,0:0:0:0:
253,192,295838,1,0,0:0:0:0:
253,192,295996,1,8,0:0:0:0:
253,192,296154,1,8,0:0:0:0:
253,192,296312,1,0,0:0:0:0:
255,192,297586,1,8,0:0:0:0:
255,192,298080,1,0,0:0:0:0:
255,192,298162,1,0,0:0:0:0:
255,192,298245,1,8,0:0:0:0:
255,192,298327,1,0,0:0:0:0:
255,192,298410,1,0,0:0:0:0:
255,192,298492,1,0,0:0:0:0:
255,192,298575,1,8,0:0:0:0:
255,192,298657,1,0,0:0:0:0:
255,192,298739,1,8,0:0:0:0:
255,192,298904,1,4,0:0:0:0:
256,192,298987,8,0,306816,0:0:0:0:
