osu file format v14

[General]
AudioFilename: audio.mp3
AudioLeadIn: 0
PreviewTime: 102039
Countdown: 0
SampleSet: Normal
StackLeniency: 0.7
Mode: 1
LetterboxInBreaks: 0
WidescreenStoryboard: 0

[Editor]
Bookmarks: 20445,36939,48339,121239,124839
DistanceSpacing: 0.8
BeatDivisor: 2
GridSize: 32
TimelineZoom: 1

[Metadata]
Title:Ascension to Heaven
TitleUnicode:Ascension to Heaven
Artist:xi
ArtistUnicode:xi
Creator:Skyhmer
Version:Futsuu
Source:BMS
Tags:parousia artcore Intelli Skylish
BeatmapID:927830
BeatmapSetID:430059

[Difficulty]
HPDrainRate:7
CircleSize:2
OverallDifficulty:3
ApproachRate:10
SliderMultiplier:1.2
SliderTickRate:1

[Events]
//Background and Video events
0,0,"ss213124.jpg",0,0
//Break Periods
//Storyboard Layer 0 (Background)
//Storyboard Layer 1 (Fail)
//Storyboard Layer 2 (Pass)
//Storyboard Layer 3 (Foreground)
//Storyboard Sound Samples

[TimingPoints]
1239,300,4,1,0,60,1,0
1239,-133.333333333333,4,1,0,60,0,0
10839,-100,4,1,0,75,0,0
20439,-100,4,1,0,80,0,0
60039,-133.333333333333,4,1,0,65,0,0
97239,-100,4,1,0,70,0,0
102039,-100,4,1,0,80,0,1
145239,-133.333333333333,4,1,0,65,0,0
152439,315.789473684211,4,1,0,65,1,0
152439,-133.333333333333,4,1,0,65,0,0

[HitObjects]
256,192,1239,5,0,0:0:0:0:
256,192,3639,1,0,0:0:0:0:
256,192,4839,1,2,0:0:0:0:
256,192,6039,1,0,0:0:0:0:
256,192,8439,1,0,0:0:0:0:
256,192,9639,1,2,0:0:0:0:
256,192,10839,1,4,0:0:0:0:
256,192,11289,1,0,0:0:0:0:
256,192,11589,1,2,0:0:0:0:
256,192,11889,1,0,0:0:0:0:
256,192,12039,1,0,0:0:0:0:
256,192,12339,1,2,0:0:0:0:
256,192,12939,1,2,0:0:0:0:
256,192,13239,1,0,0:0:0:0:
256,192,13689,1,0,0:0:0:0:
256,192,13989,1,2,0:0:0:0:
256,192,14289,1,0,0:0:0:0:
256,192,14439,1,2,0:0:0:0:
256,192,14739,1,0,0:0:0:0:
256,192,15339,1,0,0:0:0:0:
256,192,15639,1,0,0:0:0:0:
256,192,16089,1,0,0:0:0:0:
256,192,16389,1,2,0:0:0:0:
256,192,16689,1,0,0:0:0:0:
256,192,16839,1,0,0:0:0:0:
256,192,17139,1,2,0:0:0:0:
256,192,17739,1,2,0:0:0:0:
256,192,18039,1,0,0:0:0:0:
256,192,18489,1,0,0:0:0:0:
256,192,18789,1,2,0:0:0:0:
256,192,18939,1,0,0:0:0:0:
256,192,19239,1,2,0:0:0:0:
256,192,20139,1,2,0:0:0:0:
256,192,20439,1,4,0:0:0:0:
256,192,20739,1,2,0:0:0:0:
256,192,21339,1,2,0:0:0:0:
256,192,21639,1,0,0:0:0:0:
256,192,21939,1,2,0:0:0:0:
256,192,22389,1,0,0:0:0:0:
256,192,22539,1,2,0:0:0:0:
256,192,22839,1,0,0:0:0:0:
256,192,23139,1,2,0:0:0:0:
256,192,23739,1,2,0:0:0:0:
256,192,24039,1,0,0:0:0:0:
256,192,24339,1,2,0:0:0:0:
256,192,24939,1,2,0:0:0:0:
256,192,25089,1,2,0:0:0:0:
256,192,25239,1,0,0:0:0:0:
256,192,25539,1,2,0:0:0:0:
256,192,26139,1,2,0:0:0:0:
256,192,26439,1,0,0:0:0:0:
256,192,26739,1,2,0:0:0:0:
256,192,26889,1,0,0:0:0:0:
256,192,27339,1,2,0:0:0:0:
256,192,27639,1,0,0:0:0:0:
256,192,27939,1,2,0:0:0:0:
256,192,28539,1,2,0:0:0:0:
256,192,28839,1,0,0:0:0:0:
256,192,29139,1,2,0:0:0:0:
256,192,29289,1,0,0:0:0:0:
256,192,29439,1,0,0:0:0:0:
256,192,29739,1,2,0:0:0:0:
256,192,30039,1,0,0:0:0:0:
256,192,30339,1,2,0:0:0:0:
256,192,30939,1,2,0:0:0:0:
256,192,31239,1,0,0:0:0:0:
256,192,31539,1,2,0:0:0:0:
256,192,31689,1,0,0:0:0:0:
256,192,32139,1,2,0:0:0:0:
256,192,32439,1,0,0:0:0:0:
256,192,32739,1,2,0:0:0:0:
256,192,33339,1,2,0:0:0:0:
256,192,33639,1,0,0:0:0:0:
256,192,34239,1,0,0:0:0:0:
256,192,34539,1,2,0:0:0:0:
256,192,34689,1,2,0:0:0:0:
256,192,34839,1,0,0:0:0:0:
256,192,35139,1,2,0:0:0:0:
256,192,35739,1,2,0:0:0:0:
256,192,36039,1,0,0:0:0:0:
256,192,36339,1,2,0:0:0:0:
256,192,36939,1,0,0:0:0:0:
256,192,37089,1,2,0:0:0:0:
256,192,37239,1,0,0:0:0:0:
256,192,37539,1,2,0:0:0:0:
256,192,38139,1,2,0:0:0:0:
256,192,38439,1,0,0:0:0:0:
256,192,38739,1,2,0:0:0:0:
256,192,39039,1,0,0:0:0:0:
256,192,39189,1,0,0:0:0:0:
256,192,39339,1,2,0:0:0:0:
256,192,39639,1,4,0:0:0:0:
256,192,39939,1,2,0:0:0:0:
256,192,40539,1,2,0:0:0:0:
256,192,40839,1,0,0:0:0:0:
256,192,41139,1,2,0:0:0:0:
256,192,41589,1,0,0:0:0:0:
256,192,41739,1,2,0:0:0:0:
256,192,42039,1,0,0:0:0:0:
256,192,42339,1,2,0:0:0:0:
256,192,42939,1,2,0:0:0:0:
256,192,43239,1,0,0:0:0:0:
256,192,43539,1,2,0:0:0:0:
256,192,44139,1,2,0:0:0:0:
256,192,44289,1,2,0:0:0:0:
256,192,44439,1,0,0:0:0:0:
256,192,44739,1,2,0:0:0:0:
256,192,45339,1,2,0:0:0:0:
256,192,45639,1,0,0:0:0:0:
256,192,45939,1,2,0:0:0:0:
256,192,46089,1,0,0:0:0:0:
256,192,46539,1,2,0:0:0:0:
256,192,46839,1,0,0:0:0:0:
256,192,47139,1,2,0:0:0:0:
256,192,47739,1,2,0:0:0:0:
256,192,48039,1,0,0:0:0:0:
256,192,48339,1,2,0:0:0:0:
256,192,48489,1,0,0:0:0:0:
256,192,48639,1,0,0:0:0:0:
256,192,48939,1,2,0:0:0:0:
256,192,49239,1,0,0:0:0:0:
256,192,49539,1,2,0:0:0:0:
256,192,50139,1,2,0:0:0:0:
256,192,50439,1,0,0:0:0:0:
256,192,50739,1,2,0:0:0:0:
256,192,50889,1,0,0:0:0:0:
256,192,51339,1,2,0:0:0:0:
256,192,51639,1,0,0:0:0:0:
256,192,51939,1,2,0:0:0:0:
256,192,52539,1,2,0:0:0:0:
256,192,52839,1,0,0:0:0:0:
256,192,53139,1,2,0:0:0:0:
256,192,53289,1,0,0:0:0:0:
256,192,53739,1,2,0:0:0:0:
256,192,53889,1,2,0:0:0:0:
256,192,54039,1,0,0:0:0:0:
256,192,54339,1,2,0:0:0:0:
256,192,54939,1,2,0:0:0:0:
256,192,55239,1,0,0:0:0:0:
256,192,55539,1,2,0:0:0:0:
256,192,56139,1,2,0:0:0:0:
256,192,56439,1,0,0:0:0:0:
256,192,56739,1,2,0:0:0:0:
256,192,56889,1,0,0:0:0:0:
256,192,57339,1,2,0:0:0:0:
256,192,57639,1,0,0:0:0:0:
256,192,57939,1,2,0:0:0:0:
256,192,58239,1,2,0:0:0:0:
256,192,58839,1,4,0:0:0:0:
256,192,61239,1,0,0:0:0:0:
256,192,62439,1,0,0:0:0:0:
256,192,62739,1,2,0:0:0:0:
256,192,63039,1,2,0:0:0:0:
256,192,63639,1,6,0:0:0:0:
256,192,64539,1,0,0:0:0:0:
256,192,64689,1,0,0:0:0:0:
256,192,66039,1,2,0:0:0:0:
256,192,67239,1,2,0:0:0:0:
256,192,67839,1,0,0:0:0:0:
256,192,68439,1,2,0:0:0:0:
256,192,69339,1,2,0:0:0:0:
256,192,69489,1,2,0:0:0:0:
256,192,70839,1,0,0:0:0:0:
256,192,72039,1,2,0:0:0:0:
256,192,73239,1,2,0:0:0:0:
256,192,74139,1,0,0:0:0:0:
256,192,74289,1,0,0:0:0:0:
256,192,75639,1,0,0:0:0:0:
256,192,76839,1,2,0:0:0:0:
256,192,78039,1,2,0:0:0:0:
256,192,79239,1,0,0:0:0:0:
256,192,80439,1,2,0:0:0:0:
256,192,81639,1,2,0:0:0:0:
256,192,82239,1,2,0:0:0:0:
256,192,82839,1,4,0:0:0:0:
256,192,83739,1,0,0:0:0:0:
256,192,83889,1,0,0:0:0:0:
256,192,85239,1,2,0:0:0:0:
256,192,86439,1,2,0:0:0:0:
256,192,87639,1,2,0:0:0:0:
256,192,88239,1,0,0:0:0:0:
256,192,88839,1,2,0:0:0:0:
256,192,90039,1,2,0:0:0:0:
256,192,91239,1,2,0:0:0:0:
256,192,91839,1,0,0:0:0:0:
256,192,92439,1,2,0:0:0:0:
256,192,94839,1,0,0:0:0:0:
256,192,96039,1,2,0:0:0:0:
256,192,97239,1,0,0:0:0:0:
256,192,97539,1,2,0:0:0:0:
256,192,97989,1,0,0:0:0:0:
256,192,98139,1,2,0:0:0:0:
256,192,98439,1,0,0:0:0:0:
256,192,98739,1,2,0:0:0:0:
256,192,99189,1,0,0:0:0:0:
256,192,99489,1,0,0:0:0:0:
256,192,99639,1,2,0:0:0:0:
256,192,100239,1,0,0:0:0:0:
256,192,100539,1,0,0:0:0:0:
256,192,100839,1,6,0:0:0:0:
256,192,102039,1,4,0:0:0:0:
256,192,102339,1,2,0:0:0:0:
256,192,102489,1,0,0:0:0:0:
256,192,102939,1,0,0:0:0:0:
256,192,103239,1,0,0:0:0:0:
256,192,103539,1,2,0:0:0:0:
256,192,103689,1,0,0:0:0:0:
256,192,104139,1,0,0:0:0:0:
256,192,104439,1,0,0:0:0:0:
256,192,104739,1,2,0:0:0:0:
256,192,105039,1,0,0:0:0:0:
256,192,105639,1,0,0:0:0:0:
256,192,105939,1,2,0:0:0:0:
256,192,106539,1,2,0:0:0:0:
256,192,106689,1,2,0:0:0:0:
256,192,106839,1,0,0:0:0:0:
256,192,107139,1,2,0:0:0:0:
256,192,107439,1,0,0:0:0:0:
256,192,108039,1,0,0:0:0:0:
256,192,108339,1,2,0:0:0:0:
256,192,108489,1,2,0:0:0:0:
256,192,108789,1,0,0:0:0:0:
256,192,109239,1,0,0:0:0:0:
256,192,109539,1,2,0:0:0:0:
256,192,109839,1,0,0:0:0:0:
256,192,110439,1,0,0:0:0:0:
256,192,110739,1,2,0:0:0:0:
256,192,111339,1,2,0:0:0:0:
256,192,111489,1,0,0:0:0:0:
256,192,111639,1,0,0:0:0:0:
256,192,111939,1,2,0:0:0:0:
256,192,112239,1,0,0:0:0:0:
256,192,112839,1,0,0:0:0:0:
256,192,113139,1,2,0:0:0:0:
256,192,113289,1,2,0:0:0:0:
256,192,113589,1,0,0:0:0:0:
256,192,114039,1,0,0:0:0:0:
256,192,114339,1,2,0:0:0:0:
256,192,114639,1,0,0:0:0:0:
256,192,115239,1,0,0:0:0:0:
256,192,115539,1,2,0:0:0:0:
256,192,116139,1,2,0:0:0:0:
256,192,116289,1,2,0:0:0:0:
256,192,116439,1,0,0:0:0:0:
256,192,116739,1,2,0:0:0:0:
256,192,117039,1,0,0:0:0:0:
256,192,117639,1,0,0:0:0:0:
256,192,117939,1,2,0:0:0:0:
256,192,118089,1,2,0:0:0:0:
256,192,118389,1,0,0:0:0:0:
256,192,118839,1,0,0:0:0:0:
256,192,119139,1,2,0:0:0:0:
256,192,119439,1,0,0:0:0:0:
256,192,120039,1,0,0:0:0:0:
256,192,120339,1,2,0:0:0:0:
256,192,120939,1,2,0:0:0:0:
256,192,121239,1,4,0:0:0:0:
256,192,121539,1,2,0:0:0:0:
256,192,121689,1,0,0:0:0:0:
256,192,122139,1,0,0:0:0:0:
256,192,122439,1,0,0:0:0:0:
256,192,122739,1,2,0:0:0:0:
256,192,122889,1,0,0:0:0:0:
256,192,123339,1,0,0:0:0:0:
256,192,123639,1,0,0:0:0:0:
256,192,123939,1,2,0:0:0:0:
256,192,124239,1,0,0:0:0:0:
256,192,124839,1,0,0:0:0:0:
256,192,125139,1,2,0:0:0:0:
256,192,125739,1,2,0:0:0:0:
256,192,125889,1,2,0:0:0:0:
256,192,126039,1,0,0:0:0:0:
256,192,126339,1,2,0:0:0:0:
256,192,126639,1,0,0:0:0:0:
256,192,127239,1,0,0:0:0:0:
256,192,127539,1,2,0:0:0:0:
256,192,127689,1,0,0:0:0:0:
256,192,128139,1,2,0:0:0:0:
256,192,128439,1,2,0:0:0:0:
256,192,128889,1,2,0:0:0:0:
256,192,129639,1,0,0:0:0:0:
256,192,130089,1,0,0:0:0:0:
256,192,130539,1,2,0:0:0:0:
256,192,130839,1,0,0:0:0:0:
256,192,131139,1,2,0:0:0:0:
256,192,131439,1,2,0:0:0:0:
256,192,132039,1,0,0:0:0:0:
256,192,132339,1,2,0:0:0:0:
256,192,132489,1,2,0:0:0:0:
256,192,132789,1,0,0:0:0:0:
256,192,133239,1,0,0:0:0:0:
256,192,133539,1,2,0:0:0:0:
256,192,133839,1,0,0:0:0:0:
256,192,134439,1,0,0:0:0:0:
256,192,134739,1,2,0:0:0:0:
256,192,135339,1,2,0:0:0:0:
256,192,135489,1,2,0:0:0:0:
256,192,135639,1,0,0:0:0:0:
256,192,135939,1,2,0:0:0:0:
256,192,136239,1,0,0:0:0:0:
256,192,136839,1,0,0:0:0:0:
256,192,137139,1,2,0:0:0:0:
256,192,137289,1,2,0:0:0:0:
256,192,137589,1,0,0:0:0:0:
256,192,137889,1,0,0:0:0:0:
256,192,138039,1,2,0:0:0:0:
256,192,138339,1,0,0:0:0:0:
256,192,138489,1,2,0:0:0:0:
256,192,138939,1,0,0:0:0:0:
256,192,139239,1,2,0:0:0:0:
256,192,139539,1,2,0:0:0:0:
256,192,139839,1,0,0:0:0:0:
256,192,140139,1,2,0:0:0:0:
256,192,140439,1,4,0:0:0:0:
256,192,140589,12,0,144039,0:0:0:0:
256,192,145239,5,2,0:0:0:0:
256,192,146439,1,0,0:0:0:0:
256,192,147639,1,2,0:0:0:0:
256,192,148839,1,0,0:0:0:0:
256,192,149439,1,0,0:0:0:0:
256,192,150039,1,2,0:0:0:0:
256,192,152439,1,2,0:0:0:0:
256,192,153702,1,0,0:0:0:0:
256,192,154965,1,4,0:0:0:0:
