osu file format v14

[General]
AudioFilename: audio.mp3
AudioLeadIn: 0
PreviewTime: 161850
Countdown: 1
SampleSet: Normal
StackLeniency: 0.7
Mode: 0
LetterboxInBreaks: 0
WidescreenStoryboard: 0

[Editor]
Bookmarks: 132600,273600,282000
DistanceSpacing: 1.4
BeatDivisor: 4
GridSize: 4
TimelineZoom: 1.1

[Metadata]
Title:Ascension to Heaven
TitleUnicode:Ascension to Heaven
Artist:xi
ArtistUnicode:xi
Creator:Le Dyguidour
Version:Ascended
Source:BMS
Tags:Parousia Diverse System artcore electronic piano deathstream rsi technical stamina
BeatmapID:1516603
BeatmapSetID:717956

[Difficulty]
HPDrainRate:6
CircleSize:4
OverallDifficulty:9.5
ApproachRate:10
SliderMultiplier:1.4
SliderTickRate:1

[Events]
//Background and Video events
0,0,"maxresdefault.jpg",0,0
//Break Periods
//Storyboard Layer 0 (Background)
//Storyboard Layer 1 (Fail)
//Storyboard Layer 2 (Pass)
//Storyboard Layer 3 (Foreground)
//Storyboard Sound Samples

[TimingPoints]
5850,300,4,1,0,100,1,0
5850,-166.666666666667,4,1,0,20,0,0
6000,-166.666666666667,4,1,0,5,0,0
7800,-166.666666666667,4,1,0,20,0,0
8400,-166.666666666667,4,1,0,5,0,0
9000,-166.666666666667,4,1,0,20,0,0
10650,-166.666666666667,4,1,0,30,0,0
10800,-166.666666666667,4,1,0,5,0,0
12600,-166.666666666667,4,1,0,30,0,0
13200,-166.666666666667,4,1,0,5,0,0
13800,-166.666666666667,4,1,0,30,0,0
15450,-166.666666666667,4,1,0,40,0,0
15600,-166.666666666667,4,1,0,5,0,0
17400,-166.666666666667,4,1,0,40,0,0
18000,-166.666666666667,4,1,0,5,0,0
18600,-166.666666666667,4,1,0,40,0,0
22650,-166.666666666667,4,1,0,50,0,0
23850,-166.666666666667,4,1,0,60,0,0
24300,-66.6666666666667,4,1,0,70,0,0
25050,-66.6666666666667,4,1,1,90,0,0
27900,-100,4,1,0,100,0,0
28350,-66.6666666666667,4,1,0,100,0,0
32775,-100,4,1,0,100,0,0
32950,-66.6666666666667,4,1,0,100,0,0
37575,-100,4,1,0,100,0,0
37675,-66.6666666666667,4,1,0,100,0,0
39975,-100,4,1,0,100,0,0
40075,-66.6666666666667,4,1,0,100,0,0
43050,-66.6666666666667,4,1,0,100,0,0
82650,-100,4,1,0,100,0,0
82800,-100,4,1,0,5,0,0
84975,-100,4,1,0,100,0,0
85125,-100,4,1,0,5,0,0
86025,-100,4,1,0,100,0,0
106800,-100,4,1,0,5,0,0
107325,-100,4,1,0,100,0,0
107850,-100,4,1,0,5,0,0
108750,-100,4,1,0,100,0,0
109200,-100,4,1,0,5,0,0
110025,-100,4,1,0,100,0,0
110400,-100,4,1,0,5,0,0
110625,-100,4,1,0,100,0,0
111000,-100,4,1,0,5,0,0
111225,-100,4,1,0,100,0,0
111600,-100,4,1,0,5,0,0
111825,-100,4,1,0,100,0,0
114000,-100,4,1,0,5,0,0
114825,-100,4,1,0,100,0,0
115200,-100,4,1,0,5,0,0
115425,-100,4,1,0,100,0,0
115800,-100,4,1,0,5,0,0
116025,-100,4,1,0,100,0,0
120150,-100,4,1,0,30,0,0
120900,-100,4,1,0,100,0,0
125850,-66.6666666666667,4,1,0,100,0,0
143850,-66.6666666666667,4,1,0,100,0,0
164250,-66.6666666666667,4,1,0,100,0,1
202650,-121.951219512195,4,1,0,100,0,0
202725,-121.951219512195,4,1,0,5,0,0
204975,-121.951219512195,4,1,0,100,0,0
205125,-121.951219512195,4,1,0,5,0,0
207300,-121.951219512195,4,1,0,100,0,0
219675,-121.951219512195,4,1,0,5,0,0
220425,-121.951219512195,4,1,0,100,0,0
220800,-121.951219512195,4,1,0,5,0,0
221025,-121.951219512195,4,1,0,100,0,0
221850,-133.333333333333,4,1,0,100,0,0
222000,-133.333333333333,4,1,0,5,0,0
224025,-133.333333333333,4,1,0,100,0,0
224400,-133.333333333333,4,1,0,5,0,0
225225,-133.333333333333,4,1,0,100,0,0
225600,-133.333333333333,4,1,0,5,0,0
226425,-133.333333333333,4,1,0,100,0,0
226801,-133.333333333333,4,1,0,5,0,0
227625,-133.333333333333,4,1,0,100,0,0
241050,-66.6666666666667,4,1,0,100,0,1
279450,-92.5925925925926,4,1,0,100,0,0
279600,-92.5925925925926,4,1,0,5,0,0
281775,-92.5925925925926,4,1,0,100,0,0
281925,-92.5925925925926,4,1,0,5,0,0
284100,-92.5925925925926,4,1,0,100,0,0
291442,301.507537688442,4,1,0,80,1,0
292648,304.568527918782,4,1,0,80,1,0
293866,310.880829015544,4,1,0,80,1,0
295898,315.789473684211,4,1,0,80,1,0
296381,319.148936170213,4,1,0,80,1,0
296381,-200,4,1,0,80,0,0
297657,322.58064516129,4,1,0,80,1,0
297818,-100,4,1,0,5,0,0
298060,-100,4,1,0,80,0,0
298947,315.789473684211,4,1,0,80,1,0

[Colours]
Combo1 : 187,201,236
Combo2 : 61,99,199
Combo3 : 96,128,210
Combo4 : 139,162,222

[HitObjects]
464,192,5850,6,0,B|440:120|356:80|356:80|392:152|368:228|296:256|228:240|184:192|192:144|212:116|228:88|256:80|304:104|292:144,1,587.999982055665
252,284,8250,2,0,B|304:296|348:276|348:276|372:304|372:304|380:260|396:244|396:244|420:276|452:276,1,251.999992309571
436,274,9450,1,0,0:0:0:0:
444,280,10650,6,0,B|360:220|408:132|408:132|328:164|328:92|248:136|248:136|152:60|112:150|112:150|148:122|196:140,1,587.999982055665
332,256,13050,2,0,B|348:288|368:308|368:308|328:300|300:336|300:336|276:320|276:320|240:344|196:324|196:324,1,251.999992309571
197,324,14250,1,0,0:0:0:0:
204,328,15450,6,0,B|252:216|156:232|200:136|200:136|184:120|180:92|180:92|124:92|100:64|100:64|144:68|180:56|180:56|204:0|260:0|308:56|256:96,1,587.999982055665
272,200,17850,2,0,B|296:228|292:272|292:272|316:220|360:216|360:216|372:264|436:264,1,251.999992309571
420,263,19050,1,0,0:0:0:0:
432,264,20250,5,0,0:0:0:0:
256,192,20400,12,0,22350,0:0:0:0:
424,200,22650,5,0,0:0:0:0:
332,136,23850,1,0,0:0:0:0:
212,132,24300,5,0,0:0:0:0:
152,248,24450,1,0,0:0:0:0:
124,224,24525,1,0,0:0:0:0:
104,192,24600,1,0,0:0:0:0:
92,152,24675,1,0,0:0:0:0:
92,108,24750,1,0,0:0:0:0:
116,64,24825,1,0,0:0:0:0:
164,44,24900,1,0,0:0:0:0:
220,56,24975,1,0,0:0:0:0:
212,132,25050,6,0,P|264:160|312:160,1,105.000004005432,4|0,0:0|0:0,0:0:0:0:
384,120,25275,1,0,0:0:0:0:
376,172,25350,1,0,0:0:0:0:
236,300,25500,1,0,0:0:0:0:
284,280,25575,1,0,0:0:0:0:
367,223,25725,6,0,L|379:151,1,52.5000020027161
392,68,25875,1,0,0:0:0:0:
384,120,25950,1,0,0:0:0:0:
236,300,26100,1,0,0:0:0:0:
124,152,26250,5,4,0:0:0:0:
64,336,26400,2,0,L|44:220,1,105.000004005432
84,192,26625,1,0,0:0:0:0:
144,8,26775,6,0,L|161:111,1,105.000004005432
64,336,27075,1,0,0:0:0:0:
55,284,27150,2,0,L|149:299,2,52.5000020027161
328,256,27450,1,4,0:0:0:0:
156,300,27600,1,0,0:0:0:0:
172,248,27675,1,0,0:0:0:0:
188,196,27750,5,0,0:0:0:0:
364,28,27900,1,0,0:0:0:0:
312,44,27975,2,0,L|216:72,1,70
192,80,28200,1,0,0:0:0:0:
156,300,28350,2,0,L|200:156,1,105.000004005432
364,28,28650,5,4,0:0:0:0:
364,28,28800,1,0,0:0:0:0:
456,80,28950,2,0,L|509:97,1,52.5000020027161
365,133,29100,2,0,L|337:158,4,26.2500010013581
396,80,29325,1,0,0:0:0:0:
480,180,29475,2,0,L|472:236,1,52.5000020027161,0|4,0:0|0:0,0:0:0:0:
464,284,29625,1,0,0:0:0:0:
412,292,29700,1,4,0:0:0:0:
360,296,29775,1,0,0:0:0:0:
308,304,29850,6,0,P|264:260|212:240,1,105.000004005432,4|0,0:0|0:0,0:0:0:0:
136,226,30075,1,0,0:0:0:0:
154,275,30150,1,0,0:0:0:0:
234,102,30300,1,0,0:0:0:0:
251,53,30375,1,0,0:0:0:0:
100,124,30525,6,0,L|123:191,1,52.5000020027161
154,275,30675,1,0,0:0:0:0:
172,324,30750,1,0,0:0:0:0:
234,102,30900,1,0,0:0:0:0:
464,212,31050,5,4,0:0:0:0:
272,140,31200,2,0,L|392:148,1,105.000004005432
420,180,31425,1,0,0:0:0:0:
352,348,31575,6,0,L|232:356,1,105.000004005432
272,140,31875,1,0,0:0:0:0:
324,144,31950,2,0,L|312:200,2,52.5000020027161
136,320,32250,1,4,0:0:0:0:
72,88,32400,1,0,0:0:0:0:
112,124,32475,1,0,0:0:0:0:
152,160,32550,5,0,0:0:0:0:
14,310,32700,1,0,0:0:0:0:
66,314,32775,2,0,L|166:322,1,70
186,326,33000,1,0,0:0:0:0:
72,88,33150,2,0,L|188:192,1,105.000004005432,4|4,0:0|0:0,0:0:0:0:
320,96,33450,5,4,0:0:0:0:
372,108,33525,1,0,0:0:0:0:
408,144,33600,2,0,P|424:216|408:256,1,105.000004005432
328,256,33825,1,0,0:0:0:0:
292,296,33900,2,0,L|248:284,4,26.2500010013581,0|0|0|0|4,0:0|0:0|0:0|0:0|0:0,0:0:0:0:
344,308,34125,6,0,L|272:348,1,52.5000020027161
240,284,34275,2,0,L|168:324,1,52.5000020027161,0|4,0:0|0:0,0:0:0:0:
104,304,34425,1,0,0:0:0:0:
84,256,34500,1,0,0:0:0:0:
84,204,34575,1,0,0:0:0:0:
100,156,34650,6,0,P|156:136|220:152,1,105.000004005432,4|0,0:0|0:0,0:0:0:0:
264,80,34875,1,0,0:0:0:0:
312,104,34950,1,0,0:0:0:0:
432,252,35100,1,0,0:0:0:0:
387,281,35175,1,0,0:0:0:0:
276,236,35325,6,0,L|272:178,1,52.5000020027161
264,80,35475,1,0,0:0:0:0:
312,104,35550,1,0,0:0:0:0:
432,252,35700,1,0,0:0:0:0:
176,204,35850,5,4,0:0:0:0:
332,268,36000,2,0,L|268:152,1,105.000004005432
228,188,36225,1,0,0:0:0:0:
72,124,36375,6,0,L|122:215,1,105.000004005432
332,268,36675,1,0,0:0:0:0:
308,224,36750,2,0,L|324:172,2,52.5000020027161
320,8,37050,1,4,0:0:0:0:
432,136,37200,1,0,0:0:0:0:
416,188,37275,1,0,0:0:0:0:
400,240,37350,5,0,0:0:0:0:
336,60,37500,1,0,0:0:0:0:
286,77,37575,2,0,L|192:114,1,70
173,122,37800,1,0,0:0:0:0:
432,132,37950,2,0,L|392:268,1,105.000004005432
336,60,38250,5,4,0:0:0:0:
336,60,38400,1,0,0:0:0:0:
272,136,38550,2,0,L|292:196,1,52.5000020027161
208,212,38700,2,0,L|223:258,4,26.2500010013581
160,184,38925,1,0,0:0:0:0:
104,44,39075,2,0,L|160:44,1,52.5000020027161
208,60,39225,1,0,0:0:0:0:
252,88,39300,1,0,0:0:0:0:
272,136,39375,1,0,0:0:0:0:
268,188,39450,6,0,P|280:240|336:280,1,105.000004005432,4|0,0:0|0:0,0:0:0:0:
396,260,39675,1,0,0:0:0:0:
404,208,39750,1,0,0:0:0:0:
220,128,39900,1,4,0:0:0:0:
212,180,39975,2,0,L|200:276,1,70
196,300,40200,1,0,0:0:0:0:
396,260,40350,2,0,L|416:140,1,105.000004005432,4|0,0:0|0:0,0:0:0:0:
220,128,40650,5,4,0:0:0:0:
124,64,40800,2,0,L|228:20,1,105.000004005432
220,76,41025,1,0,0:0:0:0:
100,240,41175,6,0,L|152:256,1,52.5000020027161,4|0,0:0|0:0,0:0:0:0:
296,300,41325,1,4,0:0:0:0:
104,248,41475,6,0,L|156:264,1,52.5000020027161,4|0,0:0|0:0,0:0:0:0:
296,300,41625,1,4,0:0:0:0:
432,176,41775,1,0,0:0:0:0:
384,152,41850,2,0,L|276:172,1,105.000004005432,4|0,0:0|0:0,0:0:0:0:
188,148,42075,1,0,0:0:0:0:
240,140,42150,5,0,0:0:0:0:
400,220,42300,1,0,0:0:0:0:
348,228,42375,1,0,0:0:0:0:
296,236,42450,1,4,0:0:0:0:
244,244,42525,1,0,0:0:0:0:
192,252,42600,2,0,L|168:296,4,26.2500010013581
180,200,42825,1,0,0:0:0:0:
188,148,42900,1,0,0:0:0:0:
220,108,42975,1,0,0:0:0:0:
268,92,43050,5,4,0:0:0:0:
256,192,43125,12,0,43950,0:0:0:0:
320,100,44250,5,0,0:0:0:0:
344,112,44325,1,0,0:0:0:0:
364,132,44400,1,0,0:0:0:0:
372,156,44475,1,0,0:0:0:0:
372,184,44550,5,0,0:0:0:0:
360,208,44625,1,0,0:0:0:0:
340,224,44700,1,0,0:0:0:0:
316,232,44775,1,0,0:0:0:0:
292,228,44850,1,0,0:0:0:0:
268,220,44925,1,0,0:0:0:0:
244,208,45000,1,0,0:0:0:0:
220,204,45075,1,0,0:0:0:0:
192,208,45150,5,0,0:0:0:0:
168,220,45225,1,0,0:0:0:0:
152,240,45300,1,0,0:0:0:0:
148,264,45375,1,0,0:0:0:0:
156,288,45450,1,0,0:0:0:0:
176,308,45525,1,0,0:0:0:0:
200,316,45600,1,0,0:0:0:0:
228,316,45675,1,0,0:0:0:0:
252,308,45750,5,4,0:0:0:0:
272,292,45825,1,4,0:0:0:0:
296,280,45900,1,4,0:0:0:0:
320,268,45975,1,4,0:0:0:0:
344,260,46050,1,0,0:0:0:0:
372,260,46125,1,0,0:0:0:0:
396,268,46200,1,0,0:0:0:0:
416,284,46275,1,4,0:0:0:0:
424,308,46350,5,4,0:0:0:0:
420,332,46425,1,0,0:0:0:0:
400,348,46500,2,0,P|380:352|340:329,1,52.5000020027161
312,212,46650,5,4,0:0:0:0:
316,180,46725,1,0,0:0:0:0:
308,152,46800,1,0,0:0:0:0:
288,128,46875,1,0,0:0:0:0:
260,112,46950,1,0,0:0:0:0:
228,108,47025,5,0,0:0:0:0:
200,120,47100,5,0,0:0:0:0:
172,136,47175,1,0,0:0:0:0:
140,144,47250,1,0,0:0:0:0:
108,140,47325,1,0,0:0:0:0:
80,124,47400,1,0,0:0:0:0:
68,96,47475,1,0,0:0:0:0:
80,68,47550,5,0,0:0:0:0:
108,56,47625,1,0,0:0:0:0:
140,64,47700,2,0,P|184:72|204:68,1,52.5000020027161
332,28,47850,5,0,0:0:0:0:
312,56,47925,1,0,0:0:0:0:
300,92,48000,1,0,0:0:0:0:
296,128,48075,1,0,0:0:0:0:
304,164,48150,5,0,0:0:0:0:
328,192,48225,1,0,0:0:0:0:
360,212,48300,1,0,0:0:0:0:
388,236,48375,1,0,0:0:0:0:
408,268,48450,1,0,0:0:0:0:
408,304,48525,1,0,0:0:0:0:
384,332,48600,1,0,0:0:0:0:
348,336,48675,1,0,0:0:0:0:
316,320,48750,5,4,0:0:0:0:
304,284,48825,1,4,0:0:0:0:
316,248,48900,2,4,P|328:224|360:204,1,52.5000020027161,4|0,0:0|0:0,0:0:0:0:
488,152,49050,5,4,0:0:0:0:
448,128,49125,1,0,0:0:0:0:
400,120,49200,1,0,0:0:0:0:
352,124,49275,1,0,0:0:0:0:
308,140,49350,5,0,0:0:0:0:
272,168,49425,1,0,0:0:0:0:
232,192,49500,5,0,0:0:0:0:
184,200,49575,1,0,0:0:0:0:
136,192,49650,1,0,0:0:0:0:
88,188,49725,1,0,0:0:0:0:
44,208,49800,1,0,0:0:0:0:
16,244,49875,1,0,0:0:0:0:
16,292,49950,5,0,0:0:0:0:
44,328,50025,1,0,0:0:0:0:
92,336,50100,2,0,P|120:332|148:312,1,52.5000020027161
212,192,50250,5,4,0:0:0:0:
240,176,50325,1,0,0:0:0:0:
272,172,50400,1,0,0:0:0:0:
304,180,50475,1,0,0:0:0:0:
328,200,50550,5,0,0:0:0:0:
344,228,50625,1,0,0:0:0:0:
348,256,50700,1,4,0:0:0:0:
340,288,50775,1,0,0:0:0:0:
340,320,50850,1,0,0:0:0:0:
360,344,50925,1,0,0:0:0:0:
388,356,51000,1,4,0:0:0:0:
420,348,51075,1,0,0:0:0:0:
440,328,51150,5,4,0:0:0:0:
448,296,51225,1,0,0:0:0:0:
440,264,51300,1,0,0:0:0:0:
416,244,51375,1,0,0:0:0:0:
388,232,51450,1,4,0:0:0:0:
356,228,51525,1,0,0:0:0:0:
320,220,51600,1,0,0:0:0:0:
292,208,51675,1,0,0:0:0:0:
272,184,51750,5,0,0:0:0:0:
260,156,51825,1,0,0:0:0:0:
260,124,51900,5,0,0:0:0:0:
276,96,51975,1,0,0:0:0:0:
304,80,52050,1,0,0:0:0:0:
336,76,52125,1,0,0:0:0:0:
364,88,52200,1,0,0:0:0:0:
384,112,52275,1,0,0:0:0:0:
388,144,52350,5,0,0:0:0:0:
376,172,52425,1,0,0:0:0:0:
348,188,52500,2,0,P|308:188|296:180,1,52.5000020027161
208,20,52650,5,4,0:0:0:0:
160,36,52725,1,4,0:0:0:0:
124,72,52800,1,4,0:0:0:0:
116,124,52875,1,4,0:0:0:0:
160,184,52950,5,4,0:0:0:0:
208,204,53025,1,4,0:0:0:0:
248,240,53100,1,4,0:0:0:0:
256,292,53175,1,4,0:0:0:0:
204,344,53250,5,4,0:0:0:0:
152,352,53325,1,4,0:0:0:0:
112,320,53400,1,4,0:0:0:0:
108,268,53475,1,4,0:0:0:0:
144,200,53550,5,4,0:0:0:0:
192,184,53625,1,4,0:0:0:0:
244,192,53700,2,0,P|284:196|312:192,1,52.5000020027161,4|0,0:0|0:0,0:0:0:0:
448,152,53850,5,4,0:0:0:0:
408,116,53925,1,0,0:0:0:0:
360,92,54000,1,0,0:0:0:0:
308,88,54075,1,0,0:0:0:0:
256,104,54150,5,0,0:0:0:0:
212,132,54225,1,0,0:0:0:0:
196,180,54300,5,0,0:0:0:0:
196,232,54375,1,0,0:0:0:0:
228,272,54450,1,0,0:0:0:0:
280,288,54525,1,0,0:0:0:0:
328,268,54600,1,0,0:0:0:0:
352,220,54675,1,0,0:0:0:0:
348,168,54750,5,0,0:0:0:0:
316,124,54825,1,0,0:0:0:0:
272,96,54900,1,0,0:0:0:0:
216,88,54975,1,0,0:0:0:0:
164,100,55050,1,0,0:0:0:0:
124,136,55125,1,0,0:0:0:0:
108,188,55200,1,0,0:0:0:0:
108,240,55275,1,0,0:0:0:0:
132,288,55350,5,0,0:0:0:0:
176,316,55425,1,0,0:0:0:0:
228,316,55500,1,0,0:0:0:0:
272,288,55575,1,0,0:0:0:0:
296,240,55650,1,0,0:0:0:0:
292,188,55725,1,0,0:0:0:0:
268,140,55800,1,0,0:0:0:0:
260,88,55875,1,0,0:0:0:0:
284,40,55950,5,4,0:0:0:0:
332,20,56025,1,4,0:0:0:0:
380,36,56100,2,0,P|404:64|408:84,1,52.5000020027161,4|0,0:0|0:0,0:0:0:0:
384,232,56250,5,4,0:0:0:0:
352,264,56325,1,0,0:0:0:0:
304,272,56400,1,0,0:0:0:0:
260,260,56475,1,0,0:0:0:0:
232,220,56550,5,0,0:0:0:0:
228,172,56625,1,0,0:0:0:0:
224,124,56700,5,0,0:0:0:0:
200,84,56775,1,0,0:0:0:0:
156,68,56850,1,0,0:0:0:0:
108,76,56925,1,0,0:0:0:0:
76,108,57000,1,0,0:0:0:0:
72,156,57075,1,0,0:0:0:0:
84,200,57150,5,0,0:0:0:0:
124,228,57225,1,0,0:0:0:0:
172,228,57300,2,4,P|204:220|232:200,1,52.5000020027161
332,120,57450,5,4,0:0:0:0:
372,124,57525,1,0,0:0:0:0:
408,144,57600,1,0,0:0:0:0:
432,180,57675,1,0,0:0:0:0:
436,220,57750,5,0,0:0:0:0:
420,260,57825,1,0,0:0:0:0:
388,288,57900,2,0,P|336:288|308:264,1,52.5000020027161
232,160,58050,1,4,0:0:0:0:
248,128,58125,1,0,0:0:0:0:
277,105,58200,1,0,0:0:0:0:
315,98,58275,1,0,0:0:0:0:
349,109,58350,5,0,0:0:0:0:
376,136,58425,1,0,0:0:0:0:
388,172,58500,2,0,P|369:214|340:229,1,52.5000020027161
216,236,58650,5,4,0:0:0:0:
198,209,58725,1,0,0:0:0:0:
193,177,58800,1,0,0:0:0:0:
204,145,58875,1,0,0:0:0:0:
228,124,58950,5,0,0:0:0:0:
260,116,59025,1,0,0:0:0:0:
293,122,59100,5,0,0:0:0:0:
320,148,59175,1,0,0:0:0:0:
328,184,59250,1,0,0:0:0:0:
316,220,59325,1,0,0:0:0:0:
288,244,59400,1,0,0:0:0:0:
252,252,59475,1,0,0:0:0:0:
216,240,59550,5,0,0:0:0:0:
180,228,59625,1,0,0:0:0:0:
144,232,59700,1,0,0:0:0:0:
112,252,59775,1,0,0:0:0:0:
100,288,59850,1,0,0:0:0:0:
112,324,59925,1,0,0:0:0:0:
144,344,60000,1,0,0:0:0:0:
180,344,60075,1,0,0:0:0:0:
212,328,60150,5,0,0:0:0:0:
240,304,60225,1,0,0:0:0:0:
252,268,60300,2,0,P|256:240|248:208,1,52.5000020027161
212,88,60450,5,4,0:0:0:0:
212,56,60525,1,0,0:0:0:0:
228,28,60600,1,0,0:0:0:0:
256,12,60675,1,0,0:0:0:0:
288,16,60750,5,0,0:0:0:0:
308,40,60825,1,0,0:0:0:0:
316,72,60900,2,0,P|316:100|304:120,1,52.5000020027161
228,228,61050,5,4,0:0:0:0:
212,244,61125,1,0,0:0:0:0:
208,264,61200,1,0,0:0:0:0:
212,284,61275,1,0,0:0:0:0:
220,304,61350,5,0,0:0:0:0:
236,320,61425,1,0,0:0:0:0:
256,328,61500,5,0,0:0:0:0:
276,332,61575,1,0,0:0:0:0:
296,328,61650,1,0,0:0:0:0:
316,316,61725,1,0,0:0:0:0:
328,300,61800,1,0,0:0:0:0:
336,280,61875,1,0,0:0:0:0:
336,260,61950,5,0,0:0:0:0:
332,240,62025,1,0,0:0:0:0:
320,220,62100,2,0,P|300:196|256:176,1,52.5000020027161
96,136,62250,5,0,0:0:0:0:
100,144,62325,1,0,0:0:0:0:
104,152,62400,2,0,L|128:212,1,52.5000020027161
272,268,62550,5,4,0:0:0:0:
312,232,62625,1,4,0:0:0:0:
332,184,62700,1,4,0:0:0:0:
328,132,62775,1,4,0:0:0:0:
256,160,62850,5,4,0:0:0:0:
236,204,62925,1,4,0:0:0:0:
200,232,63000,1,4,0:0:0:0:
152,240,63075,1,4,0:0:0:0:
152,164,63150,5,4,0:0:0:0:
180,132,63225,1,4,0:0:0:0:
196,92,63300,2,0,P|196:64|188:40,1,52.5000020027161,4|0,0:0|0:0,0:0:0:0:
44,88,63450,5,4,0:0:0:0:
48,112,63525,1,0,0:0:0:0:
60,136,63600,1,0,0:0:0:0:
76,156,63675,1,0,0:0:0:0:
96,172,63750,5,0,0:0:0:0:
120,180,63825,1,0,0:0:0:0:
144,184,63900,5,0,0:0:0:0:
168,180,63975,1,0,0:0:0:0:
192,172,64050,1,0,0:0:0:0:
212,156,64125,1,0,0:0:0:0:
232,136,64200,1,0,0:0:0:0:
252,120,64275,1,0,0:0:0:0:
276,108,64350,5,0,0:0:0:0:
304,108,64425,1,0,0:0:0:0:
328,116,64500,1,0,0:0:0:0:
348,132,64575,1,0,0:0:0:0:
360,156,64650,1,0,0:0:0:0:
360,184,64725,1,0,0:0:0:0:
348,208,64800,1,4,0:0:0:0:
328,224,64875,1,4,0:0:0:0:
304,236,64950,5,4,0:0:0:0:
288,256,65025,1,4,0:0:0:0:
280,280,65100,1,4,0:0:0:0:
284,304,65175,1,0,0:0:0:0:
296,328,65250,1,0,0:0:0:0:
320,340,65325,1,0,0:0:0:0:
348,340,65400,1,0,0:0:0:0:
368,324,65475,1,4,0:0:0:0:
380,300,65550,5,0,0:0:0:0:
380,272,65625,1,0,0:0:0:0:
368,248,65700,2,0,P|344:220|320:212,1,52.5000020027161
168,232,65850,5,4,0:0:0:0:
136,236,65925,1,0,0:0:0:0:
104,228,66000,1,0,0:0:0:0:
80,208,66075,1,0,0:0:0:0:
64,180,66150,5,0,0:0:0:0:
64,148,66225,1,4,0:0:0:0:
80,120,66300,5,4,0:0:0:0:
108,104,66375,1,4,0:0:0:0:
140,104,66450,1,4,0:0:0:0:
168,120,66525,1,0,0:0:0:0:
180,148,66600,1,0,0:0:0:0:
180,180,66675,1,4,0:0:0:0:
184,212,66750,5,4,0:0:0:0:
200,240,66825,1,0,0:0:0:0:
224,260,66900,2,0,P|248:268|284:264,1,52.5000020027161
408,184,67050,5,4,0:0:0:0:
376,168,67125,1,0,0:0:0:0:
340,156,67200,1,0,0:0:0:0:
304,156,67275,1,0,0:0:0:0:
268,156,67350,5,4,0:0:0:0:
232,144,67425,1,0,0:0:0:0:
212,112,67500,1,4,0:0:0:0:
212,76,67575,1,0,0:0:0:0:
236,48,67650,1,0,0:0:0:0:
272,40,67725,1,0,0:0:0:0:
308,52,67800,1,0,0:0:0:0:
332,80,67875,1,0,0:0:0:0:
340,116,67950,5,0,0:0:0:0:
332,152,68025,1,0,0:0:0:0:
308,180,68100,2,0,P|284:196|244:196,1,52.5000020027161
108,160,68250,5,4,0:0:0:0:
92,204,68325,1,0,0:0:0:0:
92,252,68400,1,0,0:0:0:0:
116,292,68475,1,0,0:0:0:0:
156,316,68550,5,0,0:0:0:0:
204,320,68625,1,0,0:0:0:0:
248,304,68700,5,0,0:0:0:0:
276,268,68775,1,0,0:0:0:0:
276,220,68850,1,0,0:0:0:0:
264,172,68925,1,0,0:0:0:0:
260,124,69000,1,0,0:0:0:0:
280,80,69075,1,0,0:0:0:0:
324,64,69150,5,0,0:0:0:0:
368,76,69225,1,0,0:0:0:0:
400,108,69300,2,0,P|408:152|396:176,1,52.5000020027161
336,264,69450,5,4,0:0:0:0:
304,260,69525,1,0,0:0:0:0:
276,244,69600,1,0,0:0:0:0:
256,220,69675,1,0,0:0:0:0:
236,196,69750,5,0,0:0:0:0:
212,176,69825,1,0,0:0:0:0:
180,168,69900,1,4,0:0:0:0:
148,172,69975,1,0,0:0:0:0:
124,192,70050,1,0,0:0:0:0:
108,220,70125,1,0,0:0:0:0:
108,252,70200,1,4,0:0:0:0:
124,280,70275,1,0,0:0:0:0:
152,296,70350,5,4,0:0:0:0:
184,300,70425,1,0,0:0:0:0:
212,284,70500,1,0,0:0:0:0:
240,268,70575,1,0,0:0:0:0:
264,248,70650,1,4,0:0:0:0:
292,232,70725,1,0,0:0:0:0:
324,224,70800,1,0,0:0:0:0:
356,228,70875,1,0,0:0:0:0:
384,244,70950,5,0,0:0:0:0:
404,268,71025,1,0,0:0:0:0:
400,300,71100,5,0,0:0:0:0:
376,320,71175,1,0,0:0:0:0:
344,320,71250,1,0,0:0:0:0:
324,296,71325,1,0,0:0:0:0:
316,264,71400,1,0,0:0:0:0:
324,232,71475,1,0,0:0:0:0:
340,204,71550,5,0,0:0:0:0:
356,176,71625,1,0,0:0:0:0:
364,144,71700,2,0,P|364:108|352:84,1,52.5000020027161
204,72,71850,5,4,0:0:0:0:
200,124,71925,1,4,0:0:0:0:
216,172,72000,1,4,0:0:0:0:
256,204,72075,1,4,0:0:0:0:
336,212,72150,5,4,0:0:0:0:
388,200,72225,1,4,0:0:0:0:
428,168,72300,1,4,0:0:0:0:
432,116,72375,1,4,0:0:0:0:
384,52,72450,5,4,0:0:0:0:
335,39,72525,1,4,0:0:0:0:
284,58,72600,1,4,0:0:0:0:
259,104,72675,1,4,0:0:0:0:
264,180,72750,5,4,0:0:0:0:
252,232,72825,1,4,0:0:0:0:
216,272,72900,2,0,P|192:288|152:288,1,52.5000020027161,4|0,0:0|0:0,0:0:0:0:
64,160,73050,5,4,0:0:0:0:
112,176,73125,1,0,0:0:0:0:
164,184,73200,1,0,0:0:0:0:
216,184,73275,1,0,0:0:0:0:
268,172,73350,5,0,0:0:0:0:
312,144,73425,1,0,0:0:0:0:
336,100,73500,5,0,0:0:0:0:
324,48,73575,1,0,0:0:0:0:
280,16,73650,1,0,0:0:0:0:
228,20,73725,1,0,0:0:0:0:
196,60,73800,1,4,0:0:0:0:
208,112,73875,1,0,0:0:0:0:
248,144,73950,5,0,0:0:0:0:
296,164,74025,1,0,0:0:0:0:
344,184,74100,1,0,0:0:0:0:
384,216,74175,1,0,0:0:0:0:
400,264,74250,1,4,0:0:0:0:
388,316,74325,1,0,0:0:0:0:
344,344,74400,1,0,0:0:0:0:
296,332,74475,1,0,0:0:0:0:
268,288,74550,5,0,0:0:0:0:
264,236,74625,1,0,0:0:0:0:
248,184,74700,1,4,0:0:0:0:
208,152,74775,1,0,0:0:0:0:
156,144,74850,1,0,0:0:0:0:
108,164,74925,1,0,0:0:0:0:
84,212,75000,1,0,0:0:0:0:
84,264,75075,1,0,0:0:0:0:
116,304,75150,5,4,0:0:0:0:
168,316,75225,1,4,0:0:0:0:
216,300,75300,2,0,P|240:284|252:244,1,52.5000020027161,4|0,0:0|0:0,0:0:0:0:
280,104,75450,5,4,0:0:0:0:
304,64,75525,1,0,0:0:0:0:
348,44,75600,1,0,0:0:0:0:
396,44,75675,1,0,0:0:0:0:
436,68,75750,5,0,0:0:0:0:
460,108,75825,1,0,0:0:0:0:
456,156,75900,5,0,0:0:0:0:
432,196,75975,1,0,0:0:0:0:
388,208,76050,1,0,0:0:0:0:
340,200,76125,1,0,0:0:0:0:
300,176,76200,1,0,0:0:0:0:
268,140,76275,1,0,0:0:0:0:
240,104,76350,5,4,0:0:0:0:
200,80,76425,1,4,0:0:0:0:
152,76,76500,1,4,0:0:0:0:
108,92,76575,1,4,0:0:0:0:
76,128,76650,1,4,0:0:0:0:
72,176,76725,1,0,0:0:0:0:
84,220,76800,1,0,0:0:0:0:
120,248,76875,1,0,0:0:0:0:
164,264,76950,5,0,0:0:0:0:
212,264,77025,1,0,0:0:0:0:
252,236,77100,1,4,0:0:0:0:
292,212,77175,1,0,0:0:0:0:
336,200,77250,1,0,0:0:0:0:
384,204,77325,1,0,0:0:0:0:
424,232,77400,1,0,0:0:0:0:
444,276,77475,1,0,0:0:0:0:
432,320,77550,5,4,0:0:0:0:
396,348,77625,1,0,0:0:0:0:
348,344,77700,2,0,P|320:332|296:312,1,52.5000020027161
192,200,77850,5,4,0:0:0:0:
136,192,77925,1,0,0:0:0:0:
84,220,78000,1,0,0:0:0:0:
64,276,78075,1,0,0:0:0:0:
84,328,78150,5,0,0:0:0:0:
136,352,78225,1,0,0:0:0:0:
192,344,78300,5,0,0:0:0:0:
228,296,78375,1,0,0:0:0:0:
244,240,78450,1,0,0:0:0:0:
236,184,78525,1,0,0:0:0:0:
212,132,78600,1,0,0:0:0:0:
208,76,78675,1,0,0:0:0:0:
232,24,78750,5,0,0:0:0:0:
288,8,78825,1,0,0:0:0:0:
344,20,78900,1,0,0:0:0:0:
372,68,78975,1,0,0:0:0:0:
356,124,79050,1,0,0:0:0:0:
312,164,79125,1,0,0:0:0:0:
260,192,79200,1,0,0:0:0:0:
224,236,79275,1,0,0:0:0:0:
220,292,79350,5,4,0:0:0:0:
244,344,79425,1,4,0:0:0:0:
292,372,79500,1,4,0:0:0:0:
348,360,79575,1,4,0:0:0:0:
384,316,79650,1,4,0:0:0:0:
392,260,79725,1,4,0:0:0:0:
364,208,79800,1,4,0:0:0:0:
316,176,79875,1,4,0:0:0:0:
260,168,79950,5,4,0:0:0:0:
204,172,80025,1,0,0:0:0:0:
148,164,80100,2,0,P|108:144|88:120,1,52.5000020027161
44,20,80250,5,0,0:0:0:0:
204,172,80400,1,0,0:0:0:0:
0,176,80550,1,0,0:0:0:0:
268,60,80700,1,0,0:0:0:0:
124,96,80850,5,0,0:0:0:0:
284,248,81000,1,0,0:0:0:0:
80,252,81150,1,0,0:0:0:0:
348,136,81300,1,0,0:0:0:0:
204,172,81450,5,4,0:0:0:0:
168,224,81525,1,0,0:0:0:0:
172,288,81600,1,0,0:0:0:0:
220,328,81675,1,0,0:0:0:0:
304,328,81750,5,4,0:0:0:0:
352,284,81825,1,0,0:0:0:0:
352,220,81900,1,0,0:0:0:0:
324,164,81975,1,0,0:0:0:0:
324,84,82050,5,4,0:0:0:0:
344,24,82125,1,0,0:0:0:0:
404,4,82200,1,0,0:0:0:0:
460,32,82275,1,0,0:0:0:0:
484,108,82350,5,4,0:0:0:0:
448,160,82425,1,0,0:0:0:0:
388,184,82500,1,0,0:0:0:0:
324,180,82575,1,0,0:0:0:0:
256,136,82650,6,4,B|196:100|168:16|168:16|100:80|104:224|104:224|127:202|127:202|132:260|148:304|148:304|168:264|168:264|168:308|196:348|196:348|199:311|199:311|209:331|240:368|240:368|256:280|256:280|256:280|272:368|272:368|302:331|312:311|312:311|316:348|316:348|344:308|344:264|344:264|364:304|364:304|380:260|384:202|384:202|408:224|408:224|412:80|344:16|344:16|324:72|304:100|304:100,1,1610,4|0,0:0|0:0,0:0:0:0:
256,68,86250,5,0,0:0:0:0:
256,212,86550,1,0,0:0:0:0:
312,136,86850,1,0,0:0:0:0:
200,136,87150,1,0,0:0:0:0:
368,204,87450,5,4,0:0:0:0:
312,136,87600,1,4,0:0:0:0:
200,136,87750,1,4,0:0:0:0:
144,204,87900,1,4,0:0:0:0:
256,356,88350,5,0,0:0:0:0:
256,356,88500,1,0,0:0:0:0:
256,68,89850,5,0,0:0:0:0:
256,140,91050,1,0,0:0:0:0:
256,212,91650,1,0,0:0:0:0:
368,204,92250,5,4,0:0:0:0:
312,136,92400,1,4,0:0:0:0:
200,136,92550,1,4,0:0:0:0:
144,204,92700,1,4,0:0:0:0:
256,280,93150,5,0,0:0:0:0:
256,280,93300,1,0,0:0:0:0:
256,356,94650,5,0,0:0:0:0:
256,284,95250,1,0,0:0:0:0:
256,212,95850,1,0,0:0:0:0:
256,140,96450,1,0,0:0:0:0:
368,204,97050,5,4,0:0:0:0:
312,288,97200,1,4,0:0:0:0:
200,288,97350,1,4,0:0:0:0:
144,204,97500,1,4,0:0:0:0:
256,212,97950,5,0,0:0:0:0:
256,212,98100,1,0,0:0:0:0:
256,356,99450,5,0,0:0:0:0:
256,212,100050,1,0,0:0:0:0:
256,140,100650,1,0,0:0:0:0:
256,284,101250,1,0,0:0:0:0:
368,204,101850,5,4,0:0:0:0:
312,136,102000,1,4,0:0:0:0:
200,136,102150,1,4,0:0:0:0:
144,204,102300,1,4,0:0:0:0:
256,284,103050,1,0,0:0:0:0:
256,16,104250,5,4,0:0:0:0:
320,64,105450,6,0,P|280:96|188:60,1,140
156,152,106050,2,0,P|203:170|218:268,1,140
316,248,106650,6,0,P|308:197|412:280,1,350,4|0,0:0|0:0,0:0:0:0:
272,312,107550,1,0,0:0:0:0:
272,312,107700,6,0,B|220:232|144:220|144:220|140:280|104:312|104:312|24:212|76:103|76:103|120:104|156:72,1,560
220,40,109050,6,0,B|248:104|192:156|192:156|252:176|292:220|292:220|304:64|452:72,1,490,4|0,0:0|0:0,0:0:0:0:
400,156,110250,2,0,B|372:172|372:232|372:232|436:224|460:148|460:148,1,210
452,280,110850,2,0,B|412:308|372:308|372:308|392:332|392:332|320:320|276:332,1,210
292,248,111450,2,0,B|216:268|220:344|220:344|216:284|160:272|160:272,1,210,4|0,0:0|0:0,0:0:0:0:
140,352,112050,1,0,0:0:0:0:
220,208,112650,5,4,0:0:0:0:
28,72,113100,1,0,0:0:0:0:
180,280,113550,1,0,0:0:0:0:
432,316,113850,2,0,B|492:256|432:184|432:184|444:144|444:144|380:68|441:11|441:11|388:48|351:38|351:38|360:80|340:116,1,490,4|0,0:0|0:0,0:0:0:0:
384,252,115050,2,0,B|348:216|356:172|356:172|280:168|268:84,1,210
256,24,115650,2,0,B|176:56|200:136|200:136|176:104|116:116,1,210
144,204,116250,5,4,0:0:0:0:
200,136,116400,1,4,0:0:0:0:
312,136,116550,1,4,0:0:0:0:
368,204,116700,1,4,0:0:0:0:
368,204,118650,5,4,0:0:0:0:
312,288,118800,1,4,0:0:0:0:
200,288,118950,1,4,0:0:0:0:
144,204,119100,1,4,0:0:0:0:
256,80,120150,6,0,L|256:32,10,35
151,165,121050,1,4,0:0:0:0:
157,244,121200,1,4,0:0:0:0:
161,284,121275,1,0,0:0:0:0:
164,324,121350,1,4,0:0:0:0:
164,324,121800,5,0,0:0:0:0:
348,324,121950,1,0,0:0:0:0:
164,324,122100,1,0,0:0:0:0:
348,324,122250,1,0,0:0:0:0:
351,284,122325,1,0,0:0:0:0:
354,244,122400,1,0,0:0:0:0:
361,164,122550,1,0,0:0:0:0:
361,164,123000,5,0,0:0:0:0:
151,164,123150,1,0,0:0:0:0:
361,164,123300,1,0,0:0:0:0:
324,148,123375,1,0,0:0:0:0:
284,132,123450,6,0,L|192:92,1,70,4|4,0:0|0:0,0:0:0:0:
180,88,123675,1,0,0:0:0:0:
361,164,123900,1,4,0:0:0:0:
151,164,124050,5,0,0:0:0:0:
188,148,124125,1,0,0:0:0:0:
228,131,124200,2,0,L|255:120,3,17.5
264,116,124350,5,0,0:0:0:0:
256,156,124425,1,0,0:0:0:0:
248,196,124500,1,0,0:0:0:0:
236,236,124575,1,0,0:0:0:0:
228,276,124650,1,0,0:0:0:0:
256,192,124725,12,0,125550,0:0:0:0:
220,312,125850,5,4,0:0:0:0:
195,303,125925,1,0,0:0:0:0:
171,295,126000,2,0,L|119:276,1,52.5000020027161,4|0,0:0|0:0,0:0:0:0:
240,212,126150,2,0,L|295:231,2,52.5000020027161,4|0|4,0:0|0:0|0:0,0:0:0:0:
125,176,126375,1,0,0:0:0:0:
130,151,126450,1,0,0:0:0:0:
139,126,126525,1,0,0:0:0:0:
157,104,126600,2,0,P|178:81|205:66,1,52.5000020027161
316,48,126750,5,0,0:0:0:0:
340,56,126825,1,0,0:0:0:0:
364,64,126900,1,0,0:0:0:0:
388,72,126975,1,0,0:0:0:0:
412,80,127050,1,0,0:0:0:0:
436,88,127125,1,0,0:0:0:0:
460,96,127200,2,0,B|496:108|496:108|452:120,1,52.5000020027161
364,156,127350,5,0,0:0:0:0:
340,164,127425,1,0,0:0:0:0:
316,172,127500,1,0,0:0:0:0:
292,180,127575,1,0,0:0:0:0:
268,188,127650,1,0,0:0:0:0:
244,196,127725,1,0,0:0:0:0:
220,204,127800,2,0,B|184:216|184:216|228:228,1,52.5000020027161
316,264,127950,5,0,0:0:0:0:
340,272,128025,1,0,0:0:0:0:
364,280,128100,1,0,0:0:0:0:
388,288,128175,1,0,0:0:0:0:
412,296,128250,1,4,0:0:0:0:
436,304,128325,1,0,0:0:0:0:
460,312,128400,2,0,B|496:324|496:324|464:284,1,52.5000020027161
359,223,128550,2,0,L|339:271,2,52.5000020027161
396,132,128775,5,0,0:0:0:0:
384,108,128850,1,0,0:0:0:0:
360,96,128925,1,0,0:0:0:0:
332,96,129000,2,0,P|304:104|288:140,1,52.5000020027161
292,256,129150,5,4,0:0:0:0:
268,264,129225,1,4,0:0:0:0:
240,264,129300,1,4,0:0:0:0:
216,260,129375,1,4,0:0:0:0:
192,248,129450,1,0,0:0:0:0:
172,232,129525,1,0,0:0:0:0:
156,212,129600,2,0,P|148:184|160:156,1,52.5000020027161
208,40,129750,5,0,0:0:0:0:
232,32,129825,1,0,0:0:0:0:
260,32,129900,1,0,0:0:0:0:
284,36,129975,1,0,0:0:0:0:
308,48,130050,1,0,0:0:0:0:
328,64,130125,1,0,0:0:0:0:
344,84,130200,2,0,P|352:112|340:140,1,52.5000020027161
292,256,130350,5,0,2:0:0:0:
305,276,130425,1,0,2:0:0:0:
329,292,130500,1,0,2:0:0:0:
350,302,130575,1,0,2:0:0:0:
376,308,130650,1,4,2:0:0:0:
402,306,130725,1,0,2:0:0:0:
427,300,130800,2,0,P|449:282|456:252,1,52.5000020027161,0|0,2:0|2:0,2:0:0:0:
395,141,130950,2,0,L|344:133,2,52.5000020027161,0|0|4,0:0|0:0|0:0,0:0:0:0:
485,64,131175,5,0,0:0:0:0:
462,51,131250,1,0,0:0:0:0:
437,42,131325,1,0,0:0:0:0:
410,39,131400,2,0,P|371:39|345:45,1,52.5000020027161
216,85,131550,5,0,0:0:0:0:
192,96,131625,1,0,0:0:0:0:
172,113,131700,1,0,0:0:0:0:
159,136,131775,1,0,0:0:0:0:
154,161,131850,1,0,0:0:0:0:
156,187,131925,1,0,0:0:0:0:
166,210,132000,2,0,P|186:212|219:197,1,52.5000020027161
304,119,132150,5,0,0:0:0:0:
327,109,132225,1,0,0:0:0:0:
354,107,132300,1,0,0:0:0:0:
380,114,132375,1,0,0:0:0:0:
401,128,132450,1,0,0:0:0:0:
418,148,132525,1,0,0:0:0:0:
427,172,132600,2,0,P|414:187|380:200,1,52.5000020027161
264,201,132750,5,0,0:0:0:0:
239,210,132825,1,0,0:0:0:0:
218,226,132900,1,0,0:0:0:0:
204,249,132975,1,0,0:0:0:0:
199,274,133050,1,4,0:0:0:0:
200,300,133125,1,0,0:0:0:0:
210,324,133200,2,0,P|229:326|263:312,1,52.5000020027161
332,189,133350,2,0,L|384:199,2,52.5000020027161
162,140,133575,5,0,0:0:0:0:
146,118,133650,1,0,0:0:0:0:
140,92,133725,1,0,0:0:0:0:
146,66,133800,2,0,P|170:43|201:37,1,52.5000020027161
311,99,133950,5,0,0:0:0:0:
326,120,134025,1,0,0:0:0:0:
341,140,134100,1,0,0:0:0:0:
356,160,134175,1,0,0:0:0:0:
369,182,134250,1,4,0:0:0:0:
346,196,134325,1,0,0:0:0:0:
323,209,134400,2,0,L|274:231,1,52.5000020027161
151,255,134550,5,0,0:0:0:0:
141,231,134625,1,0,0:0:0:0:
131,207,134700,1,0,0:0:0:0:
122,184,134775,1,0,0:0:0:0:
114,160,134850,1,0,0:0:0:0:
140,152,134925,1,0,0:0:0:0:
166,145,135000,2,0,L|218:135,1,52.5000020027161
275,230,135150,5,0,0:0:0:0:
290,251,135225,1,0,0:0:0:0:
305,271,135300,1,4,0:0:0:0:
320,291,135375,1,4,0:0:0:0:
333,313,135450,1,4,0:0:0:0:
310,327,135525,1,0,0:0:0:0:
287,340,135600,2,0,L|238:362,1,52.5000020027161
106,237,135750,2,0,L|92:288,2,52.5000020027161,0|0|4,0:0|0:0|0:0,0:0:0:0:
188,69,135975,5,0,0:0:0:0:
213,62,136050,1,0,0:0:0:0:
239,63,136125,1,0,0:0:0:0:
263,72,136200,1,0,0:0:0:0:
280,91,136275,1,0,0:0:0:0:
287,116,136350,5,0,0:0:0:0:
313,116,136425,1,0,0:0:0:0:
337,124,136500,1,0,0:0:0:0:
353,144,136575,1,0,0:0:0:0:
361,168,136650,1,0,0:0:0:0:
359,194,136725,1,0,0:0:0:0:
345,216,136800,1,0,0:0:0:0:
322,229,136875,1,0,0:0:0:0:
295,231,136950,5,0,0:0:0:0:
289,256,137025,1,0,0:0:0:0:
296,281,137100,1,0,0:0:0:0:
313,300,137175,1,0,0:0:0:0:
336,312,137250,1,0,0:0:0:0:
361,316,137325,1,0,0:0:0:0:
386,309,137400,1,0,0:0:0:0:
407,293,137475,1,0,0:0:0:0:
413,267,137550,5,0,0:0:0:0:
396,246,137625,1,0,0:0:0:0:
385,221,137700,1,0,0:0:0:0:
383,194,137775,1,0,0:0:0:0:
386,168,137850,1,4,0:0:0:0:
396,144,137925,1,0,0:0:0:0:
413,124,138000,2,0,B|437:101|437:101|404:93,1,52.5000020027161
255,168,138150,2,0,L|316:172,2,52.5000020027161
203,42,138375,5,0,0:0:0:0:
177,45,138450,1,0,0:0:0:0:
155,59,138525,1,0,0:0:0:0:
139,80,138600,1,0,0:0:0:0:
132,105,138675,1,0,0:0:0:0:
136,130,138750,5,0,0:0:0:0:
161,137,138825,1,0,0:0:0:0:
182,152,138900,1,0,0:0:0:0:
194,175,138975,1,0,0:0:0:0:
197,201,139050,1,0,0:0:0:0:
202,226,139125,1,0,0:0:0:0:
214,248,139200,1,0,0:0:0:0:
235,263,139275,1,0,0:0:0:0:
260,268,139350,5,0,0:0:0:0:
234,272,139425,1,0,0:0:0:0:
209,280,139500,1,0,0:0:0:0:
188,296,139575,1,0,0:0:0:0:
172,316,139650,1,0,0:0:0:0:
151,332,139725,1,0,0:0:0:0:
126,340,139800,1,0,0:0:0:0:
99,336,139875,1,0,0:0:0:0:
78,319,139950,5,0,0:0:0:0:
93,297,140025,1,0,0:0:0:0:
103,273,140100,1,0,0:0:0:0:
106,247,140175,1,0,0:0:0:0:
101,221,140250,1,4,0:0:0:0:
96,195,140325,1,0,0:0:0:0:
98,168,140400,2,0,P|102:133|117:109,1,52.5000020027161
260,127,140550,2,0,L|248:77,2,52.5000020027161,0|0|4,0:0|0:0|0:0,0:0:0:0:
267,293,140775,5,0,0:0:0:0:
288,307,140850,1,0,0:0:0:0:
313,311,140925,1,0,0:0:0:0:
338,305,141000,1,0,0:0:0:0:
360,292,141075,1,0,0:0:0:0:
374,269,141150,5,0,0:0:0:0:
363,245,141225,1,0,0:0:0:0:
352,221,141300,1,0,0:0:0:0:
341,197,141375,1,0,0:0:0:0:
330,172,141450,1,4,0:0:0:0:
319,147,141525,1,0,0:0:0:0:
308,122,141600,1,0,0:0:0:0:
297,97,141675,1,0,0:0:0:0:
286,72,141750,5,0,0:0:0:0:
266,89,141825,1,0,0:0:0:0:
246,106,141900,1,0,0:0:0:0:
226,123,141975,1,0,0:0:0:0:
206,140,142050,1,0,0:0:0:0:
186,157,142125,1,0,0:0:0:0:
166,174,142200,1,0,0:0:0:0:
147,192,142275,1,0,0:0:0:0:
128,210,142350,5,0,0:0:0:0:
154,207,142425,1,0,0:0:0:0:
180,204,142500,1,4,0:0:0:0:
206,201,142575,1,4,0:0:0:0:
232,198,142650,1,4,0:0:0:0:
258,195,142725,1,0,0:0:0:0:
284,192,142800,2,0,L|351:185,1,52.5000020027161
426,289,142950,2,0,L|478:300,2,52.5000020027161
402,128,143175,5,0,0:0:0:0:
382,110,143250,1,0,0:0:0:0:
357,100,143325,1,0,0:0:0:0:
330,97,143400,1,0,0:0:0:0:
304,101,143475,1,0,0:0:0:0:
282,115,143550,5,0,0:0:0:0:
274,128,143625,1,0,0:0:0:0:
266,141,143700,1,0,0:0:0:0:
258,154,143775,1,0,0:0:0:0:
250,167,143850,1,0,0:0:0:0:
242,181,143925,1,0,0:0:0:0:
235,194,144000,1,4,0:0:0:0:
190,210,144075,1,4,0:0:0:0:
143,199,144150,5,4,0:0:0:0:
144,246,144225,1,0,0:0:0:0:
161,289,144300,1,4,0:0:0:0:
199,315,144375,1,4,0:0:0:0:
246,318,144450,5,4,0:0:0:0:
250,270,144525,1,0,0:0:0:0:
266,225,144600,1,4,0:0:0:0:
301,194,144675,1,4,0:0:0:0:
346,182,144750,5,4,0:0:0:0:
350,207,144825,1,0,0:0:0:0:
360,231,144900,1,4,0:0:0:0:
376,251,144975,1,4,0:0:0:0:
400,264,145050,2,4,P|424:264|460:236,1,52.5000020027161,4|0,0:0|0:0,0:0:0:0:
440,72,145200,5,4,0:0:0:0:
424,52,145275,1,4,0:0:0:0:
400,40,145350,2,4,P|376:40|340:68,1,52.5000020027161,4|0,0:0|0:0,0:0:0:0:
240,208,145500,2,0,P|264:208|300:180,1,52.5000020027161,4|0,0:0|0:0,0:0:0:0:
240,0,145650,6,0,P|240:24|268:60,1,52.5000020027161,4|0,0:0|0:0,0:0:0:0:
368,184,145800,1,4,0:0:0:0:
368,212,145875,1,4,0:0:0:0:
356,236,145950,2,0,P|340:256|312:272,1,52.5000020027161,4|0,0:0|0:0,0:0:0:0:
176,268,146100,5,4,0:0:0:0:
128,252,146175,1,4,0:0:0:0:
80,236,146250,1,4,0:0:0:0:
128,212,146325,1,4,0:0:0:0:
176,188,146400,1,4,0:0:0:0:
224,164,146475,1,4,0:0:0:0:
176,144,146550,1,4,0:0:0:0:
128,128,146625,5,4,0:0:0:0:
148,104,146700,1,4,0:0:0:0:
176,88,146775,1,4,0:0:0:0:
208,84,146850,1,4,0:0:0:0:
240,88,146925,1,4,0:0:0:0:
268,100,147000,1,4,0:0:0:0:
292,120,147075,1,4,0:0:0:0:
312,144,147150,5,4,0:0:0:0:
316,184,147225,1,4,0:0:0:0:
320,224,147300,1,4,0:0:0:0:
324,264,147375,2,0,L|340:116,1,105.000004005432,4|0,0:0|0:0,0:0:0:0:
344,88,147600,6,0,L|280:100,1,52.5000020027161,4|0,0:0|0:0,0:0:0:0:
88,176,147750,2,0,L|152:188,1,52.5000020027161,4|0,0:0|0:0,0:0:0:0:
280,12,147900,6,0,L|222:43,1,52.5000020027161,4|0,0:0|0:0,0:0:0:0:
121,270,148050,2,0,L|185:260,1,52.5000020027161,4|0,0:0|0:0,0:0:0:0:
420,292,148200,5,4,0:0:0:0:
396,284,148275,1,4,0:0:0:0:
372,276,148350,2,4,L|284:244,1,52.5000020027161,4|0,0:0|0:0,0:0:0:0:
144,200,148500,5,4,0:0:0:0:
171,191,148575,1,4,0:0:0:0:
198,182,148650,2,4,L|289:153,1,52.5000020027161,4|0,0:0|0:0,0:0:0:0:
456,148,148800,5,4,0:0:0:0:
423,137,148875,1,4,0:0:0:0:
390,126,148950,2,4,L|297:99,1,52.5000020027161,4|0,0:0|0:0,0:0:0:0:
84,72,149100,5,4,0:0:0:0:
120,58,149175,1,4,0:0:0:0:
156,46,149250,2,4,L|231:18,1,52.5000020027161,4|0,0:0|0:0,0:0:0:0:
324,8,149400,5,4,0:0:0:0:
336,48,149475,1,4,0:0:0:0:
328,100,149550,1,4,0:0:0:0:
288,132,149625,1,4,0:0:0:0:
276,172,149700,1,4,0:0:0:0:
284,212,149775,1,4,0:0:0:0:
320,236,149850,6,0,L|344:184,1,52.5000020027161,4|0,0:0|0:0,0:0:0:0:
384,0,150000,2,4,L|388:80,1,52.5000020027161
408,248,150150,2,0,L|420:168,1,52.5000020027161,4|0,0:0|0:0,0:0:0:0:
460,44,150300,2,0,L|456:112,1,52.5000020027161,4|0,0:0|0:0,0:0:0:0:
504,248,150450,6,0,L|488:192,1,52.5000020027161
476,148,150600,1,4,0:0:0:0:
452,144,150675,1,4,0:0:0:0:
424,140,150750,1,0,0:0:0:0:
396,136,150825,1,0,0:0:0:0:
368,132,150900,5,4,0:0:0:0:
340,128,150975,1,4,0:0:0:0:
312,124,151050,2,0,L|240:112,1,52.5000020027161,4|0,0:0|0:0,0:0:0:0:
304,208,151200,5,4,0:0:0:0:
276,204,151275,1,4,0:0:0:0:
248,200,151350,2,0,L|176:188,1,52.5000020027161,4|0,0:0|0:0,0:0:0:0:
240,284,151500,5,4,0:0:0:0:
212,280,151575,1,4,0:0:0:0:
184,276,151650,2,0,L|112:264,1,52.5000020027161,4|0,0:0|0:0,0:0:0:0:
72,200,151800,5,4,0:0:0:0:
60,224,151875,1,4,0:0:0:0:
56,248,151950,2,0,P|60:300|68:316,1,52.5000020027161,4|0,0:0|0:0,0:0:0:0:
202,307,152100,1,4,0:0:0:0:
212,280,152175,1,0,0:0:0:0:
209,255,152250,2,0,P|192:218|184:209,1,52.5000020027161
64,104,152400,5,4,0:0:0:0:
104,72,152475,1,4,0:0:0:0:
156,64,152550,1,4,0:0:0:0:
196,100,152625,5,4,0:0:0:0:
236,104,152700,1,4,0:0:0:0:
272,128,152775,1,4,0:0:0:0:
296,160,152850,1,4,0:0:0:0:
284,200,152925,5,4,0:0:0:0:
300,228,153000,1,4,0:0:0:0:
304,260,153075,1,4,0:0:0:0:
296,288,153150,1,4,0:0:0:0:
316,312,153225,5,4,0:0:0:0:
340,324,153300,1,4,0:0:0:0:
368,324,153375,1,4,0:0:0:0:
392,312,153450,2,0,P|408:296|416:256,1,52.5000020027161,4|0,0:0|0:0,0:0:0:0:
408,68,153600,5,4,0:0:0:0:
360,52,153675,1,4,0:0:0:0:
308,60,153750,1,4,0:0:0:0:
304,112,153825,5,4,0:0:0:0:
332,144,153900,1,4,0:0:0:0:
340,184,153975,1,4,0:0:0:0:
336,224,154050,1,4,0:0:0:0:
304,252,154125,5,4,0:0:0:0:
276,240,154200,1,4,0:0:0:0:
244,236,154275,1,4,0:0:0:0:
212,236,154350,1,4,0:0:0:0:
188,216,154425,5,4,0:0:0:0:
172,196,154500,1,4,0:0:0:0:
164,172,154575,1,4,0:0:0:0:
164,144,154650,6,0,L|180:28,1,105.000004005432,4|0,0:0|0:0,0:0:0:0:
256,192,154950,1,4,0:0:0:0:
333,39,155100,2,0,L|348:144,1,105.000004005432,4|0,0:0|0:0,0:0:0:0:
256,276,155400,1,4,0:0:0:0:
178,39,155550,2,0,L|163:143,1,105.000004005432,4|0,0:0|0:0,0:0:0:0:
360,200,155850,5,4,0:0:0:0:
184,336,156000,2,0,L|44:348,1,105.000004005432,4|0,0:0|0:0,0:0:0:0:
153,192,156300,1,4,0:0:0:0:
328,336,156450,2,0,L|468:348,1,105.000004005432,4|0,0:0|0:0,0:0:0:0:
488,232,156750,5,4,0:0:0:0:
480,208,156825,1,4,0:0:0:0:
460,184,156900,1,4,0:0:0:0:
424,172,156975,1,4,0:0:0:0:
384,176,157050,2,0,P|344:180|316:176,1,52.5000020027161,4|0,0:0|0:0,0:0:0:0:
216,48,157200,5,4,0:0:0:0:
256,36,157275,1,4,0:0:0:0:
296,40,157350,2,0,P|320:48|352:76,1,52.5000020027161,4|0,0:0|0:0,0:0:0:0:
244,184,157500,5,4,0:0:0:0:
192,196,157575,1,4,0:0:0:0:
140,188,157650,2,0,P|96:164|72:136,1,52.5000020027161,4|4,0:0|0:0,0:0:0:0:
100,256,157800,1,4,0:0:0:0:
100,256,157875,2,0,P|56:272|28:272,1,52.5000020027161
152,312,158025,1,4,0:0:0:0:
200,292,158100,1,4,0:0:0:0:
252,284,158175,1,4,0:0:0:0:
304,292,158250,5,4,0:0:0:0:
336,256,158325,1,4,0:0:0:0:
376,232,158400,1,4,0:0:0:0:
424,228,158475,1,4,0:0:0:0:
468,244,158550,5,4,0:0:0:0:
456,204,158625,1,4,0:0:0:0:
456,164,158700,1,4,0:0:0:0:
468,124,158775,1,4,0:0:0:0:
488,88,158850,5,4,0:0:0:0:
452,84,158925,1,4,0:0:0:0:
416,72,159000,1,4,0:0:0:0:
384,52,159075,1,4,0:0:0:0:
364,24,159150,5,4,0:0:0:0:
360,56,159225,1,4,0:0:0:0:
352,88,159300,1,4,0:0:0:0:
332,112,159375,1,4,0:0:0:0:
308,132,159450,6,0,L|260:153,1,52.5000020027161,4|0,0:0|0:0,0:0:0:0:
159,342,159600,2,4,L|163:290,1,52.5000020027161
51,107,159750,2,0,L|93:136,1,52.5000020027161,4|0,0:0|0:0,0:0:0:0:
240,272,159900,5,4,0:0:0:0:
272,264,159975,1,4,0:0:0:0:
304,256,160050,2,0,L|368:240,1,52.5000020027161,4|0,0:0|0:0,0:0:0:0:
304,156,160200,5,4,0:0:0:0:
320,124,160275,1,4,0:0:0:0:
336,92,160350,2,0,L|360:40,1,52.5000020027161,4|0,0:0|0:0,0:0:0:0:
212,60,160500,5,4,0:0:0:0:
172,52,160575,1,4,0:0:0:0:
132,44,160650,1,4,0:0:0:0:
92,60,160725,5,4,0:0:0:0:
108,100,160800,1,4,0:0:0:0:
84,136,160875,1,4,0:0:0:0:
108,172,160950,1,4,0:0:0:0:
80,204,161025,1,4,0:0:0:0:
104,240,161100,5,4,0:0:0:0:
112,280,161175,1,4,0:0:0:0:
140,312,161250,6,4,P|176:320|216:308,1,52.5000020027161,4|0,0:0|0:0,0:0:0:0:
400,200,161400,2,0,P|364:192|324:204,1,52.5000020027161,4|0,0:0|0:0,0:0:0:0:
108,172,161550,6,0,P|144:164|184:176,1,52.5000020027161,4|0,0:0|0:0,0:0:0:0:
432,340,161700,2,0,P|396:348|356:336,1,52.5000020027161,4|0,0:0|0:0,0:0:0:0:
216,268,161850,5,0,0:0:0:0:
216,116,162000,1,0,0:0:0:0:
365,117,162150,1,0,0:0:0:0:
365,267,162300,1,0,0:0:0:0:
144,192,162450,5,0,0:0:0:0:
288,48,162600,1,0,0:0:0:0:
431,192,162750,1,0,0:0:0:0:
288,335,162900,1,0,0:0:0:0:
144,192,163050,5,0,0:0:0:0:
152,152,163125,1,0,0:0:0:0:
172,116,163200,1,0,0:0:0:0:
208,92,163275,1,0,0:0:0:0:
248,80,163350,1,0,0:0:0:0:
288,84,163425,1,0,0:0:0:0:
328,100,163500,2,0,P|348:128|356:160,1,52.5000020027161
283,300,163650,5,0,0:0:0:0:
242,302,163725,1,0,0:0:0:0:
204,292,163800,2,0,P|185:276|173:256,4,26.2500010013581
164,240,164025,1,0,0:0:0:0:
153,203,164100,2,0,P|149:179|157:135,1,52.5000020027161
236,40,164250,5,4,0:0:0:0:
256,84,164325,1,4,0:0:0:0:
264,132,164400,1,4,0:0:0:0:
252,176,164475,1,4,0:0:0:0:
216,208,164550,1,4,0:0:0:0:
172,228,164625,1,0,0:0:0:0:
140,264,164700,1,4,0:0:0:0:
136,312,164775,1,4,0:0:0:0:
160,352,164850,1,4,0:0:0:0:
204,372,164925,1,0,0:0:0:0:
248,360,165000,2,0,P|264:340|272:304,1,52.5000020027161
252,176,165150,2,0,P|239:199|215:207,1,52.5000020027161,4|0,0:0|0:0,0:0:0:0:
176,104,165300,5,4,0:0:0:0:
196,76,165375,1,4,0:0:0:0:
228,60,165450,1,4,0:0:0:0:
264,56,165525,1,0,0:0:0:0:
300,60,165600,1,0,0:0:0:0:
332,76,165675,1,0,0:0:0:0:
356,104,165750,1,0,0:0:0:0:
372,136,165825,1,0,0:0:0:0:
380,172,165900,1,4,0:0:0:0:
376,208,165975,1,4,0:0:0:0:
360,240,166050,1,4,0:0:0:0:
332,264,166125,1,4,0:0:0:0:
300,280,166200,1,0,0:0:0:0:
264,284,166275,1,0,0:0:0:0:
228,280,166350,1,0,0:0:0:0:
196,264,166425,1,0,0:0:0:0:
168,240,166500,2,4,P|148:216|136:180,1,52.5000020027161
112,52,166650,5,4,0:0:0:0:
72,80,166725,1,4,0:0:0:0:
48,120,166800,1,4,0:0:0:0:
36,164,166875,1,0,0:0:0:0:
40,212,166950,1,4,0:0:0:0:
60,256,167025,1,4,0:0:0:0:
100,280,167100,1,4,0:0:0:0:
148,280,167175,1,0,0:0:0:0:
188,256,167250,1,4,0:0:0:0:
216,216,167325,1,4,0:0:0:0:
240,176,167400,1,4,0:0:0:0:
268,140,167475,1,0,0:0:0:0:
312,120,167550,1,4,0:0:0:0:
360,116,167625,1,4,0:0:0:0:
404,136,167700,2,0,P|432:172|432:208,1,52.5000020027161,4|0,0:0|0:0,0:0:0:0:
408,312,167850,5,4,0:0:0:0:
368,324,167925,1,0,0:0:0:0:
328,320,168000,1,0,0:0:0:0:
292,300,168075,1,0,0:0:0:0:
264,268,168150,1,0,0:0:0:0:
252,228,168225,1,0,0:0:0:0:
260,188,168300,1,0,0:0:0:0:
284,152,168375,1,0,0:0:0:0:
324,136,168450,5,4,0:0:0:0:
312,172,168525,1,0,0:0:0:0:
284,192,168600,1,0,0:0:0:0:
248,204,168675,1,0,0:0:0:0:
212,204,168750,1,0,0:0:0:0:
176,208,168825,1,0,0:0:0:0:
144,224,168900,1,0,0:0:0:0:
120,248,168975,1,0,0:0:0:0:
108,284,169050,5,4,0:0:0:0:
96,248,169125,1,0,0:0:0:0:
76,216,169200,1,4,0:0:0:0:
52,188,169275,1,4,0:0:0:0:
40,152,169350,1,4,0:0:0:0:
40,116,169425,1,0,0:0:0:0:
52,80,169500,1,4,0:0:0:0:
80,56,169575,1,4,0:0:0:0:
116,48,169650,1,4,0:0:0:0:
152,56,169725,1,0,0:0:0:0:
180,80,169800,2,4,P|208:96|236:96,1,52.5000020027161
324,168,169950,2,0,P|325:141|336:118,1,52.5000020027161,4|0,0:0|0:0,0:0:0:0:
424,92,170100,5,4,0:0:0:0:
412,64,170175,1,0,0:0:0:0:
388,44,170250,1,4,0:0:0:0:
360,32,170325,1,4,0:0:0:0:
328,28,170400,1,4,0:0:0:0:
296,36,170475,1,0,0:0:0:0:
272,56,170550,1,4,0:0:0:0:
256,80,170625,1,4,0:0:0:0:
252,112,170700,1,4,0:0:0:0:
256,144,170775,1,0,0:0:0:0:
268,172,170850,1,4,0:0:0:0:
292,192,170925,1,4,0:0:0:0:
320,208,171000,1,4,0:0:0:0:
348,224,171075,1,0,0:0:0:0:
372,244,171150,1,0,0:0:0:0:
384,272,171225,1,0,0:0:0:0:
380,304,171300,1,4,0:0:0:0:
368,332,171375,1,4,0:0:0:0:
340,348,171450,6,4,L|272:336,1,52.5000020027161
60,304,171600,2,4,L|128:292,1,52.5000020027161
320,244,171750,6,4,L|256:240,1,52.5000020027161
64,220,171900,2,4,L|124:220,1,52.5000020027161
272,144,172050,5,4,0:0:0:0:
280,168,172125,1,4,0:0:0:0:
284,196,172200,1,4,0:0:0:0:
280,224,172275,1,4,0:0:0:0:
272,248,172350,1,4,0:0:0:0:
256,268,172425,1,0,0:0:0:0:
232,284,172500,2,0,P|208:296|176:296,1,52.5000020027161
128,107,172650,5,4,0:0:0:0:
157,115,172725,1,4,0:0:0:0:
181,137,172800,1,4,0:0:0:0:
199,161,172875,1,0,0:0:0:0:
211,189,172950,1,0,0:0:0:0:
215,221,173025,1,0,0:0:0:0:
211,253,173100,2,0,P|195:280|161:315,1,52.5000020027161
24,320,173250,5,4,0:0:0:0:
36,283,173325,1,0,0:0:0:0:
51,249,173400,1,4,0:0:0:0:
73,220,173475,1,4,0:0:0:0:
104,199,173550,1,4,0:0:0:0:
139,185,173625,1,0,0:0:0:0:
176,183,173700,1,4,0:0:0:0:
211,189,173775,1,4,0:0:0:0:
240,208,173850,5,4,0:0:0:0:
236,244,173925,1,0,0:0:0:0:
244,280,174000,1,0,0:0:0:0:
264,308,174075,1,0,0:0:0:0:
296,328,174150,1,0,0:0:0:0:
332,336,174225,1,0,0:0:0:0:
368,332,174300,1,4,0:0:0:0:
396,308,174375,1,4,0:0:0:0:
412,276,174450,1,4,0:0:0:0:
412,236,174525,1,0,0:0:0:0:
396,208,174600,2,0,P|376:192|340:192,1,52.5000020027161
244,280,174750,2,0,P|288:248|292:216,1,52.5000020027161
280,116,174900,5,4,0:0:0:0:
284,84,174975,1,4,0:0:0:0:
300,56,175050,1,4,0:0:0:0:
328,40,175125,1,4,0:0:0:0:
360,36,175200,1,0,0:0:0:0:
388,44,175275,1,0,0:0:0:0:
412,64,175350,1,0,0:0:0:0:
420,96,175425,1,0,0:0:0:0:
416,128,175500,1,4,0:0:0:0:
396,152,175575,1,4,0:0:0:0:
368,164,175650,1,4,0:0:0:0:
336,164,175725,1,0,0:0:0:0:
308,152,175800,1,0,0:0:0:0:
280,136,175875,1,0,0:0:0:0:
252,124,175950,1,0,0:0:0:0:
220,120,176025,1,0,0:0:0:0:
188,124,176100,1,4,0:0:0:0:
160,136,176175,1,4,0:0:0:0:
132,152,176250,1,4,0:0:0:0:
100,160,176325,1,0,0:0:0:0:
68,160,176400,1,0,0:0:0:0:
40,144,176475,1,0,0:0:0:0:
24,116,176550,1,4,0:0:0:0:
24,84,176625,1,0,0:0:0:0:
40,56,176700,2,0,P|60:40|92:36,1,52.5000020027161
188,124,176850,5,4,0:0:0:0:
204,145,176925,1,0,0:0:0:0:
224,158,177000,1,0,0:0:0:0:
250,170,177075,1,0,0:0:0:0:
273,177,177150,1,0,0:0:0:0:
298,180,177225,1,0,0:0:0:0:
324,176,177300,2,0,P|352:164|376:140,1,52.5000020027161
436,40,177450,5,4,0:0:0:0:
456,64,177525,1,4,0:0:0:0:
468,92,177600,1,4,0:0:0:0:
476,124,177675,1,0,0:0:0:0:
480,156,177750,1,0,0:0:0:0:
476,188,177825,1,0,0:0:0:0:
468,220,177900,2,0,P|444:256|416:272,1,52.5000020027161
368,149,178050,5,4,0:0:0:0:
352,128,178125,1,0,0:0:0:0:
332,115,178200,1,0,0:0:0:0:
306,103,178275,1,0,0:0:0:0:
283,96,178350,1,0,0:0:0:0:
258,93,178425,1,0,0:0:0:0:
232,97,178500,2,0,P|204:109|180:133,1,52.5000020027161
120,268,178650,5,4,0:0:0:0:
140,312,178725,1,0,0:0:0:0:
180,336,178800,1,4,0:0:0:0:
228,348,178875,1,4,0:0:0:0:
276,352,178950,1,4,0:0:0:0:
324,340,179025,1,4,0:0:0:0:
364,316,179100,1,4,0:0:0:0:
392,276,179175,1,4,0:0:0:0:
408,232,179250,1,4,0:0:0:0:
404,184,179325,1,4,0:0:0:0:
384,140,179400,1,4,0:0:0:0:
352,104,179475,1,4,0:0:0:0:
312,80,179550,1,4,0:0:0:0:
268,64,179625,1,4,0:0:0:0:
220,64,179700,1,4,0:0:0:0:
176,84,179775,1,0,0:0:0:0:
144,120,179850,1,0,0:0:0:0:
132,164,179925,1,4,0:0:0:0:
144,212,180000,1,4,0:0:0:0:
180,240,180075,1,0,0:0:0:0:
228,244,180150,1,0,0:0:0:0:
272,224,180225,1,0,0:0:0:0:
288,180,180300,1,0,0:0:0:0:
292,132,180375,1,4,0:0:0:0:
300,84,180450,1,4,0:0:0:0:
324,44,180525,1,0,0:0:0:0:
364,20,180600,1,4,0:0:0:0:
412,28,180675,1,4,0:0:0:0:
448,56,180750,1,4,0:0:0:0:
460,100,180825,1,4,0:0:0:0:
452,148,180900,2,4,P|432:176|400:188,1,52.5000020027161
228,220,181050,5,4,0:0:0:0:
180,180,181125,1,4,0:0:0:0:
168,120,181200,1,4,0:0:0:0:
192,64,181275,1,4,0:0:0:0:
248,36,181350,1,4,0:0:0:0:
312,48,181425,1,0,0:0:0:0:
356,92,181500,1,0,0:0:0:0:
360,156,181575,1,0,0:0:0:0:
316,200,181650,5,4,0:0:0:0:
296,140,181725,1,4,0:0:0:0:
245,101,181800,1,4,0:0:0:0:
183,103,181875,1,4,0:0:0:0:
135,139,181950,1,4,0:0:0:0:
120,200,182025,1,0,0:0:0:0:
146,259,182100,1,0,0:0:0:0:
199,293,182175,1,0,0:0:0:0:
262,282,182250,5,4,0:0:0:0:
224,236,182325,1,4,0:0:0:0:
220,180,182400,1,4,0:0:0:0:
248,132,182475,1,4,0:0:0:0:
300,104,182550,1,4,0:0:0:0:
356,112,182625,1,0,0:0:0:0:
396,152,182700,1,0,0:0:0:0:
408,208,182775,1,0,0:0:0:0:
384,260,182850,1,4,0:0:0:0:
340,224,182925,1,4,0:0:0:0:
292,196,183000,1,4,0:0:0:0:
236,192,183075,1,4,0:0:0:0:
180,204,183150,1,4,0:0:0:0:
132,236,183225,1,4,0:0:0:0:
96,280,183300,2,0,P|136:292|176:288,1,52.5000020027161,4|0,0:0|0:0,0:0:0:0:
292,196,183450,5,4,0:0:0:0:
308,152,183525,1,4,0:0:0:0:
304,104,183600,1,4,0:0:0:0:
284,60,183675,1,4,0:0:0:0:
248,32,183750,1,4,0:0:0:0:
204,20,183825,1,0,0:0:0:0:
156,28,183900,1,4,0:0:0:0:
120,60,183975,1,4,0:0:0:0:
104,104,184050,1,4,0:0:0:0:
112,152,184125,1,0,0:0:0:0:
144,188,184200,2,0,P|172:204|212:204,1,52.5000020027161
308,152,184350,2,0,P|300:188|284:204,1,52.5000020027161
200,115,184500,5,4,0:0:0:0:
212,79,184575,1,4,0:0:0:0:
240,55,184650,1,4,0:0:0:0:
280,43,184725,1,4,0:0:0:0:
316,43,184800,1,0,0:0:0:0:
352,51,184875,1,0,0:0:0:0:
384,71,184950,1,0,0:0:0:0:
404,103,185025,1,0,0:0:0:0:
412,139,185100,1,4,0:0:0:0:
412,175,185175,1,4,0:0:0:0:
396,207,185250,1,4,0:0:0:0:
368,231,185325,1,0,0:0:0:0:
332,243,185400,1,0,0:0:0:0:
300,259,185475,1,0,0:0:0:0:
284,291,185550,1,0,0:0:0:0:
288,327,185625,1,0,0:0:0:0:
308,355,185700,2,4,P|332:363|360:347,1,52.5000020027161
396,207,185850,5,4,0:0:0:0:
352,192,185925,1,4,0:0:0:0:
304,184,186000,1,4,0:0:0:0:
256,184,186075,1,0,0:0:0:0:
208,196,186150,1,4,0:0:0:0:
168,216,186225,1,4,0:0:0:0:
144,256,186300,1,4,0:0:0:0:
144,304,186375,1,0,0:0:0:0:
180,336,186450,1,4,0:0:0:0:
228,336,186525,1,4,0:0:0:0:
260,300,186600,1,4,0:0:0:0:
260,252,186675,1,0,0:0:0:0:
232,212,186750,1,4,0:0:0:0:
196,180,186825,1,4,0:0:0:0:
176,136,186900,2,0,P|172:116|180:84,1,52.5000020027161,4|0,0:0|0:0,0:0:0:0:
300,12,187050,5,4,0:0:0:0:
340,8,187125,1,4,0:0:0:0:
380,20,187200,1,4,0:0:0:0:
408,48,187275,1,4,0:0:0:0:
420,88,187350,1,0,0:0:0:0:
412,128,187425,1,0,0:0:0:0:
380,156,187500,1,0,0:0:0:0:
340,164,187575,1,0,0:0:0:0:
300,148,187650,5,4,0:0:0:0:
264,152,187725,1,4,0:0:0:0:
232,172,187800,1,4,0:0:0:0:
212,204,187875,1,4,0:0:0:0:
212,240,187950,1,0,0:0:0:0:
224,276,188025,1,0,0:0:0:0:
252,300,188100,1,0,0:0:0:0:
288,312,188175,1,0,0:0:0:0:
324,308,188250,5,4,0:0:0:0:
348,288,188325,1,0,0:0:0:0:
376,276,188400,1,0,0:0:0:0:
408,276,188475,1,0,0:0:0:0:
436,288,188550,1,0,0:0:0:0:
460,312,188625,1,0,0:0:0:0:
472,340,188700,2,0,P|428:348|404:340,1,52.5000020027161
324,308,188850,5,4,0:0:0:0:
328,284,188925,1,0,0:0:0:0:
324,256,189000,1,0,0:0:0:0:
316,232,189075,1,0,0:0:0:0:
300,212,189150,1,4,0:0:0:0:
280,196,189225,1,4,0:0:0:0:
256,188,189300,2,0,P|236:212|236:236,1,52.5000020027161,4|0,0:0|0:0,0:0:0:0:
324,308,189450,5,4,0:0:0:0:
340,280,189525,1,0,0:0:0:0:
360,256,189600,1,0,0:0:0:0:
384,236,189675,1,4,0:0:0:0:
412,224,189750,1,4,0:0:0:0:
444,220,189825,1,0,0:0:0:0:
476,220,189900,5,4,0:0:0:0:
443,209,189975,1,4,0:0:0:0:
412,190,190050,1,4,0:0:0:0:
386,165,190125,1,0,0:0:0:0:
363,136,190200,1,4,0:0:0:0:
352,100,190275,1,4,0:0:0:0:
348,60,190350,5,4,0:0:0:0:
307,69,190425,1,0,0:0:0:0:
265,73,190500,1,4,0:0:0:0:
225,66,190575,1,4,0:0:0:0:
188,48,190650,6,4,L|196:124,1,52.5000020027161
184,356,190800,2,4,L|188:292,1,52.5000020027161
265,73,190950,6,4,L|265:145,1,52.5000020027161
268,348,191100,2,4,L|268:272,1,52.5000020027161
352,100,191250,6,4,L|344:160,1,52.5000020027161
356,344,191400,2,4,L|348:280,1,52.5000020027161
436,148,191550,6,4,L|420:204,1,52.5000020027161
448,348,191700,2,4,L|420:268,1,52.5000020027161
356,220,191850,5,4,0:0:0:0:
304,220,191925,1,0,0:0:0:0:
252,212,192000,1,4,0:0:0:0:
204,192,192075,1,4,0:0:0:0:
152,180,192150,1,4,0:0:0:0:
100,192,192225,1,0,0:0:0:0:
56,220,192300,1,4,0:0:0:0:
32,268,192375,1,0,0:0:0:0:
44,320,192450,5,4,0:0:0:0:
56,292,192525,1,4,0:0:0:0:
64,260,192600,1,4,0:0:0:0:
68,228,192675,1,4,0:0:0:0:
72,196,192750,1,4,0:0:0:0:
72,164,192825,1,4,0:0:0:0:
68,132,192900,2,4,P|60:104|44:72,1,52.5000020027161
160,12,193050,5,4,0:0:0:0:
196,44,193125,1,4,0:0:0:0:
236,68,193200,1,4,0:0:0:0:
280,84,193275,1,4,0:0:0:0:
324,96,193350,1,0,0:0:0:0:
372,104,193425,1,0,0:0:0:0:
416,116,193500,1,4,0:0:0:0:
456,144,193575,1,4,0:0:0:0:
488,180,193650,1,4,0:0:0:0:
500,224,193725,1,0,0:0:0:0:
492,272,193800,1,0,0:0:0:0:
452,300,193875,1,0,0:0:0:0:
404,308,193950,1,0,0:0:0:0:
360,288,194025,1,0,0:0:0:0:
340,244,194100,1,4,0:0:0:0:
336,196,194175,1,4,0:0:0:0:
356,152,194250,1,4,0:0:0:0:
396,124,194325,1,0,0:0:0:0:
416,80,194400,1,0,0:0:0:0:
404,36,194475,1,0,0:0:0:0:
368,4,194550,1,0,0:0:0:0:
320,4,194625,1,0,0:0:0:0:
284,36,194700,1,4,0:0:0:0:
280,84,194775,1,4,0:0:0:0:
284,132,194850,1,4,0:0:0:0:
268,176,194925,1,0,0:0:0:0:
236,208,195000,1,0,0:0:0:0:
192,220,195075,1,0,0:0:0:0:
144,220,195150,1,0,0:0:0:0:
100,232,195225,1,0,0:0:0:0:
68,268,195300,2,0,P|72:312|96:328,1,52.5000020027161,4|0,0:0|0:0,0:0:0:0:
216,344,195450,5,4,0:0:0:0:
264,340,195525,1,4,0:0:0:0:
308,324,195600,1,4,0:0:0:0:
344,292,195675,1,0,0:0:0:0:
368,252,195750,1,4,0:0:0:0:
376,204,195825,1,4,0:0:0:0:
368,156,195900,1,4,0:0:0:0:
344,116,195975,1,0,0:0:0:0:
308,88,196050,1,4,0:0:0:0:
260,80,196125,1,4,0:0:0:0:
212,88,196200,1,4,0:0:0:0:
176,116,196275,1,0,0:0:0:0:
160,160,196350,1,4,0:0:0:0:
168,208,196425,1,4,0:0:0:0:
200,240,196500,2,0,P|232:252|268:248,1,52.5000020027161,4|0,0:0|0:0,0:0:0:0:
412,232,196650,5,4,0:0:0:0:
432,180,196725,1,0,0:0:0:0:
432,124,196800,1,0,0:0:0:0:
404,72,196875,1,0,0:0:0:0:
352,48,196950,1,0,0:0:0:0:
296,48,197025,1,0,0:0:0:0:
244,76,197100,1,0,0:0:0:0:
224,128,197175,1,0,0:0:0:0:
236,184,197250,1,0,0:0:0:0:
260,236,197325,1,0,0:0:0:0:
248,292,197400,1,0,0:0:0:0:
200,324,197475,1,0,0:0:0:0:
144,316,197550,1,0,0:0:0:0:
116,264,197625,1,0,0:0:0:0:
112,208,197700,2,0,P|120:176|136:152,1,52.5000020027161
288,80,197850,5,4,0:0:0:0:
336,104,197925,1,0,0:0:0:0:
368,144,198000,1,4,0:0:0:0:
376,196,198075,1,4,0:0:0:0:
356,244,198150,1,4,0:0:0:0:
308,268,198225,1,4,0:0:0:0:
256,264,198300,1,4,0:0:0:0:
212,232,198375,1,4,0:0:0:0:
188,184,198450,1,4,0:0:0:0:
192,132,198525,1,4,0:0:0:0:
232,96,198600,1,4,0:0:0:0:
284,84,198675,1,4,0:0:0:0:
336,88,198750,1,0,0:0:0:0:
384,112,198825,1,0,0:0:0:0:
420,152,198900,2,0,P|436:180|444:216,1,52.5000020027161,4|0,0:0|0:0,0:0:0:0:
412,336,199050,5,4,0:0:0:0:
356,320,199125,1,0,0:0:0:0:
316,276,199200,1,4,0:0:0:0:
296,220,199275,1,4,0:0:0:0:
296,164,199350,1,4,0:0:0:0:
296,108,199425,1,4,0:0:0:0:
268,56,199500,1,4,0:0:0:0:
216,28,199575,1,4,0:0:0:0:
160,28,199650,1,4,0:0:0:0:
108,52,199725,1,4,0:0:0:0:
88,108,199800,1,4,0:0:0:0:
88,164,199875,1,0,0:0:0:0:
120,212,199950,1,0,0:0:0:0:
176,216,200025,1,0,0:0:0:0:
216,176,200100,2,0,P|216:152|200:128,1,52.5000020027161,4|0,0:0|0:0,0:0:0:0:
68,68,200250,5,4,0:0:0:0:
48,128,200325,1,0,0:0:0:0:
48,192,200400,1,4,0:0:0:0:
64,252,200475,1,0,0:0:0:0:
100,304,200550,1,4,0:0:0:0:
156,332,200625,1,0,0:0:0:0:
220,336,200700,1,4,0:0:0:0:
280,316,200775,1,0,0:0:0:0:
324,272,200850,1,4,0:0:0:0:
368,228,200925,1,0,0:0:0:0:
432,220,201000,1,4,0:0:0:0:
488,248,201075,1,0,0:0:0:0:
504,308,201150,1,4,0:0:0:0:
460,352,201225,1,0,0:0:0:0:
392,352,201300,2,0,P|352:336|328:308,1,52.5000020027161,4|0,0:0|0:0,0:0:0:0:
248,196,201450,5,4,0:0:0:0:
240,128,201525,1,4,0:0:0:0:
248,60,201600,1,4,0:0:0:0:
296,12,201675,1,4,0:0:0:0:
364,4,201750,1,4,0:0:0:0:
428,32,201825,1,4,0:0:0:0:
452,96,201900,1,4,0:0:0:0:
432,160,201975,1,4,0:0:0:0:
368,184,202050,1,4,0:0:0:0:
304,160,202125,1,4,0:0:0:0:
260,108,202200,1,4,0:0:0:0:
192,96,202275,1,4,0:0:0:0:
140,144,202350,1,4,0:0:0:0:
152,212,202425,1,4,0:0:0:0:
220,228,202500,1,4,0:0:0:0:
272,180,202575,1,4,0:0:0:0:
256,120,202650,6,0,B|196:104|156:36|156:36|72:68|24:212|24:212|72:180|128:172|128:172|96:232|88:264|88:264|132:244|168:240|168:240|152:280|156:320|156:320|172:300|208:284|208:284|208:308|220:336|220:336|232:312|256:288|256:288|280:312|292:336|292:336|304:308|304:284|304:284|340:300|356:320|356:320|360:280|344:240|344:240|380:244|424:264|424:264|416:232|384:172|384:172|440:180|488:212|488:212|440:68|356:36|356:36|324:96|324:96|304:60|268:52,1,1836.80002802734,4|4,0:0|0:0,0:0:0:0:
196,172,208650,1,0,0:0:0:0:
344,240,209850,1,4,0:0:0:0:
268,204,211050,5,0,0:0:0:0:
280,124,211350,1,0,0:0:0:0:
332,64,211650,1,0,0:0:0:0:
412,48,211950,1,0,0:0:0:0:
332,64,212250,1,4,0:0:0:0:
280,124,214650,5,4,0:0:0:0:
268,204,215850,1,0,0:0:0:0:
196,172,216300,2,0,L|144:152,8,28.7000004379273
176,256,217050,1,4,0:0:0:0:
192,272,218250,1,0,0:0:0:0:
176,256,219000,5,0,0:0:0:0:
100,208,219150,1,0,0:0:0:0:
112,112,219300,1,0,0:0:0:0:
100,208,219450,2,0,B|104:272|44:292|44:292|96:304|128:352|128:352|168:328|168:328|224:332|248:276|248:276|266:277|288:292,1,401.800006130982,4|0,0:0|0:0,0:0:0:0:
344,340,220650,6,0,B|396:272|308:208|356:164,1,172.200002627564,4|0,0:0|0:0,0:0:0:0:
416,208,221250,1,4,0:0:0:0:
422,188,221325,1,0,0:0:0:0:
422,165,221400,1,0,0:0:0:0:
413,141,221475,1,0,0:0:0:0:
396,116,221550,1,0,0:0:0:0:
366,103,221625,1,0,0:0:0:0:
334,102,221700,1,0,0:0:0:0:
300,116,221775,1,0,0:0:0:0:
276,152,221850,6,0,B|184:200|192:112|124:156|124:156|116:200|144:248|144:248|88:216|44:224|44:224|88:196|80:152|80:152|16:120|12:28|76:-16|160:8|164:72|164:72|132:72|96:88,1,787.500030040742,4|0,0:0|0:0,0:0:0:0:
228,96,224250,6,0,P|296:224|296:84,1,367.500014019013,4|0,0:0|0:0,0:0:0:0:
416,128,225450,2,0,B|424:196|384:248|384:248|416:252|416:252|400:292|424:344|424:344|360:352|360:320|304:336,1,367.500014019013,4|0,0:0|0:0,0:0:0:0:
144,248,226650,2,0,B|104:216|72:240|32:304|120:400|256:368|268:224|198:183|148:172,1,367.500014019013,4|0,0:0|0:0,0:0:0:0:
80,152,227850,5,0,0:0:0:0:
76,60,228450,1,0,0:0:0:0:
174,169,229050,1,4,0:0:0:0:
324,244,230250,5,0,0:0:0:0:
396,192,230550,1,0,0:0:0:0:
396,100,230850,1,0,0:0:0:0:
328,32,231150,1,0,0:0:0:0:
176,188,231450,6,0,L|220:180,1,26.2500010013581
328,32,231600,2,0,L|302:36,1,26.2500010013581
104,56,231750,1,0,0:0:0:0:
104,56,232200,5,0,0:0:0:0:
104,56,232275,1,0,0:0:0:0:
104,56,232350,1,0,0:0:0:0:
176,188,232500,1,0,0:0:0:0:
200,352,232650,2,0,L|156:340,1,26.2500010013581
176,188,232800,2,0,L|201:194,1,26.2500010013581
368,308,232950,1,0,0:0:0:0:
368,308,233400,5,0,0:0:0:0:
428,176,233550,1,0,0:0:0:0:
368,308,233700,2,0,L|348:304,4,13.125000500679
428,176,234150,1,0,0:0:0:0:
428,176,234600,5,0,0:0:0:0:
428,176,234675,1,0,0:0:0:0:
428,176,234750,1,0,0:0:0:0:
272,264,234900,1,0,0:0:0:0:
256,92,235050,1,0,0:0:0:0:
272,68,235125,1,0,0:0:0:0:
292,52,235200,1,0,0:0:0:0:
316,40,235275,1,0,0:0:0:0:
344,40,235350,1,0,0:0:0:0:
344,40,235650,6,0,L|332:88,1,26.2500010013581
168,40,235800,1,0,0:0:0:0:
176,64,235875,1,0,0:0:0:0:
184,88,235950,1,0,0:0:0:0:
252,180,236100,1,0,0:0:0:0:
144,192,236250,1,4,0:0:0:0:
140,220,236325,1,0,0:0:0:0:
144,244,236400,1,0,0:0:0:0:
152,268,236475,1,0,0:0:0:0:
168,288,236550,1,0,0:0:0:0:
256,324,236850,6,0,L|256:288,1,26.2500010013581
256,164,237000,1,0,0:0:0:0:
256,176,237075,1,0,0:0:0:0:
256,188,237150,1,0,0:0:0:0:
256,324,237300,1,0,0:0:0:0:
368,192,237450,1,4,0:0:0:0:
372,220,237525,1,0,0:0:0:0:
368,244,237600,1,0,0:0:0:0:
360,268,237675,1,0,0:0:0:0:
344,288,237750,1,0,0:0:0:0:
256,324,238050,5,0,0:0:0:0:
256,312,238125,1,0,0:0:0:0:
256,300,238200,1,0,0:0:0:0:
256,164,238350,2,0,L|256:188,8,13.125000500679,0|0|0|0|0|0|0|0|4,0:0|0:0|0:0|0:0|0:0|0:0|0:0|0:0|0:0,0:0:0:0:
168,288,238875,1,0,0:0:0:0:
344,288,239100,1,0,0:0:0:0:
256,24,239250,5,0,0:0:0:0:
256,36,239325,1,0,0:0:0:0:
256,48,239400,2,0,L|236:48,1,13.125000500679
256,60,239475,2,0,L|276:60,1,13.125000500679
256,68,239550,1,0,0:0:0:0:
256,80,239625,1,0,0:0:0:0:
256,92,239700,1,0,0:0:0:0:
256,104,239775,1,0,0:0:0:0:
256,116,239850,1,4,0:0:0:0:
256,192,239925,12,0,240750,0:0:0:0:
256,128,241050,5,4,0:0:0:0:
304,152,241125,1,4,0:0:0:0:
332,196,241200,1,4,0:0:0:0:
336,248,241275,1,4,0:0:0:0:
308,292,241350,1,0,0:0:0:0:
260,316,241425,1,0,0:0:0:0:
208,308,241500,1,4,0:0:0:0:
168,276,241575,1,4,0:0:0:0:
144,228,241650,1,4,0:0:0:0:
136,176,241725,1,0,0:0:0:0:
144,124,241800,2,0,P|154:89|172:57,1,52.5000020027161,0|0,1:0|1:0,1:0:0:0:
320,52,241950,2,0,P|294:77|274:107,1,52.5000020027161,4|0,1:0|1:0,1:0:0:0:
248,224,242100,5,4,0:0:0:0:
264,264,242175,1,4,0:0:0:0:
292,296,242250,1,4,0:0:0:0:
332,312,242325,1,0,0:0:0:0:
372,312,242400,1,0,0:0:0:0:
412,296,242475,1,0,0:0:0:0:
444,268,242550,1,0,0:0:0:0:
464,232,242625,1,0,0:0:0:0:
472,192,242700,1,4,0:0:0:0:
468,152,242775,1,4,0:0:0:0:
452,112,242850,1,4,0:0:0:0:
420,84,242925,1,0,0:0:0:0:
384,64,243000,1,0,0:0:0:0:
344,60,243075,1,0,0:0:0:0:
304,68,243150,1,0,0:0:0:0:
264,84,243225,1,0,0:0:0:0:
224,100,243300,2,4,P|196:104|160:104,1,52.5000020027161
72,36,243450,5,4,0:0:0:0:
84,88,243525,1,4,0:0:0:0:
88,140,243600,1,4,0:0:0:0:
84,192,243675,1,0,0:0:0:0:
64,240,243750,1,4,0:0:0:0:
40,288,243825,1,4,0:0:0:0:
40,340,243900,1,4,0:0:0:0:
80,372,243975,1,0,0:0:0:0:
132,368,244050,1,4,0:0:0:0:
168,328,244125,1,4,0:0:0:0:
164,276,244200,1,4,0:0:0:0:
152,224,244275,1,0,0:0:0:0:
160,172,244350,1,4,0:0:0:0:
192,132,244425,1,4,0:0:0:0:
244,120,244500,2,0,P|272:124|296:144,1,52.5000020027161,4|0,0:0|0:0,0:0:0:0:
376,280,244650,5,4,0:0:0:0:
328,284,244725,1,4,0:0:0:0:
280,280,244800,1,4,0:0:0:0:
236,264,244875,1,4,0:0:0:0:
204,232,244950,1,0,0:0:0:0:
188,188,245025,1,0,0:0:0:0:
180,140,245100,1,0,0:0:0:0:
192,96,245175,1,0,0:0:0:0:
216,56,245250,5,4,0:0:0:0:
220,96,245325,1,0,0:0:0:0:
204,136,245400,1,0,0:0:0:0:
172,164,245475,1,0,0:0:0:0:
132,176,245550,1,4,0:0:0:0:
92,168,245625,1,4,0:0:0:0:
64,140,245700,1,4,0:0:0:0:
52,100,245775,1,4,0:0:0:0:
60,60,245850,5,4,0:0:0:0:
84,96,245925,1,0,0:0:0:0:
100,136,246000,1,4,0:0:0:0:
112,176,246075,1,4,0:0:0:0:
124,216,246150,1,4,0:0:0:0:
148,252,246225,1,0,0:0:0:0:
184,272,246300,1,4,0:0:0:0:
224,276,246375,1,4,0:0:0:0:
264,268,246450,1,4,0:0:0:0:
296,244,246525,1,0,0:0:0:0:
316,208,246600,2,4,P|316:177|297:150,1,52.5000020027161
136,124,246750,2,0,P|135:154|154:181,1,52.5000020027161,4|0,0:0|0:0,0:0:0:0:
272,76,246900,5,4,0:0:0:0:
308,68,246975,1,0,0:0:0:0:
344,72,247050,1,0,0:0:0:0:
380,84,247125,1,4,0:0:0:0:
408,108,247200,1,4,0:0:0:0:
424,140,247275,1,0,0:0:0:0:
432,176,247350,1,0,0:0:0:0:
432,212,247425,1,4,0:0:0:0:
420,248,247500,1,4,0:0:0:0:
396,272,247575,1,0,0:0:0:0:
368,296,247650,1,0,0:0:0:0:
336,312,247725,1,0,0:0:0:0:
300,316,247800,1,0,0:0:0:0:
264,312,247875,1,4,0:0:0:0:
232,292,247950,1,4,0:0:0:0:
208,264,248025,1,4,0:0:0:0:
180,240,248100,1,4,0:0:0:0:
144,228,248175,1,4,0:0:0:0:
108,236,248250,6,4,P|84:252|72:300,1,52.5000020027161
308,192,248400,2,4,P|336:188|376:217,1,52.5000020027161
100,136,248550,6,4,P|71:130|29:156,1,52.5000020027161
260,100,248700,2,4,P|283:83|332:90,1,52.5000020027161
92,53,248850,5,4,0:0:0:0:
94,80,248925,1,4,0:0:0:0:
97,108,249000,1,4,0:0:0:0:
100,136,249075,1,4,0:0:0:0:
103,164,249150,1,4,0:0:0:0:
106,192,249225,1,0,0:0:0:0:
109,220,249300,2,0,L|116:291,1,52.5000020027161
213,329,249450,5,4,0:0:0:0:
218,297,249525,1,4,0:0:0:0:
222,264,249600,1,4,0:0:0:0:
227,231,249675,1,4,0:0:0:0:
232,199,249750,1,4,0:0:0:0:
236,166,249825,1,0,0:0:0:0:
241,133,249900,2,0,L|253:59,1,52.5000020027161
340,12,250050,5,0,0:0:0:0:
352,48,250125,1,0,0:0:0:0:
364,80,250200,1,4,0:0:0:0:
376,116,250275,1,4,0:0:0:0:
388,152,250350,1,4,0:0:0:0:
400,188,250425,1,0,0:0:0:0:
412,224,250500,1,4,0:0:0:0:
424,260,250575,1,0,0:0:0:0:
436,296,250650,5,4,0:0:0:0:
400,288,250725,1,4,0:0:0:0:
364,280,250800,1,4,0:0:0:0:
328,276,250875,1,4,0:0:0:0:
292,280,250950,1,4,0:0:0:0:
256,292,251025,1,0,0:0:0:0:
224,308,251100,1,4,0:0:0:0:
188,320,251175,1,4,0:0:0:0:
152,320,251250,1,4,0:0:0:0:
116,308,251325,1,0,0:0:0:0:
88,284,251400,2,0,P|80:256|96:216,1,52.5000020027161
240,156,251550,2,0,P|219:135|176:131,1,52.5000020027161,4|0,0:0|0:0,0:0:0:0:
32,132,251700,5,4,0:0:0:0:
32,164,251775,1,4,0:0:0:0:
44,192,251850,1,4,0:0:0:0:
64,216,251925,1,4,0:0:0:0:
92,228,252000,1,4,0:0:0:0:
124,228,252075,1,0,0:0:0:0:
152,212,252150,1,0,0:0:0:0:
172,188,252225,1,0,0:0:0:0:
184,160,252300,1,4,0:0:0:0:
197,128,252375,1,4,0:0:0:0:
212,100,252450,1,4,0:0:0:0:
232,76,252525,1,0,0:0:0:0:
260,64,252600,1,0,0:0:0:0:
292,60,252675,1,0,0:0:0:0:
320,68,252750,1,0,0:0:0:0:
344,92,252825,1,0,0:0:0:0:
352,124,252900,1,4,0:0:0:0:
344,156,252975,1,4,0:0:0:0:
324,180,253050,1,4,0:0:0:0:
296,192,253125,1,0,0:0:0:0:
264,192,253200,1,4,0:0:0:0:
236,176,253275,1,0,0:0:0:0:
216,152,253350,1,0,0:0:0:0:
188,136,253425,1,4,0:0:0:0:
156,136,253500,2,4,P|116:152|108:180,1,52.5000020027161
128,276,253650,5,4,0:0:0:0:
152,288,253725,1,0,0:0:0:0:
176,292,253800,1,0,0:0:0:0:
204,292,253875,1,0,0:0:0:0:
232,288,253950,1,0,0:0:0:0:
256,280,254025,1,0,0:0:0:0:
280,268,254100,2,0,P|304:240|312:212,1,52.5000020027161
292,56,254250,5,4,0:0:0:0:
316,80,254325,1,0,0:0:0:0:
336,104,254400,1,4,0:0:0:0:
352,132,254475,1,4,0:0:0:0:
360,160,254550,1,4,0:0:0:0:
364,192,254625,1,0,0:0:0:0:
360,224,254700,2,0,P|352:260|336:288,1,52.5000020027161,4|0,0:0|0:0,0:0:0:0:
440,360,254850,5,4,0:0:0:0:
448,336,254925,1,0,0:0:0:0:
448,308,255000,1,0,0:0:0:0:
444,280,255075,1,0,0:0:0:0:
436,256,255150,1,0,0:0:0:0:
424,232,255225,1,0,0:0:0:0:
408,212,255300,2,0,P|392:192|356:168,1,52.5000020027161
212,120,255450,5,4,0:0:0:0:
168,148,255525,1,0,0:0:0:0:
116,152,255600,1,4,0:0:0:0:
68,128,255675,1,4,0:0:0:0:
52,80,255750,1,4,0:0:0:0:
68,28,255825,1,0,0:0:0:0:
116,4,255900,1,4,0:0:0:0:
168,12,255975,1,4,0:0:0:0:
204,52,256050,1,4,0:0:0:0:
212,104,256125,1,0,0:0:0:0:
204,156,256200,1,4,0:0:0:0:
180,204,256275,1,4,0:0:0:0:
156,252,256350,1,4,0:0:0:0:
148,304,256425,1,4,0:0:0:0:
172,352,256500,1,4,0:0:0:0:
220,372,256575,1,4,0:0:0:0:
272,360,256650,1,4,0:0:0:0:
296,312,256725,1,0,0:0:0:0:
292,260,256800,1,0,0:0:0:0:
268,212,256875,1,0,0:0:0:0:
228,180,256950,1,0,0:0:0:0:
176,168,257025,1,0,0:0:0:0:
124,172,257100,1,0,0:0:0:0:
80,204,257175,1,0,0:0:0:0:
56,252,257250,1,4,0:0:0:0:
52,304,257325,1,0,0:0:0:0:
84,344,257400,1,4,0:0:0:0:
136,348,257475,1,4,0:0:0:0:
180,320,257550,1,4,0:0:0:0:
196,268,257625,1,4,0:0:0:0:
184,216,257700,2,4,P|176:192|152:156,1,52.5000020027161,0|4,0:0|0:0,0:0:0:0:
44,48,257850,5,4,0:0:0:0:
108,40,257925,1,4,0:0:0:0:
172,44,258000,1,4,0:0:0:0:
232,60,258075,1,4,0:0:0:0:
288,92,258150,1,4,0:0:0:0:
332,136,258225,1,0,0:0:0:0:
344,196,258300,1,0,0:0:0:0:
328,256,258375,1,0,0:0:0:0:
276,292,258450,5,4,0:0:0:0:
244,236,258525,1,4,0:0:0:0:
252,172,258600,1,4,0:0:0:0:
284,120,258675,1,4,0:0:0:0:
336,88,258750,1,4,0:0:0:0:
400,80,258825,1,0,0:0:0:0:
460,96,258900,1,0,0:0:0:0:
500,144,258975,1,0,0:0:0:0:
508,208,259050,5,4,0:0:0:0:
456,176,259125,1,4,0:0:0:0:
400,156,259200,1,4,0:0:0:0:
344,156,259275,1,4,0:0:0:0:
296,188,259350,1,4,0:0:0:0:
284,244,259425,1,0,0:0:0:0:
312,296,259500,1,0,0:0:0:0:
368,304,259575,1,0,0:0:0:0:
408,264,259650,5,4,0:0:0:0:
364,228,259725,1,4,0:0:0:0:
308,220,259800,1,4,0:0:0:0:
256,248,259875,1,4,0:0:0:0:
244,304,259950,1,4,0:0:0:0:
268,356,260025,1,4,0:0:0:0:
324,368,260100,2,0,P|356:356|368:328,1,52.5000020027161,4|0,0:0|0:0,0:0:0:0:
384,168,260250,5,4,0:0:0:0:
344,132,260325,1,4,0:0:0:0:
296,108,260400,1,4,0:0:0:0:
244,96,260475,1,4,0:0:0:0:
192,100,260550,1,4,0:0:0:0:
144,116,260625,1,0,0:0:0:0:
104,148,260700,1,4,0:0:0:0:
76,192,260775,1,4,0:0:0:0:
72,244,260850,1,4,0:0:0:0:
84,296,260925,1,0,0:0:0:0:
120,336,261000,2,0,P|152:344|180:336,1,52.5000020027161
292,344,261150,2,0,P|315:321|323:293,1,52.5000020027161,4|0,0:0|0:0,0:0:0:0:
324,152,261300,5,4,0:0:0:0:
288,176,261375,1,4,0:0:0:0:
248,184,261450,1,4,0:0:0:0:
208,176,261525,1,4,0:0:0:0:
176,148,261600,1,4,0:0:0:0:
164,108,261675,1,0,0:0:0:0:
172,68,261750,1,0,0:0:0:0:
200,40,261825,1,0,0:0:0:0:
240,28,261900,1,4,0:0:0:0:
280,28,261975,1,4,0:0:0:0:
320,36,262050,1,4,0:0:0:0:
356,56,262125,1,0,0:0:0:0:
384,88,262200,1,0,0:0:0:0:
400,128,262275,1,0,0:0:0:0:
404,168,262350,1,0,0:0:0:0:
392,208,262425,1,0,0:0:0:0:
368,240,262500,2,4,P|328:252|304:248,1,52.5000020027161
192,196,262650,5,4,0:0:0:0:
140,208,262725,1,4,0:0:0:0:
96,236,262800,1,4,0:0:0:0:
80,284,262875,1,0,0:0:0:0:
92,336,262950,1,4,0:0:0:0:
136,364,263025,1,4,0:0:0:0:
188,356,263100,1,4,0:0:0:0:
216,312,263175,1,0,0:0:0:0:
204,260,263250,1,4,0:0:0:0:
160,232,263325,1,4,0:0:0:0:
112,212,263400,1,4,0:0:0:0:
72,176,263475,1,0,0:0:0:0:
56,124,263550,1,4,0:0:0:0:
60,72,263625,1,4,0:0:0:0:
92,28,263700,2,0,P|116:16|152:16,1,52.5000020027161,4|0,0:0|0:0,0:0:0:0:
264,96,263850,5,4,0:0:0:0:
276,140,263925,1,4,0:0:0:0:
308,176,264000,1,4,0:0:0:0:
352,196,264075,1,0,0:0:0:0:
400,200,264150,1,0,0:0:0:0:
444,180,264225,1,0,0:0:0:0:
472,140,264300,1,0,0:0:0:0:
476,92,264375,1,0,0:0:0:0:
452,52,264450,5,4,0:0:0:0:
412,68,264525,1,0,0:0:0:0:
380,96,264600,1,0,0:0:0:0:
368,136,264675,1,0,0:0:0:0:
368,176,264750,1,0,0:0:0:0:
380,216,264825,1,0,0:0:0:0:
404,252,264900,1,0,0:0:0:0:
440,276,264975,1,0,0:0:0:0:
480,284,265050,5,4,0:0:0:0:
440,276,265125,1,0,0:0:0:0:
403,273,265200,1,4,0:0:0:0:
367,274,265275,1,4,0:0:0:0:
329,278,265350,1,4,0:0:0:0:
291,283,265425,1,0,0:0:0:0:
257,293,265500,2,4,P|216:304|188:320,1,52.5000020027161
56,300,265650,5,4,0:0:0:0:
32,280,265725,1,0,0:0:0:0:
28,248,265800,1,0,0:0:0:0:
44,220,265875,1,0,0:0:0:0:
72,204,265950,1,4,0:0:0:0:
104,212,266025,1,4,0:0:0:0:
120,240,266100,2,4,P|120:272|108:292,1,52.5000020027161
56,136,266250,5,4,0:0:0:0:
80,112,266325,1,0,0:0:0:0:
112,92,266400,1,4,0:0:0:0:
148,84,266475,1,4,0:0:0:0:
184,80,266550,1,4,0:0:0:0:
220,88,266625,1,0,0:0:0:0:
252,104,266700,5,4,0:0:0:0:
244,144,266775,1,4,0:0:0:0:
244,184,266850,1,4,0:0:0:0:
260,224,266925,1,0,0:0:0:0:
288,252,267000,1,4,0:0:0:0:
328,268,267075,1,4,0:0:0:0:
368,268,267150,5,4,0:0:0:0:
352,224,267225,1,4,0:0:0:0:
352,176,267300,1,4,0:0:0:0:
376,136,267375,1,4,0:0:0:0:
420,116,267450,6,4,P|428:176|424:200,1,52.5000020027161
328,312,267600,2,4,P|268:320|244:316,1,52.5000020027161
140,224,267750,2,4,P|132:164|136:140,1,52.5000020027161
220,44,267900,2,4,P|280:36|304:40,1,52.5000020027161
388,132,268050,6,4,P|392:168|390:182,1,52.5000020027161
308,276,268200,2,4,P|271:280|257:278,1,52.5000020027161
172,200,268350,2,4,P|167:163|169:149,1,52.5000020027161
238,82,268500,2,4,P|274:77|288:80,1,52.5000020027161
360,148,268650,5,4,0:0:0:0:
372,204,268725,1,0,0:0:0:0:
360,260,268800,1,4,0:0:0:0:
320,304,268875,1,4,0:0:0:0:
264,320,268950,1,4,0:0:0:0:
208,312,269025,1,0,0:0:0:0:
164,276,269100,1,4,0:0:0:0:
144,220,269175,1,4,0:0:0:0:
148,164,269250,5,4,0:0:0:0:
180,144,269325,1,4,0:0:0:0:
216,136,269400,1,4,0:0:0:0:
252,144,269475,1,4,0:0:0:0:
280,168,269550,1,4,0:0:0:0:
288,204,269625,1,4,0:0:0:0:
268,236,269700,2,0,P|244:228|224:200,1,52.5000020027161,4|0,0:0|0:0,0:0:0:0:
208,52,269850,5,4,0:0:0:0:
160,72,269925,1,4,0:0:0:0:
124,108,270000,1,4,0:0:0:0:
100,156,270075,1,4,0:0:0:0:
96,208,270150,1,4,0:0:0:0:
108,260,270225,1,0,0:0:0:0:
136,304,270300,1,4,0:0:0:0:
180,328,270375,1,4,0:0:0:0:
232,344,270450,1,4,0:0:0:0:
284,344,270525,1,0,0:0:0:0:
332,324,270600,1,0,0:0:0:0:
364,280,270675,1,0,0:0:0:0:
368,228,270750,1,0,0:0:0:0:
348,180,270825,1,0,0:0:0:0:
308,144,270900,1,4,0:0:0:0:
256,132,270975,1,4,0:0:0:0:
204,148,271050,1,4,0:0:0:0:
176,192,271125,1,0,0:0:0:0:
176,244,271200,1,0,0:0:0:0:
204,288,271275,1,0,0:0:0:0:
252,312,271350,1,0,0:0:0:0:
304,316,271425,1,0,0:0:0:0:
356,304,271500,1,4,0:0:0:0:
400,272,271575,1,4,0:0:0:0:
420,224,271650,1,4,0:0:0:0:
420,172,271725,1,0,0:0:0:0:
404,120,271800,1,0,0:0:0:0:
368,84,271875,1,0,0:0:0:0:
320,68,271950,1,0,0:0:0:0:
268,68,272025,1,0,0:0:0:0:
224,96,272100,2,4,P|204:132|204:156,1,52.5000020027161
284,316,272250,5,4,0:0:0:0:
328,284,272325,1,4,0:0:0:0:
356,240,272400,1,4,0:0:0:0:
364,188,272475,1,0,0:0:0:0:
348,140,272550,1,4,0:0:0:0:
340,88,272625,1,4,0:0:0:0:
364,40,272700,1,4,0:0:0:0:
412,24,272775,1,0,0:0:0:0:
464,36,272850,1,4,0:0:0:0:
492,80,272925,1,4,0:0:0:0:
488,132,273000,1,4,0:0:0:0:
444,164,273075,1,0,0:0:0:0:
392,164,273150,1,4,0:0:0:0:
344,148,273225,1,4,0:0:0:0:
304,116,273300,2,0,P|284:104|248:88,1,52.5000020027161,4|0,0:0|0:0,0:0:0:0:
104,56,273450,5,4,0:0:0:0:
100,120,273525,1,0,0:0:0:0:
124,176,273600,1,4,0:0:0:0:
176,208,273675,1,4,0:0:0:0:
236,220,273750,1,0,0:0:0:0:
300,212,273825,1,0,0:0:0:0:
348,172,273900,1,4,0:0:0:0:
364,112,273975,1,4,0:0:0:0:
340,56,274050,1,4,0:0:0:0:
284,28,274125,1,0,0:0:0:0:
224,40,274200,1,4,0:0:0:0:
184,88,274275,1,4,0:0:0:0:
172,148,274350,1,4,0:0:0:0:
184,208,274425,1,0,0:0:0:0:
224,256,274500,2,0,P|256:272|292:276,1,52.5000020027161
432,296,274650,5,4,0:0:0:0:
428,240,274725,1,0,0:0:0:0:
392,196,274800,1,4,0:0:0:0:
344,164,274875,1,4,0:0:0:0:
288,156,274950,1,0,0:0:0:0:
232,172,275025,1,0,0:0:0:0:
188,208,275100,1,4,0:0:0:0:
172,264,275175,1,4,0:0:0:0:
168,320,275250,1,4,0:0:0:0:
128,364,275325,1,4,0:0:0:0:
72,372,275400,1,4,0:0:0:0:
20,344,275475,1,4,0:0:0:0:
12,288,275550,1,4,0:0:0:0:
36,236,275625,1,4,0:0:0:0:
88,208,275700,2,0,P|108:200|140:196,1,52.5000020027161,4|0,0:0|0:0,0:0:0:0:
304,176,275850,5,4,0:0:0:0:
356,140,275925,1,0,0:0:0:0:
360,76,276000,1,4,0:0:0:0:
320,28,276075,1,4,0:0:0:0:
256,20,276150,1,4,0:0:0:0:
204,56,276225,1,4,0:0:0:0:
184,116,276300,1,4,0:0:0:0:
196,176,276375,1,4,0:0:0:0:
232,228,276450,1,4,0:0:0:0:
292,244,276525,1,4,0:0:0:0:
356,236,276600,1,4,0:0:0:0:
408,196,276675,1,4,0:0:0:0:
420,136,276750,1,4,0:0:0:0:
404,76,276825,1,4,0:0:0:0:
348,44,276900,2,4,P|316:44|280:64,1,52.5000020027161
196,168,277050,5,4,0:0:0:0:
136,200,277125,1,0,0:0:0:0:
68,192,277200,1,4,0:0:0:0:
36,132,277275,1,0,0:0:0:0:
56,68,277350,1,4,0:0:0:0:
116,40,277425,1,0,0:0:0:0:
180,60,277500,1,4,0:0:0:0:
232,104,277575,1,0,0:0:0:0:
252,168,277650,1,4,0:0:0:0:
276,232,277725,1,0,0:0:0:0:
328,276,277800,1,4,0:0:0:0:
396,292,277875,1,0,0:0:0:0:
460,264,277950,1,4,0:0:0:0:
484,200,278025,1,0,0:0:0:0:
460,136,278100,2,0,P|440:112|412:100,1,52.5000020027161,4|0,0:0|0:0,0:0:0:0:
256,80,278250,5,4,0:0:0:0:
184,96,278325,1,4,0:0:0:0:
156,164,278400,1,4,0:0:0:0:
188,228,278475,1,4,0:0:0:0:
256,252,278550,1,4,0:0:0:0:
328,232,278625,1,4,0:0:0:0:
400,240,278700,1,4,0:0:0:0:
432,308,278775,1,4,0:0:0:0:
392,368,278850,1,4,0:0:0:0:
320,360,278925,1,4,0:0:0:0:
288,296,279000,1,4,0:0:0:0:
328,232,279075,1,4,0:0:0:0:
400,240,279150,1,4,0:0:0:0:
436,176,279225,1,4,0:0:0:0:
396,116,279300,1,4,0:0:0:0:
324,104,279375,1,4,0:0:0:0:
255,136,279450,6,4,B|195:112|184:40|184:40|76:120|-36:144|-36:144|63:180|127:180|127:180|56:224|12:228|12:228|83:256|160:232|160:232|111:292|92:312|92:312|143:304|200:272|200:272|192:312|176:348|176:348|220:344|256:304|256:304|292:344|336:348|336:348|320:312|312:272|312:272|369:304|420:312|420:312|401:292|352:232|352:232|429:256|500:228|500:228|456:224|385:180|385:180|449:180|548:144|548:144|436:120|328:40|328:40|320:96|320:96|304:72|264:64|264:48,1,2419.2000590625
316,172,285450,1,0,0:0:0:0:
160,232,286650,1,4,0:0:0:0:
168,320,287850,5,0,0:0:0:0:
240,264,288150,1,0,0:0:0:0:
240,176,288450,1,0,0:0:0:0:
172,120,288750,1,0,0:0:0:0:
240,176,289050,1,4,0:0:0:0:
240,264,291442,5,4,0:0:0:0:
264,292,292648,1,0,0:0:0:0:
248,228,293866,1,4,0:0:0:0:
240,264,295109,1,0,0:0:0:0:
264,216,295898,5,0,0:0:0:0:
208,148,296055,1,0,0:0:0:0:
200,64,296213,1,0,0:0:0:0:
208,148,296381,2,0,P|336:144|312:72,1,245
324,16,297657,2,0,B|328:48|316:76|316:76|332:88|336:108|336:108|300:128|356:140|328:232,1,210,4|0,0:0|0:0,0:0:0:0:
260,296,298302,5,0,0:0:0:0:
232,288,298382,1,0,0:0:0:0:
208,268,298463,1,0,0:0:0:0:
188,240,298544,1,0,0:0:0:0:
184,204,298624,1,0,0:0:0:0:
192,164,298705,1,0,0:0:0:0:
196,120,298786,1,0,0:0:0:0:
180,76,298866,1,0,0:0:0:0:
132,48,298947,1,4,0:0:0:0:
256,192,299025,12,0,303999,0:0:0:0:
