osu file format v14

[General]
AudioFilename: audio.mp3
AudioLeadIn: 0
PreviewTime: 100829
Countdown: 0
SampleSet: Soft
StackLeniency: 0.5
Mode: 0
LetterboxInBreaks: 0
EpilepsyWarning: 1
WidescreenStoryboard: 1

[Editor]
DistanceSpacing: 1
BeatDivisor: 4
GridSize: 16
TimelineZoom: 2.500001

[Metadata]
Title:Ascension to Heaven
TitleUnicode:Ascension to Heaven
Artist:xi
ArtistUnicode:xi
Creator:-Tynamo
Version:Normal
Source:
Tags:Parousia Diverse System electronic deathstream stream storyboard BoshyMan741 Nagatoro Aisha Dunty xfraczynho Kauan instrumental bof2009 SEGA CHUNITHM CRYSTAL PLUS bms voez cytus ii rhythm video game artcore piano breakcore
BeatmapID:2074490
BeatmapSetID:968656

[Difficulty]
HPDrainRate:4
CircleSize:3.7
OverallDifficulty:4
ApproachRate:5.3
SliderMultiplier:1.2
SliderTickRate:1

[Events]
//Background and Video events
0,0,"miku.jpg",0,0
//Break Periods
//Storyboard Layer 0 (Background)
//Storyboard Layer 1 (Fail)
//Storyboard Layer 2 (Pass)
//Storyboard Layer 3 (Foreground)
Sprite,Foreground,Centre,"sb/glow.png",0,0 S,2,28829,29329,1,0.2 F,2,28829,29329,1,0 P,0,28829,29329,A C,0,28829,,49,202,209 M,0,28829,28866,412,314,401.8428,318.8368 M,0,28866,28904,401.8428,318.8368,391.6856,323.6735 M,0,28904,28941,391.6856,323.6735,380.5265,323.4015 M,0,28941,28979,380.5265,323.4015,369.2948,322.7597 M,0,28979,29016,369.2948,322.7597,358.0631,322.1179 M,0,29016,29054,358.0631,322.1179,348.0265,326.5563 M,0,29054,29091,348.0265,326.5563,338.2588,332.1378 M,0,29091,29129,338.2588,332.1378,328.491,337.7194
Sprite,Foreground,Centre,"sb/glow.png",0,0 S,2,29429,29929,1,0.2 F,2,29429,29929,1,0 P,0,29429,29929,A C,0,29429,,49,202,209 M,0,29429,29466,248,298,237.8428,302.8367 M,0,29466,29504,237.8428,302.8367,227.6856,307.6735 M,0,29504,29541,227.6856,307.6735,216.5265,307.4015 M,0,29541,29579,216.5265,307.4015,205.2948,306.7597 M,0,29579,29616,205.2948,306.7597,194.0631,306.1179 M,0,29616,29654,194.0631,306.1179,184.0265,310.5563 M,0,29654,29691,184.0265,310.5563,174.2588,316.1378 M,0,29691,29729,174.2588,316.1378,164.491,321.7194
Sprite,Foreground,Centre,"sb/glow.png",127,296 S,2,29879,30079,1,0.2 F,2,29879,30079,1,0 P,0,29879,30079,A C,0,29879,,49,202,209
Sprite,Foreground,Centre,"sb/glow.png",0,0 S,2,38729,39529,1,0.2 F,2,38729,39529,1,0 P,0,38729,39529,A C,0,38729,,83,218,184 M,0,38729,38766,252,262,241.6359,266.3759 M,0,38766,38804,241.6359,266.3759,231.2719,270.7519 M,0,38804,38841,231.2719,270.7519,220.9078,275.1278 M,0,38841,38879,220.9078,275.1278,210.5438,279.5037 M,0,38879,38916,210.5438,279.5037,203.1199,287.3051 M,0,38916,38954,203.1199,287.3051,197.2238,296.8862 M,0,38954,38991,197.2238,296.8862,191.3278,306.4674 M,0,38991,39029,191.3278,306.4674,185.4317,316.0486 M,0,39029,39066,185.4317,316.0486,191.3278,306.4674 M,0,39066,39104,191.3278,306.4674,197.2238,296.8862 M,0,39104,39141,197.2238,296.8862,203.1199,287.3051 M,0,39141,39179,203.1199,287.3051,210.5438,279.5037 M,0,39179,39216,210.5438,279.5037,220.9078,275.1278 M,0,39216,39254,220.9078,275.1278,231.2719,270.7519 M,0,39254,39291,231.2719,270.7519,241.6359,266.3759 M,0,39291,39329,241.6359,266.3759,252,262
Sprite,Foreground,Centre,"sb/glow.png",0,0 S,2,48029,48529,1,0.2 F,2,48029,48529,1,0 P,0,48029,48529,A C,0,48029,,70,134,230 M,0,48029,48066,246,190,234.9811,187.7314 M,0,48066,48104,234.9811,187.7314,223.9622,185.4628 M,0,48104,48141,223.9622,185.4628,212.9433,183.1942 M,0,48141,48179,212.9433,183.1942,202.0423,185.5816 M,0,48179,48216,202.0423,185.5816,191.1524,188.4049 M,0,48216,48254,191.1524,188.4049,180.1911,189.0902 M,0,48254,48291,180.1911,189.0902,169.1371,186.9989 M,0,48291,48329,169.1371,186.9989,158.0832,184.9076
Sprite,Foreground,Centre,"sb/glow.png",0,0 S,2,48629,49129,1,0.2 F,2,48629,49129,1,0 P,0,48629,49129,A C,0,48629,,70,134,230 M,0,48629,48666,151,274,139.8715,275.6487 M,0,48666,48704,139.8715,275.6487,128.7429,277.2974 M,0,48704,48741,128.7429,277.2974,117.7513,276.3799 M,0,48741,48779,117.7513,276.3799,106.8613,273.5566 M,0,48779,48816,106.8613,273.5566,95.96046,271.2205 M,0,48816,48854,95.96046,271.2205,84.95534,273.5549 M,0,48854,48891,84.95534,273.5549,73.9502,275.8893 M,0,48891,48929,73.9502,275.8893,64,278
Sprite,Foreground,Centre,"sb/glow.png",0,0 S,2,56429,56929,1,0.2 F,2,56429,56929,1,0 P,0,56429,56929,A C,0,56429,,49,202,209 M,0,56429,56466,333,418,323.2117,423.5236 M,0,56466,56504,323.2117,423.5236,313.0534,428.322 M,0,56504,56541,313.0534,428.322,302.6549,432.5977 M,0,56541,56579,302.6549,432.5977,291.8591,435.7232 M,0,56579,56616,291.8591,435.7232,280.87,438.058 M,0,56616,56654,280.87,438.058,269.7669,439.8246 M,0,56654,56691,269.7669,439.8246,258.5419,440.3847 M,0,56691,56729,258.5419,440.3847,247.3104,440.1308
Sprite,Foreground,Centre,"sb/glow.png",0,0 S,2,57029,57529,1,0.2 F,2,57029,57529,1,0 P,0,57029,57529,A C,0,57029,,49,202,209 M,0,57029,57066,184,375,193.7883,369.4764 M,0,57066,57104,193.7883,369.4764,203.9466,364.678 M,0,57104,57141,203.9466,364.678,214.3451,360.4023 M,0,57141,57179,214.3451,360.4023,225.1409,357.2768 M,0,57179,57216,225.1409,357.2768,236.13,354.942 M,0,57216,57254,236.13,354.942,247.2331,353.1754 M,0,57254,57291,247.2331,353.1754,258.4581,352.6153 M,0,57291,57329,258.4581,352.6153,269.6896,352.8692
Sprite,Foreground,Centre,"sb/glow.png",0,0 S,2,57629,58129,1,0.2 F,2,57629,58129,1,0 P,0,57629,58129,A C,0,57629,,49,202,209 M,0,57629,57666,322,279,323.9008,267.9117 M,0,57666,57704,323.9008,267.9117,325.8017,256.8235 M,0,57704,57741,325.8017,256.8235,327.7025,245.7352 M,0,57741,57779,327.7025,245.7352,334.899,237.4843 M,0,57779,57816,334.899,237.4843,343.0779,229.7598 M,0,57816,57854,343.0779,229.7598,347.136,219.8592 M,0,57854,57891,347.136,219.8592,348.9036,208.7489 M,0,57891,57929,348.9036,208.7489,350.6711,197.6386
Sprite,Foreground,Centre,"sb/glow.png",0,0 S,2,58229,58729,1,0.2 F,2,58229,58729,1,0 P,0,58229,58729,A C,0,58229,,49,202,209 M,0,58229,58266,276,146,277.9008,134.9117 M,0,58266,58304,277.9008,134.9117,279.8017,123.8235 M,0,58304,58341,279.8017,123.8235,281.7025,112.7352 M,0,58341,58379,281.7025,112.7352,288.8989,104.4843 M,0,58379,58416,288.8989,104.4843,297.0779,96.75981 M,0,58416,58454,297.0779,96.75981,301.136,86.8592 M,0,58454,58491,301.136,86.8592,302.9036,75.74892 M,0,58491,58529,302.9036,75.74892,304.6711,64.63864
Sprite,Foreground,Centre,"sb/glow.png",0,0 S,2,97229,97729,1,0.2 F,2,97229,97729,1,0 P,0,97229,97729,A C,0,97229,,49,202,209 M,0,97229,97266,177,198,175.1852,209.1026 M,0,97266,97304,175.1852,209.1026,173.3703,220.2053 M,0,97304,97341,173.3703,220.2053,171.5554,231.308 M,0,97341,97379,171.5554,231.308,169.7406,242.4106 M,0,97379,97416,169.7406,242.4106,167.9257,253.5132 M,0,97416,97454,167.9257,253.5132,166.1109,264.6159 M,0,97454,97491,166.1109,264.6159,164.296,275.7185 M,0,97491,97529,164.296,275.7185,162.4812,286.8212
Sprite,Foreground,Centre,"sb/glow.png",0,0 S,2,97979,98329,1,0.2 F,2,97979,98329,1,0 P,0,97979,98329,A C,0,97979,,49,202,209 M,0,97979,98016,256,384,267.186,385.1985 M,0,98016,98054,267.186,385.1985,278.3719,386.397 M,0,98054,98091,278.3719,386.397,289.5579,387.5955 M,0,98091,98129,289.5579,387.5955,300.7439,388.794
Sprite,Foreground,Centre,"sb/glow.png",345,395 S,2,98279,98479,1,0.2 F,2,98279,98479,1,0 P,0,98279,98479,A C,0,98279,,49,202,209
Sprite,Foreground,Centre,"sb/glow.png",0,0 S,2,98429,98929,1,0.2 F,2,98429,98929,1,0 P,0,98429,98929,A C,0,98429,,49,202,209 M,0,98429,98466,389,396,386.8527,384.9568 M,0,98466,98504,386.8527,384.9568,384.7054,373.9137 M,0,98504,98541,384.7054,373.9137,382.5581,362.8705 M,0,98541,98579,382.5581,362.8705,380.4109,351.8273 M,0,98579,98616,380.4109,351.8273,378.2636,340.7841 M,0,98616,98654,378.2636,340.7841,376.1163,329.741 M,0,98654,98691,376.1163,329.741,373.969,318.6978 M,0,98691,98729,373.969,318.6978,371.8217,307.6546
Sprite,Foreground,Centre,"sb/glow.png",0,0 S,2,99029,99379,1,0.2 F,2,99029,99379,1,0 P,0,99029,99379,A C,0,99029,,49,202,209 M,0,99029,99066,303,249,304.5116,237.852 M,0,99066,99104,304.5116,237.852,306.0232,226.704 M,0,99104,99141,306.0232,226.704,307.5348,215.556 M,0,99141,99179,307.5348,215.556,309.0464,204.4081
Sprite,Foreground,Centre,"sb/glow.png",316,160 S,2,99329,99529,1,0.2 F,2,99329,99529,1,0 P,0,99329,99529,A C,0,99329,,49,202,209
Sprite,Foreground,Centre,"sb/glow.png",0,0 S,2,99629,100279,1,0.2 F,2,99629,100279,1,0 P,0,99629,100279,A C,0,99629,,70,134,230 M,0,99629,99666,399,126,405.5595,135.1204 M,0,99666,99704,405.5595,135.1204,411.2832,144.7788 M,0,99704,99741,411.2832,144.7788,416.1287,154.9019 M,0,99741,99779,416.1287,154.9019,420.2248,165.3521 M,0,99779,99816,420.2248,165.3521,423.0316,176.2245 M,0,99816,99854,423.0316,176.2245,424.8651,187.2975 M,0,99854,99891,424.8651,187.2975,423.0316,176.2245 M,0,99891,99929,423.0316,176.2245,420.2248,165.3521 M,0,99929,99966,420.2248,165.3521,416.1287,154.9019 M,0,99966,100004,416.1287,154.9019,411.2832,144.7788 M,0,100004,100041,411.2832,144.7788,405.5595,135.1204 M,0,100041,100079,405.5595,135.1204,399,126
Sprite,Foreground,Centre,"sb/glow.png",0,0 S,2,100229,101029,1,0.2 F,2,100229,101029,1,0 P,0,100229,101029,A C,0,100229,,70,134,230 M,0,100229,100266,382,82,391.9453,76.75126 M,0,100266,100304,391.9453,76.75126,402.3943,72.59978 M,0,100304,100341,402.3943,72.59978,413.2783,69.78706 M,0,100341,100379,413.2783,69.78706,424.4478,68.53337 M,0,100379,100416,424.4478,68.53337,435.6783,68.96817 M,0,100416,100454,435.6783,68.96817,446.7173,71.08295 M,0,100454,100491,446.7173,71.08295,457.3497,74.73288 M,0,100491,100529,457.3497,74.73288,467.4435,79.68573 M,0,100529,100566,467.4435,79.68573,477.3924,84.92008 M,0,100566,100604,477.3924,84.92008,487.9818,88.68811 M,0,100604,100641,487.9818,88.68811,499.0073,90.87469 M,0,100641,100679,499.0073,90.87469,510.2304,91.52008 M,0,100679,100716,510.2304,91.52008,521.4485,90.76498 M,0,100716,100754,521.4485,90.76498,532.5211,88.80194 M,0,100754,100791,532.5211,88.80194,543.3674,85.82814 M,0,100791,100829,543.3674,85.82814,553.9506,82.01967
Sprite,Foreground,Centre,"sb/glow.png",0,0 S,2,102029,102529,1,0.2 F,2,102029,102529,1,0 P,0,102029,102529,A C,0,102029,,49,202,209 M,0,102029,102066,98,355,108.5619,351.2043 M,0,102066,102104,108.5619,351.2043,119.4756,348.6353 M,0,102104,102141,119.4756,348.6353,130.5824,347.0168 M,0,102141,102179,130.5824,347.0168,141.8001,347.2453 M,0,102179,102216,141.8001,347.2453,152.9095,348.7452 M,0,102216,102254,152.9095,348.7452,163.8384,351.2615 M,0,102254,102291,163.8384,351.2615,174.2313,355.4818 M,0,102291,102329,174.2313,355.4818,184.2476,360.5707
Sprite,Foreground,Centre,"sb/glow.png",218,389 S,2,102479,102679,1,0.2 F,2,102479,102679,1,0 P,0,102479,102679,A C,0,102479,,49,202,209
Sprite,Foreground,Centre,"sb/glow.png",0,0 S,2,102629,103129,1,0.2 F,2,102629,103129,1,0 P,0,102629,103129,A C,0,102629,,49,202,209 M,0,102629,102666,244,425,254.6693,428.4871 M,0,102666,102704,254.6693,428.4871,265.6477,430.7748 M,0,102704,102741,265.6477,430.7748,276.7908,432.0899 M,0,102741,102779,276.7908,432.0899,288.0022,431.6492 M,0,102779,102816,288.0022,431.6492,299.0887,429.9765 M,0,102816,102854,299.0887,429.9765,309.9582,427.2407 M,0,102854,102891,309.9582,427.2407,320.3131,422.9301 M,0,102891,102929,320.3131,422.9301,330,418
Sprite,Foreground,Centre,"sb/glow.png",372,401 S,2,103079,103279,1,0.2 F,2,103079,103279,1,0 P,0,103079,103279,A C,0,103079,,49,202,209
Sprite,Foreground,Centre,"sb/glow.png",0,0 S,2,103229,103729,1,0.2 F,2,103229,103729,1,0 P,0,103229,103729,A C,0,103229,,49,202,209 M,0,103229,103266,410,377,412.4841,366.0323 M,0,103266,103304,412.4841,366.0323,414.4576,354.9631 M,0,103304,103341,414.4576,354.9631,416.0234,343.8278 M,0,103341,103379,416.0234,343.8278,416.8531,332.6136 M,0,103379,103416,416.8531,332.6136,417.1629,321.3746 M,0,103416,103454,417.1629,321.3746,417.0191,310.1327 M,0,103454,103491,417.0191,310.1327,416.1763,298.9203 M,0,103491,103529,416.1763,298.9203,415,288
Sprite,Foreground,Centre,"sb/glow.png",0,0 S,2,103829,104329,1,0.2 F,2,103829,104329,1,0 P,0,103829,104329,A C,0,103829,,49,202,209 M,0,103829,103866,347,228,345.3242,216.8823 M,0,103866,103904,345.3242,216.8823,344.2849,205.69 M,0,103904,103941,344.2849,205.69,343.7466,194.4604 M,0,103941,103979,343.7466,194.4604,344.1245,183.2245 M,0,103979,104016,344.1245,183.2245,345.1417,172.0308 M,0,104016,104054,345.1417,172.0308,346.7025,160.9001 M,0,104054,104091,346.7025,160.9001,349.1209,149.9221 M,0,104091,104129,349.1209,149.9221,351.9865,139.047
Sprite,Foreground,Centre,"sb/glow.png",381,104 S,2,104279,104479,1,0.2 F,2,104279,104479,1,0 P,0,104279,104479,A C,0,104279,,49,202,209
Sprite,Foreground,Centre,"sb/glow.png",0,0 S,2,104429,104779,1,0.2 F,2,104429,104779,1,0 P,0,104429,104779,A C,0,104429,,183,80,218 M,0,104429,104466,424,92,424.9831,103.207 M,0,104466,104504,424.9831,103.207,425.9661,114.4139 M,0,104504,104541,425.9661,114.4139,426.9492,125.6209 M,0,104541,104579,426.9492,125.6209,427.9323,136.8279
Sprite,Foreground,Centre,"sb/glow.png",0,0 S,2,104729,105079,1,0.2 F,2,104729,105079,1,0 P,0,104729,105079,A C,0,104729,,183,80,218 M,0,104729,104766,460,167,460.9831,178.207 M,0,104766,104804,460.9831,178.207,461.9661,189.4139 M,0,104804,104841,461.9661,189.4139,462.9492,200.6209 M,0,104841,104879,462.9492,200.6209,463.9323,211.8279
Sprite,Foreground,Centre,"sb/glow.png",492,246 S,2,105029,105229,1,0.2 F,2,105029,105229,1,0 P,0,105029,105229,A C,0,105029,,183,80,218
Sprite,Foreground,Centre,"sb/glow.png",489,335 S,2,105329,105529,1,0.2 F,2,105329,105529,1,0 P,0,105329,105529,A C,0,105329,,183,80,218
Sprite,Foreground,Centre,"sb/glow.png",0,0 S,2,105629,106129,1,0.2 F,2,105629,106129,1,0 P,0,105629,106129,A C,0,105629,,183,80,218 M,0,105629,105666,433,405,421.7585,405.4366 M,0,105666,105704,421.7585,405.4366,410.5169,405.8731 M,0,105704,105741,410.5169,405.8731,399.2754,406.3097 M,0,105741,105779,399.2754,406.3097,388.0339,406.7462 M,0,105779,105816,388.0339,406.7462,376.7924,407.1828 M,0,105816,105854,376.7924,407.1828,365.5508,407.6194 M,0,105854,105891,365.5508,407.6194,354.3093,408.0559 M,0,105891,105929,354.3093,408.0559,343.0678,408.4925
Sprite,Foreground,Centre,"sb/glow.png",0,0 S,2,106229,106729,1,0.2 F,2,106229,106729,1,0 P,0,106229,106729,A C,0,106229,,183,80,218 M,0,106229,106266,307,325,318.2415,324.5634 M,0,106266,106304,318.2415,324.5634,329.4831,324.1269 M,0,106304,106341,329.4831,324.1269,340.7246,323.6903 M,0,106341,106379,340.7246,323.6903,351.9661,323.2538 M,0,106379,106416,351.9661,323.2538,363.2076,322.8172 M,0,106416,106454,363.2076,322.8172,374.4492,322.3806 M,0,106454,106491,374.4492,322.3806,385.6907,321.9441 M,0,106491,106529,385.6907,321.9441,396.9322,321.5075
Sprite,Foreground,Centre,"sb/glow.png",0,0 S,2,106829,107329,1,0.2 F,2,106829,107329,1,0 P,0,106829,107329,A C,0,106829,,83,218,184 M,0,106829,106866,412,241,401.1641,238.0218 M,0,106866,106904,401.1641,238.0218,390.1363,235.8868 M,0,106904,106941,390.1363,235.8868,378.9967,234.4042 M,0,106941,106979,378.9967,234.4042,367.7631,234.1682 M,0,106979,107016,367.7631,234.1682,356.549,234.7967 M,0,107016,107054,356.549,234.7967,345.3953,236.131 M,0,107054,107091,345.3953,236.131,334.4467,238.6507 M,0,107091,107129,334.4467,238.6507,323.6502,241.7881
Sprite,Foreground,Centre,"sb/glow.png",0,0 S,2,107429,107929,1,0.2 F,2,107429,107929,1,0 P,0,107429,107929,A C,0,107429,,83,218,184 M,0,107429,107466,243,280,232.2325,283.2168 M,0,107466,107504,232.2325,283.2168,221.2547,285.5958 M,0,107504,107541,221.2547,285.5958,210.1508,287.3259 M,0,107541,107579,210.1508,287.3259,198.9253,287.8137 M,0,107579,107616,198.9253,287.8137,187.6998,287.4378 M,0,107616,107654,187.6998,287.4378,176.5188,286.3557 M,0,107654,107691,176.5188,286.3557,165.5157,284.0856 M,0,107691,107729,165.5157,284.0856,154.6504,281.1956
Sprite,Foreground,Centre,"sb/glow.png",116,256 S,2,107879,108079,1,0.2 F,2,107879,108079,1,0 P,0,107879,108079,A C,0,107879,,83,218,184
Sprite,Foreground,Centre,"sb/glow.png",0,0 S,2,108029,108529,1,0.2 F,2,108029,108529,1,0 P,0,108029,108529,A C,0,108029,,83,218,184 M,0,108029,108066,90,218,88.32423,206.8823 M,0,108066,108104,88.32423,206.8823,87.28488,195.69 M,0,108104,108141,87.28488,195.69,86.74665,184.4604 M,0,108141,108179,86.74665,184.4604,87.12445,173.2245 M,0,108179,108216,87.12445,173.2245,88.14165,162.0308 M,0,108216,108254,88.14165,162.0308,89.70255,150.9001 M,0,108254,108291,89.70255,150.9001,92.12094,139.9221 M,0,108291,108329,92.12094,139.9221,94.98647,129.047
Sprite,Foreground,Centre,"sb/glow.png",0,0 S,2,108629,109129,1,0.2 F,2,108629,109129,1,0 P,0,108629,109129,A C,0,108629,,83,218,184 M,0,108629,108666,177,91,178.6758,102.1177 M,0,108666,108704,178.6758,102.1177,179.7151,113.31 M,0,108704,108741,179.7151,113.31,180.2534,124.5396 M,0,108741,108779,180.2534,124.5396,179.8755,135.7755 M,0,108779,108816,179.8755,135.7755,178.8584,146.9692 M,0,108816,108854,178.8584,146.9692,177.2975,158.0999 M,0,108854,108891,177.2975,158.0999,174.8791,169.0779 M,0,108891,108929,174.8791,169.0779,172.0135,179.953
Sprite,Foreground,Centre,"sb/glow.png",204,210 S,2,109079,109279,1,0.2 F,2,109079,109279,1,0 P,0,109079,109279,A C,0,109079,,83,218,184
Sprite,Foreground,Centre,"sb/glow.png",0,0 S,2,109229,110029,1,0.2 F,2,109229,110029,1,0 P,0,109229,110029,A C,0,109229,,218,65,159 M,0,109229,109266,245,226,255.0623,220.9688 M,0,109266,109304,255.0623,220.9688,265.1246,215.9377 M,0,109304,109341,265.1246,215.9377,275.0789,210.8065 M,0,109341,109379,275.0789,210.8065,279.3234,200.3879 M,0,109379,109416,279.3234,200.3879,283.568,189.9694 M,0,109416,109454,283.568,189.9694,290.2048,181.6763 M,0,109454,109491,290.2048,181.6763,300.0513,176.2348 M,0,109491,109529,300.0513,176.2348,309.8978,170.7933 M,0,109529,109566,309.8978,170.7933,300.0513,176.2348 M,0,109566,109604,300.0513,176.2348,290.2049,181.6763 M,0,109604,109641,290.2049,181.6763,283.568,189.9694 M,0,109641,109679,283.568,189.9694,279.3234,200.3879 M,0,109679,109716,279.3234,200.3879,275.0789,210.8065 M,0,109716,109754,275.0789,210.8065,265.1246,215.9377 M,0,109754,109791,265.1246,215.9377,255.0623,220.9688 M,0,109791,109829,255.0623,220.9688,245,226
Sprite,Foreground,Centre,"sb/glow.png",0,0 S,2,110129,110479,1,0.2 F,2,110129,110479,1,0 P,0,110129,110479,A C,0,110129,,218,65,159 M,0,110129,110166,238,315,241.4361,325.7124 M,0,110166,110204,241.4361,325.7124,244.8721,336.4248 M,0,110204,110241,244.8721,336.4248,248.3082,347.1373 M,0,110241,110279,248.3082,347.1373,251.7442,357.8497
Sprite,Foreground,Centre,"sb/glow.png",0,0 S,2,110429,110929,1,0.2 F,2,110429,110929,1,0 P,0,110429,110929,A C,0,110429,,218,65,159 M,0,110429,110466,273,397,283.4937,401.03 M,0,110466,110504,283.4937,401.03,294.2269,404.3577 M,0,110504,110541,294.2269,404.3577,305.125,407.1028 M,0,110541,110579,305.125,407.1028,316.2308,408.8277 M,0,110579,110616,316.2308,408.8277,327.4237,409.8159 M,0,110616,110654,327.4237,409.8159,338.6532,410.1279 M,0,110654,110691,338.6532,410.1279,349.8716,409.4709 M,0,110691,110729,349.8716,409.4709,361.0482,408.2552
Sprite,Foreground,Centre,"sb/glow.png",398,382 S,2,110879,111079,1,0.2 F,2,110879,111079,1,0 P,0,110879,111079,A C,0,110879,,218,65,159
Sprite,Foreground,Centre,"sb/glow.png",0,0 S,2,111029,111529,1,0.2 F,2,111029,111529,1,0 P,0,111029,111529,A C,0,111029,,218,65,159 M,0,111029,111066,427,347,437.4937,342.97 M,0,111066,111104,437.4937,342.97,448.2269,339.6423 M,0,111104,111141,448.2269,339.6423,459.125,336.8972 M,0,111141,111179,459.125,336.8972,470.2308,335.1723 M,0,111179,111216,470.2308,335.1723,481.4237,334.1841 M,0,111216,111254,481.4237,334.1841,492.6532,333.8721 M,0,111254,111291,492.6532,333.8721,503.8716,334.5291 M,0,111291,111329,503.8716,334.5291,515.0482,335.7448
Sprite,Foreground,Centre,"sb/glow.png",0,0 S,2,111629,112129,1,0.2 F,2,111629,112129,1,0 P,0,111629,112129,A C,0,111629,,49,202,209 M,0,111629,111666,565,260,564.1556,248.7817 M,0,111666,111704,564.1556,248.7817,563.3112,237.5635 M,0,111704,111741,563.3112,237.5635,562.4669,226.3452 M,0,111741,111779,562.4669,226.3452,561.6224,215.1269 M,0,111779,111816,561.6224,215.1269,560.7781,203.9087 M,0,111816,111854,560.7781,203.9087,559.9337,192.6904 M,0,111854,111891,559.9337,192.6904,559.0893,181.4721 M,0,111891,111929,559.0893,181.4721,558.2449,170.2539
Sprite,Foreground,Centre,"sb/glow.png",538,129 S,2,112079,112279,1,0.2 F,2,112079,112279,1,0 P,0,112079,112279,A C,0,112079,,49,202,209
Sprite,Foreground,Centre,"sb/glow.png",0,0 S,2,112229,112729,1,0.2 F,2,112229,112729,1,0 P,0,112229,112729,A C,0,112229,,49,202,209 M,0,112229,112266,498,107,486.7817,107.8444 M,0,112266,112304,486.7817,107.8444,475.5635,108.6888 M,0,112304,112341,475.5635,108.6888,464.3452,109.5332 M,0,112341,112379,464.3452,109.5332,453.1269,110.3775 M,0,112379,112416,453.1269,110.3775,441.9087,111.2219 M,0,112416,112454,441.9087,111.2219,430.6904,112.0663 M,0,112454,112491,430.6904,112.0663,419.4721,112.9107 M,0,112491,112529,419.4721,112.9107,408.2538,113.7551
Sprite,Foreground,Centre,"sb/glow.png",374,144 S,2,112679,112879,1,0.2 F,2,112679,112879,1,0 P,0,112679,112879,A C,0,112679,,49,202,209
Sprite,Foreground,Centre,"sb/glow.png",0,0 S,2,112829,113329,1,0.2 F,2,112829,113329,1,0 P,0,112829,113329,A C,0,112829,,49,202,209 M,0,112829,112866,347,180,346.1179,191.2154 M,0,112866,112904,346.1179,191.2154,345.2358,202.4307 M,0,112904,112941,345.2358,202.4307,344.3537,213.6461 M,0,112941,112979,344.3537,213.6461,343.4716,224.8615 M,0,112979,113016,343.4716,224.8615,342.5895,236.0768 M,0,113016,113054,342.5895,236.0768,341.7074,247.2922 M,0,113054,113091,341.7074,247.2922,340.8253,258.5075 M,0,113091,113129,340.8253,258.5075,340,269
Sprite,Foreground,Centre,"sb/glow.png",0,0 S,2,113429,113929,1,0.2 F,2,113429,113929,1,0 P,0,113429,113929,A C,0,113429,,49,202,209 M,0,113429,113466,259,310,258.1276,298.7839 M,0,113466,113504,258.1276,298.7839,257.2552,287.5677 M,0,113504,113541,257.2552,287.5677,256.3829,276.3516 M,0,113541,113579,256.3829,276.3516,255.5105,265.1355 M,0,113579,113616,255.5105,265.1355,254.6382,253.9194 M,0,113616,113654,254.6382,253.9194,253.7658,242.7032 M,0,113654,113691,253.7658,242.7032,252.8934,231.4871 M,0,113691,113729,252.8934,231.4871,252.0211,220.271
Sprite,Foreground,Centre,"sb/glow.png",249,175 S,2,113879,114079,1,0.2 F,2,113879,114079,1,0 P,0,113879,114079,A C,0,113879,,49,202,209
Sprite,Foreground,Centre,"sb/glow.png",0,0 S,2,114029,114529,1,0.2 F,2,114029,114529,1,0 P,0,114029,114529,A C,0,114029,,183,80,218 M,0,114029,114066,235,132,224.4286,128.1687 M,0,114066,114104,224.4286,128.1687,213.6712,124.9046 M,0,114104,114141,213.6712,124.9046,202.7942,122.0464 M,0,114141,114179,202.7942,122.0464,191.7272,120.0586 M,0,114179,114216,191.7272,120.0586,180.5728,118.6612 M,0,114216,114254,180.5728,118.6612,169.369,117.6886 M,0,114254,114291,169.369,117.6886,158.1254,117.6015 M,0,114291,114329,158.1254,117.6015,146.8954,118.1111
Sprite,Foreground,Centre,"sb/glow.png",0,0 S,2,114629,115129,1,0.2 F,2,114629,115129,1,0 P,0,114629,115129,A C,0,114629,,183,80,218 M,0,114629,114666,89,187,89.82347,198.2198 M,0,114666,114704,89.82347,198.2198,90.64694,209.4396 M,0,114704,114741,90.64694,209.4396,91.47042,220.6595 M,0,114741,114779,91.47042,220.6595,92.29389,231.8793 M,0,114779,114816,92.29389,231.8793,93.11737,243.0991 M,0,114816,114854,93.11737,243.0991,93.94084,254.3189 M,0,114854,114891,93.94084,254.3189,94.76431,265.5388 M,0,114891,114929,94.76431,265.5388,95.58778,276.7586
Sprite,Foreground,Centre,"sb/glow.png",111,319 S,2,115079,115279,1,0.2 F,2,115079,115279,1,0 P,0,115079,115279,A C,0,115079,,183,80,218
Sprite,Foreground,Centre,"sb/glow.png",0,0 S,2,115229,115579,1,0.2 F,2,115229,115579,1,0 P,0,115229,115579,A C,0,115229,,183,80,218 M,0,115229,115266,140,352,151.1285,353.6487 M,0,115266,115304,151.1285,353.6487,162.2571,355.2973 M,0,115304,115341,162.2571,355.2973,173.3856,356.946 M,0,115341,115379,173.3856,356.946,184.5142,358.5947
Sprite,Foreground,Centre,"sb/glow.png",0,0 S,2,115529,115879,1,0.2 F,2,115529,115879,1,0 P,0,115529,115879,A C,0,115529,,183,80,218 M,0,115529,115566,226,343,237.1285,344.6487 M,0,115566,115604,237.1285,344.6487,248.2571,346.2973 M,0,115604,115641,248.2571,346.2973,259.3856,347.946 M,0,115641,115679,259.3856,347.946,270.5142,349.5947
Sprite,Foreground,Centre,"sb/glow.png",311,331 S,2,115829,116029,1,0.2 F,2,115829,116029,1,0 P,0,115829,116029,A C,0,115829,,183,80,218
Sprite,Foreground,Centre,"sb/glow.png",0,0 S,2,116129,116479,1,0.2 F,2,116129,116479,1,0 P,0,116129,116479,A C,0,116129,,183,80,218 M,0,116129,116166,358,254,358.9043,242.7864 M,0,116166,116204,358.9043,242.7864,359.8087,231.5728 M,0,116204,116241,359.8087,231.5728,360.713,220.3592 M,0,116241,116279,360.713,220.3592,361.6173,209.1456
Sprite,Foreground,Centre,"sb/glow.png",0,0 S,2,116429,116929,1,0.2 F,2,116429,116929,1,0 P,0,116429,116929,A C,0,116429,,83,218,184 M,0,116429,116466,372,165,383.2161,164.1276 M,0,116466,116504,383.2161,164.1276,394.4323,163.2553 M,0,116504,116541,394.4323,163.2553,405.6484,162.3829 M,0,116541,116579,405.6484,162.3829,416.8645,161.5105 M,0,116579,116616,416.8645,161.5105,428.0806,160.6382 M,0,116616,116654,428.0806,160.6382,439.2968,159.7658 M,0,116654,116691,439.2968,159.7658,450.5129,158.8934 M,0,116691,116729,450.5129,158.8934,461.729,158.0211
Sprite,Foreground,Centre,"sb/glow.png",0,0 S,2,117029,117529,1,0.2 F,2,117029,117529,1,0 P,0,117029,117529,A C,0,117029,,83,218,184 M,0,117029,117066,517,87,505.7839,86.12763 M,0,117066,117104,505.7839,86.12763,494.5677,85.25527 M,0,117104,117141,494.5677,85.25527,483.3516,84.3829 M,0,117141,117179,483.3516,84.3829,472.1355,83.51054 M,0,117179,117216,472.1355,83.51054,460.9194,82.63817 M,0,117216,117254,460.9194,82.63817,449.7032,81.76581 M,0,117254,117291,449.7032,81.76581,438.4871,80.89344 M,0,117291,117329,438.4871,80.89344,427.271,80.02107
Sprite,Foreground,Centre,"sb/glow.png",382,74 S,2,117479,117679,1,0.2 F,2,117479,117679,1,0 P,0,117479,117679,A C,0,117479,,83,218,184
Sprite,Foreground,Centre,"sb/glow.png",0,0 S,2,117629,118129,1,0.2 F,2,117629,118129,1,0 P,0,117629,118129,A C,0,117629,,83,218,184 M,0,117629,117666,338,83,327.9876,88.06527 M,0,117666,117704,327.9876,88.06527,318.67,94.29305 M,0,117704,117741,318.67,94.29305,310.1772,101.5939 M,0,117741,117779,310.1772,101.5939,302.439,109.6958 M,0,117779,117816,302.439,109.6958,296.1421,118.9714 M,0,117816,117854,296.1421,118.9714,291.0139,128.9301 M,0,117854,117891,291.0139,128.9301,286.8054,139.3267 M,0,117891,117929,286.8054,139.3267,284.4543,150.293
Sprite,Foreground,Centre,"sb/glow.png",0,0 S,2,118229,118729,1,0.2 F,2,118229,118729,1,0 P,0,118229,118729,A C,0,118229,,83,218,184 M,0,118229,118266,319,233,328.8194,227.5649 M,0,118266,118304,328.8194,227.5649,337.9364,221.0409 M,0,118304,118341,337.9364,221.0409,346.235,213.5135 M,0,118341,118379,346.235,213.5135,353.7839,205.231 M,0,118379,118416,353.7839,205.231,359.94,195.858 M,0,118416,118454,359.94,195.858,364.9701,185.845 M,0,118454,118491,364.9701,185.845,369.0984,175.4159 M,0,118491,118529,369.0984,175.4159,371.4649,164.451
Sprite,Foreground,Centre,"sb/glow.png",415,153 S,2,118679,118879,1,0.2 F,2,118679,118879,1,0 P,0,118679,118879,A C,0,118679,,83,218,184
Sprite,Foreground,Centre,"sb/glow.png",0,0 S,2,118829,119179,1,0.2 F,2,118829,119179,1,0 P,0,118829,119179,A C,0,118829,,218,65,159 M,0,118829,118866,457,168,458.0185,179.2038 M,0,118866,118904,458.0185,179.2038,459.037,190.4076 M,0,118904,118941,459.037,190.4076,460.0556,201.6114 M,0,118941,118979,460.0556,201.6114,461.0741,212.8152
Sprite,Foreground,Centre,"sb/glow.png",0,0 S,2,119129,119479,1,0.2 F,2,119129,119479,1,0 P,0,119129,119479,A C,0,119129,,218,65,159 M,0,119129,119166,498,238,496.9815,249.2038 M,0,119166,119204,496.9815,249.2038,495.963,260.4076 M,0,119204,119241,495.963,260.4076,494.9444,271.6114 M,0,119241,119279,494.9444,271.6114,493.9259,282.8152
Sprite,Foreground,Centre,"sb/glow.png",472,322 S,2,119429,119629,1,0.2 F,2,119429,119629,1,0 P,0,119429,119629,A C,0,119429,,218,65,159
Sprite,Foreground,Centre,"sb/glow.png",386,295 S,2,119729,119929,1,0.2 F,2,119729,119929,1,0 P,0,119729,119929,A C,0,119729,,218,65,159
Sprite,Foreground,Centre,"sb/glow.png",332,367 S,2,120029,120229,1,0.2 F,2,120029,120229,1,0 P,0,120029,120229,A C,0,120029,,218,65,159
Sprite,Foreground,Centre,"sb/glow.png",243,351 S,2,120329,120529,1,0.2 F,2,120329,120529,1,0 P,0,120329,120529,A C,0,120329,,218,65,159
Sprite,Foreground,Centre,"sb/glow.png",239,261 S,2,120629,120829,1,0.2 F,2,120629,120829,1,0 P,0,120629,120829,A C,0,120629,,218,65,159
Sprite,Foreground,Centre,"sb/glow.png",321,225 S,2,120929,121129,1,0.2 F,2,120929,121129,1,0 P,0,120929,121129,A C,0,120929,,218,65,159
Sprite,Foreground,Centre,"sb/glow.png",0,0 S,2,121229,121729,1,0.2 F,2,121229,121729,1,0 P,0,121229,121729,A C,0,121229,,49,202,209 M,0,121229,121266,309,135,298.6187,130.6931 M,0,121266,121304,298.6187,130.6931,287.9553,127.1576 M,0,121304,121341,287.9553,127.1576,277.0645,124.4114 M,0,121341,121379,277.0645,124.4114,266.0252,122.343 M,0,121379,121416,266.0252,122.343,254.8324,121.3698 M,0,121416,121454,254.8324,121.3698,243.6014,121.2169 M,0,121454,121491,243.6014,121.2169,232.379,121.7261 M,0,121491,121529,232.379,121.7261,221.2379,123.2449
Sprite,Foreground,Centre,"sb/glow.png",181,144 S,2,121679,121879,1,0.2 F,2,121679,121879,1,0 P,0,121679,121879,A C,0,121679,,49,202,209
Sprite,Foreground,Centre,"sb/glow.png",0,0 S,2,121829,122329,1,0.2 F,2,121829,122329,1,0 P,0,121829,122329,A C,0,121829,,49,202,209 M,0,121829,121866,147,174,146.5758,185.242 M,0,121866,121904,146.5758,185.242,146.1516,196.484 M,0,121904,121941,146.1516,196.484,145.7273,207.726 M,0,121941,121979,145.7273,207.726,145.3031,218.968 M,0,121979,122016,145.3031,218.968,144.8789,230.21 M,0,122016,122054,144.8789,230.21,144.4547,241.452 M,0,122054,122091,144.4547,241.452,144.0304,252.694 M,0,122091,122129,144.0304,252.694,143.6062,263.936
Sprite,Foreground,Centre,"sb/glow.png",143,308 S,2,122279,122479,1,0.2 F,2,122279,122479,1,0 P,0,122279,122479,A C,0,122279,,49,202,209
Sprite,Foreground,Centre,"sb/glow.png",0,0 S,2,122429,122929,1,0.2 F,2,122429,122929,1,0 P,0,122429,122929,A C,0,122429,,49,202,209 M,0,122429,122466,146,352,157.1841,353.2157 M,0,122466,122504,157.1841,353.2157,168.3683,354.4313 M,0,122504,122541,168.3683,354.4313,179.5524,355.647 M,0,122541,122579,179.5524,355.647,190.7365,356.8627 M,0,122579,122616,190.7365,356.8627,201.9206,358.0783 M,0,122616,122654,201.9206,358.0783,213.1048,359.294 M,0,122654,122691,213.1048,359.294,224.2889,360.5097 M,0,122691,122729,224.2889,360.5097,235.473,361.7253
Sprite,Foreground,Centre,"sb/glow.png",0,0 S,2,123029,123529,1,0.2 F,2,123029,123529,1,0 P,0,123029,123529,A C,0,123029,,49,202,209 M,0,123029,123066,291,291,279.8159,289.7843 M,0,123066,123104,279.8159,289.7843,268.6317,288.5687 M,0,123104,123141,268.6317,288.5687,257.4476,287.353 M,0,123141,123179,257.4476,287.353,246.2635,286.1373 M,0,123179,123216,246.2635,286.1373,235.0794,284.9217 M,0,123216,123254,235.0794,284.9217,223.8952,283.706 M,0,123254,123291,223.8952,283.706,212.7111,282.4904 M,0,123291,123329,212.7111,282.4904,201.527,281.2747
Sprite,Foreground,Centre,"sb/glow.png",182,240 S,2,123479,123679,1,0.2 F,2,123479,123679,1,0 P,0,123479,123679,A C,0,123479,,49,202,209
Sprite,Foreground,Centre,"sb/glow.png",0,0 S,2,123629,123979,1,0.2 F,2,123629,123979,1,0 P,0,123629,123979,A C,0,123629,,183,80,218 M,0,123629,123666,192,196,203.1942,194.8806 M,0,123666,123704,203.1942,194.8806,214.3883,193.7612 M,0,123704,123741,214.3883,193.7612,225.5825,192.6418 M,0,123741,123779,225.5825,192.6418,236.7767,191.5223
Sprite,Foreground,Centre,"sb/glow.png",0,0 S,2,123929,124279,1,0.2 F,2,123929,124279,1,0 P,0,123929,124279,A C,0,123929,,183,80,218 M,0,123929,123966,272,163,283.1942,164.1194 M,0,123966,124004,283.1942,164.1194,294.3883,165.2388 M,0,124004,124041,294.3883,165.2388,305.5825,166.3582 M,0,124041,124079,305.5825,166.3582,316.7767,167.4777
Sprite,Foreground,Centre,"sb/glow.png",351,196 S,2,124229,124429,1,0.2 F,2,124229,124429,1,0 P,0,124229,124429,A C,0,124229,,183,80,218
Sprite,Foreground,Centre,"sb/glow.png",430,238 S,2,124529,124729,1,0.2 F,2,124529,124729,1,0 P,0,124529,124729,A C,0,124529,,183,80,218
Sprite,Foreground,Centre,"sb/glow.png",0,0 S,2,124829,125329,1,0.2 F,2,124829,125329,1,0 P,0,124829,125329,A C,0,124829,,183,80,218 M,0,124829,124866,395,321,394.7773,332.2478 M,0,124866,124904,394.7773,332.2478,394.5545,343.4956 M,0,124904,124941,394.5545,343.4956,394.3318,354.7434 M,0,124941,124979,394.3318,354.7434,394.1091,365.9912 M,0,124979,125016,394.1091,365.9912,393.8864,377.239 M,0,125016,125054,393.8864,377.239,393.6636,388.4868 M,0,125054,125091,393.6636,388.4868,393.4409,399.7346 M,0,125091,125129,393.4409,399.7346,393.2182,410.9824
Sprite,Foreground,Centre,"sb/glow.png",0,0 S,2,125429,125929,1,0.2 F,2,125429,125929,1,0 P,0,125429,125929,A C,0,125429,,183,80,218 M,0,125429,125466,478,439,477.621,427.7564 M,0,125466,125504,477.621,427.7564,477.242,416.5128 M,0,125504,125541,477.242,416.5128,476.863,405.2692 M,0,125541,125579,476.863,405.2692,476.484,394.0255 M,0,125579,125616,476.484,394.0255,476.105,382.7819 M,0,125616,125654,476.105,382.7819,475.726,371.5383 M,0,125654,125691,475.726,371.5383,475.347,360.2947 M,0,125691,125729,475.347,360.2947,475,350
Sprite,Foreground,Centre,"sb/glow.png",490,306 S,2,125879,126079,1,0.2 F,2,125879,126079,1,0 P,0,125879,126079,A C,0,125879,,183,80,218
Sprite,Foreground,Centre,"sb/glow.png",0,0 S,2,126029,126529,1,0.2 F,2,126029,126529,1,0 P,0,126029,126529,A C,0,126029,,83,218,184 M,0,126029,126066,520,272,510.9427,265.3516 M,0,126066,126104,510.9427,265.3516,501.3658,259.4881 M,0,126104,126141,501.3658,259.4881,491.4241,254.2552 M,0,126141,126179,491.4241,254.2552,480.9265,250.2566 M,0,126179,126216,480.9265,250.2566,470.1359,247.1525 M,0,126216,126254,470.1359,247.1525,459.1539,244.8107 M,0,126254,126291,459.1539,244.8107,447.9727,243.749 M,0,126291,126329,447.9727,243.749,436.7459,243.6274
Sprite,Foreground,Centre,"sb/glow.png",394,258 S,2,126479,126679,1,0.2 F,2,126479,126679,1,0 P,0,126479,126679,A C,0,126479,,83,218,184
Sprite,Foreground,Centre,"sb/glow.png",0,0 S,2,126629,127129,1,0.2 F,2,126629,127129,1,0 P,0,126629,127129,A C,0,126629,,83,218,184 M,0,126629,126666,351,272,339.7698,271.6421 M,0,126666,126704,339.7698,271.6421,328.6136,270.3582 M,0,126704,126741,328.6136,270.3582,317.5541,268.3734 M,0,126741,126779,317.5541,268.3734,306.8131,265.0815 M,0,126779,126816,306.8131,265.0815,296.3857,260.9152 M,0,126816,126854,296.3857,260.9152,286.2596,256.057 M,0,126854,126891,286.2596,256.057,276.7603,250.0626 M,0,126891,126929,276.7603,250.0626,267.6372,243.4936
Sprite,Foreground,Centre,"sb/glow.png",0,0 S,2,127229,128029,1,0.2 F,2,127229,128029,1,0 P,0,127229,128029,A C,0,127229,,83,218,184 M,0,127229,127266,263,153,274.2368,152.4545 M,0,127266,127304,274.2368,152.4545,285.4735,151.9091 M,0,127304,127341,285.4735,151.9091,296.7103,151.3636 M,0,127341,127379,296.7103,151.3636,307.9471,150.8181 M,0,127379,127416,307.9471,150.8181,319.1838,150.2726 M,0,127416,127454,319.1838,150.2726,330.4206,149.7272 M,0,127454,127491,330.4206,149.7272,341.6574,149.1817 M,0,127491,127529,341.6574,149.1817,352.8942,148.6362 M,0,127529,127566,352.8942,148.6362,341.6574,149.1817 M,0,127566,127604,341.6574,149.1817,330.4206,149.7272 M,0,127604,127641,330.4206,149.7272,319.1838,150.2726 M,0,127641,127679,319.1838,150.2726,307.9471,150.8181 M,0,127679,127716,307.9471,150.8181,296.7103,151.3636 M,0,127716,127754,296.7103,151.3636,285.4735,151.9091 M,0,127754,127791,285.4735,151.9091,274.2368,152.4545 M,0,127791,127829,274.2368,152.4545,263,153
Sprite,Foreground,Centre,"sb/glow.png",0,0 S,2,128129,128479,1,0.2 F,2,128129,128479,1,0 P,0,128129,128479,A C,0,128129,,83,218,184 M,0,128129,128166,178,191,177.226,202.2233 M,0,128166,128204,177.226,202.2233,176.452,213.4467 M,0,128204,128241,176.452,213.4467,175.6779,224.67 M,0,128241,128279,175.6779,224.67,174.9039,235.8934
Sprite,Foreground,Centre,"sb/glow.png",0,0 S,2,128429,128779,1,0.2 F,2,128429,128779,1,0 P,0,128429,128779,A C,0,128429,,218,65,159 M,0,128429,128466,168,280,177.9656,285.2201 M,0,128466,128504,177.9656,285.2201,187.9312,290.4402 M,0,128504,128541,187.9312,290.4402,197.8968,295.6602 M,0,128541,128579,197.8968,295.6602,207.8624,300.8803
Sprite,Foreground,Centre,"sb/glow.png",0,0 S,2,128729,129079,1,0.2 F,2,128729,129079,1,0 P,0,128729,129079,A C,0,128729,,218,65,159 M,0,128729,128766,221,343,231.9932,345.3898 M,0,128766,128804,231.9932,345.3898,242.9865,347.7797 M,0,128804,128841,242.9865,347.7797,253.9797,350.1695 M,0,128841,128879,253.9797,350.1695,264.9729,352.5593
Sprite,Foreground,Centre,"sb/glow.png",0,0 S,2,129029,129379,1,0.2 F,2,129029,129379,1,0 P,0,129029,129379,A C,0,129029,,218,65,159 M,0,129029,129066,287,391,298.2398,390.5217 M,0,129066,129104,298.2398,390.5217,309.4797,390.0434 M,0,129104,129141,309.4797,390.0434,320.7195,389.5651 M,0,129141,129179,320.7195,389.5651,331.9593,389.0868
Sprite,Foreground,Centre,"sb/glow.png",377,385 S,2,129329,129529,1,0.2 F,2,129329,129529,1,0 P,0,129329,129529,A C,0,129329,,218,65,159
Sprite,Foreground,Centre,"sb/glow.png",0,0 S,2,129629,130129,1,0.2 F,2,129629,130129,1,0 P,0,129629,130129,A C,0,129629,,218,65,159 M,0,129629,129666,421,306,415.7494,296.072 M,0,129666,129704,415.7494,296.072,409.5762,286.6994 M,0,129704,129741,409.5762,286.6994,402.7196,277.8056 M,0,129741,129779,402.7196,277.8056,394.7065,269.9404 M,0,129779,129816,394.7065,269.9404,385.9819,262.8833 M,0,129816,129854,385.9819,262.8833,376.7187,256.5484 M,0,129854,129891,376.7187,256.5484,366.6993,251.486 M,0,129891,129929,366.6993,251.486,356.3395,247.1275
Sprite,Foreground,Centre,"sb/glow.png",0,0 S,2,130229,130729,1,0.2 F,2,130229,130729,1,0 P,0,130229,130729,A C,0,130229,,218,65,159 M,0,130229,130266,266,239,255.6226,234.7048 M,0,130266,130304,255.6226,234.7048,245.7076,229.4458 M,0,130304,130341,245.7076,229.4458,236.2024,223.4653 M,0,130341,130379,236.2024,223.4653,227.6031,216.2452 M,0,130379,130416,227.6031,216.2452,219.7342,208.2445 M,0,130416,130454,219.7342,208.2445,212.5288,199.6407 M,0,130454,130491,212.5288,199.6407,206.5055,190.1675 M,0,130491,130529,206.5055,190.1675,201.1431,180.2897
Sprite,Foreground,Centre,"sb/glow.png",199,134 S,2,130679,130879,1,0.2 F,2,130679,130879,1,0 P,0,130679,130879,A C,0,130679,,218,65,159
Sprite,Foreground,Centre,"sb/glow.png",0,0 S,2,130829,131329,1,0.2 F,2,130829,131329,1,0 P,0,130829,131329,A C,0,130829,,49,202,209 M,0,130829,130866,191,89,179.771,88.31252 M,0,130866,130904,179.771,88.31252,168.5421,87.62502 M,0,130904,130941,168.5421,87.62502,157.3131,86.93753 M,0,130941,130979,157.3131,86.93753,146.0841,86.25005 M,0,130979,131016,146.0841,86.25005,134.8551,85.56256 M,0,131016,131054,134.8551,85.56256,123.6262,84.87507 M,0,131054,131091,123.6262,84.87507,112.3972,84.18758 M,0,131091,131129,112.3972,84.18758,101.1682,83.50009
Sprite,Foreground,Centre,"sb/glow.png",77,122 S,2,131279,131479,1,0.2 F,2,131279,131479,1,0 P,0,131279,131479,A C,0,131279,,49,202,209
Sprite,Foreground,Centre,"sb/glow.png",0,0 S,2,131429,131929,1,0.2 F,2,131429,131929,1,0 P,0,131429,131929,A C,0,131429,,49,202,209 M,0,131429,131466,66,166,66.9247,177.2119 M,0,131466,131504,66.9247,177.2119,67.84939,188.4239 M,0,131504,131541,67.84939,188.4239,68.77409,199.6358 M,0,131541,131579,68.77409,199.6358,69.69878,210.8477 M,0,131579,131616,69.69878,210.8477,70.62347,222.0597 M,0,131616,131654,70.62347,222.0597,71.54817,233.2716 M,0,131654,131691,71.54817,233.2716,72.47287,244.4835 M,0,131691,131729,72.47287,244.4835,73.39757,255.6955
Sprite,Foreground,Centre,"sb/glow.png",85,299 S,2,131879,132079,1,0.2 F,2,131879,132079,1,0 P,0,131879,132079,A C,0,131879,,49,202,209
Sprite,Foreground,Centre,"sb/glow.png",0,0 S,2,132029,132529,1,0.2 F,2,132029,132529,1,0 P,0,132029,132529,A C,0,132029,,49,202,209 M,0,132029,132066,103,339,112.6111,344.8326 M,0,132066,132104,112.6111,344.8326,122.5578,350.0652 M,0,132104,132141,122.5578,350.0652,132.804,354.6789 M,0,132141,132179,132.804,354.6789,143.2712,358.7681 M,0,132179,132216,143.2712,358.7681,154.0444,361.9729 M,0,132216,132254,154.0444,361.9729,164.9912,364.5124 M,0,132254,132291,164.9912,364.5124,176.0488,366.5296 M,0,132291,132329,176.0488,366.5296,187.2359,367.6797
Sprite,Foreground,Centre,"sb/glow.png",0,0 S,2,132629,133129,1,0.2 F,2,132629,133129,1,0 P,0,132629,133129,A C,0,132629,,49,202,209 M,0,132629,132666,270,331,281.1971,332.0006 M,0,132666,132704,281.1971,332.0006,292.3054,333.7054 M,0,132704,132741,292.3054,333.7054,303.3214,335.9467 M,0,132741,132779,303.3214,335.9467,314.0864,339.1816 M,0,132779,132816,314.0864,339.1816,324.6231,343.0885 M,0,132816,132854,324.6231,343.0885,334.9435,347.5377 M,0,132854,132891,334.9435,347.5377,344.8356,352.8741 M,0,132891,132929,344.8356,352.8741,354.475,358.6655
Sprite,Foreground,Centre,"sb/glow.png",388,387 S,2,133079,133279,1,0.2 F,2,133079,133279,1,0 P,0,133079,133279,A C,0,133079,,49,202,209
Sprite,Foreground,Centre,"sb/glow.png",0,0 S,2,133229,133729,1,0.2 F,2,133229,133729,1,0 P,0,133229,133729,A C,0,133229,,183,80,218 M,0,133229,133266,432,381,432.3514,369.7555 M,0,133266,133304,432.3514,369.7555,432.7028,358.511 M,0,133304,133341,432.7028,358.511,433.0542,347.2665 M,0,133341,133379,433.0542,347.2665,433.4056,336.022 M,0,133379,133416,433.4056,336.022,433.757,324.7775 M,0,133416,133454,433.757,324.7775,434.1083,313.5329 M,0,133454,133491,434.1083,313.5329,434.4597,302.2884 M,0,133491,133529,434.4597,302.2884,434.8111,291.0439
Sprite,Foreground,Centre,"sb/glow.png",472,265 S,2,133679,133879,1,0.2 F,2,133679,133879,1,0 P,0,133679,133879,A C,0,133679,,183,80,218
Sprite,Foreground,Centre,"sb/glow.png",0,0 S,2,133829,134329,1,0.2 F,2,133829,134329,1,0 P,0,133829,134329,A C,0,133829,,183,80,218 M,0,133829,133866,510,241,509.6252,229.7562 M,0,133866,133904,509.6252,229.7562,509.2504,218.5125 M,0,133904,133941,509.2504,218.5125,508.8756,207.2687 M,0,133941,133979,508.8756,207.2687,508.5008,196.025 M,0,133979,134016,508.5008,196.025,508.126,184.7812 M,0,134016,134054,508.126,184.7812,507.7513,173.5375 M,0,134054,134091,507.7513,173.5375,507.3765,162.2937 M,0,134091,134129,507.3765,162.2937,507.0017,151.05
Sprite,Foreground,Centre,"sb/glow.png",0,0 S,2,134429,135229,1,0.2 F,2,134429,135229,1,0 P,0,134429,135229,A C,0,134429,,183,80,218 M,0,134429,134466,431,102,439.0402,94.16272 M,0,134466,134504,439.0402,94.16272,447.8378,87.20125 M,0,134504,134541,447.8378,87.20125,457.162,80.94473 M,0,134541,134579,457.162,80.94473,467.3116,76.14968 M,0,134579,134616,467.3116,76.14968,477.8937,72.42854 M,0,134616,134654,477.8937,72.42854,488.753,69.60229 M,0,134654,134691,488.753,69.60229,499.908,68.36929 M,0,134691,134729,499.908,68.36929,511.1393,67.99119 M,0,134729,134766,511.1393,67.99119,499.908,68.36929 M,0,134766,134804,499.908,68.36929,488.753,69.60229 M,0,134804,134841,488.753,69.60229,477.8937,72.42854 M,0,134841,134879,477.8937,72.42854,467.3116,76.14968 M,0,134879,134916,467.3116,76.14968,457.162,80.94473 M,0,134916,134954,457.162,80.94473,447.8378,87.20125 M,0,134954,134991,447.8378,87.20125,439.0402,94.16272 M,0,134991,135029,439.0402,94.16272,431,102
Sprite,Foreground,Centre,"sb/glow.png",0,0 S,2,135329,135679,1,0.2 F,2,135329,135679,1,0 P,0,135329,135679,A C,0,135329,,183,80,218 M,0,135329,135366,371,169,369.8618,180.1923 M,0,135366,135404,369.8618,180.1923,368.7236,191.3846 M,0,135404,135441,368.7236,191.3846,367.5854,202.5768 M,0,135441,135479,367.5854,202.5768,366.4472,213.7691
Sprite,Foreground,Centre,"sb/glow.png",0,0 S,2,135629,136129,1,0.2 F,2,135629,136129,1,0 P,0,135629,136129,A C,0,135629,,83,218,184 M,0,135629,135666,358,258,346.7975,258.6954 M,0,135666,135704,346.7975,258.6954,335.5991,258.1285 M,0,135704,135741,335.5991,258.1285,324.4648,256.655 M,0,135741,135779,324.4648,256.655,313.7385,253.3536 M,0,135779,135816,313.7385,253.3536,303.4608,248.8725 M,0,135816,135854,303.4608,248.8725,293.575,243.5493 M,0,135854,135891,293.575,243.5493,284.7039,236.6764 M,0,135891,135929,284.7039,236.6764,276.6686,228.8578
Sprite,Foreground,Centre,"sb/glow.png",259,187 S,2,136079,136279,1,0.2 F,2,136079,136279,1,0 P,0,136079,136279,A C,0,136079,,83,218,184
Sprite,Foreground,Centre,"sb/glow.png",0,0 S,2,136229,136729,1,0.2 F,2,136229,136729,1,0 P,0,136229,136729,A C,0,136229,,83,218,184 M,0,136229,136266,239,146,230.793,138.3442 M,0,136266,136304,230.793,138.3442,221.7822,131.6717 M,0,136304,136341,221.7822,131.6717,212.2164,125.802 M,0,136341,136379,212.2164,125.802,201.8261,121.5681 M,0,136379,136416,201.8261,121.5681,191.0329,118.5384 M,0,136416,136454,191.0329,118.5384,180.0015,116.5286 M,0,136454,136491,180.0015,116.5286,168.7879,116.2682 M,0,136491,136529,168.7879,116.2682,157.5728,116.9387
Sprite,Foreground,Centre,"sb/glow.png",118,139 S,2,136679,136879,1,0.2 F,2,136679,136879,1,0 P,0,136679,136879,A C,0,136679,,83,218,184
Sprite,Foreground,Centre,"sb/glow.png",0,0 S,2,136829,137329,1,0.2 F,2,136829,137329,1,0 P,0,136829,137329,A C,0,136829,,83,218,184 M,0,136829,136866,107,182,106.506,193.2392 M,0,136866,136904,106.506,193.2392,106.0119,204.4783 M,0,136904,136941,106.0119,204.4783,105.5179,215.7174 M,0,136941,136979,105.5179,215.7174,105.0239,226.9566 M,0,136979,137016,105.0239,226.9566,104.5299,238.1957 M,0,137016,137054,104.5299,238.1957,104.0358,249.4349 M,0,137054,137091,104.0358,249.4349,103.5418,260.674 M,0,137091,137129,103.5418,260.674,103.0478,271.9132
Sprite,Foreground,Centre,"sb/glow.png",0,0 S,2,137429,137929,1,0.2 F,2,137429,137929,1,0 P,0,137429,137929,A C,0,137429,,83,218,184 M,0,137429,137466,161,339,161.494,350.2391 M,0,137466,137504,161.494,350.2391,161.9881,361.4783 M,0,137504,137541,161.9881,361.4783,162.4821,372.7174 M,0,137541,137579,162.4821,372.7174,162.9761,383.9566 M,0,137579,137616,162.9761,383.9566,163.4701,395.1957 M,0,137616,137654,163.4701,395.1957,163.9642,406.4349 M,0,137654,137691,163.9642,406.4349,164.4582,417.674 M,0,137691,137729,164.4582,417.674,164.9522,428.9132
Sprite,Foreground,Centre,"sb/glow.png",210,431 S,2,137879,138079,1,0.2 F,2,137879,138079,1,0 P,0,137879,138079,A C,0,137879,,83,218,184
Sprite,Foreground,Centre,"sb/glow.png",0,0 S,2,138029,138529,1,0.2 F,2,138029,138529,1,0 P,0,138029,138529,A C,0,138029,,218,65,159 M,0,138029,138066,243,401,254.2493,400.875 M,0,138066,138104,254.2493,400.875,265.4986,400.75 M,0,138104,138141,265.4986,400.75,276.7479,400.625 M,0,138141,138179,276.7479,400.625,287.9972,400.5 M,0,138179,138216,287.9972,400.5,299.2465,400.375 M,0,138216,138254,299.2465,400.375,310.4958,400.2501 M,0,138254,138291,310.4958,400.2501,321.7451,400.1251 M,0,138291,138329,321.7451,400.1251,332.9944,400.0001
Sprite,Foreground,Centre,"sb/glow.png",0,0 S,2,138629,139129,1,0.2 F,2,138629,139129,1,0 P,0,138629,139129,A C,0,138629,,218,65,159 M,0,138629,138666,369,317,357.7507,316.875 M,0,138666,138704,357.7507,316.875,346.5014,316.75 M,0,138704,138741,346.5014,316.75,335.2521,316.625 M,0,138741,138779,335.2521,316.625,324.0028,316.5 M,0,138779,138816,324.0028,316.5,312.7535,316.375 M,0,138816,138854,312.7535,316.375,301.5042,316.2501 M,0,138854,138891,301.5042,316.2501,290.2549,316.1251 M,0,138891,138929,290.2549,316.1251,279.0056,316.0001
Sprite,Foreground,Centre,"sb/glow.png",242,289 S,2,139079,139279,1,0.2 F,2,139079,139279,1,0 P,0,139079,139279,A C,0,139079,,218,65,159
Sprite,Foreground,Centre,"sb/glow.png",0,0 S,2,139229,139579,1,0.2 F,2,139229,139579,1,0 P,0,139229,139579,A C,0,139229,,218,65,159 M,0,139229,139266,211,255,221.8333,251.9667 M,0,139266,139304,221.8333,251.9667,232.6667,248.9333 M,0,139304,139341,232.6667,248.9333,243.5,245.9 M,0,139341,139379,243.5,245.9,254.3334,242.8667
Sprite,Foreground,Centre,"sb/glow.png",0,0 S,2,139529,139879,1,0.2 F,2,139529,139879,1,0 P,0,139529,139879,A C,0,139529,,218,65,159 M,0,139529,139566,276,203,286.8333,199.9667 M,0,139566,139604,286.8333,199.9667,297.6667,196.9333 M,0,139604,139641,297.6667,196.9333,308.5,193.9 M,0,139641,139679,308.5,193.9,319.3334,190.8667
Sprite,Foreground,Centre,"sb/glow.png",0,0 S,2,139829,140179,1,0.2 F,2,139829,140179,1,0 P,0,139829,140179,A C,0,139829,,218,65,159 M,0,139829,139866,338,149,348.8333,145.9667 M,0,139866,139904,348.8333,145.9667,359.6667,142.9333 M,0,139904,139941,359.6667,142.9333,370.5,139.9 M,0,139941,139979,370.5,139.9,381.3334,136.8667
Sprite,Foreground,Centre,"sb/glow.png",404,97 S,2,140129,140329,1,0.2 F,2,140129,140329,1,0 P,0,140129,140329,A C,0,140129,,218,65,159
Sprite,Foreground,Centre,"sb/glow.png",320,92 S,2,154955,155155,1,0.2 F,2,154955,155155,1,0 P,0,154955,155155,A C,0,154955,,49,202,209
//Storyboard Sound Samples

[TimingPoints]
1229,300,4,2,46,70,1,0
1229,-133.333333333333,4,2,46,70,0,0
4829,-100,4,2,56,70,0,0
6029,-100,4,2,46,70,0,0
9629,-100,4,2,56,70,0,0
10754,-100,4,2,1,5,0,0
10829,-133.333333333333,4,2,46,65,0,0
14429,-133.333333333333,4,2,56,65,0,0
15629,-133.333333333333,4,2,46,65,0,0
19229,-133.333333333333,4,2,53,65,0,0
20429,-133.333333333333,4,2,54,65,0,0
22829,-133.333333333333,4,2,46,65,0,0
24029,-133.333333333333,4,2,44,80,0,0
25229,-133.333333333333,4,2,47,80,0,0
26879,-133.333333333333,4,2,52,80,0,0
27329,-133.333333333333,4,2,54,80,0,0
27629,-133.333333333333,4,2,53,80,0,0
28829,-133.333333333333,4,2,61,80,0,0
29429,-133.333333333333,4,2,56,80,0,0
30029,-133.333333333333,4,2,57,80,0,0
31229,-133.333333333333,4,2,52,80,0,0
31679,-133.333333333333,4,2,53,80,0,0
32129,-133.333333333333,4,2,54,80,0,0
32429,-133.333333333333,4,2,56,80,0,0
33629,-133.333333333333,4,2,55,80,0,0
34229,-133.333333333333,4,2,54,80,0,0
34829,-133.333333333333,4,2,53,80,0,0
36629,-133.333333333333,4,2,52,80,0,0
37229,-133.333333333333,4,2,51,80,0,0
38129,-133.333333333333,4,2,45,80,0,0
38429,-133.333333333333,4,2,46,80,0,0
38729,-133.333333333333,4,2,1,80,0,0
39629,-133.333333333333,4,2,46,80,0,0
40829,-133.333333333333,4,2,44,80,0,0
41579,-133.333333333333,4,2,61,80,0,0
41879,-133.333333333333,4,2,56,80,0,0
43229,-133.333333333333,4,2,46,80,0,0
43829,-133.333333333333,4,2,44,80,0,0
44429,-133.333333333333,4,2,47,80,0,0
46079,-133.333333333333,4,2,52,80,0,0
46529,-133.333333333333,4,2,54,80,0,0
46829,-133.333333333333,4,2,53,80,0,0
48029,-133.333333333333,4,2,61,80,0,0
48629,-133.333333333333,4,2,56,80,0,0
49229,-133.333333333333,4,2,57,80,0,0
50429,-133.333333333333,4,2,53,80,0,0
50879,-133.333333333333,4,2,55,80,0,0
51179,-133.333333333333,4,2,62,80,0,0
51329,-133.333333333333,4,2,61,80,0,0
51479,-133.333333333333,4,2,56,80,0,0
51629,-133.333333333333,4,2,52,80,0,0
52829,-133.333333333333,4,2,55,80,0,0
53279,-133.333333333333,4,2,57,80,0,0
53729,-133.333333333333,4,2,63,80,0,0
54029,-133.333333333333,4,2,62,80,0,0
57629,-133.333333333333,4,2,61,80,0,0
58229,-133.333333333333,4,2,1,80,0,0
58829,-133.333333333333,4,2,56,80,0,0
61229,-133.333333333333,4,2,12,65,0,0
62429,-133.333333333333,4,2,52,65,0,0
62729,-133.333333333333,4,2,53,65,0,0
63029,-133.333333333333,4,2,54,65,0,0
63329,-133.333333333333,4,2,55,65,0,0
63629,-133.333333333333,4,2,56,65,0,0
64529,-133.333333333333,4,2,52,65,0,0
66029,-133.333333333333,4,2,56,65,0,0
67229,-133.333333333333,4,2,55,65,0,0
67829,-133.333333333333,4,2,54,65,0,0
69329,-133.333333333333,4,2,53,65,0,0
70829,-133.333333333333,4,2,44,65,0,0
71429,-133.333333333333,4,2,51,65,0,0
72029,-133.333333333333,4,2,52,65,0,0
72629,-133.333333333333,4,2,53,65,0,0
74129,-133.333333333333,4,2,52,65,0,0
75629,-133.333333333333,4,2,43,65,0,0
76229,-133.333333333333,4,2,51,65,0,0
76829,-133.333333333333,4,2,52,65,0,0
77429,-133.333333333333,4,2,46,65,0,0
78029,-133.333333333333,4,2,56,65,0,0
79229,-133.333333333333,4,2,44,65,0,0
80429,-133.333333333333,4,2,62,65,0,0
81629,-133.333333333333,4,2,61,65,0,0
81929,-133.333333333333,4,2,53,65,0,0
82229,-133.333333333333,4,2,54,65,0,0
82529,-133.333333333333,4,2,55,65,0,0
82829,-133.333333333333,4,2,56,65,0,0
83729,-133.333333333333,4,2,52,65,0,0
85154,-133.333333333333,4,2,1,5,0,0
85229,-133.333333333333,4,2,56,65,0,0
86354,-133.333333333333,4,2,1,5,0,0
86429,-133.333333333333,4,2,55,65,0,0
87029,-133.333333333333,4,2,54,65,0,0
87629,-133.333333333333,4,2,53,65,0,0
88229,-133.333333333333,4,2,51,65,0,0
88829,-133.333333333333,4,2,53,65,0,0
89279,-133.333333333333,4,2,58,65,0,0
89729,-133.333333333333,4,2,61,65,0,0
90029,-133.333333333333,4,2,63,65,0,0
91229,-133.333333333333,4,2,62,65,0,0
91829,-133.333333333333,4,2,52,65,0,0
92429,-133.333333333333,4,2,56,65,0,0
94754,-133.333333333333,4,2,1,5,0,0
94829,-133.333333333333,4,2,1,65,0,0
95954,-133.333333333333,4,2,1,5,0,0
96029,-133.333333333333,4,2,62,70,0,0
97229,-133.333333333333,4,2,57,70,0,0
98429,-133.333333333333,4,2,61,70,0,0
99629,-133.333333333333,4,2,62,70,0,0
100829,-133.333333333333,4,2,63,70,0,0
102029,-133.333333333333,4,2,56,85,0,1
102929,-133.333333333333,4,2,52,85,0,1
104429,-133.333333333333,4,2,56,85,0,1
105629,-133.333333333333,4,2,55,85,0,1
106229,-133.333333333333,4,2,54,85,0,1
107729,-133.333333333333,4,2,53,85,0,1
109229,-133.333333333333,4,2,44,85,0,1
109829,-133.333333333333,4,2,51,85,0,1
110429,-133.333333333333,4,2,52,85,0,1
111029,-133.333333333333,4,2,53,85,0,1
111329,-133.333333333333,4,2,1,85,0,1
111629,-133.333333333333,4,2,53,85,0,1
112529,-133.333333333333,4,2,52,85,0,1
114029,-133.333333333333,4,2,43,85,0,1
114629,-133.333333333333,4,2,51,85,0,1
115229,-133.333333333333,4,2,52,85,0,1
115829,-133.333333333333,4,2,46,85,0,1
116429,-133.333333333333,4,2,56,85,0,1
117629,-133.333333333333,4,2,44,85,0,1
118829,-133.333333333333,4,2,62,85,0,1
119429,-133.333333333333,4,2,1,85,0,1
120029,-133.333333333333,4,2,61,85,0,1
120329,-133.333333333333,4,2,53,85,0,1
120629,-133.333333333333,4,2,54,85,0,0
120929,-133.333333333333,4,2,55,85,0,0
121229,-133.333333333333,4,2,56,85,0,1
122129,-133.333333333333,4,2,52,85,0,1
123629,-133.333333333333,4,2,56,85,0,1
124829,-133.333333333333,4,2,55,85,0,1
125429,-133.333333333333,4,2,54,85,0,1
126029,-133.333333333333,4,2,53,85,0,1
126629,-133.333333333333,4,2,51,85,0,1
127229,-133.333333333333,4,2,53,85,0,1
127679,-133.333333333333,4,2,58,85,0,1
128129,-133.333333333333,4,2,61,85,0,1
128429,-133.333333333333,4,2,63,85,0,1
129029,-133.333333333333,4,2,1,85,0,1
129629,-133.333333333333,4,2,62,85,0,1
130229,-133.333333333333,4,2,52,85,0,1
130829,-133.333333333333,4,2,56,85,0,1
133229,-133.333333333333,4,2,1,85,0,1
134429,-133.333333333333,4,2,62,85,0,1
135629,-133.333333333333,4,2,57,85,0,1
136829,-133.333333333333,4,2,61,85,0,1
138029,-133.333333333333,4,2,62,85,0,1
139229,-133.333333333333,4,2,63,85,0,1
139829,-133.333333333333,4,2,1,85,0,1
140429,-133.333333333333,4,2,62,85,0,0
142829,-133.333333333333,4,2,12,65,0,0
145229,-133.333333333333,4,2,42,65,0,0
146429,-133.333333333333,4,2,36,65,0,0
147629,-133.333333333333,4,2,37,65,0,0
149129,-133.333333333333,4,2,41,65,0,0
149429,-133.333333333333,4,2,42,65,0,0
149729,-133.333333333333,4,2,43,65,0,0
150029,-133.333333333333,4,2,44,65,0,0
152429,315.789473684211,4,2,43,65,1,0
152429,-133.333333333333,4,2,43,65,0,0
153692,-133.333333333333,4,2,36,65,0,0
154165,-133.333333333333,4,2,36,20,0,0
154955,-133.333333333333,4,2,41,65,0,0

[Colours]
Combo1 : 173,173,173
Combo2 : 127,127,127
Combo3 : 49,202,209
Combo4 : 70,134,230
Combo5 : 83,218,184
Combo6 : 183,80,218
Combo7 : 218,65,159

[HitObjects]
407,32,1229,101,2,0:0:0:0:
72,57,3629,6,0,B|134:112|127:197|127:197|166:226|166:226|151:310|227:371,2,360.000013732911,2|2|2,0:0|0:0|0:0,0:0:0:0:
334,353,8429,85,2,0:0:0:0:
407,32,9629,5,2,0:0:0:0:
165,93,10829,6,0,P|178:143|221:183,1,90,6|8,3:2|0:3,0:0:0:0:
292,175,11429,2,0,P|279:125|236:85,2,90,0|8|8,0:0|0:3|0:3,0:0:0:0:
275,263,12329,1,0,3:0:0:0:
346,317,12629,2,0,L|444:330,1,90.0000034332277,0|8,3:2|0:3,0:0:0:0:
511,280,13229,6,0,P|517:236|510:182,1,90.0000034332277,2|8,3:0|0:3,0:0:0:0:
456,119,13829,2,0,P|449:74|454:29,1,90.0000034332277,0|8,0:0|0:3,0:0:0:0:
367,4,14429,2,0,L|278:19,1,90.0000034332277,2|0,0:0|3:2,0:0:0:0:
223,90,15029,1,8,3:3:0:0:
211,179,15329,1,8,3:3:0:0:
200,268,15629,86,0,P|194:318|171:371,1,90.0000034332277,6|8,3:2|0:3,0:0:0:0:
92,335,16229,2,0,P|47:338|-2:361,2,90.0000034332277,0|8|8,0:0|0:3|0:3,0:0:0:0:
107,246,17129,1,0,3:2:0:0:
133,160,17429,2,0,P|177:155|220:165,1,90.0000034332277,0|8,0:0|0:3,0:0:0:0:
287,226,18029,6,0,P|334:237|389:227,1,90.0000034332277,2|8,3:0|0:3,0:0:0:0:
424,156,18629,2,0,P|377:145|322:155,1,90.0000034332277,0|8,3:2|0:3,0:0:0:0:
256,107,19229,85,6,3:2:0:0:
509,231,20429,6,0,P|494:280|450:312,2,90.0000034332277,6|8|0,3:2|0:0|0:0,0:0:0:0:
464,152,21329,2,0,L|415:178,1,45.0000017166138,8|0,0:0|3:2,0:0:0:0:
386,198,21629,2,0,L|284:168,1,90.0000034332277,0|8,0:0|0:0,0:0:0:0:
250,97,22229,2,0,L|163:71,1,90.0000034332277,0|8,0:0|0:0,0:0:0:0:
120,81,22679,1,0,3:2:0:0:
85,108,22829,6,0,L|0:82,2,90.0000034332277,2|8|0,3:2|0:0|0:0,0:0:0:0:
127,187,23729,1,8,0:0:0:0:
170,266,24029,2,0,L|258:287,2,90.0000034332277,2|8|0,0:0|0:0|0:0,0:0:0:0:
80,259,24929,2,0,L|89:312,1,45.0000017166138,8|0,0:0|3:2,0:0:0:0:
96,348,25229,86,0,L|203:370,1,90.0000034332277,2|8,3:2|0:0,0:0:0:0:
259,317,25829,2,0,L|366:339,1,90.0000034332277,0|8,0:0|0:0,0:0:0:0:
432,304,26429,2,0,B|435:254|435:254|458:223|458:223|465:165,1,135.000005149841,2|2,0:0|3:2,0:0:0:0:
367,80,27329,2,0,L|371:124,1,45.0000017166138,10|0,0:0|3:2,0:0:0:0:
349,164,27629,86,0,L|246:175,2,90.0000034332277,2|8|0,3:2|0:0|0:0,0:0:0:0:
425,211,28529,1,8,0:0:0:0:
348,258,28829,2,0,B|327:268|327:268|292:266|292:266|264:282,1,90.0000034332277,2|8,0:0|0:0,0:0:0:0:
184,242,29429,2,0,B|163:252|163:252|128:250|128:250|100:266,1,90.0000034332277,2|8,0:0|0:0,0:0:0:0:
63,240,29879,1,0,3:2:0:0:
32,207,30029,22,0,L|56:110,1,90.0000034332277,2|8,3:2|0:0,0:0:0:0:
142,103,30629,2,0,L|166:6,1,90.0000034332277,0|8,0:0|0:0,0:0:0:0:
251,38,31229,2,0,B|262:86|262:86|249:127|249:127|261:180,1,135.000005149841,2|2,0:0|3:2,0:0:0:0:
382,221,32129,2,0,L|389:162,1,45.0000017166138,10|0,0:0|3:2,0:0:0:0:
393,131,32429,86,0,L|497:120,1,90.0000034332277,2|8,3:2|0:0,0:0:0:0:
504,34,33029,2,0,L|400:45,1,90.0000034332277,0|8,0:0|0:0,0:0:0:0:
329,57,33629,2,0,P|298:96|290:143,2,90.0000034332277,2|8|2,0:0|0:0|0:0,0:0:0:0:
256,3,34529,2,0,L|212:9,1,45.0000017166138,8|0,0:0|3:2,0:0:0:0:
172,32,34829,86,0,L|185:132,1,90.0000034332277,2|8,3:2|0:0,0:0:0:0:
264,161,35429,2,0,L|251:261,1,90.0000034332277,0|8,0:0|0:0,0:0:0:0:
192,317,36029,2,0,P|165:275|168:222,2,90.0000034332277,0|8|2,0:0|0:0|0:0,0:0:0:0:
279,340,36929,2,0,L|329:324,1,45.0000017166138,8|0,0:0|3:2,0:0:0:0:
361,304,37229,22,0,L|369:215,1,90.0000034332277,2|8,3:2|0:0,0:0:0:0:
291,168,37829,2,0,L|283:257,1,90.0000034332277,0|10,0:0|0:0,0:0:0:0:
204,296,38429,1,2,3:0:0:0:
188,206,38729,2,0,B|143:225|143:225|119:264,2,90.0000034332277,8|8|8,0:0|3:3|3:2,0:0:0:0:
210,117,39629,86,0,P|183:50|160:27,1,90.0000034332277,2|8,3:2|0:0,0:0:0:0:
81,43,40229,2,0,P|55:79|42:122,1,90.0000034332277,0|8,0:0|0:0,0:0:0:0:
103,188,40829,2,0,P|90:231|64:267,1,90.0000034332277,2|8,0:0|0:0,0:0:0:0:
27,293,41279,1,0,3:2:0:0:
107,333,41579,2,0,L|151:326,1,45.0000017166138,2|8,3:2|0:0,0:0:0:0:
196,321,41879,1,2,3:2:0:0:
240,311,42029,86,0,L|250:222,1,90.0000034332277,0|8,3:2|0:0,0:0:0:0:
174,172,42629,2,0,L|163:82,1,90.0000034332277,0|8,0:0|0:0,0:0:0:0:
233,25,43229,2,0,P|284:25|336:51,1,90.0000034332277,2|8,0:0|0:0,0:0:0:0:
348,124,43829,2,0,P|389:139|434:138,1,90.0000034332277,2|8,0:0|0:0,0:0:0:0:
478,129,44279,1,0,3:2:0:0:
511,159,44429,22,0,L|500:269,1,90.0000034332277,2|8,3:2|0:0,0:0:0:0:
422,291,45029,2,0,L|430:380,1,90.0000034332277,0|8,0:0|0:0,0:0:0:0:
340,380,45629,2,0,B|297:380|297:380|259:360|259:360|203:360,1,135.000005149841,2|2,0:0|3:2,0:0:0:0:
141,243,46529,2,0,B|191:225,1,45.0000017166138,10|0,0:0|3:2,0:0:0:0:
226,211,46829,86,0,L|316:224,1,90.0000034332277,2|8,3:2|0:0,0:0:0:0:
362,147,47429,2,0,L|272:134,1,90.0000034332277,0|8,0:0|0:0,0:0:0:0:
182,134,48029,2,0,B|148:127|148:127|121:134|121:134|84:127,1,90.0000034332277,2|8,0:0|0:0,0:0:0:0:
87,218,48629,2,0,B|60:222|60:222|33:215|33:215|0:222,1,90.0000034332277,2|8,0:0|0:0,0:0:0:0:
3,132,49229,86,0,P|15:87|50:51,1,90.0000034332277,2|8,3:2|0:0,0:0:0:0:
86,39,49679,1,0,3:2:0:0:
130,38,49829,2,0,L|230:49,1,90.0000034332277,0|8,0:0|0:0,0:0:0:0:
305,73,50429,2,0,P|280:116|231:140,2,90.0000034332277,2|8|0,0:0|0:0|0:0,0:0:0:0:
389,39,51329,2,0,L|397:83,1,45.0000017166138,10|2,3:2|3:2,0:0:0:0:
406,128,51629,22,0,L|388:224,1,90.0000034332277,2|8,3:2|0:0,0:0:0:0:
315,268,52229,2,0,L|297:364,1,90.0000034332277,0|8,0:0|0:0,0:0:0:0:
208,365,52829,2,0,B|152:357|152:357|125:333|125:333|82:327,1,135.000005149841,2|2,0:0|3:2,0:0:0:0:
24,205,53729,2,0,L|31:147,1,45.0000017166138,10|0,0:0|3:2,0:0:0:0:
60,127,54029,86,0,L|158:111,1,90.0000034332277,2|8,3:2|0:0,0:0:0:0:
213,175,54629,2,0,L|301:189,1,90.0000034332277,0|8,0:0|0:0,0:0:0:0:
384,226,55229,2,0,L|482:210,2,90.0000034332277,0|8|0,0:0|0:0|0:0,0:0:0:0:
318,287,56129,2,0,L|288:338,1,45.0000017166138,8|0,0:0|3:2,0:0:0:0:
269,362,56429,86,0,P|204:384|164:382,1,90.0000034332277,2|8,3:2|0:0,0:0:0:0:
120,319,57029,2,0,P|185:297|225:299,1,90.0000034332277,0|8,3:2|0:0,0:0:0:0:
258,223,57629,2,0,B|264:188|264:188|282:171|282:171|289:127,1,90.0000034332277,14|12,3:2|3:2,0:0:0:0:
212,90,58229,2,0,B|218:55|218:55|236:38|236:38|243:-6,1,90.0000034332277,12|12,3:2|3:2,0:0:0:0:
330,0,58829,69,6,3:2:0:0:
492,357,61229,1,2,0:0:0:0:
254,86,62429,6,0,L|356:94,2,90.0000034332277,2|2|2,0:0|0:0|0:0,0:0:0:0:
166,108,63329,1,2,0:0:0:0:
70,127,63629,86,0,P|92:171|218:194,1,180.000006866455,6|0,0:2|0:0,0:0:0:0:
273,262,64529,2,0,L|268:316,1,45.0000017166138,2|2,0:0|0:0,0:0:0:0:
391,0,66029,5,2,0:0:0:0:
364,211,67229,2,0,P|381:294|313:345,1,180.000006866455,2|2,0:0|0:0,0:0:0:0:
147,282,68429,86,0,P|126:212|201:147,1,180,2|0,0:2|0:0,0:0:0:0:
274,193,69329,2,0,L|255:245,1,45.0000017166138,2|2,0:0|0:0,0:0:0:0:
470,200,70829,6,0,P|453:113|386:44,1,180.000006866455,2|2,0:0|0:0,0:0:0:0:
213,30,72029,2,0,P|230:117|297:186,1,180.000006866455,2|2,0:0|0:0,0:0:0:0:
219,346,73229,86,0,P|196:283|87:276,1,180,2|0,0:2|0:0,0:0:0:0:
68,357,74129,2,0,L|129:352,1,45.0000017166138,2|2,0:0|0:0,0:0:0:0:
338,9,75629,6,0,L|318:195,1,180.000006866455,2|2,0:0|0:0,0:0:0:0:
216,336,76829,2,0,L|196:157,1,180.000006866455,2|2,0:2|0:0,0:0:0:0:
37,73,78029,86,0,P|11:117|197:157,1,360.000013732911,2|2,0:2|0:0,0:0:0:0:
484,374,80429,1,2,0:2:0:0:
377,190,81629,6,0,L|371:280,2,90.0000034332277,2|2|2,0:2|0:0|0:0,0:0:0:0:
438,124,82529,1,2,0:0:0:0:
504,63,82829,22,0,P|421:37|353:92,1,180.000006866455,6|0,0:2|0:0,0:0:0:0:
293,157,83729,2,0,L|287:208,1,45.0000017166138,2|2,0:0|0:0,0:0:0:0:
75,335,85229,86,0,L|271:347,1,180.000006866455,2|0,0:0|0:0,0:0:0:0:
405,247,86429,2,0,L|211:237,1,180.000006866455,2|2,0:0|0:0,0:0:0:0:
62,163,87629,6,0,P|28:118|97:28,1,180.000006866455,2|2,0:2|0:0,0:0:0:0:
244,130,88829,2,0,B|280:190|280:190|262:265,2,135.000005149841,2|2|2,0:2|0:0|0:0,0:0:0:0:
191,52,90029,86,0,P|290:51|339:108,1,180.000006866455,2|0,0:2|0:0,0:0:0:0:
199,219,91229,2,0,P|100:220|51:163,1,180.000006866455,2|2,0:2|0:0,0:0:0:0:
123,327,92429,6,0,P|173:358|140:144,1,540.000020599366,2|0,0:2|0:0,0:0:0:0:
300,39,94829,2,0,P|426:175|410:350,1,360.000013732911,0|2,0:2|0:0,0:0:0:0:
113,142,97229,86,0,L|96:246,1,90.0000034332277,2|8,3:2|3:3,0:0:0:0:
192,328,97979,2,0,L|248:334,1,45.0000017166138,0|8,3:2|3:3,0:0:0:0:
281,339,98279,1,0,3:2:0:0:
325,340,98429,2,0,L|304:232,1,90.0000034332277,2|8,3:2|3:3,0:0:0:0:
239,193,99029,2,0,L|247:134,1,45.0000017166138,0|0,3:0|3:0,0:0:0:0:
252,104,99329,1,8,3:3:0:0:
335,70,99629,6,0,P|359:119|362:150,2,67.5000025749207,2|0|0,3:2|3:2|3:2,0:0:0:0:
318,26,100229,2,0,B|362:0|404:24|404:24|440:46|490:26,1,180.000006866455,0|6,3:2|3:2,0:0:0:0:
34,299,102029,86,0,P|78:291|121:305,1,90.0000034332277,2|8,3:2|0:0,0:0:0:0:
154,333,102479,1,0,3:2:0:0:
180,369,102629,2,0,P|223:376|266:362,1,90.0000034332277,0|10,0:0|0:0,0:0:0:0:
308,345,103079,1,2,3:2:0:0:
346,321,103229,2,0,P|353:276|351:232,1,90.0000034332277,0|8,0:0|0:0,0:0:0:0:
283,172,103829,2,0,P|280:127|288:83,1,90.0000034332277,0|8,0:0|0:0,0:0:0:0:
317,48,104279,1,0,3:2:0:0:
360,36,104429,38,0,L|365:93,1,45.0000017166138,2|0,3:2|0:0,0:0:0:0:
396,111,104729,2,0,L|401:168,1,45.0000017166138,8|0,0:0|3:2,0:0:0:0:
428,190,105029,1,0,0:0:0:0:
425,279,105329,1,8,0:0:0:0:
369,349,105629,2,0,L|266:353,1,90.0000034332277,2|8,0:0|0:0,0:0:0:0:
243,269,106229,2,0,L|346:265,1,90.0000034332277,2|8,0:0|0:0,0:0:0:0:
348,185,106829,86,0,P|303:178|259:186,1,90.0000034332277,2|8,3:2|0:0,0:0:0:0:
179,224,107429,2,0,P|134:232|90:225,1,90.0000034332277,0|10,0:0|0:0,0:0:0:0:
52,200,107879,1,2,3:2:0:0:
26,162,108029,2,0,P|23:117|31:73,1,90.0000034332277,0|8,0:0|0:0,0:0:0:0:
113,35,108629,2,0,P|116:80|108:124,1,90.0000034332277,0|8,0:0|0:0,0:0:0:0:
140,154,109079,1,0,3:2:0:0:
181,170,109229,22,0,B|211:155|211:155|222:128|222:128|260:107,2,90.0000034332277,2|8|2,3:2|0:0|0:0,0:0:0:0:
174,259,110129,2,0,L|191:312,1,45.0000017166138,8|0,0:0|3:2,0:0:0:0:
209,341,110429,2,0,P|263:354|304:351,1,90.0000034332277,2|8,0:0|0:0,0:0:0:0:
334,326,110879,1,0,3:2:0:0:
363,291,111029,2,0,P|417:278|458:281,1,90.0000034332277,2|8,0:0|0:0,0:0:0:0:
501,204,111629,38,0,L|494:111,1,90.0000034332277,2|8,3:2|0:0,0:0:0:0:
474,73,112079,1,0,3:2:0:0:
434,51,112229,2,0,L|341:58,1,90.0000034332277,0|10,0:0|0:0,0:0:0:0:
310,88,112679,1,2,3:2:0:0:
283,124,112829,2,0,L|276:213,1,90.0000034332277,0|8,0:0|0:0,0:0:0:0:
195,254,113429,2,0,L|188:164,1,90.0000034332277,0|8,0:0|0:0,0:0:0:0:
185,119,113879,1,0,3:2:0:0:
171,76,114029,38,0,P|121:63|72:63,1,90.0000034332277,2|8,3:2|0:0,0:0:0:0:
25,131,114629,2,0,L|33:240,1,90.0000034332277,2|8,0:0|0:0,0:0:0:0:
47,263,115079,1,0,3:2:0:0:
76,296,115229,2,0,L|130:304,1,45.0000017166138,2|0,0:0|0:0,0:0:0:0:
162,287,115529,2,0,L|216:295,1,45.0000017166138,8|0,0:0|3:2,0:0:0:0:
247,275,115829,1,2,0:0:0:0:
294,198,116129,2,0,L|299:136,1,45.0000017166138,8|0,0:0|3:2,0:0:0:0:
308,109,116429,86,0,L|398:102,1,90.0000034332277,2|8,3:2|0:0,0:0:0:0:
453,31,117029,2,0,L|363:24,1,90.0000034332277,0|8,0:0|0:0,0:0:0:0:
318,18,117479,1,0,3:2:0:0:
274,27,117629,2,0,P|233:61|219:108,1,90.0000034332277,2|8,0:0|0:0,0:0:0:0:
255,177,118229,2,0,P|295:142|309:95,1,90.0000034332277,0|8,0:0|0:0,0:0:0:0:
351,97,118679,1,0,3:2:0:0:
393,112,118829,22,0,L|398:167,1,45.0000017166138,2|0,3:2|0:0,0:0:0:0:
434,182,119129,2,0,L|429:237,1,45.0000017166138,8|0,0:0|3:2,0:0:0:0:
408,266,119429,1,0,0:0:0:0:
322,239,119729,1,8,0:0:0:0:
268,311,120029,1,2,0:0:0:0:
179,295,120329,1,10,0:0:0:0:
175,205,120629,1,2,0:0:0:0:
257,169,120929,1,10,0:0:0:0:
245,79,121229,38,0,P|187:65|153:68,1,90.0000034332277,6|8,3:2|0:0,0:0:0:0:
117,88,121679,1,0,3:2:0:0:
83,118,121829,2,0,L|79:224,1,90.0000034332277,0|10,0:0|0:0,0:0:0:0:
79,252,122279,1,2,3:2:0:0:
82,296,122429,2,0,L|174:306,1,90.0000034332277,0|8,0:0|0:0,0:0:0:0:
227,235,123029,2,0,L|135:225,1,90.0000034332277,0|8,0:0|0:0,0:0:0:0:
118,184,123479,1,0,3:2:0:0:
128,140,123629,38,0,L|188:134,1,45.0000017166138,2|0,3:2|0:0,0:0:0:0:
208,107,123929,2,0,L|268:113,1,45.0000017166138,8|0,0:0|3:2,0:0:0:0:
287,140,124229,1,0,0:0:0:0:
366,182,124529,1,8,0:0:0:0:
331,265,124829,2,0,L|329:366,1,90.0000034332277,2|8,0:0|0:0,0:0:0:0:
414,383,125429,2,0,L|411:294,1,90.0000034332277,2|8,0:0|0:0,0:0:0:0:
426,250,125879,1,0,3:2:0:0:
456,216,126029,86,0,P|397:189|356:189,1,90.0000034332277,2|8,3:2|0:0,0:0:0:0:
330,202,126479,1,0,3:2:0:0:
287,216,126629,2,0,P|242:209|203:187,1,90.0000034332277,2|8,0:0|0:0,0:0:0:0:
199,97,127229,2,0,L|302:92,2,90.0000034332277,2|8|0,0:0|0:0|0:0,0:0:0:0:
114,135,128129,2,0,L|110:193,1,45.0000017166138,10|0,0:0|3:2,0:0:0:0:
104,224,128429,22,0,L|146:246,1,45.0000017166138,2|0,3:2|0:0,0:0:0:0:
157,287,128729,2,0,L|203:297,1,45.0000017166138,8|0,0:0|3:2,0:0:0:0:
223,335,129029,2,0,L|270:333,1,45.0000017166138,0|0,0:0|3:2,0:0:0:0:
313,329,129329,1,8,0:0:0:0:
357,250,129629,2,0,P|330:213|292:191,1,90.0000034332277,2|8,0:0|0:0,0:0:0:0:
202,183,130229,2,0,P|163:160|137:124,1,90.0000034332277,2|8,0:0|0:0,0:0:0:0:
135,78,130679,1,0,3:2:0:0:
127,33,130829,38,0,L|29:27,1,90.0000034332277,2|8,3:2|0:0,0:0:0:0:
13,66,131279,1,0,3:2:0:0:
2,110,131429,2,0,L|10:207,1,90.0000034332277,0|8,0:0|0:0,0:0:0:0:
21,243,131879,1,0,3:2:0:0:
39,283,132029,2,0,P|86:305|128:312,1,90.0000034332277,0|8,0:0|0:0,0:0:0:0:
206,275,132629,2,0,P|250:283|291:303,1,90.0000034332277,0|8,0:0|0:0,0:0:0:0:
324,331,133079,1,0,3:2:0:0:
368,325,133229,38,0,L|371:229,1,90.0000034332277,0|8,3:2|0:0,0:0:0:0:
408,209,133679,1,0,3:2:0:0:
446,185,133829,2,0,L|443:95,1,90.0000034332277,0|8,0:0|0:0,0:0:0:0:
367,46,134429,2,0,P|411:17|448:12,2,90.0000034332277,2|8|0,0:0|0:0|0:0,0:0:0:0:
307,113,135329,2,0,L|301:172,1,45.0000017166138,8|0,0:0|3:2,0:0:0:0:
294,202,135629,86,0,P|241:194|201:158,1,90.0000034332277,2|8,3:2|0:0,0:0:0:0:
195,131,136079,1,0,3:2:0:0:
175,90,136229,2,0,P|137:65|93:61,1,90.0000034332277,0|8,0:0|0:0,0:0:0:0:
54,83,136679,1,0,3:2:0:0:
43,126,136829,2,0,L|39:217,1,90.0000034332277,2|8,0:0|0:0,0:0:0:0:
97,283,137429,2,0,L|101:374,1,90.0000034332277,0|8,0:0|0:0,0:0:0:0:
146,375,137879,1,0,3:2:0:0:
179,345,138029,22,0,L|269:344,1,90.0000034332277,2|8,3:2|3:2,0:0:0:0:
305,261,138629,2,0,L|215:260,1,90.0000034332277,0|8,3:2|3:2,0:0:0:0:
178,233,139079,1,0,3:2:0:0:
147,199,139229,2,0,L|197:185,1,45.0000017166138,14|0,3:2|3:2,0:0:0:0:
212,147,139529,2,0,L|262:133,1,45.0000017166138,12|0,3:2|3:2,0:0:0:0:
274,93,139829,2,0,L|324:79,1,45.0000017166138,12|0,3:2|3:2,0:0:0:0:
340,41,140129,1,12,3:2:0:0:
256,4,140429,5,6,3:2:0:0:
420,316,142829,5,2,0:0:0:0:
63,61,145229,86,0,B|125:116|118:201|118:201|157:230|157:230|137:295|218:375,2,360.000013732911,2|2|2,0:2|0:0|0:0,0:0:0:0:
401,196,148829,6,0,B|433:186|433:186|443:163|443:163|479:153,1,90.0000034332277,2|2,0:0|0:0,0:0:0:0:
420,81,149429,2,0,B|388:91|388:91|378:114|378:114|342:124,1,90.0000034332277,2|2,0:0|0:0,0:0:0:0:
256,112,150029,85,2,0:2:0:0:
80,352,152429,5,2,0:2:0:0:
432,352,153692,1,2,0:0:0:0:
256,36,154955,5,6,3:2:0:0:
