osu file format v14

[General]
AudioFilename: audio.mp3
AudioLeadIn: 0
PreviewTime: 66060
Countdown: 0
SampleSet: Soft
StackLeniency: 0.6
Mode: 0
LetterboxInBreaks: 0
WidescreenStoryboard: 1

[Editor]
Bookmarks: 15550,24733,39427,66060,82590
DistanceSpacing: 1
BeatDivisor: 4
GridSize: 4
TimelineZoom: 3.199999

[Metadata]
Title:Aragami
TitleUnicode:Aragami
Artist:xi
ArtistUnicode:xi
Creator:KnightC0re
Version:Light Insane
Source:BMS
Tags:deemo heaven deathstream celektus mrmenda -jordan- kaeldori
BeatmapID:1330800
BeatmapSetID:621460

[Difficulty]
HPDrainRate:6
CircleSize:4
OverallDifficulty:7
ApproachRate:9
SliderMultiplier:1.4
SliderTickRate:1

[Events]
//Background and Video events
0,0,"ara.jpg",0,0
//Break Periods
2,12334,14925
2,23096,24133
//Storyboard Layer 0 (Background)
//Storyboard Layer 1 (Fail)
//Storyboard Layer 2 (Pass)
//Storyboard Layer 3 (Foreground)
//Storyboard Sound Samples

[TimingPoints]
7,612.244897959184,4,2,1,20,1,0
7353,-133.333333333333,4,2,1,20,0,0
9802,681.818181818182,4,2,1,15,1,0
9802,-200,4,2,1,15,0,0
10483,769.230769230769,4,2,1,15,1,0
11252,882.352941176471,4,2,1,10,1,0
11252,-200,4,2,1,10,0,0
12134,1034.48275862069,4,2,1,10,1,0
13168,1132.07547169811,4,2,1,10,1,0
14300,1250,4,2,1,10,1,0
15550,306.122448979592,3,2,1,70,1,1
15550,-90.9090909090909,3,2,1,70,0,1
21060,-100,3,2,1,70,0,1
22896,-133.333333333333,3,2,1,30,0,0
37590,-90.9090909090909,3,2,1,60,0,0
39427,-90.9090909090909,3,2,1,45,0,0
43101,-90.9090909090909,3,2,1,60,0,0
44019,-90.9090909090909,3,2,1,60,0,0
44325,-90.9090909090909,3,2,1,65,0,0
44631,-90.9090909090909,3,2,1,70,0,0
46774,-90.9090909090909,3,2,1,70,0,0
50447,-125,3,2,1,30,0,0
51366,-111.111111111111,3,2,1,50,0,0
51672,-100,3,2,1,50,0,0
51978,-90.9090909090909,3,2,1,60,0,0
52284,-90.9090909090909,3,2,1,70,0,0
54121,-100,3,2,2,50,0,0
57794,-90.9090909090909,3,2,1,70,0,0
66060,-111.111111111111,3,2,1,50,0,0
73713,-90.9090909090909,3,2,1,50,0,0
74019,-111.111111111111,3,2,1,50,0,0
76162,-100,3,2,1,50,0,0
77998,-100,3,2,1,55,0,0
78917,-100,3,2,1,60,0,0
79376,-100,3,2,1,62,0,0
79835,-100,3,2,1,65,0,0
80447,-100,3,2,1,67,0,0
81672,-133.333333333333,3,2,1,30,0,0
82590,-83.3333333333333,3,2,1,70,0,1
97284,-111.111111111111,3,2,1,50,0,0
104631,-83.3333333333333,3,2,1,70,0,1
109223,-83.3333333333333,3,2,1,80,0,1
110141,-83.3333333333333,3,2,1,90,0,1
111060,-83.3333333333333,3,2,1,100,0,1
111978,-100,3,2,1,50,0,0
112896,-111.111111111111,3,2,1,40,0,0
113815,315.789473684211,3,2,1,30,1,0
113815,-125,3,2,1,30,0,0
114762,326.086956521739,3,2,1,20,1,0
114762,-142.857142857143,3,2,1,20,0,0
115251,337.078651685393,3,2,1,20,1,0
115419,348.837209302326,3,2,1,20,1,0
115419,-142.857142857143,3,2,1,20,0,0
115593,361.44578313253,3,2,1,20,1,0
115773,337.078651685393,3,2,1,10,1,0

[Colours]
Combo1 : 81,81,81
Combo2 : 255,0,0
Combo3 : 255,128,0
Combo4 : 151,151,151

[HitObjects]
159,157,1537,38,0,P|150:191|152:226,2,70,0|2|0,0:0|0:0|0:0,0:0:0:0:
246,191,2455,6,0,P|254:157|252:122,1,70,2|0,0:0|0:0,0:0:0:0:
333,41,3067,2,0,P|324:74|326:109,2,70,2|0|2,0:0|0:0|0:0,0:0:0:0:
425,242,4904,38,0,P|393:257|358:259,1,70,2|0,0:0|0:0,0:0:0:0:
301,187,5516,2,0,P|332:172|367:170,2,70,2|0|2,0:0|0:0|0:0,0:0:0:0:
441,139,7353,6,0,L|424:249,1,105.000004005432,8|0,0:0|0:0,0:0:0:0:
351,66,8577,2,0,L|368:176,1,105.000004005432
411,322,9802,2,0,P|446:320|478:306,1,70,2|0,0:0|0:0,0:0:0:0:
389,248,11252,2,0,P|354:246|322:232,1,70,2|2,0:0|0:0,0:0:0:0:
232,114,15550,6,0,P|221:150|229:188,2,77.0000023498536,12|0|0,0:0|0:0|0:0,0:0:0:0:
350,153,16009,2,0,P|360:189|352:227,2,77.0000023498536,8|0|0,0:0|0:0|0:0,0:0:0:0:
229,188,16468,2,0,L|245:273,1,77.0000023498536,8|0,0:0|0:0,0:0:0:0:
99,211,16774,2,0,L|113:135,1,77.0000023498536,8|0,0:0|0:0,0:0:0:0:
258,167,17080,2,0,L|274:252,1,77.0000023498536,8|0,0:0|0:0,0:0:0:0:
235,32,17386,6,0,P|271:20|309:22,2,77.0000023498536,8|0|0,0:0|0:0|0:0,0:0:0:0:
199,161,17845,2,0,P|162:173|124:171,2,77.0000023498536,8|0|0,0:0|0:0|0:0,0:0:0:0:
135,75,18305,38,0,L|107:146,1,77.0000023498536,8|0,0:0|0:0,0:0:0:0:
199,161,18611,2,0,L|210:237,1,77.0000023498536,8|0,0:0|0:0,0:0:0:0:
297,203,18917,2,0,L|344:263,1,77.0000023498536,8|0,0:0|0:0,0:0:0:0:
403,190,19223,6,0,P|442:206|479:209,2,77.0000023498536,12|0|0,0:0|0:0|0:0,0:0:0:0:
335,63,19682,2,0,P|295:46|259:44,2,77.0000023498536,8|0|0,0:0|0:0|0:0,0:0:0:0:
275,162,20141,37,8,0:0:0:0:
490,133,20447,2,0,L|474:222,1,77.0000023498536,8|0,0:0|0:0,0:0:0:0:
355,66,20754,2,0,L|370:155,1,77.0000023498536,8|0,0:0|0:0,0:0:0:0:
444,37,21060,6,0,B|462:99|409:164|324:181|258:109|258:109|194:160|131:106|131:106|109:231|275:195|354:240|336:312|307:366|251:379|208:341|231:299,1,840,8|12,0:0|0:0,0:0:0:0:
409,250,24733,5,8,0:0:0:0:
241,274,25192,2,0,P|247:223|283:187,1,105.000004005432,2|0,0:0|0:0,0:0:0:0:
324,260,25652,2,0,P|303:332|231:357,1,157.500006008148,2|0,0:0|0:0,0:0:0:0:
143,309,26264,2,0,L|137:249,1,52.5000020027161
130,182,26570,5,0,0:0:0:0:
129,182,26876,2,0,P|150:134|192:104,1,105.000004005432,2|0,0:0|0:0,0:0:0:0:
215,188,27488,2,0,L|203:295,2,105.000004005432,0|2|2,0:0|0:0|0:0,0:0:0:0:
232,80,28407,38,0,B|288:95|351:74|351:74|328:129|328:129|402:110|460:132,2,315.000012016297,8|2|8,0:0|0:0|0:0,0:0:0:0:
96,135,30550,2,0,P|171:156|226:211,1,157.500006008148,2|0,0:0|0:0,0:0:0:0:
247,326,31162,2,0,P|313:287|334:213,1,157.500006008148,2|0,0:0|0:0,0:0:0:0:
272,116,31774,2,0,P|294:101|320:96,1,52.5000020027161,2|0,0:0|0:0,0:0:0:0:
470,71,32080,6,0,P|448:56|422:51,2,52.5000020027161,8|0|2,0:0|0:0|0:0,0:0:0:0:
454,212,32692,2,0,L|443:277,1,52.5000020027161,2|0,0:0|0:0,0:0:0:0:
365,341,32998,38,0,P|386:355|412:360,2,52.5000020027161,0|0|2,0:0|0:0|0:0,0:0:0:0:
381,200,33610,2,0,L|392:135,1,52.5000020027161,2|0,0:0|0:0,0:0:0:0:
470,71,33917,6,0,P|448:56|422:51,2,52.5000020027161,0|0|2,0:0|0:0|0:0,0:0:0:0:
310,139,34529,2,0,L|255:160,1,52.5000020027161,2|0,0:0|0:0,0:0:0:0:
145,228,34835,38,0,P|190:255|245:252,2,105.000004005432,0|2|2,0:0|0:0|0:0,0:0:0:0:
63,79,35754,1,8,0:0:0:0:
256,192,35830,12,0,37437,0:0:0:0:
216,211,37590,22,0,L|291:227,1,77.0000023498536,14|10,0:0|0:0,0:0:0:0:
151,116,37896,1,0,0:0:0:0:
106,248,38049,1,2,0:0:0:0:
101,256,38126,1,0,0:0:0:0:
96,264,38203,2,0,P|59:271|21:262,1,77.0000023498536,8|2,0:0|0:0,0:0:0:0:
229,311,38509,6,0,L|305:316,1,77.0000023498536,10|0,0:0|0:0,0:0:0:0:
228,185,38815,2,0,L|291:228,1,77.0000023498536,10|0,0:0|0:0,0:0:0:0:
290,74,39121,2,0,L|323:143,1,77.0000023498536,10|0,0:0|0:0,0:0:0:0:
398,10,39427,5,12,0:0:0:0:
392,98,39580,2,0,L|375:251,1,154.000004699707,8|8,0:0|0:0,0:0:0:0:
295,339,40039,2,0,P|266:316|248:271,1,77.0000023498536,8|0,0:0|0:0,0:0:0:0:
287,157,40345,5,0,0:0:0:0:
420,301,40652,1,2,0:0:0:0:
228,344,40958,1,2,0:0:0:0:
287,157,41264,37,8,0:0:0:0:
214,214,41417,2,0,P|198:140|239:78,1,154.000004699707,8|0,0:0|0:0,0:0:0:0:
362,160,41876,2,0,P|324:165|286:156,1,77.0000023498536,8|0,0:0|0:0,0:0:0:0:
239,78,42182,5,8,0:0:0:0:
362,160,42488,2,0,L|348:235,1,77.0000023498536
239,307,42794,1,0,0:0:0:0:
222,290,42871,1,0,0:0:0:0:
201,300,42947,1,0,0:0:0:0:
184,283,43024,1,0,0:0:0:0:
163,293,43101,5,12,0:0:0:0:
277,187,43254,1,8,0:0:0:0:
277,187,43560,1,8,0:0:0:0:
281,300,43713,2,0,P|242:302|207:289,1,77.0000023498536,8|0,0:0|0:0,0:0:0:0:
174,221,44019,6,0,P|183:258|206:288,1,77.0000023498536,8|0,0:0|0:0,0:0:0:0:
119,158,44325,2,0,P|99:190|94:228,1,77.0000023498536,8|0,0:0|0:0,0:0:0:0:
124,74,44631,2,0,P|86:83|56:106,1,77.0000023498536,8|0,0:0|0:0,0:0:0:0:
186,20,44937,38,0,P|247:66|323:67,1,154.000004699707,12|0,0:0|0:0,0:0:0:0:
459,131,45550,1,2,0:0:0:0:
459,131,45856,6,0,P|383:132|322:177,1,154.000004699707,12|0,0:0|0:0,0:0:0:0:
247,300,46468,2,0,L|265:343,3,38.5000011749268
301,355,46774,38,0,P|339:353|374:337,1,77.0000023498536,8|0,0:0|0:0,0:0:0:0:
257,241,47080,2,0,P|285:266|321:280,1,77.0000023498536,8|0,0:0|0:0,0:0:0:0:
306,129,47386,2,0,P|307:167|323:202,1,77.0000023498536,8|0,0:0|0:0,0:0:0:0:
420,85,47692,6,0,P|394:113|380:149,1,77.0000023498536,10|0,0:0|0:0,0:0:0:0:
420,264,47998,2,0,P|445:235|459:199,1,77.0000023498536,10|0,0:0|0:0,0:0:0:0:
415,57,48305,1,10,0:0:0:0:
331,165,48458,1,0,0:0:0:0:
425,292,48611,38,0,P|450:263|464:227,1,77.0000023498536,8|0,0:0|0:0,0:0:0:0:
312,242,48917,2,0,P|350:240|385:224,1,77.0000023498536,8|0,0:0|0:0,0:0:0:0:
267,126,49223,2,0,P|295:151|331:165,1,77.0000023498536,8|0,0:0|0:0,0:0:0:0:
316,16,49529,5,10,0:0:0:0:
466,176,49682,1,0,0:0:0:0:
466,176,49759,1,0,0:0:0:0:
466,176,49835,2,0,P|464:137|448:102,1,77.0000023498536,10|0,0:0|0:0,0:0:0:0:
417,72,50065,1,0,0:0:0:0:
417,72,50141,1,10,0:0:0:0:
331,165,50294,1,2,0:0:0:0:
241,54,50447,38,0,P|190:34|138:50,1,112,8|0,0:0|0:0,0:0:0:0:
84,138,51060,2,0,L|90:165,3,28
10,193,51366,2,0,L|4:223,3,31.4999990386963
84,248,51672,2,0,L|91:282,3,35
10,303,51978,2,0,L|3:340,3,38.5000011749268
85,358,52284,6,0,P|122:352|152:328,1,77.0000023498536,8|8,0:0|0:0,0:0:0:0:
152,328,52743,1,8,0:0:0:0:
152,328,53050,1,8,0:0:0:0:
188,243,53203,38,0,L|218:220,3,38.5000011749268,8|0|0|0,0:0|0:0|0:0|0:0,0:0:0:0:
290,250,53509,2,0,L|295:211,3,38.5000011749268
367,182,53815,2,0,L|344:151,3,38.5000011749268
373,79,54121,22,0,P|309:82|266:146,1,140,10|0,0:0|0:0,0:0:0:0:
281,261,54733,1,2,0:0:0:0:
247,331,54886,1,0,0:0:0:0:
322,322,55039,6,0,P|385:234|281:260,1,280,2|2,0:0|0:0,0:0:0:0:
205,349,55958,38,0,P|139:365|75:339,1,140,2|0,0:0|0:0,0:0:0:0:
29,232,56570,1,2,0:0:0:0:
83,111,56876,2,0,B|109:65|109:65|151:79|177:123,1,140,10|0,0:0|0:0,0:0:0:0:
236,319,57488,5,0,0:0:0:0:
247,305,57564,1,0,0:0:0:0:
255,290,57641,1,0,0:0:0:0:
262,274,57717,1,0,0:0:0:0:
266,256,57794,6,0,P|239:187|167:171,1,154.000004699707,10|0,0:0|0:0,0:0:0:0:
40,234,58407,1,2,0:0:0:0:
183,250,58560,1,0,0:0:0:0:
308,152,58713,6,0,P|248:106|173:95,1,154.000004699707,10|0,0:0|0:0,0:0:0:0:
183,250,59325,1,2,0:0:0:0:
319,209,59631,38,0,P|320:134|265:84,1,154.000004699707,2|0,0:0|0:0,0:0:0:0:
106,129,60243,1,2,0:0:0:0:
107,128,60550,2,0,P|81:198|120:263,1,154.000004699707,2|0,0:0|0:0,0:0:0:0:
320,208,61162,1,2,0:0:0:0:
348,214,61238,1,0,0:0:0:0:
376,220,61315,1,8,0:0:0:0:
404,226,61391,1,8,0:0:0:0:
432,233,61468,5,8,0:0:0:0:
256,192,61544,12,0,64682,0:0:0:0:
198,99,65141,6,0,L|208:136,11,38.5000011749268,0|0|0|0|0|0|0|0|8|8|8|8,0:0|0:0|0:0|0:0|0:0|0:0|0:0|0:0|0:0|0:0|0:0|0:0,0:0:0:0:
216,148,66060,6,0,P|273:175|332:152,1,125.999996154785,12|0,0:0|0:0,0:0:0:0:
390,97,66519,2,0,P|333:70|273:92,1,125.999996154785
197,206,66978,38,0,L|188:273,1,62.9999980773926
285,323,67284,2,0,L|276:260,1,62.9999980773926
163,184,67590,2,0,L|172:246,1,62.9999980773926
301,344,67896,6,0,L|317:219,1,125.999996154785,8|0,0:0|0:0,0:0:0:0:
216,122,68356,2,0,L|232:246,1,125.999996154785
376,237,68815,38,0,P|348:222|316:219,1,62.9999980773926
173,228,69121,2,0,P|200:242|232:245,1,62.9999980773926
371,202,69427,2,0,P|340:198|309:205,1,62.9999980773926
176,261,69733,22,0,P|208:265|238:257,1,62.9999980773926
343,140,70039,1,14,0:0:0:0:
210,177,70192,22,0,P|185:197|172:225,2,62.9999980773926
261,311,70652,6,0,L|246:242,1,62.9999980773926
155,170,70958,2,0,L|141:231,1,62.9999980773926
230,334,71264,2,0,L|243:272,1,62.9999980773926
124,193,71570,38,0,L|137:254,1,62.9999980773926
261,151,71876,2,0,L|200:131,1,62.9999980773926
228,290,72182,2,0,L|274:247,1,62.9999980773926
98,187,72488,6,0,P|97:218|107:249,1,62.9999980773926
277,132,72794,2,0,P|250:115|219:107,1,62.9999980773926
235,313,73101,2,8,L|260:299,8,15.7499995193482
390,269,73560,38,8,L|364:255,2,15.7499995193482
390,269,73713,38,0,P|410:237|417:199,1,77.0000023498536,6|0,0:0|0:0,0:0:0:0:
277,132,74019,1,0,0:0:0:0:
278,151,74095,1,0,0:0:0:0:
283,168,74172,2,0,P|287:183|296:198,1,31.4999990386963
390,269,74325,6,0,L|444:299,1,62.9999980773926,8|0,0:0|0:0,0:0:0:0:
303,227,74631,2,0,L|248:257,1,62.9999980773926,8|0,0:0|0:0,0:0:0:0:
390,185,74937,2,0,L|446:213,1,62.9999980773926,8|0,0:0|0:0,0:0:0:0:
303,143,75243,6,0,L|248:173,2,62.9999980773926,8|0|0,0:0|0:0|0:0,0:0:0:0:
178,127,75703,2,0,L|161:187,2,62.9999980773926,8|0|0,0:0|0:0|0:0,0:0:0:0:
78,204,76162,38,0,P|91:236|116:260,1,70,8|0,0:0|0:0,0:0:0:0:
229,182,76468,2,0,P|194:177|160:187,1,70,8|0,0:0|0:0,0:0:0:0:
172,323,76774,2,0,P|192:295|201:261,1,70,8|0,0:0|0:0,0:0:0:0:
78,204,77080,21,0,0:0:0:0:
82,221,77156,1,0,0:0:0:0:
86,238,77233,1,0,0:0:0:0:
90,255,77309,1,0,0:0:0:0:
93,272,77386,2,0,P|120:292|154:301,1,70,14|0,0:0|0:0,0:0:0:0:
192,212,77692,22,0,P|174:214|159:223,3,35
234,276,77998,37,0,0:0:0:0:
249,267,78074,1,0,0:0:0:0:
264,259,78151,1,0,0:0:0:0:
280,251,78227,1,0,0:0:0:0:
295,243,78304,2,0,P|307:211|307:176,1,70,14|0,0:0|0:0,0:0:0:0:
209,160,78611,22,0,P|215:176|228:189,3,35
260,103,78917,6,0,P|195:86|142:127,1,140,14|0,0:0|0:0,0:0:0:0:
172,276,79376,2,0,P|219:228|210:161,1,140,14|0,0:0|0:0,0:0:0:0:
67,111,79835,6,0,P|65:146|75:180,1,70,14|0,0:0|0:0,0:0:0:0:
272,188,80141,2,0,P|242:168|208:160,1,70,10|0,0:0|0:0,0:0:0:0:
102,327,80447,2,0,P|134:311|158:285,1,70,10|0,0:0|0:0,0:0:0:0:
67,111,80754,37,14,0:0:0:0:
337,101,81366,37,0,0:0:0:0:
336,100,81672,38,0,P|323:151|288:189,2,105.000004005432
336,100,82590,22,0,L|346:148,4,41.9999987182618,12|0|0|0|2,0:0|0:0|0:0|0:0|0:0,0:0:0:0:
272,290,83050,2,0,L|262:242,4,41.9999987182618,8|0|0|0|2,0:0|0:0|0:0|0:0|0:0,0:0:0:0:
418,156,83509,6,0,P|397:192|361:213,1,83.9999974365235,8|0,0:0|0:0,0:0:0:0:
189,235,83815,2,0,P|209:198|245:177,1,83.9999974365235,8|0,0:0|0:0,0:0:0:0:
341,309,84121,2,0,P|305:288|284:252,1,83.9999974365235,8|0,0:0|0:0,0:0:0:0:
262,80,84427,38,0,L|289:113,4,41.9999987182618,8|0|0|0|2,0:0|0:0|0:0|0:0|0:0,0:0:0:0:
292,283,84886,2,0,L|265:250,4,41.9999987182618,8|0|0|0|2,0:0|0:0|0:0|0:0|0:0,0:0:0:0:
185,91,85345,6,0,P|192:50|218:17,1,83.9999974365235,10|0,0:0|0:0,0:0:0:0:
335,180,85652,2,0,P|295:193|254:187,1,83.9999974365235,10|0,0:0|0:0,0:0:0:0:
336,7,85958,1,10,0:0:0:0:
353,18,86034,1,0,0:0:0:0:
367,33,86111,1,0,0:0:0:0:
378,51,86187,1,0,0:0:0:0:
384,73,86264,38,0,P|307:102|224:92,1,167.999994873047,14|0,0:0|0:0,0:0:0:0:
224,92,86723,2,0,P|253:169|243:252,1,167.999994873047,10|0,0:0|0:0,0:0:0:0:
242,252,87182,6,0,P|319:223|402:233,1,167.999994873047,10|0,0:0|0:0,0:0:0:0:
402,233,87641,2,0,P|373:156|383:73,1,167.999994873047,10|0,0:0|0:0,0:0:0:0:
383,72,88101,38,0,P|347:91|305:100,1,83.9999974365235,10|0,0:0|0:0,0:0:0:0:
163,26,88407,2,0,P|198:47|227:78,1,83.9999974365235,10|0,0:0|0:0,0:0:0:0:
235,238,88713,1,10,0:0:0:0:
267,118,88866,1,0,0:0:0:0:
383,72,89019,5,10,0:0:0:0:
252,295,89325,2,0,P|292:310|333:306,1,83.9999974365235,2|0,0:0|0:0,0:0:0:0:
364,84,89631,2,0,P|324:69|283:73,1,83.9999974365235,10|0,0:0|0:0,0:0:0:0:
303,229,89937,38,0,L|314:145,1,83.9999974365235,14|0,0:0|0:0,0:0:0:0:
193,3,90243,2,0,L|181:86,1,83.9999974365235,8|0,0:0|0:0,0:0:0:0:
314,145,90550,1,10,0:0:0:0:
181,86,90703,1,8,0:0:0:0:
48,145,90856,6,0,L|131:152,2,83.9999974365235,10|0|0,0:0|0:0|0:0,0:0:0:0:
78,306,91315,1,2,0:0:0:0:
240,269,91468,2,0,L|204:192,1,83.9999974365235,8|0,0:0|0:0,0:0:0:0:
143,79,91774,38,0,P|181:60|222:61,1,83.9999974365235,10|0,0:0|0:0,0:0:0:0:
266,230,92080,2,0,P|231:207|211:170,1,83.9999974365235,8|0,0:0|0:0,0:0:0:0:
340,53,92386,2,0,P|337:95|316:130,1,83.9999974365235,10|0,0:0|0:0,0:0:0:0:
134,207,92692,6,0,P|92:204|56:183,1,83.9999974365235,10|0,0:0|0:0,0:0:0:0:
249,150,92998,2,0,P|267:187|266:228,1,83.9999974365235,10|0,0:0|0:0,0:0:0:0:
143,79,93305,2,0,P|166:44|202:23,1,83.9999974365235,10|0,0:0|0:0,0:0:0:0:
306,45,93534,1,0,0:0:0:0:
306,45,93611,38,0,L|386:68,1,83.9999974365235,14|8,0:0|0:0,0:0:0:0:
247,113,93917,2,0,L|327:136,1,83.9999974365235,8|8,0:0|0:0,0:0:0:0:
188,181,94223,2,0,L|268:204,1,83.9999974365235,8|8,0:0|0:0,0:0:0:0:
349,180,94453,1,0,0:0:0:0:
349,180,94529,6,0,L|268:203,1,83.9999974365235,14|8,0:0|0:0,0:0:0:0:
408,248,94835,2,0,L|327:271,1,83.9999974365235,8|8,0:0|0:0,0:0:0:0:
467,316,95141,2,0,L|386:339,1,83.9999974365235,8|8,0:0|0:0,0:0:0:0:
278,351,95447,38,0,P|215:277|310:295,1,251.999992309571,10|2,0:0|0:0,0:0:0:0:
141,353,96366,2,0,P|136:271|178:200,2,167.999994873047,8|8|8,0:0|0:0|0:0,0:0:0:0:
377,236,97284,22,0,L|365:174,1,62.9999980773926,12|8,0:0|0:0,0:0:0:0:
289,202,97743,2,0,L|277:140,1,62.9999980773926,8|8,0:0|0:0,0:0:0:0:
201,168,98203,2,0,L|177:44,2,125.999996154785,8|0|0,0:0|0:0|0:0,0:0:0:0:
135,236,99121,6,0,L|146:174,1,62.9999980773926,8|8,0:0|0:0,0:0:0:0:
223,202,99580,2,0,L|234:140,1,62.9999980773926,8|8,0:0|0:0,0:0:0:0:
311,168,100040,2,0,L|334:44,2,125.999996154785,8|0|0,0:0|0:0|0:0,0:0:0:0:
287,293,100805,1,8,0:0:0:0:
287,293,100881,1,8,0:0:0:0:
287,293,100958,38,0,L|349:303,1,62.9999980773926,14|10,0:0|0:0,0:0:0:0:
208,241,101417,2,0,L|145:251,1,62.9999980773926,10|10,0:0|0:0,0:0:0:0:
287,189,101876,2,0,L|411:210,2,125.999996154785,10|0|0,0:0|0:0|0:0,0:0:0:0:
225,91,102794,6,0,L|162:80,1,62.9999980773926,10|10,0:0|0:0,0:0:0:0:
304,143,103253,2,0,L|366:132,1,62.9999980773926,10|10,0:0|0:0,0:0:0:0:
225,195,103712,2,0,L|100:173,2,125.999996154785,10|0|0,0:0|0:0|0:0,0:0:0:0:
337,218,104478,1,0,0:0:0:0:
337,218,104555,1,0,0:0:0:0:
337,217,104631,6,0,P|328:177|304:143,1,83.9999974365235,8|0,0:0|0:0,0:0:0:0:
386,282,104937,2,0,P|408:247|415:205,1,83.9999974365235,8|0,0:0|0:0,0:0:0:0:
375,361,105243,2,0,P|415:352|449:328,1,83.9999974365235,8|0,0:0|0:0,0:0:0:0:
233,361,105550,6,0,P|192:352|158:328,1,83.9999974365235,10|0,0:0|0:0,0:0:0:0:
222,282,105856,2,0,P|199:247|192:205,1,83.9999974365235,8|0,0:0|0:0,0:0:0:0:
271,217,106162,2,0,P|279:176|303:142,1,83.9999974365235,8|0,0:0|0:0,0:0:0:0:
439,115,106468,38,0,P|430:155|406:189,1,83.9999974365235,8|0,0:0|0:0,0:0:0:0:
332,42,106774,2,0,P|354:76|361:118,1,83.9999974365235,8|0,0:0|0:0,0:0:0:0:
204,66,107080,2,0,P|244:74|278:98,1,83.9999974365235,8|0,0:0|0:0,0:0:0:0:
130,173,107386,6,0,P|164:150|206:143,1,83.9999974365235,10|0,0:0|0:0,0:0:0:0:
154,300,107692,2,0,P|162:259|186:225,1,83.9999974365235,8|0,0:0|0:0,0:0:0:0:
261,373,107998,2,0,P|238:338|231:296,1,83.9999974365235,8|0,0:0|0:0,0:0:0:0:
325,198,108228,1,0,0:0:0:0:
325,198,108305,38,0,P|284:322|228:204,1,335.999989746094,10|0,0:0|0:0,0:0:0:0:
228,204,109223,2,0,L|191:224,3,41.9999987182618
278,141,109529,2,0,L|237:129,3,41.9999987182618
357,131,109835,2,0,L|336:94,3,41.9999987182618
419,181,110141,6,0,P|431:139|423:97,1,83.9999974365235,8|0,0:0|0:0,0:0:0:0:
376,249,110447,2,0,P|418:260|460:252,1,83.9999974365235,8|0,0:0|0:0,0:0:0:0:
308,205,110754,2,0,P|296:247|304:289,1,83.9999974365235,8|0,0:0|0:0,0:0:0:0:
351,137,111060,2,0,P|308:125|266:133,1,83.9999974365235,10|0,0:0|0:0,0:0:0:0:
161,240,111366,2,0,P|203:251|245:243,1,83.9999974365235,10|0,0:0|0:0,0:0:0:0:
375,107,111672,2,0,L|353:101,8,20.9999993591309,10|0|0|0|0|0|0|0|14,0:0|0:0|0:0|0:0|0:0|0:0|0:0|0:0|0:0,0:0:0:0:
256,192,112055,12,2,115773,0:0:0:0:
