osu file format v14

[General]
AudioFilename: aragami.mp3
AudioLeadIn: 0
PreviewTime: 86132
Countdown: 0
SampleSet: Soft
StackLeniency: 0.3
Mode: 2
LetterboxInBreaks: 0
WidescreenStoryboard: 1

[Editor]
Bookmarks: 108173
DistanceSpacing: 0.8
BeatDivisor: 4
GridSize: 4
TimelineZoom: 2.700007

[Metadata]
Title:Aragami
TitleUnicode:Aragami
Artist:xi
ArtistUnicode:xi
Creator:F D Flourite
Version:Salad
Source:BMS
Tags:GO BACK 2 YOUR ROOTS G2R2014 LIFE STREAM iimo のらねこさい Deif Yumeno Himiko examination Ascendance Diverse System World Fragments Deemo CHUNITHM SOUND VOLTEX IV HEAVENLY HAVEN SDVX FDF F_D_Flourite Chloe
BeatmapID:1290627
BeatmapSetID:609324

[Difficulty]
HPDrainRate:4
CircleSize:3
OverallDifficulty:7
ApproachRate:7
SliderMultiplier:1.35
SliderTickRate:1

[Events]
//Background and Video events
0,0,"aragami.jpg",0,0
//Break Periods
//Storyboard Layer 0 (Background)
//Storyboard Layer 1 (Fail)
//Storyboard Layer 2 (Pass)
//Storyboard Layer 3 (Foreground)
//Storyboard Sound Samples

[TimingPoints]
3549,612.244897959184,4,2,0,40,1,0
13344,681.818181818182,4,2,0,40,1,0
14025,769.230769230769,4,2,0,40,1,0
14794,882.352941176471,4,2,0,40,1,0
15676,1034.48275862069,4,2,0,40,1,0
16193,-100,4,2,0,20,0,0
16710,1132.07547169811,4,2,0,30,1,0
17842,1250,4,2,0,40,1,0
19092,306.122448979592,3,2,0,70,1,0
19092,-100,3,2,0,70,0,0
26745,-100,3,2,0,60,0,0
27051,-100,3,2,0,55,0,0
27357,-100,3,2,0,50,0,0
27663,-100,3,2,0,45,0,0
27969,-100,3,2,0,40,0,0
40061,-100,3,2,0,45,0,0
41132,-100,3,2,0,60,0,0
41438,-100,3,2,0,40,0,0
41592,-100,3,2,0,60,0,0
41745,-100,3,2,0,60,0,0
42051,-100,3,2,0,60,0,0
42357,-100,3,2,0,60,0,0
42663,-100,3,2,0,60,0,0
42969,-100,3,2,0,60,0,0
48479,-100,3,1,0,60,0,0
49015,-100,3,1,0,55,0,0
50010,-100,3,1,0,55,0,0
50163,-100,3,1,0,55,0,0
50316,-100,3,2,0,70,0,0
53683,-100,3,2,0,70,0,0
53989,-100,3,2,0,70,0,0
57663,-100,3,2,0,80,0,0
61336,-100,3,2,0,65,0,0
61949,-100,3,2,0,60,0,0
63173,-100,3,2,0,60,0,0
63785,-100,3,2,0,60,0,0
65010,-100,3,2,0,60,0,0
65086,-100,3,2,0,30,0,0
65928,-100,3,2,0,30,0,0
68683,-100,3,2,0,50,0,0
69602,-100,3,2,0,75,0,0
76949,-100,3,2,0,75,0,0
77102,-100,3,1,0,60,0,0
77255,-100,3,2,0,75,0,0
80622,-100,3,2,0,75,0,0
82459,-100,3,2,0,75,0,0
84372,-100,3,2,0,40,0,0
86132,-100,3,2,0,85,0,1
87969,-100,3,2,0,85,0,1
92867,-100,3,1,0,60,0,1
93479,-100,3,2,0,85,0,1
100826,-100,3,2,0,85,0,0
111847,-100,3,2,0,85,0,1
115520,-100,3,2,0,85,0,0
116438,-100,3,2,0,70,0,0
117357,315.789473684211,3,2,0,60,1,0
118304,326.086956521739,3,2,0,50,1,0
118793,337.078651685393,3,2,0,40,1,0
118961,348.837209302326,3,2,0,30,1,0
119135,361.44578313253,3,2,0,30,1,0
119315,337.078651685393,3,2,0,30,1,0

[Colours]
Combo1 : 255,253,170
Combo2 : 255,170,255
Combo3 : 170,255,255
Combo4 : 185,255,170

[HitObjects]
208,248,5079,6,0,L|296:248,1,67.5,0|0,0:0|0:0,0:0:0:0:
348,248,5691,1,0,0:0:0:0:
176,164,5997,6,0,P|136:108|200:80,1,135,2|2,0:0|0:0,0:0:0:0:
272,72,6916,2,0,L|176:72,1,67.5,0|2,0:0|0:0,0:0:0:0:
376,256,8446,6,0,P|416:224|360:168,1,135,2|2,0:0|0:0,0:0:0:0:
288,164,9365,1,0,0:0:0:0:
368,164,9671,2,0,P|408:124|352:80,1,135,0|0,0:0|0:0,0:0:0:0:
132,168,10895,6,0,L|280:168,1,135,0|0,0:0|0:0,0:0:0:0:
444,280,12120,2,0,L|296:280,1,135,0|0,0:0|0:0,0:0:0:0:
168,96,13344,5,2,0:0:0:0:
344,96,14025,1,0,0:0:0:0:
112,228,14794,1,0,0:0:0:0:
400,228,15676,1,2,0:0:0:0:
256,192,16193,12,0,18467,0:0:0:0:
316,248,19092,6,0,L|184:196,1,135,4|0,1:2|0:0,0:0:0:0:
104,140,19551,2,0,P|136:92|228:88,1,135,4|0,1:2|0:0,0:0:0:0:
300,104,20010,2,0,P|340:144|292:200,1,135,4|0,1:2|0:0,0:0:0:0:
212,208,20469,2,0,P|156:232|156:308,1,135,4|0,1:2|0:0,0:0:0:0:
244,320,20928,6,0,P|356:316|384:296,1,135,4|0,1:2|1:2,0:0:0:0:
280,212,21387,2,0,P|252:176|296:112,1,135,4|0,1:2|0:0,0:0:0:0:
392,88,21847,2,0,L|256:104,2,135,2|2|0,1:2|1:2|1:0,0:0:0:0:
136,88,22765,6,0,P|104:120|136:208,1,135,4|0,1:2|0:2,0:0:0:0:
208,240,23224,2,0,L|348:272,1,135,4|0,1:2|0:2,0:0:0:0:
252,156,23683,2,0,B|184:156|184:156|252:156,1,135,4|0,1:2|0:2,0:0:0:0:
340,164,24143,2,0,P|388:156|408:64,1,135,4|0,1:2|0:0,0:0:0:0:
324,36,24602,6,0,L|176:36,2,135,4|4|4,1:2|1:2|0:0,0:0:0:0:
388,36,25367,1,2,0:0:0:0:
312,80,25520,2,0,P|272:120|396:236,1,270,6|0,0:2|0:0,0:0:0:0:
128,288,26438,1,4,1:0:0:0:
256,192,26745,12,0,28275,0:0:0:0:
168,204,28734,6,0,L|288:120,1,135,2|0,0:0|0:0,0:0:0:0:
192,64,29194,2,0,P|132:92|200:172,1,202.5,2|0,0:0|0:0,0:0:0:0:
296,172,29806,1,2,0:0:0:0:
176,280,30112,5,0,0:0:0:0:
56,200,30418,2,0,P|28:128|64:76,1,135,2|0,0:0|0:0,0:0:0:0:
112,40,30877,1,0,0:0:0:0:
168,76,31030,2,0,L|296:132,2,135,2|0|2,0:0|0:0|0:0,0:0:0:0:
296,224,31949,6,0,L|392:120,1,135,2|0,0:0|0:0,0:0:0:0:
308,96,32408,2,0,L|164:96,1,135,2|0,0:0|3:0,0:0:0:0:
112,92,32867,2,0,P|72:128|132:180,1,135,2|2,0:0|0:0,0:0:0:0:
224,184,33479,1,0,0:0:0:0:
400,148,33785,6,0,L|416:228,1,67.5,2|2,0:0|0:0,0:0:0:0:
368,292,34092,2,0,L|224:296,1,135,2|2,0:0|0:0,0:0:0:0:
108,168,34704,2,0,L|232:232,1,135,2|2,0:0|0:0,0:0:0:0:
312,48,35316,2,0,L|244:52,1,67.5,0|2,0:0|0:0,0:0:0:0:
180,60,35622,6,0,P|88:172|184:212,1,270,2|0,0:0|0:0,0:0:0:0:
288,124,36540,2,0,P|368:216|284:320,1,270,2|2,0:0|0:0,0:0:0:0:
184,316,37459,6,0,P|112:284|88:224,1,135,0|0,0:0|0:0,0:0:0:0:
100,136,37918,1,0,3:0:0:0:
156,56,38071,1,2,0:0:0:0:
304,32,38377,6,0,P|370:54|356:120,1,135
308,172,38836,1,0,0:0:0:0:
388,200,38989,1,2,0:0:0:0:
256,284,39296,6,0,P|196:284|160:352,2,135,0|0|0,0:0|0:0|0:0,0:0:0:0:
392,344,40214,1,2,0:0:0:0:
455,326,40367,1,0,0:0:0:0:
495,273,40520,1,2,0:0:0:0:
453,154,40826,1,2,0:0:0:0:
389,138,40979,1,0,0:0:0:0:
224,128,41132,6,0,L|132:128,1,67.5,4|0,1:0|1:0,0:0:0:0:
236,216,41438,2,0,L|244:288,1,67.5,0|0,0:0|1:0,0:0:0:0:
144,212,41745,1,0,0:0:0:0:
128,280,41898,1,0,1:0:0:0:
304,276,42051,6,0,L|460:276,2,135,4|4|4,1:2|1:2|1:2,0:0:0:0:
168,160,42969,5,4,1:0:0:0:
252,160,43122,2,0,L|396:160,1,135,0|4,1:1|1:1,0:1:0:0:
320,60,43581,2,0,L|232:60,1,67.5,0|0,1:0|0:0,0:0:0:0:
104,61,43887,2,0,P|68:93|116:285,1,270,4|0,1:0|0:0,0:0:0:0:
228,296,44806,5,0,1:0:0:0:
312,220,44959,2,0,P|320:156|248:116,1,135,0|0,1:0|1:0,0:0:0:0:
196,64,45418,2,0,L|284:64,1,67.5,0|0,1:0|0:0,0:0:0:0:
419,72,45724,2,0,P|455:104|407:296,1,270,4|0,1:0|0:0,0:0:0:0:
296,244,46643,6,0,L|216:244,1,67.5,4|4,1:0|1:2,0:0:0:0:
99,240,47102,2,0,L|32:240,2,67.5,0|2|0,1:0|1:2|0:1,0:0:0:0:
160,236,47561,2,0,P|196:208|144:148,1,135,0|0,1:0|1:0,0:0:0:0:
96,132,48020,1,0,0:1:0:0:
164,96,48173,1,0,1:0:0:0:
384,116,48479,6,0,L|448:176,2,67.5,4|0|0,1:0|0:0|0:0,0:0:0:0:
312,44,48938,1,0,0:0:0:0:
400,40,49092,1,0,0:0:0:0:
148,212,49398,6,0,L|84:272,2,67.5,0|0|0,0:0|1:0|1:0,0:0:0:0:
220,140,49857,1,0,0:0:0:0:
132,140,50010,1,0,0:0:0:0:
388,232,50316,6,0,P|456:220|472:144,2,135,4|0|0,1:0|1:0|1:0,0:0:0:0:
264,232,51234,2,0,P|208:304|240:336,1,135,0|0,1:0|1:0,0:0:0:0:
356,332,51847,2,0,L|424:312,1,67.5,0|0,1:0|1:0,0:0:0:0:
332,232,52153,6,0,L|200:176,1,135,0|0,1:0|1:0,0:0:0:0:
96,112,52765,1,0,1:0:0:0:
356,56,53071,2,0,L|436:180,1,135,0|0,1:0|1:0,0:0:0:0:
292,288,53683,2,0,L|216:288,1,67.5,0|0,1:0|1:0,0:0:0:0:
68,268,53989,6,0,P|36:220|92:160,1,135,4|0,1:0|1:0,0:0:0:0:
212,104,54602,1,0,1:0:0:0:
356,136,54908,2,0,P|376:196|376:280,1,135,0|0,1:2|1:2,0:0:0:0:
236,280,55520,1,0,1:2:0:0:
476,280,55826,6,0,L|400:280,1,67.5,4|4,1:2|1:0,0:0:0:0:
260,280,56285,1,4,1:0:0:0:
112,264,56592,1,4,1:0:0:0:
200,264,56745,2,0,P|240:148|104:104,1,270,4|0,3:1|3:3,0:0:0:0:
376,52,57663,6,0,L|496:112,2,135,4|0|2,1:0|0:0|0:0,0:0:0:0:
304,32,58428,1,0,0:0:0:0:
232,64,58581,2,0,L|76:64,1,135,0|0,3:0|3:0,0:0:0:0:
224,188,59194,1,0,3:0:0:0:
376,232,59500,6,0,P|449:169|424:77,1,202.5,0|0,1:0|1:0,0:0:0:0:
352,12,60112,1,2,0:0:0:0:
224,76,60418,2,0,L|204:224,1,135,2|2,0:0|0:0,0:0:0:0:
328,284,61030,1,0,0:0:0:0:
84,308,61336,6,0,L|96:228,1,67.5,0|4,1:0|1:1,0:0:0:0:
264,216,61949,2,0,L|280:144,1,67.5,2|0,0:0|0:0,0:0:0:0:
200,112,62255,2,0,P|116:128|140:244,1,202.5
176,296,62867,1,0,3:0:0:0:
420,284,63173,6,0,L|401:218,1,67.5,4|0,1:2|1:2,0:0:0:0:
228,264,63785,2,0,L|200:328,1,67.5,2|0,0:0|0:0,0:0:0:0:
272,368,64092,2,0,P|332:308|244:248,1,202.5,2|0,0:0|0:0,0:0:0:0:
192,244,64704,2,0,L|124:224,1,67.5,2|0,0:0|0:0,0:0:0:0:
312,132,65010,5,4,1:0:0:0:
256,192,65469,12,0,68224,0:0:0:0:
208,312,68683,6,0,P|80:244|120:148,1,270,0|0,0:0|0:0,0:0:0:0:
384,316,69602,6,0,L|448:276,1,67.5,4|2,1:0|0:0,0:0:0:0:
468,188,69908,2,0,L|432:100,1,67.5,0|2,0:0|0:0,0:0:0:0:
384,60,70214,2,0,L|312:44,1,67.5,0|2,0:0|0:0,0:0:0:0:
224,44,70520,2,0,P|84:108|76:156,1,202.5,0|2,0:0|0:0,0:0:0:0:
120,248,71132,1,0,0:0:0:0:
276,360,71438,6,0,P|316:348|312:252,1,135,0|0,1:0|0:0,0:0:0:0:
268,196,71898,2,0,L|196:160,2,67.5,0|0|2,1:2|1:0|0:0,0:0:0:0:
352,188,72357,2,0,L|428:188,1,67.5,0|2,1:0|0:0,0:0:0:0:
416,72,72663,2,0,L|336:72,1,67.5,0|2,0:0|0:0,0:0:0:0:
288,120,72969,1,0,1:0:0:0:
152,296,73275,6,0,L|248:296,1,67.5,0|2,1:0|0:0,0:0:0:0:
388,304,73581,2,0,P|420:256|372:196,1,135,4|2,0:1|0:2,0:0:0:0:
308,172,74040,1,0,0:0:0:0:
232,208,74194,2,0,P|160:200|100:156,1,135,0|0,1:1|1:1,0:0:0:0:
52,48,74806,1,0,1:0:0:0:
316,200,75112,6,0,P|324:156|256:100,1,135,0|2,1:1|1:3,0:0:0:0:
172,128,75571,2,0,P|149:188|191:236,1,135
296,256,76030,2,0,P|380:304|268:340,1,270,2|0,1:3|1:0,0:0:0:0:
104,288,76949,5,0,1:0:0:0:
360,264,77255,2,0,L|456:156,1,135,4|0,1:0|1:0,0:0:0:0:
388,136,77714,1,0,1:0:0:0:
328,120,77867,2,0,L|196:68,2,135,0|0|0,1:0|1:0|1:0,0:0:0:0:
468,84,78785,6,0,L|312:84,1,135,0|0,1:0|1:0,0:0:0:0:
272,160,79245,1,0,1:1:0:0:
348,228,79398,2,0,L|428:228,1,67.5,0|0,1:0|1:1,0:0:0:0:
332,324,79704,2,0,L|180:324,1,135,0|0,1:0|1:0,0:0:0:0:
112,204,80316,1,0,0:0:0:0:
292,200,80622,6,0,L|376:200,1,67.5,0|0,1:0|1:0,0:0:0:0:
188,128,80928,2,0,P|148:92|200:40,1,135,4|0,1:0|1:0,0:0:0:0:
292,44,81387,2,0,L|428:96,1,135,0|0,1:0|1:0,0:0:0:0:
312,184,81847,2,0,L|164:216,1,135,0|0,1:0|1:0,0:0:0:0:
128,224,82306,1,0,1:0:0:0:
312,304,82459,6,0,P|392:276|332:116,1,270,4|0,1:0|1:0,0:0:0:0:
216,68,83377,2,0,L|116:68,1,67.5,0|0,1:0|1:0,0:0:0:0:
248,168,83683,2,0,L|320:168,1,67.5,0|0,1:0|1:0,0:0:0:0:
212,260,83989,2,0,L|140:260,1,67.5,0|0,1:0|1:0,0:0:0:0:
320,328,84296,5,4,1:0:0:0:
256,192,84908,12,0,85826,0:0:0:0:
220,248,86132,6,0,L|364:248,1,135,4|0,1:2|1:0,0:0:0:0:
452,240,86592,2,0,P|496:200|440:168,1,135,0|0,1:2|1:0,0:0:0:0:
356,148,87051,2,0,L|272:148,1,67.5,0|0,1:2|1:0,0:0:0:0:
192,176,87357,2,0,P|168:120|224:60,1,135,0|0,1:0|1:0,0:0:0:0:
316,56,87816,6,0,P|404:112|404:152,1,135,0|0,1:0|1:0,0:0:0:0:
304,176,88275,2,0,P|268:244|324:260,1,135,0|0,1:0|1:0,0:0:0:0:
388,264,88734,1,0,1:0:0:0:
220,320,88887,2,0,L|60:320,1,135,4|0,1:0|1:0,0:0:0:0:
24,144,89500,1,0,1:0:0:0:
276,152,89806,6,0,L|428:220,1,135,4|0,1:2|1:2,0:0:0:0:
296,264,90265,2,0,L|144:332,1,135,0|0,1:2|1:2,0:0:0:0:
276,352,90724,2,0,P|324:348|348:268,1,135,0|0,1:2|1:2,0:0:0:0:
248,248,91183,2,0,P|200:244|176:164,1,135,0|0,1:0|0:0,0:0:0:0:
344,144,91643,6,0,P|388:88|284:40,1,202.5,4|0,1:2|1:0,0:0:0:0:
220,40,92255,2,0,L|128:40,1,67.5,0|0,1:0|1:0,0:0:0:0:
324,132,92561,2,0,L|480:132,2,135,4|0|0,1:0|0:0|0:0,0:0:0:0:
56,192,93479,6,0,L|196:196,1,135,4|0,1:0|1:0,0:0:0:0:
324,216,94092,2,0,L|392:240,1,67.5,0|0,1:0|0:0,0:0:0:0:
280,320,94398,2,0,L|140:320,1,135,0|0,1:0|1:0,0:0:0:0:
236,220,94857,2,0,P|280:200|288:100,1,135,0|0,0:0|0:1,0:0:0:0:
188,76,95316,6,0,L|52:76,1,135,0|0,1:0|1:0,0:0:0:0:
192,176,95928,2,0,L|232:236,1,67.5,0|2,1:0|0:0,0:0:0:0:
120,256,96234,2,0,L|64:296,1,67.5,2|0,0:0|3:0,0:0:0:0:
180,348,96540,2,0,P|244:336|280:268,1,135,0|0,1:0|1:0,0:0:0:0:
36,172,97153,6,0,L|24:92,2,67.5,4|0|0,1:0|1:0|0:0,0:0:0:0:
120,232,97612,2,0,L|240:304,1,135,4|0,1:2|1:2,0:0:0:0:
412,192,98071,2,0,L|468:144,2,67.5,4|0|0,1:2|1:0|0:0,0:0:0:0:
328,244,98530,2,0,L|180:244,1,135,4|4,1:2|1:2,0:0:0:0:
360,336,98989,6,0,P|392:260|344:212,1,135,4|2,1:2|0:0,0:0:0:0:
264,160,99449,2,0,L|116:108,1,135,4|2,1:2|1:2,0:0:0:0:
320,48,99908,2,0,P|424:100|400:236,1,270,4|0,1:2|1:0,0:0:0:0:
136,72,100826,5,4,1:0:0:0:
68,120,100979,2,0,P|40:184|80:260,1,135,0|0,1:0|1:0,0:0:0:0:
152,296,101438,2,0,L|220:292,1,67.5,0|0,1:0|0:0,0:0:0:0:
128,312,101745,1,0,1:0:0:0:
256,76,102663,5,0,1:0:0:0:
324,124,102816,2,0,P|352:188|312:264,1,135,0|0,1:0|1:0,0:0:0:0:
240,300,103275,2,0,L|172:296,1,67.5,0|0,1:0|0:0,0:0:0:0:
264,316,103582,1,0,1:0:0:0:
188,296,104500,5,4,1:0:0:0:
112,232,104653,2,0,L|212:132,1,135,0|4,1:0|1:0,0:0:0:0:
280,80,105112,2,0,L|224:32,1,67.5,0|0,1:0|0:0,0:0:0:0:
136,28,105418,1,0,1:0:0:0:
232,308,106336,5,4,1:0:0:0:
288,240,106489,2,0,L|188:140,1,135,0|0,1:0|1:0,0:0:0:0:
136,88,106948,2,0,L|192:40,1,67.5,0|0,1:0|0:0,0:0:0:0:
356,36,107255,6,0,L|436:36,2,67.5,4|2|2,1:0|0:0|0:0,0:0:0:0:
288,68,107714,1,4,1:0:0:0:
232,120,107867,2,0,L|172:176,1,67.5,2|2,0:0|0:0,0:0:0:0:
356,268,108173,6,0,P|420:252|428:176,1,135,4|0,1:0|1:0,0:0:0:0:
396,124,108632,1,0,0:0:0:0:
340,84,108785,2,0,L|272:84,1,67.5,0|0,1:0|0:0,0:0:0:0:
168,84,109092,2,0,L|12:84,1,135,0|0,1:0|1:0,0:0:0:0:
168,84,109704,1,0,1:0:0:0:
425,54,110010,6,0,P|479:87|470:150,1,135,0|0,1:0|1:0,0:0:0:0:
420,200,110469,1,0,0:0:0:0:
364,232,110622,2,0,L|292:232,1,67.5,0|0,1:0|0:0,0:0:0:0:
192,328,110928,2,0,L|36:328,2,135,0|0|0,1:0|1:0|1:0,0:0:0:0:
252,328,111694,1,0,1:0:0:0:
416,208,111847,6,0,P|452:168|388:108,1,135,4|0,1:0|1:0,0:0:0:0:
308,196,112306,2,0,L|176:120,1,135,0|0,1:0|1:0,0:0:0:0:
84,76,112765,2,0,L|232:4,1,135,0|0,1:0|1:0,0:0:0:0:
304,28,113224,2,0,P|364:72|336:132,1,135,0|0,1:0|1:0,0:0:0:0:
188,140,113683,6,0,L|100:140,2,67.5,4|0|0,1:0|1:0|1:0,0:0:0:0:
292,144,114143,2,0,P|332:204|276:224,1,135,4|0,0:0|1:0,0:0:0:0:
128,212,114602,5,4,1:2:0:0:
60,256,114755,1,0,1:0:0:0:
127,304,114908,1,0,1:0:0:0:
276,300,115061,2,0,L|360:300,2,67.5,4|0|0,1:2|1:0|1:0,0:0:0:0:
128,212,115520,5,4,1:0:0:0:
256,192,115826,12,2,119315,0:0:0:0:
