osu file format v14

[General]
AudioFilename: aragami.mp3
AudioLeadIn: 0
PreviewTime: 86132
Countdown: 0
SampleSet: Soft
StackLeniency: 0.3
Mode: 2
LetterboxInBreaks: 0
WidescreenStoryboard: 1

[Editor]
DistanceSpacing: 1.5
BeatDivisor: 6
GridSize: 4
TimelineZoom: 2.700007

[Metadata]
Title:Aragami
TitleUnicode:Aragami
Artist:xi
ArtistUnicode:xi
Creator:F D Flourite
Version:Himiko's Rain
Source:BMS
Tags:GO BACK 2 YOUR ROOTS G2R2014 LIFE STREAM iimo のらねこさい Deif Yumeno Himiko examination Ascendance Diverse System World Fragments Deemo CHUNITHM SOUND VOLTEX IV HEAVENLY HAVEN SDVX FDF F_D_Flourite Chloe
BeatmapID:1289734
BeatmapSetID:609324

[Difficulty]
HPDrainRate:6
CircleSize:4
OverallDifficulty:9
ApproachRate:9
SliderMultiplier:1.92
SliderTickRate:2

[Events]
//Background and Video events
0,0,"aragami.jpg",0,0
//Break Periods
//Storyboard Layer 0 (Background)
//Storyboard Layer 1 (Fail)
//Storyboard Layer 2 (Pass)
//Storyboard Layer 3 (Foreground)
//Storyboard Sound Samples

[TimingPoints]
3549,612.244897959184,4,2,0,40,1,0
13344,681.818181818182,4,2,0,40,1,0
14025,769.230769230769,4,2,0,40,1,0
14794,882.352941176471,4,2,0,40,1,0
15676,1034.48275862069,4,2,0,40,1,0
15934,-100,4,2,0,20,0,0
16710,1132.07547169811,4,2,0,30,1,0
17842,1250,4,2,0,40,1,0
18310,-50,4,2,0,40,0,0
19092,306.122448979592,3,2,0,70,1,0
19092,-86.9565217391304,3,2,0,70,0,0
26592,-100,3,2,0,60,0,0
26898,-100,3,2,0,55,0,0
27204,-100,3,2,0,50,0,0
27510,-100,3,2,0,45,0,0
27816,-100,3,2,0,40,0,0
28275,-133.333333333333,3,2,0,30,0,0
41132,-133.333333333333,3,2,0,70,0,0
48479,-133.333333333333,3,1,0,70,0,0
50316,-100,3,2,0,50,0,0
53071,-100,3,2,0,70,0,0
57663,-100,3,2,0,60,0,0
68683,-100,3,2,0,50,0,0
69602,-100,3,2,0,60,0,0
84908,-100,3,2,0,50,0,0
86132,-100,3,2,0,80,0,1
100826,-100,3,2,0,80,0,0
111847,-100,3,2,0,80,0,1
115520,-100,3,2,0,80,0,0
116438,-100,3,2,0,60,0,0
117357,315.789473684211,3,2,0,50,1,0
118304,326.086956521739,3,2,0,30,1,0
118793,337.078651685393,3,2,0,30,1,0
118961,348.837209302326,3,2,0,30,1,0
119135,361.44578313253,3,2,0,30,1,0
119315,337.078651685393,3,2,0,30,1,0

[Colours]
Combo1 : 255,253,170
Combo2 : 255,170,255
Combo3 : 170,255,255
Combo4 : 185,255,170

[HitObjects]
184,108,5079,6,0,P|120:112|76:168,2,96,2|0|0,0:0|0:0|0:0,0:0:0:0:
376,108,5997,5,2,0:0:0:0:
464,184,6304,1,0,0:0:0:0:
444,296,6610,1,0,0:0:0:0:
320,348,6916,1,0,0:0:0:0:
192,324,7222,1,2,0:0:0:0:
232,324,7834,2,0,P|192:288|192:264,2,64,0|0|0,0:0|0:0|0:0,0:0:0:0:
136,108,8446,5,2,0:0:0:0:
48,184,8753,1,0,0:0:0:0:
68,296,9059,1,0,0:0:0:0:
192,348,9365,1,0,0:0:0:0:
320,324,9671,1,0,0:0:0:0:
320,324,10283,2,0,P|356:264|312:208,1,144
208,188,10895,5,2,0:0:0:0:
428,120,11508,1,2,0:0:0:0:
208,188,12120,1,2,0:0:0:0:
428,120,12733,1,2,0:0:0:0:
140,84,13344,6,0,P|132:152|180:280,1,192,2|2,0:0|0:0,0:0:0:0:
448,272,14794,5,2,0:0:0:0:
80,320,15676,1,2,0:0:0:0:
256,192,15934,12,0,18154,0:0:0:0:
348,200,18467,6,0,P|404:180|364:104,1,144,2|0,0:0|0:0,0:0:0:0:
96,112,19092,5,4,1:2:0:0:
44,128,19168,1,0,0:0:0:0:
22,177,19245,1,0,0:0:0:0:
44,226,19321,1,0,0:0:0:0:
94,243,19398,1,0,0:0:0:0:
304,240,19551,1,4,1:2:0:0:
144,240,19857,1,0,0:0:0:0:
416,240,20010,5,4,1:2:0:0:
464,216,20086,1,0,0:0:0:0:
484,166,20163,1,0,0:0:0:0:
463,117,20239,1,0,0:0:0:0:
414,95,20316,1,0,0:0:0:0:
192,96,20469,1,4,1:2:0:0:
144,123,20545,1,0,0:0:0:0:
115,169,20622,1,0,0:0:0:0:
111,224,20698,1,0,0:0:0:0:
132,274,20775,1,0,0:0:0:0:
368,272,20928,6,0,L|512:272,2,110.400002105713,4|0|0,1:2|1:2|1:2,0:0:0:0:
144,272,21387,1,4,1:2:0:0:
90,276,21463,1,0,0:0:0:0:
54,237,21540,1,2,0:0:0:0:
62,184,21616,1,0,0:0:0:0:
109,158,21693,1,0,0:0:0:0:
320,96,21847,5,6,1:2:0:0:
370,111,21923,1,0,0:0:0:0:
381,163,22000,1,2,0:2:0:0:
342,198,22076,1,0,0:0:0:0:
176,176,22153,1,6,1:2:0:0:
133,207,22229,1,2,0:0:0:0:
135,260,22306,1,0,0:0:0:0:
180,288,22382,1,0,0:0:0:0:
384,288,22459,2,0,L|288:368,1,110.400002105713,4|0,0:0|0:0,0:0:0:0:
48,320,22765,5,4,1:2:0:0:
288,208,23071,1,0,0:2:0:0:
160,208,23224,1,4,1:2:0:0:
120,171,23300,1,0,0:0:0:0:
114,117,23377,1,0,0:2:0:0:
144,73,23453,1,0,0:0:0:0:
197,60,23530,1,0,0:2:0:0:
416,64,23683,5,4,1:2:0:0:
435,114,23759,1,0,0:0:0:0:
421,167,23836,1,0,0:2:0:0:
380,203,23912,1,0,0:0:0:0:
326,209,23989,1,0,0:2:0:0:
112,208,24143,2,0,L|0:208,2,110.400002105713,4|0|0,1:2|0:0|0:0,0:0:0:0:
400,208,24602,5,4,1:2:0:0:
445,236,24678,1,0,0:0:0:0:
456,288,24755,1,4,1:2:0:0:
427,333,24831,1,0,0:0:0:0:
374,343,24908,1,4,1:2:0:0:
240,304,25061,1,4,1:2:0:0:
363,263,25214,1,2,0:2:0:0:
378,234,25265,1,0,0:0:0:0:
388,202,25316,1,0,0:0:0:0:
376,172,25367,1,0,0:0:0:0:
347,157,25418,1,0,0:0:0:0:
315,165,25469,1,0,0:0:0:0:
246,146,25520,5,6,0:2:0:0:
257,110,25571,1,0,0:0:0:0:
286,84,25622,1,0,0:0:0:0:
330,73,25673,1,0,0:0:0:0:
370,84,25724,1,0,0:0:0:0:
403,110,25775,1,0,0:0:0:0:
367,88,25826,1,2,0:2:0:0:
316,86,25877,1,0,0:0:0:0:
272,109,25928,1,0,0:0:0:0:
245,151,25979,1,0,0:0:0:0:
241,200,26030,1,0,0:2:0:0:
263,246,26081,1,0,0:0:0:0:
305,274,26132,5,2,0:2:0:0:
354,279,26183,1,0,0:0:0:0:
312,256,26234,1,0,0:0:0:0:
272,263,26285,1,0,0:0:0:0:
246,300,26336,1,0,0:0:0:0:
432,304,26438,5,4,1:0:0:0:
256,192,26592,12,0,27969,0:0:0:0:
96,304,28275,6,0,L|112:144,1,144.000005493164
192,144,28734,1,0,0:0:0:0:
272,128,28887,1,2,0:0:0:0:
192,96,29040,1,2,0:0:0:0:
352,96,29194,6,0,L|384:256,1,144.000005493164,2|0,0:0|0:0,0:0:0:0:
256,240,29806,2,0,L|352:240,1,72.0000027465821
176,240,30112,5,2,0:0:0:0:
141,179,30265,1,0,0:0:0:0:
166,113,30418,1,2,0:0:0:0:
232,90,30571,1,0,0:0:0:0:
320,96,30724,2,0,L|224:96,1,72.0000027465821,0|0,0:0|0:0,0:0:0:0:
400,96,31030,6,0,L|416:256,1,144.000005493164,2|2,0:0|0:0,0:0:0:0:
240,240,31643,1,2,0:0:0:0:
368,240,31796,1,0,0:0:0:0:
384,192,31872,1,0,0:0:0:0:
384,144,31949,6,0,P|384:96|352:0,1,144.000005493164,2|0,0:0|0:0,0:0:0:0:
224,0,32408,2,0,P|198:67|195:138,1,144.000005493164,2|0,0:0|3:0,0:0:0:0:
320,144,32867,6,0,P|368:192|304:224,1,144.000005493164,2|2,0:0|0:0,0:0:0:0:
192,240,33326,1,0,3:0:0:0:
320,304,33632,1,0,0:0:0:0:
272,304,33709,1,0,0:0:0:0:
192,304,33785,6,0,L|176:224,1,72.0000027465821,2|2,0:0|0:0,0:0:0:0:
272,224,34092,1,2,0:0:0:0:
278,200,34143,1,0,0:0:0:0:
278,176,34194,1,0,0:0:0:0:
272,153,34245,1,2,0:0:0:0:
176,144,34398,2,0,P|144:96|144:64,1,72.0000027465821,0|2,0:0|0:0,0:0:0:0:
192,48,34627,1,0,0:0:0:0:
288,48,34704,6,0,L|384:48,1,72.0000027465821,2|2,0:0|0:0,0:0:0:0:
332,64,34908,1,0,0:0:0:0:
312,80,34959,1,0,0:0:0:0:
288,96,35010,1,2,0:0:0:0:
256,144,35163,1,0,0:0:0:0:
360,192,35316,2,0,L|288:192,1,72.0000027465821,2|2,0:0|0:0,0:0:0:0:
128,192,35622,6,0,P|96:240|112:320,1,144.000005493164,2|2,0:0|0:0,0:0:0:0:
288,304,36234,1,2,0:0:0:0:
208,304,36387,1,2,0:0:0:0:
368,304,36540,6,2,P|432:272|464:192,1,144.000005493164,2|2,0:0|0:0,0:0:0:0:
432,96,37153,1,2,0:0:0:0:
352,96,37306,1,2,0:0:0:0:
192,96,37459,6,0,L|96:96,2,72.0000027465821,2|0|2,0:0|0:0|0:0,0:0:0:0:
120,176,37918,1,0,0:0:0:0:
224,176,38071,2,0,L|208:272,1,72.0000027465821,2|0,0:0|0:0,0:0:0:0:
64,240,38377,6,0,L|80:336,1,72.0000027465821,2|0,0:0|0:0,0:0:0:0:
160,304,38683,1,2,0:0:0:0:
80,272,38836,1,2,0:0:0:0:
224,256,38989,1,0,3:0:0:0:
128,224,39143,1,0,1:0:0:0:
288,224,39296,6,0,L|304:128,1,72.0000027465821,2|0,0:0|1:0,0:0:0:0:
224,128,39602,1,0,0:0:0:0:
304,112,39755,1,0,1:0:0:0:
384,96,39908,2,0,L|400:176,1,72.0000027465821,0|2,0:0|0:0,0:0:0:0:
320,208,40137,1,2,0:0:0:0:
224,240,40214,6,0,L|208:320,1,72.0000027465821,2|0,0:0|0:0,0:0:0:0:
352,304,40520,2,0,L|448:288,1,72.0000027465821,2|2,0:0|0:0,0:0:0:0:
240,224,40826,2,0,L|144:208,1,72.0000027465821,2|0,0:0|1:0,0:0:0:0:
320,128,41132,5,4,1:0:0:0:
80,128,41285,1,0,1:0:0:0:
65,160,41361,1,0,0:0:0:0:
66,196,41438,1,0,1:0:0:0:
83,227,41514,1,0,1:0:0:0:
304,224,41592,1,4,1:0:0:0:
384,192,41745,1,0,0:0:0:0:
396,178,41783,1,0,0:0:0:0:
403,162,41821,1,0,0:0:0:0:
405,144,41859,1,0,0:0:0:0:
400,127,41898,1,0,1:0:0:0:
390,112,41936,1,0,0:0:0:0:
375,101,41974,1,0,0:0:0:0:
144,96,42051,5,4,1:2:0:0:
352,288,42357,2,0,P|384:256|352:192,1,108.000004119873,4|0,1:2|0:0,0:0:0:0:
144,288,42663,1,4,1:2:0:0:
288,176,42969,5,4,1:0:0:0:
64,176,43122,2,0,P|16:128|64:64,1,144.000005493164,0|4,1:0|1:0,0:0:0:0:
272,64,43581,2,0,L|352:64,1,72.0000027465821,0|0,1:0|0:0,0:0:0:0:
112,144,43887,6,0,L|80:288,1,144.000005493164,4|0,1:0|0:0,0:0:0:0:
240,240,44500,2,0,L|160:224,1,72.0000027465821,0|0,0:0|0:0,0:0:0:0:
432,144,44806,5,0,1:0:0:0:
302,141,44959,2,0,P|222:157|206:237,1,144.000005493164,0|0,1:0|1:0,0:0:0:0:
496,272,45418,2,0,L|400:272,1,72.0000027465821,0|0,1:0|0:0,0:0:0:0:
208,272,45724,5,4,1:0:0:0:
368,208,46030,2,0,L|384:112,1,72.0000027465821,2|0,0:0|0:0,0:0:0:0:
240,128,46336,1,0,0:0:0:0:
212,94,46412,1,0,0:0:0:0:
219,61,46489,1,0,0:0:0:0:
256,46,46565,1,0,0:0:0:0:
432,32,46643,6,0,L|368:112,1,72.0000027465821,4|0,1:0|1:2,0:0:0:0:
224,160,47102,1,0,1:0:0:0:
336,224,47255,2,0,L|240:224,1,72.0000027465821,2|0,1:2|0:1,0:0:0:0:
48,224,47561,5,0,1:0:0:0:
160,224,47714,1,0,0:1:0:0:
163,259,47790,1,0,0:0:0:0:
147,290,47867,1,0,1:0:0:0:
16,281,48020,1,0,0:1:0:0:
13,316,48096,1,0,0:0:0:0:
29,347,48173,1,0,0:0:0:0:
128,352,48326,1,4,1:0:0:0:
352,352,48479,6,0,L|384:256,1,72.0000027465821,6|4,1:0|0:0,0:0:0:0:
336,256,48709,1,0,0:0:0:0:
299,233,48785,1,0,1:0:0:0:
416,176,48938,1,0,0:0:0:0:
304,176,49092,2,0,L|400:176,1,72.0000027465821,2|0,1:1|0:1,0:0:0:0:
160,176,49398,6,0,L|128:272,1,72.0000027465821,2|2,1:0|0:0,0:0:0:0:
208,256,49627,1,0,1:0:0:0:
272,272,49704,1,0,1:0:0:0:
144,320,49857,1,0,0:0:0:0:
272,320,50010,1,2,1:0:0:0:
304,304,50086,1,0,0:0:0:0:
320,256,50163,1,0,0:1:0:0:
288,224,50239,1,0,0:0:0:0:
48,224,50316,6,0,L|80:112,1,96,6|2,1:0|0:0,0:0:0:0:
132,116,50546,1,0,0:0:0:0:
188,104,50622,1,0,1:0:0:0:
336,100,50775,1,2,0:0:0:0:
392,100,50852,1,0,0:0:0:0:
448,100,50928,2,0,L|320:100,1,96,0|2,1:0|0:0,0:0:0:0:
116,100,51234,6,0,P|88:140|188:208,1,192,2|0,1:0|1:0,0:0:0:0:
340,284,51847,1,6,1:0:0:0:
224,288,52000,1,4,1:0:0:0:
460,276,52153,6,0,L|444:172,1,96,2|2,1:0|0:0,0:0:0:0:
388,168,52382,1,0,0:0:0:0:
332,160,52459,1,0,1:0:0:0:
424,88,52612,1,2,0:0:0:0:
368,104,52688,1,0,0:0:0:0:
312,116,52765,2,0,L|428:144,1,96,0|2,1:0|0:0,0:0:0:0:
140,104,53071,5,2,1:0:0:0:
103,132,53147,1,0,0:0:0:0:
100,179,53224,1,2,0:0:0:0:
133,211,53300,1,2,0:0:0:0:
180,208,53377,1,0,1:0:0:0:
292,176,53530,1,0,0:0:0:0:
180,208,53683,2,0,L|160:312,1,96,2|2,1:0|1:0,0:0:0:0:
300,296,53989,5,4,1:0:0:0:
68,272,54143,2,0,L|188:232,1,96,2|2,1:0|1:0,0:0:0:0:
272,212,54449,1,2,0:0:0:0:
56,180,54602,2,0,L|68:60,1,96,2|2,1:0|1:0,0:0:0:0:
180,76,54908,5,0,1:2:0:0:
404,72,55061,1,2,1:0:0:0:
288,72,55214,1,2,1:1:0:0:
290,119,55290,1,0,0:0:0:0:
316,159,55367,1,2,0:2:0:0:
464,160,55520,1,2,1:1:0:0:
461,207,55596,1,0,0:0:0:0:
435,247,55673,1,6,1:1:0:0:
393,270,55749,1,0,0:0:0:0:
120,276,55826,6,0,L|152:176,1,96,6|6,1:1|1:0,0:0:0:0:
332,104,56285,1,6,1:0:0:0:
76,112,56438,2,0,L|108:216,1,96,0|6,0:0|1:0,0:0:0:0:
328,208,56745,5,6,3:1:0:0:
304,249,56821,1,0,0:0:0:0:
264,274,56898,1,0,0:0:0:0:
216,278,56974,1,0,0:0:0:0:
124,216,57051,1,0,3:1:0:0:
148,175,57127,1,0,0:0:0:0:
188,150,57204,1,0,0:1:0:0:
236,146,57280,1,0,0:0:0:0:
160,160,57357,1,0,3:3:0:0:
120,228,57433,1,0,0:0:0:0:
152,292,57510,1,0,1:0:0:0:
216,328,57586,1,0,0:0:0:0:
384,324,57663,6,0,P|444:292|296:128,1,384,4|2,1:0|0:0,0:0:0:0:
420,80,58428,1,0,0:0:0:0:
192,71,58581,6,0,P|75:202|189:337,1,384,0|0,3:0|3:0,0:0:0:0:
340,160,59500,6,0,P|248:168|368:288,1,384,0|2,1:0|0:0,0:0:0:0:
136,276,60418,6,0,P|208:244|48:132,1,384,2|0,0:0|0:0,0:0:0:0:
100,152,61107,1,0,0:0:0:0:
156,172,61183,1,0,0:0:0:0:
212,176,61260,1,0,0:0:0:0:
360,172,61336,6,0,P|448:180|320:304,1,384,0|2,1:0|0:0,0:0:0:0:
228,300,62102,1,0,0:0:0:0:
456,276,62255,6,0,P|490:211|282:61,1,384,0|0,0:0|3:0,0:0:0:0:
118,237,63173,6,0,P|223:247|405:59,1,384,4|2,1:2|0:0,0:0:0:0:
204,112,64092,6,0,P|120:176|284:288,1,384,2|2,0:0|0:0,0:0:0:0:
340,276,64780,1,0,0:0:0:0:
368,224,64857,1,0,0:0:0:0:
336,176,64933,1,0,0:0:0:0:
128,128,65010,6,0,P|84:180|144:288,1,192,4|0,1:0|0:0,0:0:0:0:
264,280,65469,2,0,L|408:136,1,192,2|0,0:0|0:0,0:0:0:0:
248,92,65928,6,0,L|52:120,1,192,0|0,0:0|0:0,0:0:0:0:
192,140,66387,2,0,L|384:164,1,192,2|0,0:0|1:0,0:0:0:0:
68,252,66847,6,0,P|32:192|124:136,1,192,0|0,1:0|0:0,0:0:0:0:
240,180,67306,2,0,L|46:106,1,192,0|0,0:0|1:0,0:0:0:0:
192,59,67765,6,0,P|283:80|384:63,1,192,2|0,0:0|0:0,0:0:0:0:
504,112,68224,2,0,P|484:192|380:244,1,192,0|0,0:0|0:0,0:0:0:0:
172,300,68683,5,0,0:0:0:0:
127,288,68759,1,0,0:0:0:0:
112,244,68836,1,0,0:0:0:0:
141,208,68912,1,0,0:0:0:0:
224,204,68989,1,0,0:0:0:0:
255,170,69065,1,0,0:0:0:0:
244,125,69142,1,0,0:0:0:0:
201,109,69218,1,0,0:0:0:0:
100,104,69296,1,0,0:0:0:0:
59,124,69372,1,0,0:0:0:0:
61,170,69449,1,0,1:0:0:0:
103,187,69525,1,0,1:0:0:0:
340,172,69602,5,4,1:0:0:0:
371,207,69678,1,0,0:0:0:0:
377,254,69755,1,2,0:0:0:0:
356,296,69831,1,0,0:0:0:0:
314,319,69908,1,0,0:0:0:0:
88,280,70061,1,2,0:0:0:0:
296,132,70367,1,2,0:0:0:0:
64,128,70520,5,0,0:0:0:0:
61,175,70596,1,0,0:0:0:0:
82,217,70673,1,2,0:0:0:0:
121,244,70749,1,0,0:0:0:0:
220,248,70826,1,0,0:0:0:0:
223,295,70902,1,0,0:0:0:0:
202,337,70979,1,2,0:0:0:0:
163,364,71055,1,0,0:0:0:0:
60,360,71132,1,0,0:0:0:0:
39,318,71208,1,0,0:0:0:0:
57,275,71285,1,2,0:0:0:0:
102,262,71361,1,0,0:0:0:0:
320,260,71438,5,4,1:0:0:0:
367,258,71514,1,0,0:0:0:0:
413,242,71591,1,2,0:0:0:0:
451,215,71667,1,0,0:0:0:0:
481,177,71744,1,0,0:0:0:0:
240,96,71898,1,0,1:2:0:0:
112,168,72204,1,2,0:0:0:0:
328,168,72357,5,0,1:0:0:0:
374,165,72433,1,0,0:0:0:0:
405,200,72510,1,2,0:0:0:0:
399,246,72586,1,0,0:0:0:0:
288,256,72663,1,0,0:0:0:0:
269,298,72739,1,0,0:0:0:0:
291,339,72816,1,2,0:0:0:0:
337,348,72892,1,0,0:0:0:0:
444,336,72969,1,0,1:0:0:0:
469,295,73045,1,0,0:0:0:0:
460,248,73122,1,2,0:0:0:0:
416,216,73198,1,0,0:0:0:0:
208,220,73275,5,0,1:0:0:0:
167,199,73351,1,0,0:0:0:0:
162,153,73428,1,2,0:0:0:0:
198,124,73504,1,0,0:0:0:0:
380,116,73581,1,4,0:2:0:0:
232,252,73887,2,0,L|340:240,1,96,2|0,0:2|0:0,0:0:0:0:
108,208,74194,5,0,1:1:0:0:
73,177,74270,1,0,0:0:0:0:
76,130,74347,1,0,0:0:0:0:
114,104,74423,1,0,0:0:0:0:
204,88,74500,1,0,1:1:0:0:
246,106,74576,1,0,0:0:0:0:
260,150,74653,1,0,0:0:0:0:
237,190,74729,1,0,0:0:0:0:
152,196,74806,1,0,1:1:0:0:
106,202,74882,1,0,0:0:0:0:
91,246,74959,1,0,0:0:0:0:
122,279,75035,1,0,0:0:0:0:
300,280,75112,5,0,1:1:0:0:
337,250,75188,1,0,0:0:0:0:
356,207,75265,1,0,0:0:0:0:
351,159,75341,1,0,0:0:0:0:
324,120,75418,1,2,1:3:0:0:
96,96,75571,1,0,0:0:0:0:
248,60,75877,1,0,0:0:0:0:
136,76,76030,5,2,1:3:0:0:
115,118,76106,1,0,0:0:0:0:
131,162,76183,1,2,1:2:0:0:
173,181,76259,1,2,0:2:0:0:
248,172,76336,1,0,1:0:0:0:
316,184,76412,1,2,0:2:0:0:
364,232,76489,1,2,1:2:0:0:
312,264,76565,1,0,0:2:0:0:
240,260,76642,1,0,1:0:0:0:
201,284,76694,1,0,0:0:0:0:
214,326,76745,1,0,0:0:0:0:
256,340,76796,1,0,1:0:0:0:
300,344,76847,1,0,0:0:0:0:
460,316,76949,5,0,1:0:0:0:
488,272,77025,1,0,0:0:0:0:
464,220,77102,1,0,0:0:0:0:
408,208,77178,1,0,0:0:0:0:
200,172,77255,1,0,1:0:0:0:
408,76,77561,2,0,L|384:184,1,96,0|0,1:0|1:0,0:0:0:0:
144,168,77867,5,0,1:0:0:0:
124,210,77943,1,0,0:0:0:0:
136,256,78020,1,0,1:0:0:0:
173,284,78096,1,0,0:0:0:0:
220,281,78173,1,0,1:0:0:0:
336,268,78326,1,0,1:1:0:0:
220,281,78479,1,0,1:0:0:0:
336,268,78632,2,0,L|280:252,1,48,0|0,1:1|0:0,0:0:0:0:
96,248,78785,6,0,L|8:292,2,96,0|0|0,1:0|1:1|1:0,0:0:0:0:
344,224,79245,2,0,P|420:184|336:120,1,192,0|0,1:1|1:1,0:0:0:0:
132,96,79704,5,0,1:0:0:0:
139,143,79780,1,0,1:0:0:0:
147,190,79857,1,0,1:0:0:0:
316,196,80010,1,0,1:0:0:0:
268,192,80086,1,0,0:0:0:0:
220,189,80163,1,0,1:0:0:0:
356,124,80316,1,0,1:0:0:0:
248,108,80469,2,0,L|180:76,1,48,0|0,1:0|0:0,0:0:0:0:
456,72,80622,5,0,1:0:0:0:
471,117,80698,1,0,1:0:0:0:
466,164,80775,1,0,1:0:0:0:
442,205,80851,1,0,0:0:0:0:
232,256,80928,1,0,1:0:0:0:
124,292,81081,1,0,1:0:0:0:
151,329,81157,1,0,1:0:0:0:
191,354,81234,1,0,1:0:0:0:
239,361,81310,1,0,0:0:0:0:
285,349,81387,1,0,1:0:0:0:
164,88,81540,5,0,1:0:0:0:
116,85,81616,1,0,0:0:0:0:
70,98,81693,1,0,1:0:0:0:
32,127,81769,1,0,0:0:0:0:
280,248,81847,1,0,1:0:0:0:
396,184,82000,1,0,1:0:0:0:
456,228,82076,1,0,0:0:0:0:
472,304,82153,1,0,1:0:0:0:
416,352,82229,1,0,1:0:0:0:
336,356,82306,1,0,1:0:0:0:
104,312,82459,5,0,1:0:0:0:
88,267,82535,1,0,1:0:0:0:
95,220,82612,1,0,1:0:0:0:
123,181,82688,1,0,1:0:0:0:
166,161,82765,1,0,1:0:0:0:
408,312,82918,1,0,1:0:0:0:
423,267,82994,1,0,0:0:0:0:
416,220,83071,1,0,1:0:0:0:
388,181,83147,1,0,1:0:0:0:
345,161,83224,1,0,1:0:0:0:
128,96,83377,6,0,L|60:108,2,48,0|0|0,1:0|1:0|1:0,0:0:0:0:
208,92,83607,2,0,L|276:104,2,48,0|0|0,1:0|1:0|1:0,0:0:0:0:
128,96,83836,1,0,1:0:0:0:
114,124,83887,1,0,0:0:0:0:
110,156,83938,1,0,0:0:0:0:
116,187,83989,1,0,1:0:0:0:
132,214,84040,1,0,0:0:0:0:
156,235,84091,1,0,0:0:0:0:
186,247,84142,1,0,1:0:0:0:
218,249,84193,1,0,0:0:0:0:
392,248,84296,6,0,P|448:200|312:69,1,320,4|0,1:0|0:0,0:0:0:0:
116,80,84908,6,0,P|77:130|128:186,1,144,2|0,3:3|0:0,0:0:0:0:
200,192,85214,2,0,P|228:252|164:293,1,144,2|0,3:3|0:0,0:0:0:0:
88,280,85520,5,0,0:0:0:0:
65,273,85558,1,0,0:0:0:0:
48,256,85596,1,0,0:0:0:0:
40,233,85634,1,0,0:0:0:0:
44,210,85673,1,0,0:0:0:0:
59,191,85711,1,0,0:0:0:0:
80,181,85749,1,0,0:0:0:0:
227,171,85826,1,2,0:0:0:0:
249,163,85864,1,0,0:0:0:0:
266,146,85902,1,0,0:0:0:0:
273,124,85940,1,0,0:0:0:0:
269,100,85979,1,0,0:0:0:0:
254,81,86017,1,0,0:0:0:0:
232,72,86055,1,0,0:0:0:0:
76,72,86132,5,4,1:2:0:0:
79,119,86208,1,0,0:0:0:0:
102,161,86285,1,0,0:0:0:0:
139,191,86361,1,0,0:0:0:0:
185,203,86438,1,0,1:0:0:0:
448,208,86592,1,4,1:2:0:0:
268,296,86898,1,0,1:0:0:0:
420,300,87051,6,0,P|436:244|428:184,1,96,4|0,1:2|0:0,0:0:0:0:
284,188,87357,2,0,L|172:164,1,96,0|0,1:0|1:0,0:0:0:0:
324,92,87663,2,0,L|432:116,1,96,0|0,1:0|1:0,0:0:0:0:
184,156,87969,5,4,1:0:0:0:
137,161,88045,1,0,0:0:0:0:
105,196,88122,1,0,0:0:0:0:
105,242,88198,1,0,0:0:0:0:
136,278,88275,1,4,1:0:0:0:
348,184,88428,1,0,1:0:0:0:
368,226,88504,1,0,0:0:0:0:
358,272,88581,1,0,0:0:0:0:
322,302,88657,1,0,0:0:0:0:
275,304,88734,1,0,1:0:0:0:
52,264,88887,5,0,1:0:0:0:
304,144,89194,1,0,1:0:0:0:
204,80,89500,2,0,L|308:76,1,96,0|0,1:0|1:0,0:0:0:0:
80,92,89806,5,4,1:2:0:0:
36,109,89882,1,0,0:0:0:0:
13,150,89959,1,0,0:2:0:0:
22,196,90035,1,0,0:0:0:0:
59,226,90112,1,0,1:2:0:0:
106,225,90188,1,0,0:0:0:0:
316,128,90265,5,4,1:2:0:0:
360,145,90341,1,0,0:0:0:0:
383,186,90418,1,0,0:2:0:0:
374,232,90494,1,0,0:0:0:0:
337,262,90571,1,0,1:2:0:0:
290,261,90647,1,0,0:0:0:0:
128,184,90724,5,4,1:2:0:0:
84,201,90800,1,0,0:0:0:0:
61,242,90877,1,0,0:2:0:0:
70,288,90953,1,0,0:0:0:0:
107,318,91030,1,0,1:2:0:0:
154,317,91106,1,0,0:0:0:0:
364,220,91183,5,4,1:2:0:0:
408,237,91259,1,0,1:0:0:0:
431,278,91336,1,0,1:0:0:0:
422,324,91412,1,0,0:0:0:0:
385,354,91489,1,0,0:0:0:0:
338,353,91565,1,0,0:0:0:0:
192,336,91643,6,0,P|160:232|248:168,1,192,4|0,1:2|0:1,0:0:0:0:
364,164,92102,1,0,1:0:0:0:
212,148,92255,2,0,L|96:128,1,96,0|0,1:0|1:0,0:0:0:0:
344,68,92561,5,4,1:2:0:0:
373,56,92612,1,0,0:0:0:0:
403,64,92663,1,0,0:0:0:0:
423,89,92714,1,0,0:0:0:0:
425,120,92765,1,0,0:0:0:0:
407,147,92816,1,0,0:0:0:0:
378,158,92867,1,0,1:0:0:0:
224,184,93020,1,0,1:0:0:0:
376,208,93173,1,4,0:0:0:0:
373,255,93249,1,0,0:0:0:0:
347,294,93326,1,0,0:0:0:0:
304,314,93402,1,0,0:0:0:0:
120,312,93479,5,4,1:0:0:0:
86,279,93555,1,0,0:0:0:0:
77,232,93632,1,2,0:0:0:0:
97,189,93708,1,0,0:0:0:0:
138,166,93785,1,0,1:0:0:0:
292,160,93938,1,2,0:0:0:0:
144,120,94092,2,0,L|80:24,1,96,4|0,1:1|0:0,0:0:0:0:
388,40,94398,5,0,1:0:0:0:
429,62,94474,1,0,0:0:0:0:
445,106,94551,1,0,0:0:0:0:
427,149,94627,1,0,0:0:0:0:
385,169,94704,1,0,1:0:0:0:
232,156,94857,1,0,0:0:0:0:
356,244,95010,2,0,L|240:232,1,96,0|0,1:0|0:1,0:0:0:0:
48,224,95316,5,0,1:0:0:0:
41,176,95392,1,0,0:0:0:0:
58,132,95469,1,0,0:1:0:0:
93,99,95545,1,0,0:0:0:0:
138,87,95622,1,0,1:0:0:0:
292,112,95775,1,0,0:1:0:0:
156,184,95928,2,0,L|276:184,1,96,0|2,1:0|0:0,0:0:0:0:
480,184,96234,5,2,0:0:0:0:
474,276,96387,1,0,3:0:0:0:
460,308,96438,1,0,0:0:0:0:
432,324,96489,1,0,0:0:0:0:
397,327,96540,1,0,1:0:0:0:
244,316,96694,1,2,0:0:0:0:
380,240,96847,2,0,L|360:108,1,96,0|2,1:0|0:0,0:0:0:0:
120,120,97153,6,0,L|8:136,2,96,4|0|0,1:0|1:0|0:0,0:0:0:0:
268,160,97612,1,4,1:2:0:0:
116,180,97765,2,0,L|180:252,1,96,0|0,1:0|1:2,0:0:0:0:
400,32,98071,5,4,1:2:0:0:
445,29,98147,1,0,0:0:0:0:
472,66,98224,1,0,1:0:0:0:
454,108,98300,1,0,0:0:0:0:
408,115,98377,1,0,0:0:0:0:
256,136,98530,1,4,1:2:0:0:
404,176,98683,1,0,1:0:0:0:
444,199,98759,1,0,0:0:0:0:
457,244,98836,1,4,1:2:0:0:
435,286,98912,1,0,0:0:0:0:
232,288,98989,6,0,L|108:280,1,96,4|2,1:2|0:0,0:0:0:0:
264,196,99296,1,2,0:0:0:0:
400,128,99449,1,4,1:2:0:0:
443,145,99525,1,0,0:0:0:0:
461,188,99602,1,2,1:2:0:0:
443,232,99678,1,0,0:0:0:0:
400,250,99755,1,2,1:2:0:0:
112,288,99908,5,4,1:2:0:0:
84,264,99959,1,0,0:0:0:0:
66,237,100010,1,0,0:0:0:0:
65,206,100061,1,0,0:0:0:0:
80,178,100112,1,0,0:0:0:0:
244,192,100214,5,0,1:0:0:0:
276,184,100265,1,0,0:0:0:0:
296,159,100316,1,0,0:0:0:0:
300,128,100367,1,0,0:0:0:0:
286,99,100418,1,0,0:0:0:0:
124,84,100520,5,0,1:0:0:0:
96,104,100571,1,0,0:0:0:0:
80,131,100622,1,0,0:0:0:0:
82,162,100673,1,0,0:0:0:0:
101,187,100724,1,0,0:0:0:0:
364,184,100826,6,0,L|464:192,1,96,4|0,1:0|1:0,0:0:0:0:
248,300,101285,1,0,1:0:0:0:
384,232,101438,1,0,1:0:0:0:
388,184,101514,1,0,0:0:0:0:
368,142,101591,1,0,0:0:0:0:
328,116,101667,1,0,0:0:0:0:
152,96,101745,5,4,1:0:0:0:
106,107,101821,1,0,0:0:0:0:
74,142,101898,1,0,0:0:0:0:
68,189,101974,1,0,0:0:0:0:
89,231,102051,1,0,0:0:0:0:
130,254,102127,1,0,0:0:0:0:
220,188,102204,5,0,0:0:0:0:
265,199,102280,1,0,0:0:0:0:
297,234,102357,1,0,1:0:0:0:
303,281,102433,1,0,0:0:0:0:
282,323,102510,1,0,1:0:0:0:
241,346,102586,1,0,1:0:0:0:
84,344,102663,6,0,L|104:216,1,96,0|0,1:0|1:0,0:0:0:0:
284,128,103122,1,0,1:0:0:0:
52,124,103275,2,0,L|112:232,1,96,0|0,1:0|0:0,0:0:0:0:
352,92,103581,5,0,1:0:0:0:
399,92,103657,1,0,0:0:0:0:
440,116,103734,1,0,0:0:0:0:
465,156,103810,1,0,0:0:0:0:
467,204,103887,1,0,0:0:0:0:
446,246,103963,1,0,0:0:0:0:
407,273,104040,1,0,0:0:0:0:
359,278,104116,1,0,0:0:0:0:
140,240,104194,1,2,0:0:0:0:
144,193,104270,1,0,0:0:0:0:
176,159,104347,1,0,0:0:0:0:
223,153,104423,1,0,0:0:0:0:
408,156,104500,6,0,L|512:156,1,96,4|0,1:0|1:0,0:0:0:0:
344,292,104959,1,4,1:0:0:0:
120,284,105112,2,0,L|60:188,1,96,0|0,1:0|0:0,0:0:0:0:
316,176,105418,5,0,1:0:0:0:
312,128,105494,1,0,0:0:0:0:
293,84,105571,1,0,0:0:0:0:
262,48,105647,1,0,0:0:0:0:
220,24,105724,1,0,0:0:0:0:
173,15,105800,1,0,0:0:0:0:
126,21,105877,1,0,0:0:0:0:
83,42,105953,1,0,0:0:0:0:
248,168,106030,1,2,0:0:0:0:
295,173,106106,1,0,0:0:0:0:
343,168,106183,1,0,0:0:0:0:
388,153,106259,1,0,0:0:0:0:
120,160,106336,6,0,L|136:280,1,96,4|0,1:0|1:0,0:0:0:0:
304,156,106796,1,0,1:0:0:0:
152,156,106949,2,0,L|176:276,1,96,0|0,1:0|0:0,0:0:0:0:
436,160,107255,5,4,1:0:0:0:
464,200,107331,1,0,0:0:0:0:
464,260,107408,1,0,0:0:0:0:
444,296,107459,1,0,0:0:0:0:
404,312,107510,1,0,0:0:0:0:
360,308,107561,1,2,0:0:0:0:
100,248,107714,1,4,1:0:0:0:
108,216,107765,1,0,0:0:0:0:
120,188,107816,1,0,0:0:0:0:
143,165,107867,1,2,0:0:0:0:
186,145,107943,1,0,0:0:0:0:
234,145,108020,1,2,0:0:0:0:
456,148,108173,5,4,1:0:0:0:
468,193,108249,1,0,0:0:0:0:
457,240,108326,1,0,0:0:0:0:
426,276,108402,1,0,0:0:0:0:
382,294,108479,1,0,1:0:0:0:
168,192,108632,1,0,0:0:0:0:
215,190,108708,1,0,0:0:0:0:
263,188,108785,1,0,1:0:0:0:
311,186,108861,1,0,0:0:0:0:
359,184,108938,1,0,0:0:0:0:
132,76,109092,5,0,1:0:0:0:
86,81,109168,1,0,0:0:0:0:
68,123,109245,1,0,0:0:0:0:
94,160,109321,1,0,0:0:0:0:
240,140,109398,1,0,1:0:0:0:
285,145,109474,1,0,0:0:0:0:
303,187,109551,1,0,0:0:0:0:
277,224,109627,1,0,0:0:0:0:
128,232,109704,1,0,1:0:0:0:
103,271,109780,1,0,0:0:0:0:
118,314,109857,1,0,0:0:0:0:
162,329,109933,1,0,0:0:0:0:
364,324,110010,5,0,1:0:0:0:
386,281,110086,1,0,0:0:0:0:
383,234,110163,1,0,0:0:0:0:
358,194,110239,1,0,0:0:0:0:
315,173,110316,1,0,1:0:0:0:
468,176,110469,1,0,0:0:0:0:
315,173,110622,2,0,L|184:168,1,96,0|0,1:0|0:0,0:0:0:0:
456,64,110928,5,0,1:0:0:0:
465,110,111004,1,0,0:0:0:0:
446,153,111081,1,0,0:0:0:0:
406,179,111157,1,0,0:0:0:0:
248,120,111234,1,0,1:0:0:0:
254,73,111310,1,0,0:0:0:0:
284,36,111387,1,0,0:0:0:0:
328,19,111463,1,0,0:0:0:0:
488,20,111540,1,0,1:0:0:0:
452,108,111694,1,0,1:0:0:0:
384,140,111770,1,0,1:0:0:0:
160,108,111847,5,4,1:0:0:0:
112,106,111923,1,0,0:0:0:0:
72,130,112000,1,0,1:0:0:0:
52,173,112076,1,0,0:0:0:0:
58,220,112153,1,0,1:0:0:0:
89,256,112229,1,0,0:0:0:0:
264,108,112306,5,0,1:0:0:0:
312,106,112382,1,0,0:0:0:0:
352,130,112459,1,0,1:0:0:0:
372,173,112535,1,0,0:0:0:0:
366,220,112612,1,0,1:0:0:0:
335,256,112688,1,0,0:0:0:0:
176,316,112765,5,0,1:0:0:0:
174,268,112841,1,0,0:0:0:0:
197,226,112918,1,0,1:0:0:0:
224,204,112969,1,0,0:0:0:0:
256,196,113020,1,0,0:0:0:0:
336,332,113071,1,0,1:0:0:0:
374,303,113122,1,0,0:0:0:0:
393,259,113173,1,0,0:0:0:0:
387,212,113224,1,0,1:0:0:0:
368,172,113275,1,0,0:0:0:0:
332,148,113326,1,0,0:0:0:0:
256,144,113377,1,0,1:0:0:0:
218,118,113453,1,0,0:0:0:0:
225,73,113530,1,0,1:0:0:0:
268,60,113606,1,0,0:0:0:0:
472,64,113683,6,0,L|444:184,1,96,4|0,1:0|1:0,0:0:0:0:
240,244,114143,1,0,1:0:0:0:
380,304,114296,1,0,1:0:0:0:
348,328,114347,1,0,0:0:0:0:
316,344,114398,1,0,0:0:0:0:
280,352,114449,1,0,1:0:0:0:
240,352,114500,1,0,0:0:0:0:
56,288,114602,5,4,1:2:0:0:
57,240,114653,1,0,0:0:0:0:
81,199,114704,1,0,0:0:0:0:
122,175,114755,1,0,1:0:0:0:
168,168,114806,1,0,0:0:0:0:
372,68,114908,1,4,1:2:0:0:
372,120,114959,1,0,0:0:0:0:
352,160,115010,1,0,0:0:0:0:
312,188,115061,1,0,1:0:0:0:
268,196,115112,1,0,0:0:0:0:
60,64,115214,1,4,1:2:0:0:
68,108,115265,1,0,0:0:0:0:
96,148,115316,1,0,0:0:0:0:
132,168,115367,1,0,1:0:0:0:
172,176,115418,1,0,0:0:0:0:
352,56,115520,5,4,1:0:0:0:
432,92,115673,1,0,0:0:0:0:
484,164,115826,1,0,0:0:0:0:
476,252,115979,1,0,0:0:0:0:
428,324,116132,1,2,0:0:0:0:
348,352,116285,1,2,0:0:0:0:
160,56,116438,5,0,0:0:0:0:
80,92,116591,1,0,0:0:0:0:
28,164,116744,1,0,0:0:0:0:
36,252,116897,1,0,0:0:0:0:
104,328,117050,1,2,0:0:0:0:
204,356,117203,1,2,0:0:0:0:
352,336,117357,5,0,0:0:0:0:
452,304,117514,1,0,0:0:0:0:
352,252,117672,1,0,0:0:0:0:
296,160,117830,1,0,0:0:0:0:
328,64,117988,1,2,0:0:0:0:
420,4,118146,1,2,0:0:0:0:
236,36,118304,5,0,0:0:0:0:
332,84,118467,1,0,0:0:0:0:
376,180,118630,1,0,0:0:0:0:
348,284,118793,1,0,0:0:0:0:
268,352,118961,1,2,0:0:0:0:
152,356,119135,1,2,0:0:0:0:
336,352,119315,5,0,0:0:0:0:
333,320,119357,1,0,0:0:0:0:
318,292,119399,1,2,0:0:0:0:
292,274,119441,1,2,0:0:0:0:
