osu file format v14

[General]
AudioFilename: aragami.mp3
AudioLeadIn: 0
PreviewTime: 86132
Countdown: 0
SampleSet: Soft
StackLeniency: 0.3
Mode: 2
LetterboxInBreaks: 0
WidescreenStoryboard: 1

[Editor]
DistanceSpacing: 1.2
BeatDivisor: 8
GridSize: 32
TimelineZoom: 3.700006

[Metadata]
Title:Aragami
TitleUnicode:Aragami
Artist:xi
ArtistUnicode:xi
Creator:F D Flourite
Version:Ascendance's Deluge
Source:BMS
Tags:GO BACK 2 YOUR ROOTS G2R2014 LIFE STREAM iimo のらねこさい Deif Yumeno Himiko examination Ascendance Diverse System World Fragments Deemo CHUNITHM SOUND VOLTEX IV HEAVENLY HAVEN SDVX FDF F_D_Flourite Chloe
BeatmapID:1577070
BeatmapSetID:609324

[Difficulty]
HPDrainRate:6
CircleSize:4.4
OverallDifficulty:9.6
ApproachRate:9.6
SliderMultiplier:1.92
SliderTickRate:2

[Events]
//Background and Video events
0,0,"aragami.jpg",0,0
//Break Periods
//Storyboard Layer 0 (Background)
//Storyboard Layer 1 (Fail)
//Storyboard Layer 2 (Pass)
//Storyboard Layer 3 (Foreground)
//Storyboard Sound Samples

[TimingPoints]
3549,612.244897959184,4,2,0,30,1,0
13344,681.818181818182,4,2,0,50,1,0
14025,769.230769230769,4,2,0,50,1,0
14794,882.352941176471,4,2,0,50,1,0
15676,1034.48275862069,4,2,0,50,1,0
16710,1132.07547169811,4,2,0,50,1,0
17842,1250,4,2,0,50,1,0
19092,306.122448979592,3,2,2,70,1,1
28275,-133.333333333333,3,2,2,35,0,0
41132,-133.333333333333,3,2,1,50,0,0
41745,-105.263157894737,3,1,1,35,0,0
41974,-105.263157894737,3,2,1,50,0,0
42969,-105.263157894737,3,2,2,50,0,0
48173,-105.263157894737,3,1,2,35,0,0
48403,-105.263157894737,3,2,2,50,0,0
48479,-100,3,2,2,50,0,0
54066,-100,3,2,2,35,0,0
54908,-100,3,2,2,50,0,0
57663,-117.647058823529,3,2,1,50,0,0
61336,-100,3,2,1,50,0,0
68224,-100,3,2,2,50,0,0
84449,-100,3,1,0,50,0,0
86132,-83.3333333333333,3,2,2,70,0,1
100826,-100,3,2,1,70,0,0
108173,-83.3333333333333,3,2,2,70,0,1
111847,-83.3333333333333,3,2,2,60,0,1
112765,-83.3333333333333,3,2,2,50,0,1
113683,-83.3333333333333,3,2,2,60,0,1
114602,-83.3333333333333,3,2,2,70,0,1
115520,-83.3333333333333,3,2,2,70,0,0
115597,-83.3333333333333,3,2,2,25,0,0
117357,315.789473684211,3,2,1,25,1,0
118304,326.086956521739,3,2,1,25,1,0
118793,337.078651685393,3,2,1,25,1,0
118961,348.837209302326,3,2,1,25,1,0
119135,361.44578313253,3,2,1,25,1,0
119315,337.078651685393,3,2,0,50,1,0

[Colours]
Combo1 : 255,253,170
Combo2 : 255,170,255
Combo3 : 170,255,255
Combo4 : 185,255,170

[HitObjects]
92,80,5079,6,0,P|156:72|208:84,2,96,0|0|2,0:0|0:0|0:0,0:0:0:0:
248,200,5998,6,0,P|264:144|256:100,1,96,2|0,0:0|0:0,0:0:0:0:
104,216,6610,2,0,P|92:268|104:320,1,96,2|0,0:0|0:0,0:0:0:0:
224,368,7222,2,0,L|424:360,1,192,2|0,0:0|0:0,0:0:0:0:
312,296,8038,2,0,L|296:232,1,64,0|0,0:0|0:0,0:0:0:0:
456,168,8446,6,0,L|480:32,1,96,2|0,0:0|0:0,0:0:0:0:
336,120,9059,2,0,L|216:120,1,96,2|0,0:0|0:0,0:0:0:0:
408,336,9671,2,0,P|496:272|360:112,1,336,2|0,0:0|0:0,0:0:0:0:
144,72,10895,6,0,P|88:128|144:240,1,192,2|0,0:0|0:0,0:0:0:0:
312,296,12120,2,0,L|112:304,1,192,2|0,0:0|0:0,0:0:0:0:
456,320,13344,5,2,0:0:0:0:
176,320,14025,1,2,0:0:0:0:
432,256,14794,1,2,0:0:0:0:
40,192,15676,1,2,0:0:0:0:
256,192,16193,12,0,18467,0:0:0:0:
183,319,19092,5,8,0:0:0:0:
139,284,19168,1,0,0:0:0:0:
140,237,19245,1,0,0:0:0:0:
184,197,19321,1,0,0:0:0:0:
352,144,19398,2,0,L|400:144,1,48,2|0,0:0|0:0,0:0:0:0:
224,88,19551,2,0,L|160:88,1,48,8|0,0:0|0:0,0:0:0:0:
224,88,19704,2,0,L|272:88,1,48,0|0,0:0|0:0,0:0:0:0:
88,48,19857,2,0,L|40:48,1,48,2|0,0:0|0:0,0:0:0:0:
312,280,20010,5,8,0:0:0:0:
354,240,20086,1,0,0:0:0:0:
351,193,20163,1,0,0:0:0:0:
305,163,20239,1,0,0:0:0:0:
160,128,20316,2,0,L|88:128,1,48,2|0,0:0|0:0,0:0:0:0:
272,216,20469,2,0,L|208:216,1,48,8|0,0:0|0:0,0:0:0:0:
80,304,20622,2,0,L|160:304,1,48,0|0,0:0|0:0,0:0:0:0:
312,368,20775,2,0,L|376:368,1,48,2|0,0:0|0:0,0:0:0:0:
184,280,20928,6,0,L|120:280,1,48,8|0,0:0|0:0,0:0:0:0:
88,280,21081,2,0,L|136:280,1,48,0|0,0:0|0:0,0:0:0:0:
296,112,21234,2,0,L|312:56,1,48,2|0,0:0|0:0,0:0:0:0:
128,72,21387,5,8,0:0:0:0:
100,87,21438,1,0,0:0:0:0:
80,112,21489,1,0,0:0:0:0:
70,142,21541,1,2,0:0:0:0:
72,186,21617,1,0,0:0:0:0:
107,225,21694,1,2,0:0:0:0:
156,238,21770,1,0,0:0:0:0:
336,280,21847,6,0,L|400:280,1,48,8|0,0:0|0:0,0:0:0:0:
200,352,22000,1,0,0:0:0:0:
177,330,22051,1,0,0:0:0:0:
166,300,22102,1,0,0:0:0:0:
171,268,22153,1,2,0:0:0:0:
190,243,22204,1,0,0:0:0:0:
224,232,22255,1,0,0:0:0:0:
384,224,22306,2,0,L|440:224,2,32
152,224,22459,1,2,0:0:0:0:
107,193,22535,1,0,0:0:0:0:
105,146,22612,1,0,0:0:0:0:
146,110,22688,1,0,0:0:0:0:
352,48,22765,5,12,0:0:0:0:
404,65,22842,1,0,0:0:0:0:
421,109,22918,1,0,0:0:0:0:
397,163,22995,1,0,0:0:0:0:
240,208,23071,1,2,0:0:0:0:
336,336,23224,2,0,L|344:264,1,48,8|0,0:0|0:0,0:0:0:0:
136,240,23377,1,0,0:0:0:0:
91,201,23454,1,0,0:0:0:0:
92,154,23530,1,2,0:0:0:0:
137,118,23607,1,0,0:0:0:0:
320,72,23683,6,0,L|376:72,1,48,8|0,0:0|0:0,0:0:0:0:
224,144,23836,2,0,L|168:144,1,48,0|0,0:0|0:0,0:0:0:0:
392,240,23989,2,0,L|328:240,1,48,2|0,0:0|0:0,0:0:0:0:
168,352,24143,1,8,0:0:0:0:
123,334,24219,1,0,0:0:0:0:
185,296,24296,1,0,0:0:0:0:
182,248,24372,1,0,0:0:0:0:
115,207,24449,1,2,0:0:0:0:
157,184,24525,1,0,0:0:0:0:
384,208,24602,6,0,L|424:144,1,48,8|0,0:0|0:0,0:0:0:0:
272,96,24755,2,0,L|256:40,1,48,0|0,0:0|0:0,0:0:0:0:
440,144,24908,1,2,0:0:0:0:
485,180,24984,1,0,0:0:0:0:
488,227,25061,1,0,0:0:0:0:
447,266,25137,1,0,0:0:0:0:
248,352,25214,2,0,L|202:352,2,32,2|0|0,0:0|0:0|0:0,0:0:0:0:
428,308,25367,2,0,L|478:307,2,32
168,248,25520,5,2,0:0:0:0:
138,228,25571,1,0,0:0:0:0:
119,199,25622,1,0,0:0:0:0:
118,167,25673,1,0,0:0:0:0:
136,138,25724,1,0,0:0:0:0:
164,115,25775,1,0,0:0:0:0:
336,96,25826,2,0,L|390:96,2,32,2|0|0,0:0|0:0|0:0,0:0:0:0:
200,40,25979,2,0,L|155:40,2,32
336,96,26132,2,0,L|384:96,2,32,2|0|0,0:0|0:0|0:0,0:0:0:0:
285,97,26285,2,0,L|241:97,2,32
468,99,26438,5,4,0:0:0:0:
256,192,26592,12,0,27969,0:0:0:0:
160,336,28275,6,0,P|128:280|176:144,1,216.000008239746,4|2,0:0|0:0,0:0:0:0:
280,104,28887,2,0,L|368:112,1,72.0000027465821,0|0,0:0|0:0,0:0:0:0:
208,224,29194,6,0,L|192:64,1,144.000005493164,2|0,0:0|0:0,0:0:0:0:
408,312,29806,2,0,L|328:320,1,72.0000027465821,2|0,0:0|0:0,0:0:0:0:
200,224,30112,2,0,L|352:248,2,144.000005493164,0|2|0,0:0|0:0|0:0,0:0:0:0:
104,208,30877,1,0,0:0:0:0:
216,328,31030,5,0,0:0:0:0:
274,288,31183,1,0,0:0:0:0:
296,220,31336,1,2,0:0:0:0:
273,154,31489,1,0,0:0:0:0:
214,114,31643,1,2,0:0:0:0:
128,104,31796,2,0,L|88:104,1,36.0000013732911,0|0,0:0|0:0,0:0:0:0:
208,56,31949,6,0,L|296:56,2,72.0000027465821,2|0|0,0:0|0:0|0:0,0:0:0:0:
360,112,32408,1,2,0:0:0:0:
224,168,32714,2,0,L|240:216,2,36.0000013732911,0|0|2,0:0|0:0|0:0,0:0:0:0:
392,280,33173,2,0,L|288:288,2,72.0000027465821,2|2|0,0:0|0:0|0:0,0:0:0:0:
248,240,33632,2,0,L|240:200,1,36.0000013732911,0|0,0:0|0:0,0:0:0:0:
176,176,33785,5,2,0:0:0:0:
304,176,33938,1,2,0:0:0:0:
176,176,34092,2,0,L|168:144,3,24.0000009155274,2|0|0|0,0:0|0:0|0:0|0:0,0:0:0:0:
288,104,34398,1,2,0:0:0:0:
432,192,34551,2,0,L|424:224,2,24.0000009155274,0|0|0,0:0|0:0|0:0,0:0:0:0:
426,215,34704,5,2,0:0:0:0:
304,320,34857,2,0,L|296:280,3,24.0000009155274,2|0|0|0,0:0|0:0|0:0|0:0,0:0:0:0:
176,240,35163,1,0,0:0:0:0:
296,176,35316,2,0,L|304:88,1,72.0000027465821,2|0,0:0|0:0,0:0:0:0:
256,64,35546,1,0,0:0:0:0:
80,96,35622,6,0,P|56:168|80:248,1,144.000005493164,2|2,0:0|0:0,0:0:0:0:
160,288,36081,1,0,0:0:0:0:
272,352,36234,2,0,L|344:344,1,72.0000027465821,2|0,0:0|0:0,0:0:0:0:
480,288,36541,6,0,L|304:272,1,144.000005493164,2|2,0:0|0:0,0:0:0:0:
208,200,37000,2,0,L|192:120,1,72.0000027465821,0|0,0:0|0:0,0:0:0:0:
312,40,37306,2,0,L|304:88,1,36.0000013732911,2|0,0:0|0:0,0:0:0:0:
224,128,37459,6,0,L|240:208,1,72.0000027465821,2|0,0:0|0:0,0:0:0:0:
384,240,37765,2,0,L|400:312,1,72.0000027465821,2|0,0:0|0:0,0:0:0:0:
264,288,38071,2,0,L|176:296,1,72.0000027465821,0|2,0:0|0:0,0:0:0:0:
336,240,38377,5,2,0:0:0:0:
208,176,38530,2,0,L|200:136,1,36.0000013732911,0|0,0:0|0:0,0:0:0:0:
288,80,38683,2,0,L|392:64,1,72.0000027465821,2|0,0:0|0:0,0:0:0:0:
256,192,38989,2,0,L|336:176,1,72.0000027465821,2|2,0:0|0:0,0:0:0:0:
376,200,39219,1,0,0:0:0:0:
224,328,39296,6,0,L|216:240,1,72.0000027465821
376,200,39602,2,0,L|384:112,1,72.0000027465821,2|0,0:0|0:0,0:0:0:0:
288,64,39908,1,0,0:0:0:0:
416,104,40061,2,0,L|472:104,1,36.0000013732911,2|0,0:0|0:0,0:0:0:0:
272,304,40214,5,2,0:0:0:0:
237,277,40291,1,0,0:0:0:0:
226,235,40367,1,0,0:0:0:0:
247,197,40444,1,0,0:0:0:0:
284,176,40520,1,2,0:0:0:0:
401,172,40673,1,0,0:0:0:0:
264,152,40826,2,0,L|176:152,1,72.0000027465821,2|0,0:0|0:0,0:0:0:0:
234,174,41056,1,0,0:0:0:0:
456,304,41132,6,0,L|464:272,2,24.0000009155274,6|0|0,0:0|0:0|0:0,0:0:0:0:
312,208,41285,2,0,L|304:184,2,24.0000009155274,6|0|0,0:0|0:0|0:0,0:0:0:0:
448,160,41438,1,0,0:0:0:0:
497,141,41515,1,0,0:0:0:0:
334,57,41592,1,6,0:0:0:0:
283,43,41668,1,0,0:0:0:0:
119,23,41745,5,0,0:0:0:0:
99,34,41783,1,0,0:0:0:0:
83,50,41821,1,0,0:0:0:0:
73,71,41859,1,0,0:0:0:0:
69,93,41898,1,0,0:0:0:0:
71,115,41936,1,0,0:0:0:0:
80,136,41974,1,0,0:0:0:0:
94,154,42012,1,0,0:0:0:0:
336,256,42051,6,0,L|440:248,1,91.1999975646973,6|0,0:0|0:0,0:0:0:0:
192,176,42357,2,0,L|304:168,1,91.1999975646973,6|0,0:0|0:0,0:0:0:0:
48,304,42663,2,0,L|40:160,1,136.799996347046,6|0,0:0|0:0,0:0:0:0:
176,112,42969,5,12,0:0:0:0:
432,80,43122,1,12,0:0:0:0:
240,216,43428,2,0,L|360:208,2,91.1999975646973,8|8|0,0:0|0:0|0:0,0:0:0:0:
456,344,43887,6,0,L|480:160,1,182.399995129395,8|2,0:0|0:0,0:0:0:0:
328,88,44347,1,0,0:0:0:0:
184,192,44500,2,0,L|32:192,1,136.799996347046,2|0,0:0|0:0,0:0:0:0:
208,144,44806,5,12,0:0:0:0:
472,144,44959,1,12,0:0:0:0:
304,240,45265,1,8,0:0:0:0:
395,240,45418,1,8,0:0:0:0:
486,240,45571,1,0,0:0:0:0:
152,240,45724,5,8,0:0:0:0:
272,240,45877,1,0,0:0:0:0:
152,240,46030,1,2,0:0:0:0:
312,240,46183,2,0,L|328:184,1,45.5999987823487,0|0,0:0|0:0,0:0:0:0:
176,40,46336,1,2,0:0:0:0:
129,66,46413,1,0,0:0:0:0:
123,110,46489,1,8,0:0:0:0:
160,153,46566,1,8,0:0:0:0:
432,224,46643,5,4,0:0:0:0:
152,328,46796,2,0,P|112:288|160:168,1,182.399995129395,12|10,0:0|0:0,0:0:0:0:
280,136,47255,2,0,L|400:136,1,91.1999975646973,10|0,0:0|0:0,0:0:0:0:
416,176,47484,1,0,0:0:0:0:
184,352,47561,6,0,L|176:256,1,91.1999975646973,10|0,0:0|0:0,0:0:0:0:
224,208,47791,1,0,0:0:0:0:
416,176,47867,1,10,0:0:0:0:
453,141,47944,1,0,0:0:0:0:
453,97,48020,1,8,0:0:0:0:
414,63,48097,1,8,0:0:0:0:
208,24,48173,5,0,0:0:0:0:
182,36,48211,1,0,0:0:0:0:
159,54,48250,1,0,0:0:0:0:
145,74,48288,1,0,0:0:0:0:
143,96,48326,1,0,0:0:0:0:
151,120,48364,1,0,0:0:0:0:
170,140,48403,1,0,0:0:0:0:
192,158,48441,1,0,0:0:0:0:
344,208,48479,5,4,0:0:0:0:
224,288,48632,1,10,0:0:0:0:
176,291,48709,1,8,0:0:0:0:
128,295,48785,1,8,0:0:0:0:
440,336,48938,1,8,0:0:0:0:
328,272,49092,2,0,L|320:208,3,48,10|0|10|0,0:0|0:0|0:0|0:0,0:0:0:0:
480,176,49398,6,0,L|488:80,1,96,12|8,0:0|0:0,0:0:0:0:
440,40,49627,1,8,0:0:0:0:
256,112,49704,2,0,L|208:112,1,48,8|8,0:0|0:0,0:0:0:0:
368,208,49857,2,0,L|416:208,1,48,8|8,0:0|0:0,0:0:0:0:
184,352,50010,5,8,0:0:0:0:
166,335,50048,1,0,0:0:0:0:
155,314,50086,1,8,0:0:0:0:
151,291,50125,1,0,0:0:0:0:
156,267,50163,1,8,0:0:0:0:
168,247,50201,1,0,0:0:0:0:
187,231,50239,1,8,0:0:0:0:
208,224,50278,1,0,0:0:0:0:
424,200,50316,5,4,0:0:0:0:
464,183,50393,1,0,0:0:0:0:
487,136,50469,1,0,0:0:0:0:
466,96,50546,1,0,0:0:0:0:
248,128,50622,1,8,0:0:0:0:
206,151,50699,1,0,0:0:0:0:
179,190,50775,1,0,0:0:0:0:
172,237,50852,1,0,0:0:0:0:
186,283,50928,1,8,0:0:0:0:
218,318,51005,1,0,0:0:0:0:
384,352,51081,2,0,L|448:352,1,48,0|0,0:0|0:0,0:0:0:0:
248,239,51234,5,10,0:0:0:0:
292,222,51311,1,0,0:0:0:0:
326,189,51387,1,0,0:0:0:0:
344,145,51464,1,0,0:0:0:0:
343,97,51541,1,10,0:0:0:0:
323,54,51617,1,0,0:0:0:0:
288,22,51694,1,0,0:0:0:0:
243,7,51770,1,0,0:0:0:0:
440,88,51847,2,0,L|488:88,1,48,10|0,0:0|0:0,0:0:0:0:
208,160,52000,2,0,L|264:160,1,48,0|0,0:0|0:0,0:0:0:0:
424,328,52153,5,8,0:0:0:0:
468,303,52229,1,0,0:0:0:0:
473,257,52306,1,0,0:0:0:0:
434,215,52382,1,0,0:0:0:0:
208,160,52459,1,8,0:0:0:0:
165,130,52535,1,0,0:0:0:0:
160,84,52612,1,0,0:0:0:0:
197,47,52688,1,0,0:0:0:0:
352,32,52765,2,0,L|400:32,1,48,8|0,0:0|0:0,0:0:0:0:
136,192,52918,2,0,L|72:192,1,48,0|0,0:0|0:0,0:0:0:0:
336,344,53071,6,0,L|344:240,1,96,10|0,0:0|0:0,0:0:0:0:
288,216,53301,1,0,0:0:0:0:
442,188,53377,1,10,0:0:0:0:
479,146,53454,1,0,0:0:0:0:
479,99,53530,1,2,0:0:0:0:
443,65,53607,1,0,0:0:0:0:
312,32,53683,2,0,L|248:32,1,48,10|0,0:0|0:0,0:0:0:0:
56,88,53836,2,0,L|128:88,1,48,2|0,0:0|0:0,0:0:0:0:
368,88,53989,5,12,0:0:0:0:
160,144,54143,2,0,L|176:336,1,192,8|8,0:0|0:0,0:0:0:0:
320,240,54602,2,0,L|312:136,1,96,8|8,0:0|0:0,0:0:0:0:
176,128,54908,2,0,L|168:32,1,96,8|8,0:0|0:0,0:0:0:0:
110,15,55137,1,8,0:0:0:0:
336,104,55214,5,8,0:0:0:0:
386,132,55291,1,8,0:0:0:0:
412,180,55367,1,8,0:0:0:0:
387,227,55444,1,8,0:0:0:0:
216,320,55520,2,0,L|160:320,1,48,8|8,0:0|0:0,0:0:0:0:
352,352,55673,2,0,L|432:352,1,48,8|8,0:0|0:0,0:0:0:0:
176,248,55826,6,0,L|64:248,1,96,12|12,0:0|0:0,0:0:0:0:
488,152,56285,2,0,L|288:152,1,192,12|0,0:0|0:0,0:0:0:0:
80,152,56745,6,0,L|72:56,1,96,10|2,0:0|0:0,0:0:0:0:
136,16,56974,1,0,0:0:0:0:
296,112,57051,2,0,L|360:112,1,48,0|0,0:0|0:0,0:0:0:0:
296,112,57204,2,0,L|224:112,1,48,2|0,0:0|0:0,0:0:0:0:
416,176,57357,1,0,0:0:0:0:
459,202,57433,1,0,0:0:0:0:
465,249,57510,1,2,0:0:0:0:
431,294,57586,1,0,0:0:0:0:
240,352,57663,6,0,L|64:344,1,163.200003112793,6|0,0:0|0:0,0:0:0:0:
192,288,58122,1,2,0:0:0:0:
80,216,58275,2,0,L|64:120,1,81.6000015563965,8|0,0:0|0:0,0:0:0:0:
232,24,58581,2,0,P|296:72|232:200,1,244.80000466919,2|0,0:0|0:0,0:0:0:0:
104,232,59194,2,0,L|112:336,1,81.6000015563965,8|0,0:0|0:0,0:0:0:0:
272,376,59500,6,0,L|448:360,1,163.200003112793,2|0,0:0|0:0,0:0:0:0:
328,312,59959,1,2,0:0:0:0:
200,256,60112,2,0,L|192:160,1,81.6000015563965,8|0,0:0|0:0,0:0:0:0:
344,80,60418,2,0,P|408:120|336:240,1,244.80000466919,2|0,0:0|0:0,0:0:0:0:
208,288,61030,2,0,L|168:288,1,40.8000007781983,8|0,0:0|0:0,0:0:0:0:
208,288,61183,2,0,L|264:288,1,40.8000007781983
432,344,61336,6,0,P|496:304|408:160,1,288,6|0,0:0|0:0,0:0:0:0:
280,80,61949,2,0,L|376:80,1,96,8|0,0:0|0:0,0:0:0:0:
120,352,62255,2,0,P|72:304|184:152,1,288,0|0,0:0|0:0,0:0:0:0:
280,112,62867,2,0,L|384:120,1,96,8|0,0:0|0:0,0:0:0:0:
96,288,63173,6,0,L|80:168,1,96,0|8,0:0|0:0,0:0:0:0:
288,48,63632,2,0,L|272:152,1,96,0|8,0:0|0:0,0:0:0:0:
112,256,64092,2,0,L|320:272,2,192,0|0|8,0:0|0:0|0:0,0:0:0:0:
272,216,64857,2,0,L|280:160,1,48,6|6,0:0|0:0,0:0:0:0:
64,72,65010,5,6,0:0:0:0:
256,192,65163,12,2,68224,0:0:0:0:
111,333,68683,6,0,L|78:272,3,48,2|0|0|0,0:0|0:0|0:0|0:0,0:0:0:0:
280,216,68989,2,0,L|314:167,3,48,2|0|0|0,0:0|0:0|0:0|0:0,0:0:0:0:
104,104,69296,2,0,L|71:44,3,48,2|0|8|8,0:0|0:0|0:0|0:0,0:0:0:0:
311,331,69602,5,12,0:0:0:0:
356,308,69678,1,0,0:0:0:0:
367,262,69755,1,0,0:0:0:0:
337,221,69831,1,0,0:0:0:0:
273,237,69908,2,0,L|259:186,1,48,2|0,0:0|0:0,0:0:0:0:
331,173,70061,2,0,L|343:122,1,48,0|0,0:0|0:0,0:0:0:0:
271,127,70214,2,0,L|216:113,1,48,2|0,0:0|0:0,0:0:0:0:
271,127,70367,2,0,L|343:109,1,48,0|0,0:0|0:0,0:0:0:0:
153,292,70520,6,0,L|126:222,1,48,2|0,0:0|0:0,0:0:0:0:
202,216,70673,2,0,L|243:190,1,48,0|0,0:0|0:0,0:0:0:0:
159,189,70826,2,0,L|132:119,1,48,2|0,0:0|0:0,0:0:0:0:
208,113,70979,2,0,L|249:87,1,48,0|0,0:0|0:0,0:0:0:0:
92,22,71132,1,2,0:0:0:0:
49,40,71208,1,0,0:0:0:0:
39,85,71285,1,0,0:0:0:0:
69,120,71361,1,0,0:0:0:0:
291,26,71438,6,0,L|284:87,1,48,2|0,0:0|0:0,0:0:0:0:
205,80,71592,2,0,L|195:151,1,48,0|0,0:0|0:0,0:0:0:0:
271,160,71745,2,0,L|321:184,1,48,2|0,0:0|0:0,0:0:0:0:
383,187,71898,2,0,L|435:177,1,48,0|0,0:0|0:0,0:0:0:0:
360,220,72051,2,0,L|336:273,1,48,2|0,0:0|0:0,0:0:0:0:
394,314,72204,2,0,L|458:318,1,48,0|0,0:0|0:0,0:0:0:0:
213,350,72357,6,0,L|191:288,1,48,2|0,0:0|0:0,0:0:0:0:
361,266,72510,2,0,L|370:213,1,48,0|0,0:0|0:0,0:0:0:0:
217,218,72663,2,0,L|163:217,1,48,2|0,0:0|0:0,0:0:0:0:
116,191,72816,2,0,L|104:103,1,48,0|0,0:0|0:0,0:0:0:0:
156,108,72969,2,0,L|237:95,1,48,2|0,0:0|0:0,0:0:0:0:
283,99,73122,2,0,L|206:95,1,48,0|0,0:0|0:0,0:0:0:0:
28,324,73275,6,0,L|43:273,1,48,2|0,0:0|0:0,0:0:0:0:
107,251,73428,2,0,L|176:232,1,48,0|0,0:0|0:0,0:0:0:0:
400,296,73581,2,0,L|424:208,1,48,6|0,0:0|0:0,0:0:0:0:
335,221,73734,2,0,L|351:165,1,48,0|0,0:0|0:0,0:0:0:0:
432,197,73887,1,10,0:0:0:0:
474,177,73963,1,0,0:0:0:0:
486,133,74040,1,0,0:0:0:0:
458,95,74116,1,0,0:0:0:0:
232,136,74194,6,0,L|176:136,1,48,10|0,0:0|0:0,0:0:0:0:
232,136,74347,2,0,L|320:136,1,48,0|0,0:0|0:0,0:0:0:0:
139,221,74500,2,0,L|83:221,1,48,10|0,0:0|0:0,0:0:0:0:
139,221,74653,2,0,L|227:221,1,48,0|0,0:0|0:0,0:0:0:0:
346,214,74806,2,0,L|267:214,1,48,10|0,0:0|0:0,0:0:0:0:
241,214,74959,2,0,L|166:214,1,48,0|0,0:0|0:0,0:0:0:0:
380,319,75112,6,0,L|390:262,1,48,10|0,0:0|0:0,0:0:0:0:
315,248,75265,2,0,L|325:187,1,48,0|0,0:0|0:0,0:0:0:0:
250,176,75418,2,0,L|259:118,1,48,10|0,0:0|0:0,0:0:0:0:
326,109,75571,2,0,L|401:99,1,48,0|0,0:0|0:0,0:0:0:0:
290,79,75724,2,0,L|234:69,1,48,10|0,0:0|0:0,0:0:0:0:
316,76,75877,2,0,L|393:61,1,48,0|0,0:0|0:0,0:0:0:0:
76,347,76030,5,10,0:0:0:0:
49,330,76081,1,0,0:0:0:0:
35,301,76132,1,0,0:0:0:0:
38,270,76183,1,0,0:0:0:0:
63,244,76260,1,0,0:0:0:0:
247,239,76336,2,0,L|303:231,1,48,10|0,0:0|0:0,0:0:0:0:
128,104,76489,2,0,L|120:56,1,48,0|0,0:0|0:0,0:0:0:0:
328,104,76643,5,0,0:0:0:0:
360,123,76694,1,0,0:0:0:0:
380,154,76745,1,0,0:0:0:0:
385,194,76796,1,0,0:0:0:0:
364,228,76847,1,0,0:0:0:0:
329,248,76898,1,0,0:0:0:0:
184,312,76949,6,0,L|128:312,1,48,8|0,0:0|0:0,0:0:0:0:
416,256,77102,2,0,L|424:224,2,32
280,168,77255,1,12,0:0:0:0:
239,131,77331,1,0,0:0:0:0:
239,83,77408,1,8,0:0:0:0:
278,44,77484,1,0,0:0:0:0:
432,24,77561,2,0,L|496:24,1,48,2|0,0:0|0:0,0:0:0:0:
432,24,77714,2,0,L|376:24,1,48,8|0,0:0|0:0,0:0:0:0:
160,136,77867,6,0,L|168:184,1,48,10|0,0:0|0:0,0:0:0:0:
248,208,78020,2,0,L|324:208,1,48,8|0,0:0|0:0,0:0:0:0:
200,296,78173,1,10,0:0:0:0:
245,283,78250,1,0,0:0:0:0:
282,252,78326,1,8,0:0:0:0:
303,209,78403,1,0,0:0:0:0:
304,162,78479,1,10,0:0:0:0:
285,118,78556,1,0,0:0:0:0:
249,86,78632,1,8,0:0:0:0:
204,72,78709,1,0,0:0:0:0:
392,144,78785,6,0,L|448:144,1,48,10|0,0:0|0:0,0:0:0:0:
264,208,78938,2,0,L|208:208,1,48,8|0,0:0|0:0,0:0:0:0:
264,208,79092,2,0,L|320:208,1,48,10|0,0:0|0:0,0:0:0:0:
120,128,79245,2,0,L|64:128,1,48,8|0,0:0|0:0,0:0:0:0:
232,72,79398,6,0,L|304:72,1,48,10|0,0:0|0:0,0:0:0:0:
232,72,79551,2,0,L|168:72,1,48,8|0,0:0|0:0,0:0:0:0:
392,48,79704,2,0,L|440:48,1,48,10|0,0:0|0:0,0:0:0:0:
120,48,79857,2,0,L|56:48,1,48,8|0,0:0|0:0,0:0:0:0:
280,312,80010,1,10,0:0:0:0:
322,290,80086,1,0,0:0:0:0:
353,253,80163,1,8,0:0:0:0:
367,208,80239,1,0,0:0:0:0:
363,160,80316,1,10,0:0:0:0:
342,118,80393,1,8,0:0:0:0:
305,87,80469,1,8,0:0:0:0:
260,72,80546,1,8,0:0:0:0:
80,80,80622,5,10,0:0:0:0:
49,116,80699,1,8,0:0:0:0:
46,163,80775,1,8,0:0:0:0:
72,202,80852,1,8,0:0:0:0:
384,272,80928,1,14,0:0:0:0:
264,312,81081,2,0,L|208:312,1,48,8|8,0:0|0:0,0:0:0:0:
384,272,81234,2,0,L|432:272,1,48,10|8,0:0|0:0,0:0:0:0:
176,176,81387,1,8,0:0:0:0:
288,112,81541,6,0,L|224:112,1,48,10|8,0:0|0:0,0:0:0:0:
64,64,81694,2,0,L|136:64,1,48,8|8,0:0|0:0,0:0:0:0:
392,64,81847,1,14,0:0:0:0:
288,112,82000,2,0,L|296:168,1,48,8|8,0:0|0:0,0:0:0:0:
464,216,82153,2,0,L|456:264,1,48,10|8,0:0|0:0,0:0:0:0:
176,352,82306,1,8,0:0:0:0:
408,352,82459,5,12,0:0:0:0:
312,288,82612,2,0,L|263:300,2,32,8|8|0,0:0|0:0|0:0,0:0:0:0:
448,192,82765,1,10,0:0:0:0:
478,172,82816,1,0,0:0:0:0:
494,141,82867,1,0,0:0:0:0:
493,105,82918,1,0,0:0:0:0:
468,66,82995,1,0,0:0:0:0:
262,17,83071,2,0,L|192:18,1,64,10|8,0:0|0:0,0:0:0:0:
374,117,83275,1,0,0:0:0:0:
168,320,83377,5,10,0:0:0:0:
120,287,83454,1,8,0:0:0:0:
116,240,83530,1,10,0:0:0:0:
158,202,83607,1,8,0:0:0:0:
312,184,83683,1,10,0:0:0:0:
360,150,83760,1,8,0:0:0:0:
364,103,83836,1,10,0:0:0:0:
350,76,83887,1,0,0:0:0:0:
321,66,83938,1,8,0:0:0:0:
136,16,83989,5,10,0:0:0:0:
100,33,84041,1,0,0:0:0:0:
79,68,84092,1,0,0:0:0:0:
79,98,84143,1,10,0:0:0:0:
100,128,84194,1,0,0:0:0:0:
143,137,84245,1,0,0:0:0:0:
376,360,84296,6,0,P|440:304|336:104,1,336,14|0,0:0|0:0,0:0:0:0:
144,40,84908,5,4,0:0:0:0:
120,44,84946,1,0,0:0:0:0:
99,55,84984,1,0,0:0:0:0:
80,70,85023,1,0,0:0:0:0:
66,90,85061,1,0,0:0:0:0:
58,112,85099,1,0,0:0:0:0:
55,136,85137,1,0,0:0:0:0:
60,159,85176,1,0,0:0:0:0:
216,336,85214,5,0,0:0:0:0:
235,321,85252,1,0,0:0:0:0:
251,304,85291,1,0,0:0:0:0:
260,282,85329,1,0,0:0:0:0:
263,257,85367,1,0,0:0:0:0:
263,233,85405,1,0,0:0:0:0:
254,210,85444,1,0,0:0:0:0:
236,193,85482,1,0,0:0:0:0:
416,208,85520,5,2,0:0:0:0:
443,192,85571,1,0,0:0:0:0:
463,167,85622,1,0,0:0:0:0:
472,136,85673,1,0,0:0:0:0:
468,105,85724,1,0,0:0:0:0:
453,76,85775,1,0,0:0:0:0:
272,32,85826,2,0,L|104:48,1,144,2|0,0:0|0:0,0:0:0:0:
408,328,86132,5,12,0:0:0:0:
443,284,86209,1,0,0:0:0:0:
442,228,86285,1,0,0:0:0:0:
404,186,86362,1,0,0:0:0:0:
144,144,86438,2,0,L|208:144,1,57.5999982421876,2|0,0:0|0:0,0:0:0:0:
376,80,86592,2,0,L|448:80,1,57.5999982421876,8|0,0:0|0:0,0:0:0:0:
376,80,86745,2,0,L|304:80,1,57.5999982421876,0|0,0:0|0:0,0:0:0:0:
88,144,86898,2,0,L|160:144,1,57.5999982421876,2|0,0:0|0:0,0:0:0:0:
424,352,87051,5,8,0:0:0:0:
440,290,87127,1,0,0:0:0:0:
399,251,87204,1,0,0:0:0:0:
342,236,87280,1,0,0:0:0:0:
399,225,87357,2,0,L|463:225,1,57.5999982421876,2|0,0:0|0:0,0:0:0:0:
54,179,87510,1,8,0:0:0:0:
46,123,87586,1,0,0:0:0:0:
256,40,87663,1,2,0:0:0:0:
309,61,87739,1,0,0:0:0:0:
343,107,87816,1,2,0:0:0:0:
347,164,87893,1,0,0:0:0:0:
128,351,87969,5,8,0:0:0:0:
81,319,88046,1,0,0:0:0:0:
55,268,88122,1,0,0:0:0:0:
58,211,88199,1,0,0:0:0:0:
88,163,88275,1,2,0:0:0:0:
138,136,88352,1,0,0:0:0:0:
384,48,88428,2,0,L|312:48,1,57.5999982421876,8|0,0:0|0:0,0:0:0:0:
120,64,88581,2,0,L|56:64,1,57.5999982421876,0|0,0:0|0:0,0:0:0:0:
120,64,88734,2,0,L|192:64,1,57.5999982421876,2|0,0:0|0:0,0:0:0:0:
384,48,88887,5,10,0:0:0:0:
350,66,88938,1,0,0:0:0:0:
322,92,88989,1,0,0:0:0:0:
303,125,89041,1,0,0:0:0:0:
293,162,89092,1,0,0:0:0:0:
294,200,89143,1,0,0:0:0:0:
304,237,89194,1,10,0:0:0:0:
325,269,89245,1,0,0:0:0:0:
353,295,89296,1,0,0:0:0:0:
128,288,89347,2,0,L|56:296,1,57.5999982421876,0|0,0:0|0:0,0:0:0:0:
368,184,89500,2,0,L|440:192,1,57.5999982421876,10|0,0:0|0:0,0:0:0:0:
184,96,89653,2,0,L|112:104,1,57.5999982421876,0|0,0:0|0:0,0:0:0:0:
400,264,89806,5,12,0:0:0:0:
440,224,89882,1,0,0:0:0:0:
445,168,89959,1,0,0:0:0:0:
412,123,90035,1,0,0:0:0:0:
232,48,90112,2,0,L|152:48,1,57.5999982421876,0|0,0:0|0:0,0:0:0:0:
352,104,90265,1,10,0:0:0:0:
398,135,90342,1,0,0:0:0:0:
405,191,90418,1,0,0:0:0:0:
369,233,90495,1,0,0:0:0:0:
184,288,90571,2,0,L|112:288,1,57.5999982421876,0|0,0:0|0:0,0:0:0:0:
296,160,90724,6,0,L|360:160,1,57.5999982421876,8|0,0:0|0:0,0:0:0:0:
296,160,90877,2,0,L|224:160,1,57.5999982421876,0|0,0:0|0:0,0:0:0:0:
464,96,91030,2,0,L|480:32,1,57.5999982421876,0|0,0:0|0:0,0:0:0:0:
240,96,91183,1,10,0:0:0:0:
198,150,91260,1,0,0:0:0:0:
208,206,91336,1,0,0:0:0:0:
266,241,91413,1,0,0:0:0:0:
88,344,91489,2,0,L|168:360,1,57.5999982421876,0|0,0:0|0:0,0:0:0:0:
384,352,91643,5,10,0:0:0:0:
430,310,91719,1,0,0:0:0:0:
429,254,91796,1,0,0:0:0:0:
381,212,91872,1,0,0:0:0:0:
200,160,91949,2,0,L|128:160,1,57.5999982421876,0|0,0:0|0:0,0:0:0:0:
384,88,92102,2,0,L|448:88,1,57.5999982421876,8|0,0:0|0:0,0:0:0:0:
224,32,92255,1,2,0:0:0:0:
166,32,92331,1,0,0:0:0:0:
108,32,92408,1,0,0:0:0:0:
51,32,92484,1,0,0:0:0:0:
328,328,92561,5,10,0:0:0:0:
357,303,92612,1,0,0:0:0:0:
374,269,92663,1,0,0:0:0:0:
377,231,92714,1,0,0:0:0:0:
366,194,92765,1,0,0:0:0:0:
342,165,92816,1,0,0:0:0:0:
144,112,92867,2,0,L|80:112,1,57.5999982421876,10|8,0:0|0:0,0:0:0:0:
344,64,93020,2,0,L|416:64,1,57.5999982421876,8|0,0:0|0:0,0:0:0:0:
200,328,93173,5,10,0:0:0:0:
180,306,93211,1,0,0:0:0:0:
168,281,93250,1,8,0:0:0:0:
164,252,93288,1,0,0:0:0:0:
169,224,93326,1,8,0:0:0:0:
183,199,93364,1,0,0:0:0:0:
204,179,93403,1,0,0:0:0:0:
230,166,93441,1,0,0:0:0:0:
448,208,93479,5,12,0:0:0:0:
489,170,93556,1,0,0:0:0:0:
493,114,93632,1,0,0:0:0:0:
456,71,93709,1,0,0:0:0:0:
256,48,93785,2,0,L|192:48,1,57.5999982421876,8|0,0:0|0:0,0:0:0:0:
56,120,93938,2,0,L|128:120,1,57.5999982421876,0|0,0:0|0:0,0:0:0:0:
312,192,94092,2,0,L|392:192,1,57.5999982421876,10|0,0:0|0:0,0:0:0:0:
312,192,94245,2,0,L|216:192,1,57.5999982421876,2|0,0:0|0:0,0:0:0:0:
64,360,94398,5,10,0:0:0:0:
33,312,94474,1,0,0:0:0:0:
42,256,94551,1,0,0:0:0:0:
85,220,94627,1,0,0:0:0:0:
144,216,94704,2,0,L|208:216,1,57.5999982421876,8|0,0:0|0:0,0:0:0:0:
382,201,94857,5,2,0:0:0:0:
433,166,94933,1,0,0:0:0:0:
429,110,95010,1,8,0:0:0:0:
372,82,95086,1,0,0:0:0:0:
424,80,95163,2,0,L|496:80,1,57.5999982421876,2|0,0:0|0:0,0:0:0:0:
224,48,95316,5,10,0:0:0:0:
164,87,95393,1,0,0:0:0:0:
160,143,95469,1,0,0:0:0:0:
213,188,95546,1,0,0:0:0:0:
72,184,95622,1,10,0:0:0:0:
21,224,95699,1,0,0:0:0:0:
17,280,95775,1,0,0:0:0:0:
61,324,95852,1,0,0:0:0:0:
224,360,95928,2,0,L|320:352,1,57.5999982421876,10|0,0:0|0:0,0:0:0:0:
112,256,96081,2,0,L|192:248,1,57.5999982421876,2|0,0:0|0:0,0:0:0:0:
416,216,96234,6,0,L|480:208,1,57.5999982421876,10|0,0:0|0:0,0:0:0:0:
240,128,96387,2,0,L|208:96,2,38.399998828125,2|0|0,0:0|0:0|0:0,0:0:0:0:
413,348,96541,1,10,0:0:0:0:
455,311,96617,1,0,0:0:0:0:
456,255,96694,1,0,0:0:0:0:
416,216,96770,1,0,0:0:0:0:
184,184,96847,2,0,L|112:184,1,57.5999982421876,10|0,0:0|0:0,0:0:0:0:
392,88,97000,2,0,L|464:88,1,57.5999982421876,8|8,0:0|0:0,0:0:0:0:
80,56,97153,5,12,0:0:0:0:
200,56,97306,1,8,0:0:0:0:
80,56,97459,1,8,0:0:0:0:
408,56,97612,1,10,0:0:0:0:
280,136,97765,2,0,L|408:136,1,115.199996484375,8|8,0:0|0:0,0:0:0:0:
336,136,97995,1,8,0:0:0:0:
80,240,98071,6,0,L|208:240,1,115.199996484375,12|8,0:0|0:0,0:0:0:0:
344,240,98377,2,0,L|424:240,1,57.5999982421876,8|8,0:0|0:0,0:0:0:0:
152,184,98530,1,10,0:0:0:0:
127,154,98581,1,0,0:0:0:0:
119,117,98632,1,0,0:0:0:0:
129,80,98683,1,8,0:0:0:0:
155,52,98734,1,0,0:0:0:0:
192,40,98785,1,0,0:0:0:0:
368,40,98836,2,0,L|440:40,1,57.5999982421876,10|8,0:0|0:0,0:0:0:0:
128,352,98989,6,0,L|120:232,1,115.199996484375,6|8,0:0|0:0,0:0:0:0:
256,176,99296,1,8,0:0:0:0:
128,40,99449,1,10,0:0:0:0:
92,83,99525,1,8,0:0:0:0:
94,139,99602,1,8,0:0:0:0:
133,179,99678,1,8,0:0:0:0:
368,256,99755,2,0,L|448:248,1,57.5999982421876,8|8,0:0|0:0,0:0:0:0:
144,336,99908,5,14,0:0:0:0:
112,314,99959,1,0,0:0:0:0:
91,282,100010,1,0,0:0:0:0:
85,245,100061,1,0,0:0:0:0:
94,208,100112,1,0,0:0:0:0:
118,178,100163,1,0,0:0:0:0:
304,120,100214,2,0,L|384:128,1,57.5999982421876,12|0,0:0|0:0,0:0:0:0:
117,124,100367,5,0,0:0:0:0:
85,146,100418,1,0,0:0:0:0:
64,178,100469,1,0,0:0:0:0:
58,215,100520,1,12,0:0:0:0:
67,252,100571,1,0,0:0:0:0:
91,282,100622,1,0,0:0:0:0:
292,76,100673,2,0,L|362:84,2,38.399998828125
88,352,100826,6,0,L|72:224,1,96,6|2,0:0|0:0,0:0:0:0:
200,208,101132,1,0,0:0:0:0:
56,56,101285,1,2,0:0:0:0:
59,103,101362,1,0,0:0:0:0:
63,151,101438,1,2,0:0:0:0:
200,208,101592,1,0,0:0:0:0:
360,96,101745,6,0,L|152:112,2,192,2|0|0,0:0|0:0|0:0,0:0:0:0:
480,88,102510,1,0,0:0:0:0:
208,224,102663,6,0,L|344:232,1,96,2|2,0:0|0:0,0:0:0:0:
136,288,102969,1,0,0:0:0:0:
272,192,103122,1,2,0:0:0:0:
272,144,103199,1,0,0:0:0:0:
272,96,103275,1,2,0:0:0:0:
144,40,103428,1,0,0:0:0:0:
272,96,103581,6,0,L|64:96,2,192,2|0|0,0:0|0:0|0:0,0:0:0:0:
416,192,104347,2,0,L|352:192,1,48,2|2,0:0|0:0,0:0:0:0:
112,288,104500,6,0,L|240:288,1,96,6|2,0:0|0:0,0:0:0:0:
72,288,104806,1,0,0:0:0:0:
176,208,104959,1,2,0:0:0:0:
128,208,105035,1,0,0:0:0:0:
80,208,105112,1,2,0:0:0:0:
248,208,105265,1,0,0:0:0:0:
376,208,105418,6,0,L|168:208,2,192,2|0|0,0:0|0:0|0:0,0:0:0:0:
480,208,106183,1,0,0:0:0:0:
144,208,106336,6,0,L|136:72,1,96,2|2,0:0|0:0,0:0:0:0:
280,64,106643,1,0,0:0:0:0:
400,176,106796,1,2,0:0:0:0:
352,176,106872,1,0,0:0:0:0:
304,176,106949,1,2,0:0:0:0:
184,176,107102,1,0,0:0:0:0:
320,176,107255,6,0,L|192:176,2,96,2|2|2,0:0|0:0|0:0,0:0:0:0:
65,270,107714,1,0,0:0:0:0:
37,253,107765,1,0,0:0:0:0:
22,225,107816,1,0,0:0:0:0:
22,194,107867,1,0,0:0:0:0:
37,166,107918,1,0,0:0:0:0:
64,149,107969,1,0,0:0:0:0:
240,112,108020,2,0,L|296:104,1,48,2|2,0:0|0:0,0:0:0:0:
448,312,108173,5,4,0:0:0:0:
491,276,108250,1,0,0:0:0:0:
493,220,108326,1,0,0:0:0:0:
454,180,108403,1,0,0:0:0:0:
288,144,108479,2,0,L|224:144,1,57.5999982421876,10|0,0:0|0:0,0:0:0:0:
400,80,108632,2,0,L|472:80,1,57.5999982421876,0|0,0:0|0:0,0:0:0:0:
208,40,108785,2,0,L|136:40,1,57.5999982421876,10|0,0:0|0:0,0:0:0:0:
208,40,108938,2,0,L|288:40,1,57.5999982421876,0|0,0:0|0:0,0:0:0:0:
88,88,109092,5,10,0:0:0:0:
60,114,109143,1,0,0:0:0:0:
51,152,109194,1,0,0:0:0:0:
74,193,109245,1,0,0:0:0:0:
128,220,109321,1,0,0:0:0:0:
313,298,109398,2,0,L|393:298,1,57.5999982421876,10|0,0:0|0:0,0:0:0:0:
152,184,109551,2,0,L|232:184,1,57.5999982421876,0|0,0:0|0:0,0:0:0:0:
392,192,109704,1,10,0:0:0:0:
439,162,109780,1,0,0:0:0:0:
447,107,109857,1,0,0:0:0:0:
409,66,109933,1,0,0:0:0:0:
208,48,110010,5,10,0:0:0:0:
199,104,110086,1,0,0:0:0:0:
227,153,110163,1,0,0:0:0:0:
279,175,110239,1,0,0:0:0:0:
440,312,110316,2,0,L|368:312,1,57.5999982421876,10|0,0:0|0:0,0:0:0:0:
176,336,110469,2,0,L|112:328,1,57.5999982421876,0|0,0:0|0:0,0:0:0:0:
312,240,110622,1,10,0:0:0:0:
353,202,110699,1,0,0:0:0:0:
356,146,110775,1,0,0:0:0:0:
317,106,110852,1,0,0:0:0:0:
144,48,110928,5,10,0:0:0:0:
115,72,110979,1,0,0:0:0:0:
101,108,111030,1,0,0:0:0:0:
107,145,111081,1,0,0:0:0:0:
165,190,111158,1,0,0:0:0:0:
320,224,111234,2,0,L|384:224,1,57.5999982421876,10|0,0:0|0:0,0:0:0:0:
120,304,111387,2,0,L|48:304,1,57.5999982421876,0|0,0:0|0:0,0:0:0:0:
304,352,111541,2,0,L|376:352,1,57.5999982421876,10|0,0:0|0:0,0:0:0:0:
419,352,111694,2,0,L|355:352,1,57.5999982421876,8|8,0:0|0:0,0:0:0:0:
104,224,111847,6,0,L|96:160,1,57.5999982421876,12|8,0:0|0:0,0:0:0:0:
264,40,112000,1,8,0:0:0:0:
310,71,112076,1,8,0:0:0:0:
318,126,112153,1,8,0:0:0:0:
282,169,112229,1,8,0:0:0:0:
104,224,112306,2,0,L|16:232,1,57.5999982421876,8|8,0:0|0:0,0:0:0:0:
328,304,112459,1,8,0:0:0:0:
365,262,112535,1,8,0:0:0:0:
362,206,112612,1,8,0:0:0:0:
320,170,112688,1,8,0:0:0:0:
88,64,112765,5,12,0:0:0:0:
64,93,112816,1,0,0:0:0:0:
55,130,112867,1,0,0:0:0:0:
63,167,112918,1,8,0:0:0:0:
86,198,112969,1,0,0:0:0:0:
120,215,113020,1,0,0:0:0:0:
320,170,113071,5,8,0:0:0:0:
343,199,113122,1,0,0:0:0:0:
352,236,113173,1,0,0:0:0:0:
344,273,113224,1,8,0:0:0:0:
321,304,113275,1,0,0:0:0:0:
287,321,113326,1,0,0:0:0:0:
136,352,113377,2,0,L|72:352,1,57.5999982421876,12|8,0:0|0:0,0:0:0:0:
321,304,113530,2,0,L|393:308,1,57.5999982421876,8|8,0:0|0:0,0:0:0:0:
152,160,113683,5,8,0:0:0:0:
272,96,113836,2,0,L|336:96,1,57.5999982421876,8|8,0:0|0:0,0:0:0:0:
64,48,113989,1,12,0:0:0:0:
168,112,114143,2,0,L|232:112,1,57.5999982421876,8|8,0:0|0:0,0:0:0:0:
424,200,114296,2,0,L|352:200,1,57.5999982421876,8|8,0:0|0:0,0:0:0:0:
112,272,114449,2,0,L|192:272,1,57.5999982421876,8|8,0:0|0:0,0:0:0:0:
384,344,114602,5,12,0:0:0:0:
418,328,114653,1,0,0:0:0:0:
443,299,114704,1,0,0:0:0:0:
452,262,114755,1,8,0:0:0:0:
444,225,114806,1,0,0:0:0:0:
421,195,114857,1,0,0:0:0:0:
192,168,114908,5,8,0:0:0:0:
168,138,114959,1,0,0:0:0:0:
159,101,115010,1,0,0:0:0:0:
166,63,115061,1,8,0:0:0:0:
189,33,115112,1,0,0:0:0:0:
223,15,115163,1,0,0:0:0:0:
392,24,115214,2,0,L|472:32,1,57.5999982421876,12|8,0:0|0:0,0:0:0:0:
104,144,115367,2,0,L|32:152,1,57.5999982421876,8|8,0:0|0:0,0:0:0:0:
480,184,115520,5,12,0:0:0:0:
256,192,115673,12,2,119315,0:0:0:0:
