osu file format v14

[General]
AudioFilename: audio.mp3
AudioLeadIn: 0
PreviewTime: -1
Countdown: 1
SampleSet: Normal
StackLeniency: 0.7
Mode: 0
LetterboxInBreaks: 0
WidescreenStoryboard: 0

[Editor]
DistanceSpacing: 1
BeatDivisor: 4
GridSize: 16
TimelineZoom: 2.799999

[Metadata]
Title:Angelic Party
TitleUnicode:Angelic Party
Artist:xi
ArtistUnicode:xi
Creator:woynawsenpai
Version:Woynaw Session
Source:
Tags:
BeatmapID:1611336
BeatmapSetID:766493

[Difficulty]
HPDrainRate:5
CircleSize:4
OverallDifficulty:7
ApproachRate:9.2
SliderMultiplier:1.4
SliderTickRate:1

[Events]
//Background and Video events
0,0,"xi.jpg",0,0
//Break Periods
//Storyboard Layer 0 (Background)
//Storyboard Layer 1 (Fail)
//Storyboard Layer 2 (Pass)
//Storyboard Layer 3 (Foreground)
//Storyboard Sound Samples

[TimingPoints]
1333,314.13612565445,4,1,0,100,1,0

[HitObjects]
219,42,1333,5,8,0:0:0:0:
344,167,1490,2,2,P|376:155|411:161,2,70
136,275,1961,5,8,0:0:0:0:
306,79,2118,1,8,0:0:0:0:
391,184,2275,2,2,L|330:247,1,70
244,309,2589,6,2,L|215:232,1,70
156,72,2903,1,8,0:0:0:0:
307,31,3060,1,8,0:0:0:0:
234,158,3217,1,8,0:0:0:0:
408,123,3374,5,8,0:0:0:0:
417,156,3453,1,8,0:0:0:0:
404,188,3531,1,8,0:0:0:0:
310,271,3689,5,8,0:0:0:0:
94,237,3846,2,2,P|118:196|154:159,1,70
414,48,4160,1,8,0:0:0:0:
211,85,4317,5,8,0:0:0:0:
239,64,4395,1,8,0:0:0:0:
271,51,4474,2,2,P|317:50|354:86,1,70
440,149,4788,6,2,L|372:202,1,70
239,219,5102,1,8,0:0:0:0:
275,76,5259,2,2,P|303:95|315:127,2,70
151,44,5730,5,8,0:0:0:0:
161,77,5809,1,8,0:0:0:0:
185,101,5887,1,8,0:0:0:0:
275,190,6045,5,8,0:0:0:0:
254,218,6124,1,8,0:0:0:0:
232,245,6202,1,8,0:0:0:0:
207,269,6280,1,8,0:0:0:0:
180,291,6359,2,2,P|143:317|98:325,2,70
395,120,6830,5,8,0:0:0:0:
371,94,6908,1,8,0:0:0:0:
342,72,6987,2,2,L|245:69,1,70
143,115,7301,6,2,L|125:196,1,70
345,158,7615,2,2,L|329:247,1,70
320,336,7929,1,8,0:0:0:0:
171,250,8086,1,8,0:0:0:0:
345,158,8243,1,8,0:0:0:0:
170,46,8401,5,0,0:0:0:0:
135,41,8479,1,0,0:0:0:0:
107,62,8558,2,0,P|93:112|106:134,1,70
202,271,8872,2,0,L|173:335,2,70
278,50,9343,5,0,0:0:0:0:
260,80,9422,1,0,0:0:0:0:
265,114,9500,1,0,0:0:0:0:
304,240,9657,2,0,B|328:284|335:283|376:276,2,70
208,96,10128,5,0,0:0:0:0:
240,240,10285,1,0,0:0:0:0:
272,32,10442,1,0,0:0:0:0:
64,64,10600,1,0,0:0:0:0:
33,173,10757,5,0,0:0:0:0:
39,228,10835,1,0,0:0:0:0:
66,277,10914,1,0,0:0:0:0:
107,318,10992,1,0,0:0:0:0:
157,342,11071,1,0,0:0:0:0:
213,352,11149,1,0,0:0:0:0:
271,343,11228,1,0,0:0:0:0:
323,321,11306,1,0,0:0:0:0:
371,290,11385,6,0,P|408:254|419:216,1,70
457,57,11699,1,0,0:0:0:0:
357,117,11856,5,0,0:0:0:0:
333,142,11935,1,0,0:0:0:0:
305,163,12013,2,0,P|256:189|231:187,1,70
76,171,12327,2,0,P|66:157|98:93,1,70
221,31,12641,5,0,0:0:0:0:
379,85,12798,1,0,0:0:0:0:
325,244,12956,1,0,0:0:0:0:
160,192,13113,2,0,L|197:100,1,70
221,31,13427,5,0,0:0:0:0:
254,40,13505,1,0,0:0:0:0:
286,53,13584,2,0,L|347:122,1,70
405,204,13898,2,0,L|493:231,2,70
219,119,14369,5,0,0:0:0:0:
242,93,14447,1,0,0:0:0:0:
240,57,14526,1,0,0:0:0:0:
391,38,14683,2,0,B|425:61|452:104,2,70
158,52,15154,6,0,P|109:93|101:126,1,70
183,162,15469,2,0,P|176:211|202:237,1,70
299,309,15783,5,0,0:0:0:0:
312,276,15861,1,0,0:0:0:0:
327,244,15940,1,0,0:3:0:0:
375,89,16097,5,0,0:0:0:0:
351,63,16175,1,0,0:0:0:0:
322,42,16254,1,0,0:0:0:0:
288,33,16332,1,0,0:0:0:0:
252,33,16411,2,0,P|214:50|178:91,2,70
390,167,16882,5,0,0:3:0:0:
363,189,16961,1,0,0:3:0:0:
328,187,17039,1,0,0:3:0:0:
240,160,17196,2,0,P|204:159|163:128,1,70
97,78,17511,5,0,0:0:0:0:
54,207,17668,1,0,0:0:0:0:
241,89,17825,1,0,0:0:0:0:
108,276,17982,1,0,0:0:0:0:
165,80,18139,5,0,0:0:0:0:
248,267,18296,1,0,0:0:0:0:
112,176,18453,5,0,0:0:0:0:
143,161,18531,1,0,0:0:0:0:
178,157,18610,2,0,B|210:157|226:173|242:189,1,70
416,176,18924,2,0,P|418:190|455:226,2,35
400,144,19238,5,0,0:0:0:0:
369,126,19317,1,0,0:0:0:0:
334,130,19395,1,0,0:0:0:0:
302,146,19474,1,0,0:0:0:0:
288,178,19552,2,0,P|291:217|272:242,1,70
240,256,19788,5,0,0:0:0:0:
209,238,19867,1,0,0:0:0:0:
189,209,19945,1,0,0:0:0:0:
204,177,20024,1,0,0:0:0:0:
224,144,20102,1,0,0:0:0:0:
242,114,20181,1,0,0:0:0:0:
336,33,20338,5,0,0:0:0:0:
464,128,20495,2,0,L|400:160,1,70
192,240,20809,5,0,0:0:0:0:
160,224,20887,1,0,0:0:0:0:
144,192,20966,1,0,0:0:0:0:
160,160,21045,1,0,0:0:0:0:
192,144,21123,1,0,0:0:0:0:
224,128,21202,1,0,0:0:0:0:
256,112,21280,1,0,0:0:0:0:
288,96,21359,1,0,0:0:0:0:
416,64,21437,6,0,L|377:126,1,70
363,150,21673,1,0,0:0:0:0:
346,176,21751,1,0,0:0:0:0:
331,204,21830,1,0,0:0:0:0:
318,232,21908,6,0,L|248:258,1,70
112,272,22223,2,0,L|128:192,1,70
160,80,22537,6,0,L|240:80,1,70
261,76,22772,1,0,0:0:0:0:
296,76,22851,1,0,0:0:0:0:
325,93,22929,1,0,0:0:0:0:
351,116,23008,1,0,0:0:0:0:
369,145,23086,1,0,0:0:0:0:
383,177,23165,1,0,0:0:0:0:
392,210,23243,1,0,0:0:0:0:
400,244,23322,6,0,P|410:271|375:305,1,70
38,325,23636,2,0,L|113:264,1,70
219,189,23950,5,0,0:0:0:0:
204,162,24029,1,0,0:0:0:0:
187,131,24107,1,0,0:0:0:0:
174,104,24186,1,0,0:0:0:0:
160,80,24264,2,0,P|112:64|96:80,2,70
175,148,24736,6,0,P|207:116|223:84,1,70
288,112,25050,2,0,P|261:84|226:85,1,70
144,128,25364,2,0,P|128:176|144:192,1,70
208,256,25678,2,0,P|256:256|272:240,1,70
320,144,25992,2,0,P|304:96|272:96,1,70
128,80,26306,5,0,0:0:0:0:
64,192,26463,2,0,P|95:200|133:193,1,70
248,120,26699,6,0,L|296:88,2,35
224,144,26935,2,0,L|190:216,1,70
306,250,27249,2,0,L|335:168,1,70
389,53,27563,2,0,L|294:43,1,70
122,54,27877,5,0,0:0:0:0:
122,89,27956,1,0,0:0:0:0:
138,119,28034,1,0,0:0:0:0:
163,143,28113,1,0,0:0:0:0:
193,160,28191,1,0,0:0:0:0:
225,173,28270,1,0,0:0:0:0:
259,174,28348,2,0,L|327:157,2,70
85,200,28819,6,0,L|100:236,2,35
198,136,29134,2,0,L|223:187,2,35
373,105,29448,2,0,L|352:193,1,70
165,279,29762,2,0,L|179:210,1,70
210,70,30076,2,0,P|247:73|259:105,1,70
261,215,30390,2,0,P|209:219|205:211,1,70
161,115,30704,2,0,P|124:145|125:169,1,70
226,315,31018,5,0,0:0:0:0:
302,112,31175,2,0,L|318:150,2,35
179,54,31490,2,0,L|140:121,1,70
96,212,31804,5,0,0:0:0:0:
120,236,31882,1,0,0:0:0:0:
153,248,31961,2,0,P|195:256|217:241,2,70
67,125,32432,1,0,0:0:0:0:
159,43,32589,6,0,L|230:63,1,70
259,72,32825,1,0,0:0:0:0:
293,74,32903,1,0,0:0:0:0:
303,107,32982,1,0,0:0:0:0:
336,114,33060,1,0,0:0:0:0:
340,148,33139,1,0,0:0:0:0:
373,156,33217,1,0,0:0:0:0:
368,190,33296,1,0,0:0:0:0:
396,210,33374,2,0,P|417:233|414:273,1,70
218,321,33689,5,0,0:0:0:0:
202,290,33767,1,0,0:0:0:0:
197,255,33846,1,0,0:0:0:0:
210,223,33924,1,0,0:0:0:0:
226,191,34003,2,0,P|225:143|196:124,1,70
59,44,34317,5,0,0:0:0:0:
29,222,34474,5,0,0:0:0:0:
43,253,34552,1,0,0:0:0:0:
70,275,34631,1,0,0:0:0:0:
209,298,34788,6,0,L|262:230,1,70
125,40,35102,2,0,L|178:116,1,70
302,259,35416,2,0,L|302:174,1,70
298,67,35730,2,0,P|337:47|369:52,1,70
484,78,36045,2,0,P|491:115|474:148,1,70
349,239,36359,5,0,0:0:0:0:
159,231,36516,2,0,P|135:182|148:149,1,70
146,135,36751,5,0,0:0:0:0:
166,106,36830,1,0,0:0:0:0:
192,83,36908,1,0,0:0:0:0:
344,56,36987,6,0,P|380:60|405:112,1,70
438,200,37301,2,0,L|359:232,1,70
140,293,37615,2,0,L|107:198,1,70
105,193,37851,5,0,0:0:0:0:
106,158,37929,1,0,0:0:0:0:
120,125,38008,1,0,0:0:0:0:
144,99,38086,1,0,0:0:0:0:
176,84,38165,1,0,0:0:0:0:
209,75,38243,1,0,0:0:0:0:
244,78,38322,1,0,0:0:0:0:
275,93,38401,6,0,P|297:103|325:145,1,70
335,171,38636,5,0,0:0:0:0:
340,205,38715,1,0,0:0:0:0:
339,239,38793,1,0,0:0:0:0:
325,271,38872,1,0,0:0:0:0:
305,300,38950,1,0,0:0:0:0:
272,312,39029,6,0,P|227:316|198:297,1,70
94,201,39343,2,0,L|80:129,2,70
129,317,39814,2,0,L|210:293,1,70
378,239,40128,2,0,L|346:149,1,70
294,38,40442,2,0,L|217:64,1,70
115,106,40757,2,0,L|158:175,1,70
213,241,40992,5,0,0:0:0:0:
241,220,41071,1,0,0:0:0:0:
267,197,41149,1,0,0:0:0:0:
295,176,41228,1,0,0:0:0:0:
321,153,41306,1,0,0:0:0:0:
351,135,41385,1,0,0:0:0:0:
378,114,41463,1,0,0:0:0:0:
410,100,41542,2,0,B|474:128|487:209|438:325|269:298,1,350
11,127,42484,5,0,0:0:0:0:
32,99,42563,1,0,0:0:0:0:
61,81,42641,1,0,0:0:0:0:
95,77,42720,1,0,0:0:0:0:
126,92,42798,2,0,B|186:125|118:183|153:241|249:249|259:204,1,210
321,212,43427,6,0,P|319:175|297:146,1,70
226,110,43741,5,0,0:0:0:0:
191,116,43819,1,0,0:0:0:0:
164,139,43898,1,0,0:0:0:0:
155,172,43976,1,0,0:0:0:0:
157,207,44055,2,0,P|168:248|199:267,1,70
301,194,44369,6,0,L|356:151,2,70
196,250,44840,2,0,L|114:224,1,70
27,192,45154,2,0,L|87:135,1,70
155,72,45469,2,0,L|224:116,1,70
293,157,45783,2,0,L|354:97,1,70
406,48,46097,2,0,P|434:100|425:136,1,70
431,143,46332,5,0,0:0:0:0:
427,178,46411,1,0,0:0:0:0:
413,210,46490,1,0,0:0:0:0:
391,237,46568,2,0,P|238:271|59:179,1,350
19,105,47511,5,0,0:0:0:0:
53,100,47589,1,0,0:0:0:0:
87,93,47668,1,0,0:0:0:0:
121,89,47746,1,0,0:0:0:0:
155,84,47825,2,0,P|268:101|379:143,1,210
427,182,48453,6,0,L|332:218,1,70
331,218,48689,5,0,0:0:0:0:
300,233,48767,1,0,0:0:0:0:
266,244,48846,1,0,0:0:0:0:
234,259,48924,1,0,0:0:0:0:
200,271,49003,1,0,0:0:0:0:
167,283,49081,2,0,P|117:292|86:266,1,70
38,130,49395,6,0,P|76:78|104:73,2,70
40,262,49867,2,0,L|134:266,1,70
308,274,50181,5,0,0:0:0:0:
145,163,50338,1,0,0:0:0:0:
336,94,50495,1,0,0:0:0:0:
154,279,50652,1,0,0:0:0:0:
346,192,50809,1,0,0:0:0:0:
64,106,50966,5,0,0:0:0:0:
94,80,51045,1,0,0:0:0:0:
134,75,51123,1,0,0:0:0:0:
174,82,51202,1,0,0:0:0:0:
194,115,51280,1,0,0:0:0:0:
195,154,51359,1,0,0:0:0:0:
183,192,51437,1,0,0:0:0:0:
192,230,51516,1,0,0:0:0:0:
221,257,51594,1,0,0:0:0:0:
465,241,51751,5,0,0:0:0:0:
394,111,51908,1,0,0:0:0:0:
250,191,52065,1,0,0:0:0:0:
233,64,52223,6,0,P|198:67|154:55,1,70
131,52,52458,5,0,0:0:0:0:
88,76,52536,1,0,0:0:0:0:
64,119,52615,1,0,0:0:0:0:
69,167,52693,1,0,0:0:0:0:
103,202,52772,1,0,0:0:0:0:
151,199,52850,1,0,0:0:0:0:
192,230,52929,1,0,0:0:0:0:
207,276,53007,1,0,0:0:0:0:
252,294,53086,1,0,0:0:0:0:
293,268,53164,1,0,0:0:0:0:
308,221,53243,1,0,0:0:0:0:
296,173,53321,1,0,0:0:0:0:
325,132,53401,1,0,0:0:0:0:
361,99,53479,2,0,L|325:12,3,70
459,294,54107,5,0,0:0:0:0:
282,97,54264,2,0,P|342:95|363:127,2,70
121,179,54736,2,0,P|101:218|138:246,1,70
252,330,55050,5,0,0:0:0:0:
287,303,55128,1,0,0:0:0:0:
304,262,55207,1,0,0:0:0:0:
297,218,55285,1,0,0:0:0:0:
270,184,55364,1,0,0:0:0:0:
231,160,55442,1,0,0:0:0:0:
189,145,55521,1,0,0:0:0:0:
147,131,55599,1,0,0:0:0:0:
106,111,55678,1,0,0:0:0:0:
82,75,55756,1,0,0:0:0:0:
80,30,55835,1,0,0:0:0:0:
260,53,55992,5,0,0:0:0:0:
131,150,56149,1,0,0:0:0:0:
297,218,56306,1,0,0:0:0:0:
126,294,56463,1,0,0:0:0:0:
362,57,56620,6,0,L|314:108,1,70
217,181,56935,5,0,0:0:0:0:
364,288,57092,1,0,0:0:0:0:
126,294,57249,1,0,0:0:0:0:
0,150,57406,5,0,0:0:0:0:
20,113,57484,1,0,0:0:0:0:
48,81,57563,1,0,0:0:0:0:
84,59,57641,1,0,0:0:0:0:
125,53,57720,1,0,0:0:0:0:
166,64,57798,1,0,0:0:0:0:
197,92,57877,1,0,0:0:0:0:
210,132,57955,1,0,0:0:0:0:
211,175,58034,1,0,0:0:0:0:
206,217,58112,1,0,0:0:0:0:
195,258,58191,2,0,L|289:260,2,70
51,256,58662,5,0,0:0:0:0:
50,197,58741,1,0,0:0:0:0:
50,138,58819,1,0,0:0:0:0:
170,74,58976,1,0,0:0:0:0:
252,247,59134,1,0,0:0:0:0:
409,248,59291,5,0,0:0:0:0:
408,189,59370,1,0,0:0:0:0:
408,130,59448,1,0,0:0:0:0:
415,38,59605,5,0,0:0:0:0:
363,46,59683,1,0,0:0:0:0:
321,61,59762,1,0,0:0:0:0:
284,87,59840,1,0,0:0:0:0:
253,120,59919,1,0,0:0:0:0:
226,155,59997,1,0,0:0:0:0:
198,191,60076,1,0,0:0:0:0:
168,224,60154,1,0,0:0:0:0:
134,253,60233,1,0,0:0:0:0:
66,88,60390,5,0,0:0:0:0:
396,175,60547,1,0,0:0:0:0:
63,249,60704,1,0,0:0:0:0:
386,44,60861,1,0,0:0:0:0:
408,313,61097,5,0,0:0:0:0:
362,312,61175,1,0,0:0:0:0:
317,307,61254,1,0,0:0:0:0:
273,296,61332,1,0,0:0:0:0:
230,280,61411,1,0,0:0:0:0:
191,257,61489,1,0,0:0:0:0:
157,226,61568,1,0,0:0:0:0:
129,193,61647,2,0,P|115:157|109:123,1,70
