osu file format v14

[General]
AudioFilename: audio.mp3
AudioLeadIn: 0
PreviewTime: 92638
Countdown: 0
SampleSet: Normal
StackLeniency: 0.7
Mode: 3
LetterboxInBreaks: 0
SpecialStyle: 0
WidescreenStoryboard: 1

[Editor]
DistanceSpacing: 0.8
BeatDivisor: 16
GridSize: 32
TimelineZoom: 2.3

[Metadata]
Title:Angel's Ladder
TitleUnicode:Angel's Ladder
Artist:xi
ArtistUnicode:xi
Creator:Toaph Daddy
Version:Another
Source:beatmania IIDX 29 CastHour
Tags:TheToaphster lemonguy Gekido- Ballistic BallisticBubba 2dx bemani konami hybrid angels instrumental electronic video game bemani konami piano artcore soft 6 spring time ffa tournament crepuscular rays mwc mwc2022 mania world cup
BeatmapID:3620488
BeatmapSetID:1768657

[Difficulty]
HPDrainRate:8
CircleSize:4
OverallDifficulty:8
ApproachRate:5
SliderMultiplier:1.4
SliderTickRate:1

[Events]
//Background and Video events
0,0,"ANGEL.jpg",0,0
//Break Periods
//Storyboard Layer 0 (Background)
//Storyboard Layer 1 (Fail)
//Storyboard Layer 2 (Pass)
//Storyboard Layer 3 (Foreground)
//Storyboard Layer 4 (Overlay)
//Storyboard Sound Samples

[TimingPoints]
1072,387.096774,4,1,1,40,1,0
53717,-100,4,1,1,30,0,0
66104,-100,4,1,1,40,0,0
75394,-100,4,1,1,50,0,0

[HitObjects]
192,192,1072,128,0,1168:0:0:0:0:
448,192,1072,128,0,1168:0:0:0:0:
320,192,1265,1,0,0:0:0:0:
64,192,1362,1,0,0:0:0:0:
448,192,1459,1,0,0:0:0:0:
192,192,1652,1,0,0:0:0:0:
64,192,1749,1,0,0:0:0:0:
320,192,1846,1,0,0:0:0:0:
448,192,2039,1,0,0:0:0:0:
64,192,2136,1,0,0:0:0:0:
192,192,2233,1,0,0:0:0:0:
320,192,2426,1,0,0:0:0:0:
64,192,2523,1,0,0:0:0:0:
448,192,2620,1,0,0:0:0:0:
192,192,2813,1,0,0:0:0:0:
64,192,2910,1,0,0:0:0:0:
320,192,3007,1,0,0:0:0:0:
448,192,3201,1,0,0:0:0:0:
64,192,3297,1,0,0:0:0:0:
192,192,3394,1,0,0:0:0:0:
320,192,3588,1,0,0:0:0:0:
64,192,3684,1,0,0:0:0:0:
448,192,3781,1,0,0:0:0:0:
192,192,3975,1,0,0:0:0:0:
64,192,4071,1,0,0:0:0:0:
320,192,4168,128,0,4265:0:0:0:0:
448,192,4168,128,0,4265:0:0:0:0:
64,192,4362,1,0,0:0:0:0:
448,192,4459,1,0,0:0:0:0:
320,192,4555,1,0,0:0:0:0:
192,192,4749,1,0,0:0:0:0:
448,192,4846,1,0,0:0:0:0:
64,192,4942,1,0,0:0:0:0:
320,192,5136,1,0,0:0:0:0:
448,192,5233,1,0,0:0:0:0:
192,192,5330,1,0,0:0:0:0:
64,192,5523,1,0,0:0:0:0:
448,192,5620,1,0,0:0:0:0:
320,192,5717,128,0,5813:0:0:0:0:
192,192,5910,1,0,0:0:0:0:
448,192,6007,1,0,0:0:0:0:
64,192,6104,1,0,0:0:0:0:
320,192,6297,1,0,0:0:0:0:
448,192,6394,1,0,0:0:0:0:
192,192,6491,128,0,6588:0:0:0:0:
64,192,6684,1,0,0:0:0:0:
448,192,6781,1,0,0:0:0:0:
320,192,6878,1,0,0:0:0:0:
192,192,7071,1,0,0:0:0:0:
448,192,7168,1,0,0:0:0:0:
192,192,7265,1,0,0:0:0:0:
64,192,7265,128,0,7362:0:0:0:0:
320,192,7265,128,0,7362:0:0:0:0:
64,192,7459,1,0,0:0:0:0:
448,192,7555,1,0,0:0:0:0:
320,192,7652,1,0,0:0:0:0:
192,192,7652,1,0,0:0:0:0:
448,192,7846,1,0,0:0:0:0:
320,192,7942,1,0,0:0:0:0:
64,192,8039,1,0,0:0:0:0:
192,192,8039,1,0,0:0:0:0:
192,192,8233,1,0,0:0:0:0:
64,192,8330,1,0,0:0:0:0:
448,192,8426,1,0,0:0:0:0:
320,192,8426,1,0,0:0:0:0:
64,192,8620,1,0,0:0:0:0:
448,192,8717,1,0,0:0:0:0:
192,192,8813,128,0,8910:0:0:0:0:
320,192,8813,128,0,8910:0:0:0:0:
64,192,8813,1,0,0:0:0:0:
448,192,9007,1,0,0:0:0:0:
320,192,9104,1,0,0:0:0:0:
64,192,9201,1,0,0:0:0:0:
192,192,9201,1,0,0:0:0:0:
192,192,9394,1,0,0:0:0:0:
64,192,9491,1,0,0:0:0:0:
448,192,9588,128,0,9684:0:0:0:0:
320,192,9588,128,0,9684:0:0:0:0:
64,192,9781,1,0,0:0:0:0:
448,192,9878,1,0,0:0:0:0:
320,192,9975,1,0,0:0:0:0:
192,192,9975,1,0,0:0:0:0:
448,192,10168,1,0,0:0:0:0:
64,192,10362,1,0,0:0:0:0:
192,192,10362,1,0,0:0:0:0:
320,192,10410,1,0,0:0:0:0:
448,192,10459,1,0,0:0:0:0:
192,192,10507,1,0,0:0:0:0:
320,192,10555,1,0,0:0:0:0:
64,192,10604,1,0,0:0:0:0:
192,192,10652,1,0,0:0:0:0:
320,192,10701,1,0,0:0:0:0:
64,192,10749,128,0,11039:0:0:0:0:
448,192,10749,128,0,11039:0:0:0:0:
448,192,11136,1,0,0:0:0:0:
320,192,11136,1,0,0:0:0:0:
192,192,11184,1,0,0:0:0:0:
64,192,11233,1,0,0:0:0:0:
320,192,11281,1,0,0:0:0:0:
192,192,11330,1,0,0:0:0:0:
448,192,11378,1,0,0:0:0:0:
320,192,11426,1,0,0:0:0:0:
192,192,11475,1,0,0:0:0:0:
64,192,11523,128,0,11717:0:0:0:0:
448,192,11523,128,0,11813:0:0:0:0:
320,192,11717,1,0,0:0:0:0:
192,192,11781,1,0,0:0:0:0:
64,192,11846,1,0,0:0:0:0:
192,192,11910,128,0,12104:0:0:0:0:
320,192,11910,128,0,12491:0:0:0:0:
448,192,11910,128,0,12297:0:0:0:0:
64,192,12104,1,0,0:0:0:0:
192,192,12297,5,0,0:0:0:0:
448,192,12491,1,0,0:0:0:0:
64,192,12555,1,0,0:0:0:0:
192,192,12620,1,0,0:0:0:0:
448,192,12684,5,0,0:0:0:0:
320,192,12684,1,0,0:0:0:0:
64,192,12749,1,0,0:0:0:0:
448,192,12813,1,0,0:0:0:0:
64,192,12878,1,0,0:0:0:0:
448,192,12942,1,0,0:0:0:0:
64,192,13007,1,0,0:0:0:0:
448,192,13071,1,0,0:0:0:0:
320,192,13071,1,0,0:0:0:0:
192,192,13136,1,0,0:0:0:0:
320,192,13201,1,0,0:0:0:0:
64,192,13265,1,0,0:0:0:0:
448,192,13330,1,0,0:0:0:0:
320,192,13394,1,0,0:0:0:0:
64,192,13459,128,0,13555:0:0:0:0:
192,192,13459,128,0,13846:0:0:0:0:
448,192,13459,128,0,13555:0:0:0:0:
64,192,13652,128,0,13749:0:0:0:0:
448,192,13652,128,0,13749:0:0:0:0:
64,192,13846,128,0,13942:0:0:0:0:
448,192,13846,1,0,0:0:0:0:
192,192,13942,128,0,14039:0:0:0:0:
320,192,14039,128,0,14136:0:0:0:0:
64,192,14136,128,0,14233:0:0:0:0:
448,192,14233,1,0,0:0:0:0:
192,192,14297,1,0,0:0:0:0:
320,192,14362,1,0,0:0:0:0:
64,192,14426,1,0,0:0:0:0:
448,192,14523,1,0,0:0:0:0:
320,192,14620,1,0,0:0:0:0:
64,192,14620,1,0,0:0:0:0:
320,192,14717,128,0,14813:0:0:0:0:
448,192,14717,128,0,14813:0:0:0:0:
192,192,14813,128,0,15201:0:0:0:0:
320,192,14910,128,0,15201:0:0:0:0:
64,192,14910,128,0,15201:0:0:0:0:
448,192,15201,128,0,15588:0:0:0:0:
64,192,15394,1,0,0:0:0:0:
320,192,15588,128,0,15781:0:0:0:0:
64,192,15652,1,0,0:0:0:0:
448,192,15717,1,0,0:0:0:0:
192,192,15781,128,0,15975:0:0:0:0:
64,192,15975,128,0,16039:0:0:0:0:
448,192,16039,128,0,16104:0:0:0:0:
320,192,16104,128,0,16168:0:0:0:0:
64,192,16168,128,0,16362:0:0:0:0:
192,192,16168,1,0,0:0:0:0:
448,192,16362,128,0,16426:0:0:0:0:
192,192,16426,128,0,16491:0:0:0:0:
320,192,16491,128,0,16555:0:0:0:0:
192,192,16555,128,0,16652:0:0:0:0:
64,192,16555,128,0,16652:0:0:0:0:
448,192,16555,128,0,16652:0:0:0:0:
320,192,16652,128,0,16749:0:0:0:0:
192,192,16749,128,0,16846:0:0:0:0:
448,192,16749,128,0,16942:0:0:0:0:
64,192,16749,128,0,16942:0:0:0:0:
320,192,16846,128,0,16942:0:0:0:0:
192,192,16942,128,0,17039:0:0:0:0:
320,192,17039,128,0,17136:0:0:0:0:
192,192,17136,128,0,17233:0:0:0:0:
320,192,17233,128,0,17330:0:0:0:0:
192,192,17330,1,0,0:0:0:0:
320,192,17394,1,0,0:0:0:0:
192,192,17459,1,0,0:0:0:0:
320,192,17523,1,0,0:0:0:0:
448,192,17588,1,0,0:0:0:0:
64,192,17652,1,0,0:0:0:0:
192,192,17717,1,0,0:0:0:0:
320,192,17717,1,0,0:0:0:0:
192,192,17813,1,0,0:0:0:0:
448,192,17813,1,0,0:0:0:0:
64,192,17878,1,0,0:0:0:0:
320,192,17942,1,0,0:0:0:0:
192,192,18007,128,0,18104:0:0:0:0:
448,192,18007,128,0,18104:0:0:0:0:
64,192,18201,128,0,18394:0:0:0:0:
320,192,18201,128,0,18394:0:0:0:0:
448,192,18201,128,0,18394:0:0:0:0:
192,192,18491,128,0,18684:0:0:0:0:
320,192,18491,128,0,18684:0:0:0:0:
448,192,18491,128,0,18684:0:0:0:0:
64,192,18781,128,0,18975:0:0:0:0:
320,192,18781,128,0,18975:0:0:0:0:
448,192,18781,128,0,18975:0:0:0:0:
64,192,19071,128,0,19362:0:0:0:0:
192,192,19071,128,0,19265:0:0:0:0:
320,192,19071,128,0,19168:0:0:0:0:
320,192,19265,1,0,0:0:0:0:
448,192,19330,1,0,0:0:0:0:
320,192,19394,1,0,0:0:0:0:
192,192,19459,1,0,0:0:0:0:
64,192,19523,1,0,0:0:0:0:
320,192,19588,1,0,0:0:0:0:
64,192,19652,128,0,19749:0:0:0:0:
192,192,19652,128,0,20039:0:0:0:0:
448,192,19652,128,0,19749:0:0:0:0:
64,192,19846,128,0,19942:0:0:0:0:
448,192,19846,128,0,19942:0:0:0:0:
64,192,20039,128,0,20136:0:0:0:0:
448,192,20039,1,0,0:0:0:0:
192,192,20136,128,0,20233:0:0:0:0:
320,192,20233,128,0,20330:0:0:0:0:
64,192,20330,128,0,20426:0:0:0:0:
448,192,20426,1,0,0:0:0:0:
192,192,20491,1,0,0:0:0:0:
320,192,20555,1,0,0:0:0:0:
64,192,20620,1,0,0:0:0:0:
448,192,20717,1,0,0:0:0:0:
320,192,20813,1,0,0:0:0:0:
64,192,20813,1,0,0:0:0:0:
320,192,20910,128,0,21007:0:0:0:0:
448,192,20910,128,0,21007:0:0:0:0:
192,192,21007,128,0,21394:0:0:0:0:
320,192,21104,128,0,21394:0:0:0:0:
64,192,21104,128,0,21394:0:0:0:0:
448,192,21394,128,0,21781:0:0:0:0:
64,192,21588,1,0,0:0:0:0:
320,192,21781,128,0,21975:0:0:0:0:
192,192,21846,1,0,0:0:0:0:
448,192,21910,1,0,0:0:0:0:
64,192,21975,128,0,22168:0:0:0:0:
448,192,22039,1,0,0:0:0:0:
320,192,22104,1,0,0:0:0:0:
192,192,22168,128,0,22265:0:0:0:0:
320,192,22265,128,0,22362:0:0:0:0:
448,192,22265,128,0,22362:0:0:0:0:
64,192,22265,128,0,22362:0:0:0:0:
192,192,22459,128,0,22555:0:0:0:0:
320,192,22459,128,0,22555:0:0:0:0:
448,192,22459,128,0,22555:0:0:0:0:
64,192,22652,128,0,23039:0:0:0:0:
192,192,22652,128,0,23039:0:0:0:0:
448,192,22652,128,0,22942:0:0:0:0:
320,192,22942,1,0,0:0:0:0:
448,192,23007,1,0,0:0:0:0:
320,192,23071,1,0,0:0:0:0:
64,192,23136,128,0,23330:0:0:0:0:
192,192,23136,128,0,23233:0:0:0:0:
448,192,23233,128,0,23330:0:0:0:0:
192,192,23330,128,0,23426:0:0:0:0:
320,192,23426,128,0,23523:0:0:0:0:
448,192,23426,128,0,23620:0:0:0:0:
64,192,23523,128,0,23620:0:0:0:0:
320,192,23620,128,0,23717:0:0:0:0:
64,192,23717,128,0,23910:0:0:0:0:
192,192,23717,128,0,23813:0:0:0:0:
448,192,23813,128,0,23910:0:0:0:0:
192,192,23910,128,0,24007:0:0:0:0:
320,192,24007,128,0,24104:0:0:0:0:
448,192,24007,128,0,24201:0:0:0:0:
64,192,24104,128,0,24201:0:0:0:0:
320,192,24201,128,0,24297:0:0:0:0:
64,192,24297,5,0,0:0:0:0:
448,192,24297,1,0,0:0:0:0:
192,192,24362,1,0,0:0:0:0:
64,192,24426,1,0,0:0:0:0:
448,192,24491,1,0,0:0:0:0:
320,192,24555,1,0,0:0:0:0:
448,192,24620,1,0,0:0:0:0:
64,192,24684,1,0,0:0:0:0:
192,192,24684,1,0,0:0:0:0:
320,192,24749,1,0,0:0:0:0:
64,192,24813,1,0,0:0:0:0:
448,192,24878,1,0,0:0:0:0:
192,192,24942,1,0,0:0:0:0:
448,192,25007,1,0,0:0:0:0:
320,192,25071,1,0,0:0:0:0:
192,192,25071,1,0,0:0:0:0:
64,192,25136,1,0,0:0:0:0:
320,192,25201,1,0,0:0:0:0:
192,192,25265,1,0,0:0:0:0:
448,192,25330,1,0,0:0:0:0:
192,192,25394,1,0,0:0:0:0:
320,192,25459,1,0,0:0:0:0:
448,192,25459,1,0,0:0:0:0:
64,192,25523,1,0,0:0:0:0:
192,192,25588,1,0,0:0:0:0:
448,192,25652,1,0,0:0:0:0:
64,192,25717,1,0,0:0:0:0:
320,192,25781,1,0,0:0:0:0:
448,192,25846,1,0,0:0:0:0:
192,192,25846,1,0,0:0:0:0:
64,192,25846,1,0,0:0:0:0:
64,192,25942,128,0,26039:0:0:0:0:
448,192,25942,128,0,26039:0:0:0:0:
192,192,25942,128,0,26039:0:0:0:0:
448,192,26136,128,0,26233:0:0:0:0:
64,192,26136,128,0,26233:0:0:0:0:
192,192,26136,128,0,26233:0:0:0:0:
320,192,26330,1,0,0:0:0:0:
64,192,26426,1,0,0:0:0:0:
192,192,26523,1,0,0:0:0:0:
448,192,26620,1,0,0:0:0:0:
320,192,26620,1,0,0:0:0:0:
64,192,26620,1,0,0:0:0:0:
448,192,26717,128,0,26813:0:0:0:0:
320,192,26717,128,0,26813:0:0:0:0:
64,192,26717,128,0,26813:0:0:0:0:
448,192,26910,128,0,27007:0:0:0:0:
320,192,26910,128,0,27007:0:0:0:0:
64,192,26910,128,0,27007:0:0:0:0:
64,192,27104,1,0,0:0:0:0:
64,192,27201,1,0,0:0:0:0:
448,192,27297,1,0,0:0:0:0:
320,192,27394,1,0,0:0:0:0:
192,192,27394,1,0,0:0:0:0:
64,192,27394,1,0,0:0:0:0:
448,192,27491,1,0,0:0:0:0:
192,192,27588,1,0,0:0:0:0:
64,192,27684,1,0,0:0:0:0:
320,192,27781,1,0,0:0:0:0:
192,192,27846,1,0,0:0:0:0:
64,192,27910,1,0,0:0:0:0:
448,192,27975,1,0,0:0:0:0:
192,192,28039,1,0,0:0:0:0:
320,192,28104,1,0,0:0:0:0:
64,192,28168,1,0,0:0:0:0:
192,192,28168,1,0,0:0:0:0:
448,192,28168,128,0,28426:0:0:0:0:
64,192,28297,1,0,0:0:0:0:
320,192,28297,128,0,28426:0:0:0:0:
192,192,28426,1,0,0:0:0:0:
64,192,28426,128,0,28555:0:0:0:0:
448,192,28555,1,0,0:0:0:0:
320,192,28555,1,0,0:0:0:0:
192,192,28555,128,0,28813:0:0:0:0:
448,192,28684,1,0,0:0:0:0:
320,192,28684,128,0,28813:0:0:0:0:
64,192,28813,1,0,0:0:0:0:
448,192,28813,128,0,28942:0:0:0:0:
64,192,28942,1,0,0:0:0:0:
320,192,28942,1,0,0:0:0:0:
192,192,28942,1,0,0:0:0:0:
192,192,29136,128,0,29330:0:0:0:0:
320,192,29233,1,0,0:0:0:0:
64,192,29330,128,0,29523:0:0:0:0:
448,192,29330,1,0,0:0:0:0:
320,192,29523,128,0,29717:0:0:0:0:
192,192,29620,1,0,0:0:0:0:
448,192,29717,128,0,29813:0:0:0:0:
64,192,29717,1,0,0:0:0:0:
192,192,29813,128,0,29910:0:0:0:0:
64,192,29910,128,0,30007:0:0:0:0:
320,192,30007,128,0,30104:0:0:0:0:
448,192,30104,1,0,0:0:0:0:
192,192,30104,1,0,0:0:0:0:
64,192,30201,128,0,30297:0:0:0:0:
320,192,30297,1,0,0:0:0:0:
192,192,30394,128,0,30684:0:0:0:0:
320,192,30491,1,0,0:0:0:0:
448,192,30491,128,0,30684:0:0:0:0:
320,192,30684,1,0,0:0:0:0:
64,192,30781,1,0,0:0:0:0:
192,192,30878,128,0,31071:0:0:0:0:
448,192,30878,1,0,0:0:0:0:
320,192,31071,128,0,31265:0:0:0:0:
192,192,31168,1,0,0:0:0:0:
448,192,31265,128,0,31362:0:0:0:0:
64,192,31265,1,0,0:0:0:0:
320,192,31362,128,0,31459:0:0:0:0:
64,192,31459,128,0,31555:0:0:0:0:
192,192,31555,128,0,31652:0:0:0:0:
64,192,31652,1,0,0:0:0:0:
320,192,31652,1,0,0:0:0:0:
448,192,31749,128,0,31846:0:0:0:0:
192,192,31749,128,0,31846:0:0:0:0:
64,192,31846,1,0,0:0:0:0:
192,192,31942,128,0,32039:0:0:0:0:
320,192,31942,128,0,32233:0:0:0:0:
64,192,32039,128,0,32330:0:0:0:0:
448,192,32039,1,0,0:0:0:0:
192,192,32233,128,0,32426:0:0:0:0:
320,192,32330,1,0,0:0:0:0:
64,192,32426,128,0,32620:0:0:0:0:
448,192,32426,1,0,0:0:0:0:
320,192,32620,128,0,32813:0:0:0:0:
192,192,32717,1,0,0:0:0:0:
448,192,32813,128,0,32910:0:0:0:0:
64,192,32813,1,0,0:0:0:0:
192,192,32910,128,0,33007:0:0:0:0:
64,192,33007,128,0,33104:0:0:0:0:
320,192,33104,128,0,33201:0:0:0:0:
448,192,33201,1,0,0:0:0:0:
192,192,33201,1,0,0:0:0:0:
64,192,33297,128,0,33394:0:0:0:0:
320,192,33394,1,0,0:0:0:0:
192,192,33491,128,0,33781:0:0:0:0:
320,192,33588,1,0,0:0:0:0:
448,192,33588,128,0,33781:0:0:0:0:
64,192,33781,128,0,33975:0:0:0:0:
320,192,33878,1,0,0:0:0:0:
192,192,33975,128,0,34168:0:0:0:0:
448,192,33975,1,0,0:0:0:0:
320,192,34168,128,0,34362:0:0:0:0:
64,192,34265,1,0,0:0:0:0:
448,192,34362,128,0,34459:0:0:0:0:
192,192,34362,1,0,0:0:0:0:
320,192,34459,128,0,34555:0:0:0:0:
64,192,34555,128,0,34652:0:0:0:0:
448,192,34652,128,0,34749:0:0:0:0:
320,192,34749,1,0,0:0:0:0:
64,192,34813,1,0,0:0:0:0:
192,192,34846,128,0,34942:0:0:0:0:
320,192,34878,1,0,0:0:0:0:
448,192,34942,1,0,0:0:0:0:
320,192,35039,128,0,35330:0:0:0:0:
64,192,35039,128,0,35330:0:0:0:0:
192,192,35039,1,0,0:0:0:0:
448,192,35136,128,0,35330:0:0:0:0:
192,192,35330,128,0,35523:0:0:0:0:
320,192,35426,1,0,0:0:0:0:
448,192,35523,128,0,35717:0:0:0:0:
64,192,35523,1,0,0:0:0:0:
192,192,35717,128,0,35910:0:0:0:0:
64,192,35813,1,0,0:0:0:0:
448,192,35910,1,0,0:0:0:0:
320,192,35910,1,0,0:0:0:0:
448,192,36007,128,0,36104:0:0:0:0:
320,192,36104,128,0,36201:0:0:0:0:
64,192,36201,128,0,36297:0:0:0:0:
448,192,36297,1,0,0:0:0:0:
320,192,36297,1,0,0:0:0:0:
192,192,36394,128,0,36491:0:0:0:0:
64,192,36491,1,0,0:0:0:0:
320,192,36588,1,0,0:0:0:0:
448,192,36588,128,0,36878:0:0:0:0:
192,192,36588,128,0,36878:0:0:0:0:
64,192,36684,128,0,36878:0:0:0:0:
320,192,36878,128,0,37071:0:0:0:0:
192,192,36975,128,0,37071:0:0:0:0:
64,192,37071,128,0,37265:0:0:0:0:
448,192,37071,1,0,0:0:0:0:
192,192,37168,128,0,37265:0:0:0:0:
448,192,37265,128,0,37459:0:0:0:0:
192,192,37362,128,0,37459:0:0:0:0:
320,192,37459,1,0,0:0:0:0:
64,192,37459,1,0,0:0:0:0:
448,192,37523,1,0,0:0:0:0:
320,192,37588,1,0,0:0:0:0:
192,192,37652,1,0,0:0:0:0:
448,192,37717,1,0,0:0:0:0:
64,192,37781,1,0,0:0:0:0:
192,192,37846,1,0,0:0:0:0:
448,192,37846,1,0,0:0:0:0:
320,192,37910,1,0,0:0:0:0:
192,192,37975,1,0,0:0:0:0:
448,192,38039,1,0,0:0:0:0:
320,192,38104,1,0,0:0:0:0:
64,192,38168,1,0,0:0:0:0:
320,192,38233,128,0,38426:0:0:0:0:
448,192,38233,128,0,38330:0:0:0:0:
192,192,38233,128,0,38426:0:0:0:0:
448,192,38426,1,0,0:0:0:0:
448,192,38523,1,0,0:0:0:0:
192,192,38620,128,0,38813:0:0:0:0:
320,192,38620,128,0,38813:0:0:0:0:
64,192,38813,1,0,0:0:0:0:
64,192,38910,1,0,0:0:0:0:
192,192,39007,128,0,39201:0:0:0:0:
320,192,39007,128,0,39201:0:0:0:0:
448,192,39007,128,0,39201:0:0:0:0:
64,192,39297,128,0,39491:0:0:0:0:
320,192,39297,128,0,39491:0:0:0:0:
448,192,39297,128,0,39491:0:0:0:0:
448,192,39588,128,0,39975:0:0:0:0:
192,192,39588,128,0,40071:0:0:0:0:
64,192,39588,128,0,40168:0:0:0:0:
320,192,39975,1,0,0:0:0:0:
448,192,40071,1,0,0:0:0:0:
192,192,40168,1,0,0:0:0:0:
320,192,40233,1,0,0:0:0:0:
448,192,40297,1,0,0:0:0:0:
64,192,40362,1,0,0:0:0:0:
320,192,40459,1,0,0:0:0:0:
448,192,40555,1,0,0:0:0:0:
64,192,40555,1,0,0:0:0:0:
320,192,40652,1,0,0:0:0:0:
192,192,40749,1,0,0:0:0:0:
64,192,40749,1,0,0:0:0:0:
448,192,40846,1,0,0:0:0:0:
320,192,40846,1,0,0:0:0:0:
448,192,40942,1,0,0:0:0:0:
64,192,40942,1,0,0:0:0:0:
320,192,41039,1,0,0:0:0:0:
192,192,41039,1,0,0:0:0:0:
64,192,41136,1,0,0:0:0:0:
320,192,41233,1,0,0:0:0:0:
448,192,41233,1,0,0:0:0:0:
64,192,41330,128,0,41523:0:0:0:0:
192,192,41330,128,0,41426:0:0:0:0:
448,192,41330,128,0,41523:0:0:0:0:
192,192,41523,1,0,0:0:0:0:
64,192,41620,128,0,41813:0:0:0:0:
320,192,41620,128,0,41813:0:0:0:0:
448,192,41620,128,0,41813:0:0:0:0:
192,192,41717,1,0,0:0:0:0:
448,192,41910,128,0,42007:0:0:0:0:
320,192,41910,128,0,42104:0:0:0:0:
192,192,41910,128,0,42104:0:0:0:0:
448,192,42104,1,0,0:0:0:0:
320,192,42201,128,0,42394:0:0:0:0:
192,192,42201,128,0,42394:0:0:0:0:
64,192,42201,128,0,42394:0:0:0:0:
448,192,42297,1,0,0:0:0:0:
64,192,42491,128,0,42684:0:0:0:0:
320,192,42491,128,0,42781:0:0:0:0:
448,192,42491,128,0,43071:0:0:0:0:
192,192,42684,1,0,0:0:0:0:
64,192,42781,1,0,0:0:0:0:
192,192,42878,1,0,0:0:0:0:
320,192,42878,1,0,0:0:0:0:
192,192,43071,1,0,0:0:0:0:
192,192,43265,1,0,0:0:0:0:
64,192,43265,1,0,0:0:0:0:
448,192,43330,1,0,0:0:0:0:
64,192,43394,1,0,0:0:0:0:
320,192,43459,1,0,0:0:0:0:
192,192,43523,1,0,0:0:0:0:
64,192,43588,1,0,0:0:0:0:
320,192,43652,1,0,0:0:0:0:
448,192,43652,1,0,0:0:0:0:
64,192,43749,1,0,0:0:0:0:
320,192,43846,1,0,0:0:0:0:
192,192,43846,1,0,0:0:0:0:
448,192,43942,1,0,0:0:0:0:
64,192,44039,1,0,0:0:0:0:
320,192,44039,1,0,0:0:0:0:
192,192,44136,1,0,0:0:0:0:
448,192,44233,1,0,0:0:0:0:
320,192,44233,1,0,0:0:0:0:
192,192,44330,1,0,0:0:0:0:
64,192,44330,1,0,0:0:0:0:
448,192,44426,128,0,44620:0:0:0:0:
320,192,44426,128,0,44523:0:0:0:0:
64,192,44426,128,0,44620:0:0:0:0:
320,192,44620,1,0,0:0:0:0:
448,192,44717,128,0,44910:0:0:0:0:
192,192,44717,128,0,44910:0:0:0:0:
64,192,44717,128,0,44910:0:0:0:0:
320,192,44813,1,0,0:0:0:0:
64,192,45007,128,0,45104:0:0:0:0:
192,192,45007,128,0,45201:0:0:0:0:
320,192,45007,128,0,45201:0:0:0:0:
64,192,45201,1,0,0:0:0:0:
192,192,45297,128,0,45491:0:0:0:0:
320,192,45297,128,0,45491:0:0:0:0:
448,192,45297,128,0,45491:0:0:0:0:
64,192,45394,1,0,0:0:0:0:
448,192,45588,128,0,45781:0:0:0:0:
192,192,45588,128,0,45878:0:0:0:0:
64,192,45588,128,0,45878:0:0:0:0:
320,192,45781,1,0,0:0:0:0:
448,192,45878,1,0,0:0:0:0:
192,192,45975,1,0,0:0:0:0:
320,192,45975,1,0,0:0:0:0:
64,192,45975,128,0,46168:0:0:0:0:
448,192,46071,1,0,0:0:0:0:
192,192,46168,1,0,0:0:0:0:
320,192,46265,1,0,0:0:0:0:
192,192,46362,1,0,0:0:0:0:
64,192,46362,1,0,0:0:0:0:
448,192,46426,1,0,0:0:0:0:
64,192,46491,1,0,0:0:0:0:
320,192,46555,1,0,0:0:0:0:
448,192,46555,1,0,0:0:0:0:
192,192,46620,1,0,0:0:0:0:
64,192,46684,1,0,0:0:0:0:
448,192,46749,1,0,0:0:0:0:
320,192,46813,1,0,0:0:0:0:
448,192,46878,1,0,0:0:0:0:
64,192,46942,1,0,0:0:0:0:
192,192,46942,1,0,0:0:0:0:
320,192,47007,1,0,0:0:0:0:
448,192,47071,1,0,0:0:0:0:
64,192,47136,1,0,0:0:0:0:
192,192,47201,1,0,0:0:0:0:
64,192,47265,1,0,0:0:0:0:
320,192,47330,1,0,0:0:0:0:
192,192,47394,1,0,0:0:0:0:
64,192,47459,1,0,0:0:0:0:
192,192,47523,128,0,47620:0:0:0:0:
320,192,47523,128,0,47910:0:0:0:0:
448,192,47523,128,0,47620:0:0:0:0:
192,192,47717,1,0,0:0:0:0:
448,192,47717,128,0,47910:0:0:0:0:
64,192,47910,128,0,48104:0:0:0:0:
192,192,47910,128,0,48104:0:0:0:0:
320,192,48007,128,0,48104:0:0:0:0:
448,192,48104,128,0,48201:0:0:0:0:
64,192,48201,128,0,48297:0:0:0:0:
192,192,48297,128,0,48491:0:0:0:0:
448,192,48297,128,0,48491:0:0:0:0:
64,192,48394,128,0,48491:0:0:0:0:
320,192,48491,128,0,48588:0:0:0:0:
448,192,48588,128,0,48684:0:0:0:0:
320,192,48684,128,0,48781:0:0:0:0:
64,192,48684,128,0,48878:0:0:0:0:
192,192,48781,128,0,48878:0:0:0:0:
320,192,48878,128,0,48975:0:0:0:0:
448,192,48975,128,0,49071:0:0:0:0:
192,192,49071,128,0,49168:0:0:0:0:
64,192,49071,128,0,49362:0:0:0:0:
320,192,49071,128,0,49362:0:0:0:0:
192,192,49265,128,0,49459:0:0:0:0:
64,192,49459,128,0,49652:0:0:0:0:
320,192,49459,128,0,49555:0:0:0:0:
192,192,49555,128,0,49652:0:0:0:0:
320,192,49652,128,0,49749:0:0:0:0:
64,192,49749,128,0,49846:0:0:0:0:
192,192,49846,128,0,50039:0:0:0:0:
448,192,49846,128,0,50039:0:0:0:0:
320,192,49942,128,0,50039:0:0:0:0:
64,192,50039,128,0,50136:0:0:0:0:
320,192,50136,128,0,50233:0:0:0:0:
448,192,50233,1,0,0:0:0:0:
64,192,50233,1,0,0:0:0:0:
192,192,50297,1,0,0:0:0:0:
320,192,50362,1,0,0:0:0:0:
448,192,50426,1,0,0:0:0:0:
64,192,50426,1,0,0:0:0:0:
192,192,50491,1,0,0:0:0:0:
320,192,50555,1,0,0:0:0:0:
192,192,50620,1,0,0:0:0:0:
64,192,50620,1,0,0:0:0:0:
64,192,50813,1,0,0:0:0:0:
192,192,50813,1,0,0:0:0:0:
448,192,50813,1,0,0:0:0:0:
64,192,50910,128,0,51007:0:0:0:0:
192,192,50910,128,0,51007:0:0:0:0:
448,192,50910,128,0,51007:0:0:0:0:
320,192,51104,1,0,0:0:0:0:
448,192,51104,1,0,0:0:0:0:
64,192,51104,1,0,0:0:0:0:
64,192,51201,128,0,51297:0:0:0:0:
192,192,51201,128,0,51297:0:0:0:0:
448,192,51201,128,0,51297:0:0:0:0:
64,192,51394,128,0,51491:0:0:0:0:
320,192,51394,128,0,51588:0:0:0:0:
448,192,51394,128,0,51588:0:0:0:0:
192,192,51588,1,0,0:0:0:0:
64,192,51588,1,0,0:0:0:0:
448,192,51652,1,0,0:0:0:0:
320,192,51717,1,0,0:0:0:0:
192,192,51781,1,0,0:0:0:0:
64,192,51781,1,0,0:0:0:0:
448,192,51846,1,0,0:0:0:0:
64,192,51910,1,0,0:0:0:0:
192,192,51975,1,0,0:0:0:0:
320,192,51975,1,0,0:0:0:0:
448,192,52039,1,0,0:0:0:0:
64,192,52104,1,0,0:0:0:0:
192,192,52168,128,0,52362:0:0:0:0:
448,192,52168,128,0,52362:0:0:0:0:
320,192,52362,1,0,0:0:0:0:
192,192,52426,1,0,0:0:0:0:
64,192,52491,1,0,0:0:0:0:
320,192,52555,128,0,52749:0:0:0:0:
448,192,52555,128,0,52749:0:0:0:0:
192,192,52749,1,0,0:0:0:0:
64,192,52813,1,0,0:0:0:0:
320,192,52878,1,0,0:0:0:0:
448,192,52942,1,0,0:0:0:0:
192,192,53007,1,0,0:0:0:0:
64,192,53071,1,0,0:0:0:0:
320,192,53136,1,0,0:0:0:0:
192,192,53201,1,0,0:0:0:0:
320,192,53265,1,0,0:0:0:0:
192,192,53330,1,0,0:0:0:0:
448,192,53330,1,0,0:0:0:0:
64,192,53394,1,0,0:0:0:0:
448,192,53459,1,0,0:0:0:0:
192,192,53523,1,0,0:0:0:0:
320,192,53588,1,0,0:0:0:0:
64,192,53652,1,0,0:0:0:0:
320,192,53717,1,0,0:0:0:0:
448,192,53717,1,0,0:0:0:0:
64,192,54104,1,0,0:0:0:0:
192,192,54233,1,0,0:0:0:0:
320,192,54362,1,0,0:0:0:0:
64,192,54491,1,0,0:0:0:0:
448,192,54620,1,0,0:0:0:0:
192,192,54749,1,0,0:0:0:0:
448,192,54878,1,0,0:0:0:0:
320,192,55007,1,0,0:0:0:0:
192,192,55136,1,0,0:0:0:0:
448,192,55265,1,0,0:0:0:0:
192,192,55265,1,0,0:0:0:0:
320,192,55394,1,0,0:0:0:0:
64,192,55523,1,0,0:0:0:0:
320,192,55652,1,0,0:0:0:0:
64,192,55781,1,0,0:0:0:0:
448,192,55910,1,0,0:0:0:0:
320,192,56039,1,0,0:0:0:0:
192,192,56039,1,0,0:0:0:0:
448,192,56168,1,0,0:0:0:0:
64,192,56297,1,0,0:0:0:0:
448,192,56426,1,0,0:0:0:0:
320,192,56555,1,0,0:0:0:0:
192,192,56684,1,0,0:0:0:0:
320,192,56813,1,0,0:0:0:0:
64,192,56813,1,0,0:0:0:0:
64,192,57201,1,0,0:0:0:0:
192,192,57330,1,0,0:0:0:0:
320,192,57459,1,0,0:0:0:0:
64,192,57588,1,0,0:0:0:0:
448,192,57717,1,0,0:0:0:0:
192,192,57846,1,0,0:0:0:0:
448,192,57975,1,0,0:0:0:0:
320,192,58104,1,0,0:0:0:0:
64,192,58233,1,0,0:0:0:0:
448,192,58362,1,0,0:0:0:0:
320,192,58459,1,0,0:0:0:0:
192,192,58555,1,0,0:0:0:0:
64,192,58652,1,0,0:0:0:0:
448,192,58749,1,0,0:0:0:0:
192,192,58846,1,0,0:0:0:0:
320,192,58942,1,0,0:0:0:0:
64,192,59039,1,0,0:0:0:0:
448,192,59136,1,0,0:0:0:0:
64,192,59233,1,0,0:0:0:0:
320,192,59330,1,0,0:0:0:0:
192,192,59426,1,0,0:0:0:0:
320,192,59523,1,0,0:0:0:0:
64,192,59620,1,0,0:0:0:0:
448,192,59717,1,0,0:0:0:0:
192,192,59813,1,0,0:0:0:0:
64,192,59910,1,0,0:0:0:0:
320,192,59910,1,0,0:0:0:0:
448,192,60007,1,0,0:0:0:0:
64,192,60104,1,0,0:0:0:0:
192,192,60201,1,0,0:0:0:0:
320,192,60297,1,0,0:0:0:0:
192,192,60394,1,0,0:0:0:0:
320,192,60491,1,0,0:0:0:0:
64,192,60588,1,0,0:0:0:0:
448,192,60684,1,0,0:0:0:0:
192,192,60781,1,0,0:0:0:0:
64,192,60878,1,0,0:0:0:0:
448,192,60975,1,0,0:0:0:0:
192,192,61071,1,0,0:0:0:0:
64,192,61168,1,0,0:0:0:0:
448,192,61265,1,0,0:0:0:0:
64,192,61362,1,0,0:0:0:0:
448,192,61459,1,0,0:0:0:0:
192,192,61459,1,0,0:0:0:0:
320,192,61555,1,0,0:0:0:0:
192,192,61652,1,0,0:0:0:0:
64,192,61749,1,0,0:0:0:0:
320,192,61846,1,0,0:0:0:0:
192,192,61942,1,0,0:0:0:0:
448,192,62039,1,0,0:0:0:0:
64,192,62136,1,0,0:0:0:0:
192,192,62233,1,0,0:0:0:0:
320,192,62233,1,0,0:0:0:0:
448,192,62297,1,0,0:0:0:0:
64,192,62362,1,0,0:0:0:0:
320,192,62426,1,0,0:0:0:0:
192,192,62491,1,0,0:0:0:0:
448,192,62555,1,0,0:0:0:0:
64,192,62620,1,0,0:0:0:0:
192,192,62684,1,0,0:0:0:0:
320,192,62749,1,0,0:0:0:0:
448,192,62813,1,0,0:0:0:0:
192,192,62878,1,0,0:0:0:0:
320,192,62942,1,0,0:0:0:0:
448,192,63007,1,0,0:0:0:0:
64,192,63007,1,0,0:0:0:0:
448,192,63201,1,0,0:0:0:0:
320,192,63297,1,0,0:0:0:0:
192,192,63394,1,0,0:0:0:0:
448,192,63491,1,0,0:0:0:0:
320,192,63588,1,0,0:0:0:0:
192,192,63684,1,0,0:0:0:0:
448,192,63781,1,0,0:0:0:0:
320,192,63878,1,0,0:0:0:0:
192,192,63975,1,0,0:0:0:0:
64,192,64071,1,0,0:0:0:0:
320,192,64168,1,0,0:0:0:0:
192,192,64265,1,0,0:0:0:0:
448,192,64362,1,0,0:0:0:0:
192,192,64459,1,0,0:0:0:0:
320,192,64555,1,0,0:0:0:0:
448,192,64749,1,0,0:0:0:0:
192,192,64813,1,0,0:0:0:0:
320,192,64878,1,0,0:0:0:0:
64,192,64942,1,0,0:0:0:0:
448,192,65007,1,0,0:0:0:0:
320,192,65071,1,0,0:0:0:0:
192,192,65136,1,0,0:0:0:0:
64,192,65201,1,0,0:0:0:0:
320,192,65265,1,0,0:0:0:0:
448,192,65330,1,0,0:0:0:0:
192,192,65394,1,0,0:0:0:0:
448,192,65459,1,0,0:0:0:0:
320,192,65523,1,0,0:0:0:0:
192,192,65588,1,0,0:0:0:0:
448,192,65652,1,0,0:0:0:0:
64,192,65717,1,0,0:0:0:0:
320,192,65781,1,0,0:0:0:0:
64,192,65846,1,0,0:0:0:0:
448,192,65910,1,0,0:0:0:0:
320,192,65975,1,0,0:0:0:0:
192,192,66039,1,0,0:0:0:0:
64,192,66104,128,0,66362:0:0:0:0:
320,192,66104,128,0,66620:0:0:0:0:
448,192,66104,128,0,66878:0:0:0:0:
64,192,66491,128,0,66620:0:0:0:0:
192,192,66620,128,0,66749:0:0:0:0:
320,192,66749,128,0,66878:0:0:0:0:
64,192,66878,128,0,67007:0:0:0:0:
448,192,67007,128,0,67136:0:0:0:0:
192,192,67136,128,0,67265:0:0:0:0:
448,192,67265,128,0,67394:0:0:0:0:
320,192,67394,128,0,67523:0:0:0:0:
64,192,67523,128,0,67652:0:0:0:0:
192,192,67652,128,0,68297:0:0:0:0:
448,192,67652,128,0,68168:0:0:0:0:
320,192,67781,128,0,67910:0:0:0:0:
64,192,67910,128,0,68039:0:0:0:0:
320,192,68039,128,0,68168:0:0:0:0:
64,192,68168,128,0,68297:0:0:0:0:
448,192,68297,128,0,68426:0:0:0:0:
192,192,68426,128,0,68942:0:0:0:0:
320,192,68426,128,0,68813:0:0:0:0:
448,192,68555,128,0,68684:0:0:0:0:
64,192,68684,128,0,68813:0:0:0:0:
448,192,68813,128,0,68942:0:0:0:0:
320,192,68942,128,0,69071:0:0:0:0:
192,192,69071,128,0,69201:0:0:0:0:
64,192,69201,128,0,69459:0:0:0:0:
320,192,69201,128,0,69717:0:0:0:0:
448,192,69201,128,0,69975:0:0:0:0:
64,192,69588,128,0,69717:0:0:0:0:
192,192,69717,128,0,69846:0:0:0:0:
320,192,69846,128,0,69975:0:0:0:0:
64,192,69975,128,0,70104:0:0:0:0:
448,192,70104,128,0,70233:0:0:0:0:
192,192,70233,128,0,70362:0:0:0:0:
448,192,70362,128,0,70491:0:0:0:0:
64,192,70491,128,0,70620:0:0:0:0:
320,192,70620,128,0,70749:0:0:0:0:
64,192,70749,128,0,70942:0:0:0:0:
192,192,70749,128,0,70846:0:0:0:0:
448,192,70749,128,0,71039:0:0:0:0:
320,192,70846,128,0,70942:0:0:0:0:
192,192,70942,128,0,71039:0:0:0:0:
64,192,71039,128,0,71136:0:0:0:0:
448,192,71136,128,0,71233:0:0:0:0:
192,192,71233,128,0,71330:0:0:0:0:
320,192,71330,128,0,71426:0:0:0:0:
64,192,71426,128,0,71523:0:0:0:0:
448,192,71523,128,0,72007:0:0:0:0:
64,192,71620,128,0,71717:0:0:0:0:
320,192,71717,128,0,71813:0:0:0:0:
192,192,71813,128,0,71910:0:0:0:0:
320,192,71910,128,0,72007:0:0:0:0:
64,192,72007,128,0,72104:0:0:0:0:
320,192,72104,128,0,72201:0:0:0:0:
448,192,72201,128,0,72297:0:0:0:0:
192,192,72297,128,0,72491:0:0:0:0:
64,192,72297,128,0,72394:0:0:0:0:
320,192,72297,128,0,72588:0:0:0:0:
448,192,72394,128,0,72491:0:0:0:0:
64,192,72491,128,0,72588:0:0:0:0:
192,192,72588,128,0,72684:0:0:0:0:
320,192,72684,128,0,72781:0:0:0:0:
192,192,72781,128,0,72878:0:0:0:0:
320,192,72878,128,0,72975:0:0:0:0:
64,192,72975,128,0,73071:0:0:0:0:
448,192,73071,128,0,73168:0:0:0:0:
192,192,73168,128,0,73265:0:0:0:0:
64,192,73265,128,0,73362:0:0:0:0:
448,192,73362,128,0,73459:0:0:0:0:
192,192,73459,128,0,73555:0:0:0:0:
64,192,73555,128,0,73652:0:0:0:0:
448,192,73652,128,0,73749:0:0:0:0:
320,192,73749,128,0,73846:0:0:0:0:
64,192,73846,128,0,74039:0:0:0:0:
192,192,73846,128,0,73942:0:0:0:0:
448,192,73846,128,0,74330:0:0:0:0:
320,192,73942,128,0,74039:0:0:0:0:
192,192,74039,128,0,74136:0:0:0:0:
64,192,74136,128,0,74233:0:0:0:0:
320,192,74233,128,0,74330:0:0:0:0:
192,192,74330,128,0,74426:0:0:0:0:
448,192,74426,128,0,74523:0:0:0:0:
64,192,74523,128,0,74620:0:0:0:0:
192,192,74620,128,0,74813:0:0:0:0:
320,192,74620,128,0,74749:0:0:0:0:
448,192,74684,128,0,74749:0:0:0:0:
64,192,74749,128,0,74813:0:0:0:0:
320,192,74813,128,0,74878:0:0:0:0:
192,192,74878,128,0,74942:0:0:0:0:
448,192,74942,128,0,75007:0:0:0:0:
64,192,75007,128,0,75071:0:0:0:0:
192,192,75071,128,0,75136:0:0:0:0:
320,192,75136,128,0,75201:0:0:0:0:
448,192,75201,128,0,75265:0:0:0:0:
192,192,75265,128,0,75330:0:0:0:0:
320,192,75330,128,0,75394:0:0:0:0:
64,192,75394,128,0,75491:0:0:0:0:
448,192,75394,128,0,75491:0:0:0:0:
192,192,75491,128,0,75588:0:0:0:0:
64,192,75588,128,0,75781:0:0:0:0:
448,192,75588,128,0,75781:0:0:0:0:
320,192,75684,128,0,75781:0:0:0:0:
192,192,75781,128,0,75878:0:0:0:0:
64,192,75878,128,0,75975:0:0:0:0:
448,192,75878,128,0,76071:0:0:0:0:
320,192,75975,128,0,76071:0:0:0:0:
64,192,76071,128,0,76168:0:0:0:0:
192,192,76168,128,0,76265:0:0:0:0:
320,192,76168,128,0,76265:0:0:0:0:
448,192,76265,128,0,76362:0:0:0:0:
192,192,76362,128,0,76555:0:0:0:0:
320,192,76362,128,0,76555:0:0:0:0:
64,192,76459,128,0,76555:0:0:0:0:
448,192,76555,128,0,76652:0:0:0:0:
192,192,76652,128,0,76846:0:0:0:0:
320,192,76652,128,0,76846:0:0:0:0:
64,192,76749,128,0,76846:0:0:0:0:
448,192,76846,128,0,76942:0:0:0:0:
64,192,76942,5,0,0:0:0:0:
192,192,76942,1,0,0:0:0:0:
448,192,77007,1,0,0:0:0:0:
192,192,77071,1,0,0:0:0:0:
448,192,77136,1,0,0:0:0:0:
192,192,77201,1,0,0:0:0:0:
448,192,77265,1,0,0:0:0:0:
64,192,77330,1,0,0:0:0:0:
320,192,77394,1,0,0:0:0:0:
64,192,77459,1,0,0:0:0:0:
320,192,77523,1,0,0:0:0:0:
64,192,77588,1,0,0:0:0:0:
320,192,77652,1,0,0:0:0:0:
448,192,77717,1,0,0:0:0:0:
192,192,77781,1,0,0:0:0:0:
64,192,77846,1,0,0:0:0:0:
448,192,77910,1,0,0:0:0:0:
192,192,77975,1,0,0:0:0:0:
64,192,78039,1,0,0:0:0:0:
448,192,78104,1,0,0:0:0:0:
320,192,78104,1,0,0:0:0:0:
192,192,78168,1,0,0:0:0:0:
320,192,78233,1,0,0:0:0:0:
64,192,78297,1,0,0:0:0:0:
448,192,78362,1,0,0:0:0:0:
320,192,78426,1,0,0:0:0:0:
64,192,78491,128,0,78588:0:0:0:0:
192,192,78491,128,0,78878:0:0:0:0:
448,192,78491,128,0,78588:0:0:0:0:
64,192,78684,128,0,78781:0:0:0:0:
448,192,78684,128,0,78781:0:0:0:0:
64,192,78878,128,0,78975:0:0:0:0:
448,192,78878,1,0,0:0:0:0:
192,192,78975,128,0,79071:0:0:0:0:
320,192,79071,128,0,79168:0:0:0:0:
64,192,79168,128,0,79265:0:0:0:0:
448,192,79265,1,0,0:0:0:0:
192,192,79330,1,0,0:0:0:0:
320,192,79394,1,0,0:0:0:0:
64,192,79459,1,0,0:0:0:0:
448,192,79555,1,0,0:0:0:0:
320,192,79652,1,0,0:0:0:0:
64,192,79652,1,0,0:0:0:0:
320,192,79749,128,0,79846:0:0:0:0:
448,192,79749,128,0,79846:0:0:0:0:
192,192,79846,128,0,79942:0:0:0:0:
320,192,79942,128,0,80039:0:0:0:0:
64,192,79942,128,0,80039:0:0:0:0:
192,192,80039,1,0,0:0:0:0:
448,192,80233,128,0,80620:0:0:0:0:
320,192,80233,1,0,0:0:0:0:
64,192,80426,1,0,0:0:0:0:
320,192,80620,128,0,80813:0:0:0:0:
64,192,80620,1,0,0:0:0:0:
192,192,80813,128,0,81007:0:0:0:0:
448,192,80813,1,0,0:0:0:0:
64,192,81007,128,0,81071:0:0:0:0:
448,192,81071,128,0,81136:0:0:0:0:
320,192,81136,128,0,81201:0:0:0:0:
64,192,81201,128,0,81394:0:0:0:0:
192,192,81201,1,0,0:0:0:0:
448,192,81265,1,0,0:0:0:0:
320,192,81330,1,0,0:0:0:0:
192,192,81394,128,0,81491:0:0:0:0:
320,192,81491,1,0,0:0:0:0:
64,192,81588,128,0,81684:0:0:0:0:
192,192,81588,128,0,81975:0:0:0:0:
448,192,81588,128,0,81684:0:0:0:0:
64,192,81781,128,0,81878:0:0:0:0:
448,192,81781,128,0,81878:0:0:0:0:
64,192,81975,128,0,82071:0:0:0:0:
448,192,81975,1,0,0:0:0:0:
192,192,82071,128,0,82168:0:0:0:0:
320,192,82168,128,0,82265:0:0:0:0:
64,192,82265,128,0,82362:0:0:0:0:
448,192,82362,1,0,0:0:0:0:
192,192,82426,1,0,0:0:0:0:
320,192,82491,1,0,0:0:0:0:
64,192,82555,1,0,0:0:0:0:
448,192,82652,1,0,0:0:0:0:
320,192,82749,1,0,0:0:0:0:
64,192,82749,1,0,0:0:0:0:
320,192,82846,128,0,82942:0:0:0:0:
448,192,82846,128,0,82942:0:0:0:0:
192,192,82942,128,0,83039:0:0:0:0:
320,192,83039,128,0,83136:0:0:0:0:
64,192,83039,128,0,83136:0:0:0:0:
192,192,83136,1,0,0:0:0:0:
64,192,83330,128,0,83523:0:0:0:0:
448,192,83330,1,0,0:0:0:0:
192,192,83523,128,0,83717:0:0:0:0:
448,192,83523,1,0,0:0:0:0:
448,192,83717,1,0,0:0:0:0:
320,192,83717,128,0,83910:0:0:0:0:
64,192,83910,1,0,0:0:0:0:
192,192,83910,128,0,84039:0:0:0:0:
64,192,84039,1,0,0:0:0:0:
320,192,84039,128,0,84168:0:0:0:0:
64,192,84168,1,0,0:0:0:0:
448,192,84168,128,0,84297:0:0:0:0:
320,192,84297,1,0,0:0:0:0:
192,192,84297,1,0,0:0:0:0:
192,192,84394,128,0,84491:0:0:0:0:
448,192,84394,128,0,84491:0:0:0:0:
64,192,84588,128,0,84878:0:0:0:0:
192,192,84588,128,0,84781:0:0:0:0:
448,192,84588,128,0,84781:0:0:0:0:
320,192,84781,128,0,84878:0:0:0:0:
192,192,84878,128,0,84975:0:0:0:0:
448,192,84975,128,0,85071:0:0:0:0:
64,192,85071,128,0,85265:0:0:0:0:
192,192,85071,128,0,85168:0:0:0:0:
320,192,85071,128,0,85265:0:0:0:0:
448,192,85168,128,0,85265:0:0:0:0:
192,192,85265,128,0,85362:0:0:0:0:
320,192,85362,128,0,85459:0:0:0:0:
64,192,85459,128,0,85555:0:0:0:0:
192,192,85459,128,0,85652:0:0:0:0:
448,192,85459,128,0,85652:0:0:0:0:
320,192,85555,128,0,85652:0:0:0:0:
64,192,85652,128,0,85749:0:0:0:0:
192,192,85749,128,0,85846:0:0:0:0:
64,192,85846,128,0,86039:0:0:0:0:
320,192,85846,128,0,85942:0:0:0:0:
448,192,85846,128,0,86039:0:0:0:0:
192,192,85942,128,0,86039:0:0:0:0:
320,192,86039,128,0,86136:0:0:0:0:
64,192,86136,128,0,86233:0:0:0:0:
192,192,86233,128,0,86426:0:0:0:0:
320,192,86233,128,0,86330:0:0:0:0:
448,192,86233,128,0,86426:0:0:0:0:
64,192,86330,128,0,86426:0:0:0:0:
320,192,86426,128,0,86523:0:0:0:0:
192,192,86523,128,0,86620:0:0:0:0:
64,192,86620,128,0,86813:0:0:0:0:
320,192,86620,128,0,86813:0:0:0:0:
448,192,86620,128,0,86717:0:0:0:0:
192,192,86717,128,0,86813:0:0:0:0:
448,192,86813,128,0,86910:0:0:0:0:
320,192,86910,128,0,87007:0:0:0:0:
64,192,87007,128,0,87104:0:0:0:0:
192,192,87007,128,0,87201:0:0:0:0:
448,192,87007,128,0,87201:0:0:0:0:
320,192,87104,128,0,87201:0:0:0:0:
64,192,87201,128,0,87297:0:0:0:0:
448,192,87297,128,0,87394:0:0:0:0:
64,192,87394,128,0,87588:0:0:0:0:
192,192,87394,128,0,87588:0:0:0:0:
320,192,87394,128,0,87491:0:0:0:0:
448,192,87491,128,0,87588:0:0:0:0:
320,192,87588,128,0,87684:0:0:0:0:
192,192,87684,128,0,87781:0:0:0:0:
64,192,87781,5,0,0:0:0:0:
448,192,87781,1,0,0:0:0:0:
64,192,87878,1,0,0:0:0:0:
192,192,87975,1,0,0:0:0:0:
448,192,87975,1,0,0:0:0:0:
192,192,88071,1,0,0:0:0:0:
320,192,88168,1,0,0:0:0:0:
64,192,88168,1,0,0:0:0:0:
320,192,88265,1,0,0:0:0:0:
448,192,88362,1,0,0:0:0:0:
64,192,88362,1,0,0:0:0:0:
448,192,88459,1,0,0:0:0:0:
192,192,88555,1,0,0:0:0:0:
64,192,88555,1,0,0:0:0:0:
192,192,88652,1,0,0:0:0:0:
320,192,88749,1,0,0:0:0:0:
448,192,88749,1,0,0:0:0:0:
320,192,88846,1,0,0:0:0:0:
64,192,88942,1,0,0:0:0:0:
192,192,88942,1,0,0:0:0:0:
64,192,89039,1,0,0:0:0:0:
320,192,89039,1,0,0:0:0:0:
448,192,89136,1,0,0:0:0:0:
192,192,89136,1,0,0:0:0:0:
320,192,89233,1,0,0:0:0:0:
448,192,89233,1,0,0:0:0:0:
64,192,89330,128,0,89523:0:0:0:0:
192,192,89523,128,0,89813:0:0:0:0:
320,192,89523,128,0,89813:0:0:0:0:
448,192,89523,128,0,89813:0:0:0:0:
192,192,89910,1,0,0:0:0:0:
320,192,89910,1,0,0:0:0:0:
64,192,90104,5,0,0:0:0:0:
192,192,90104,1,0,0:0:0:0:
448,192,90104,128,0,90362:0:0:0:0:
64,192,90233,1,0,0:0:0:0:
320,192,90233,128,0,90362:0:0:0:0:
64,192,90362,128,0,90491:0:0:0:0:
192,192,90362,1,0,0:0:0:0:
448,192,90491,1,0,0:0:0:0:
320,192,90491,1,0,0:0:0:0:
192,192,90491,128,0,90749:0:0:0:0:
448,192,90620,1,0,0:0:0:0:
320,192,90620,128,0,90749:0:0:0:0:
64,192,90749,1,0,0:0:0:0:
448,192,90749,128,0,90878:0:0:0:0:
320,192,90878,1,0,0:0:0:0:
64,192,90878,128,0,91265:0:0:0:0:
192,192,90878,128,0,91265:0:0:0:0:
448,192,91265,1,0,0:0:0:0:
320,192,91330,1,0,0:0:0:0:
192,192,91394,1,0,0:0:0:0:
64,192,91459,1,0,0:0:0:0:
448,192,91523,1,0,0:0:0:0:
320,192,91588,1,0,0:0:0:0:
64,192,91652,1,0,0:0:0:0:
448,192,91717,1,0,0:0:0:0:
192,192,91781,1,0,0:0:0:0:
64,192,91846,1,0,0:0:0:0:
320,192,91910,1,0,0:0:0:0:
192,192,91975,1,0,0:0:0:0:
64,192,92039,1,0,0:0:0:0:
448,192,92039,1,0,0:0:0:0:
64,192,92426,128,0,92523:0:0:0:0:
192,192,92426,128,0,92813:0:0:0:0:
448,192,92426,128,0,92523:0:0:0:0:
64,192,92620,128,0,92717:0:0:0:0:
448,192,92620,128,0,92717:0:0:0:0:
64,192,92813,128,0,93007:0:0:0:0:
448,192,92813,1,0,0:0:0:0:
192,192,92910,128,0,93201:0:0:0:0:
320,192,93007,128,0,93201:0:0:0:0:
64,192,93104,128,0,93201:0:0:0:0:
448,192,93201,128,0,93330:0:0:0:0:
192,192,93265,128,0,93394:0:0:0:0:
320,192,93330,128,0,93459:0:0:0:0:
64,192,93394,128,0,93523:0:0:0:0:
448,192,93459,128,0,93588:0:0:0:0:
192,192,93523,1,0,0:0:0:0:
320,192,93588,1,0,0:0:0:0:
64,192,93588,1,0,0:0:0:0:
320,192,93684,128,0,93781:0:0:0:0:
448,192,93684,128,0,93781:0:0:0:0:
192,192,93781,128,0,94265:0:0:0:0:
320,192,93878,128,0,94071:0:0:0:0:
64,192,93878,128,0,94459:0:0:0:0:
448,192,93975,1,0,0:0:0:0:
320,192,94168,128,0,94265:0:0:0:0:
448,192,94168,128,0,94362:0:0:0:0:
320,192,94362,128,0,94555:0:0:0:0:
192,192,94362,128,0,94459:0:0:0:0:
192,192,94555,128,0,94749:0:0:0:0:
64,192,94555,128,0,94652:0:0:0:0:
448,192,94749,1,0,0:0:0:0:
64,192,94749,1,0,0:0:0:0:
192,192,94813,1,0,0:0:0:0:
448,192,94878,1,0,0:0:0:0:
192,192,94942,1,0,0:0:0:0:
448,192,95007,1,0,0:0:0:0:
192,192,95071,1,0,0:0:0:0:
448,192,95136,1,0,0:0:0:0:
64,192,95136,1,0,0:0:0:0:
320,192,95201,1,0,0:0:0:0:
192,192,95265,1,0,0:0:0:0:
448,192,95330,1,0,0:0:0:0:
64,192,95394,1,0,0:0:0:0:
320,192,95459,1,0,0:0:0:0:
64,192,95523,128,0,95620:0:0:0:0:
192,192,95523,128,0,95813:0:0:0:0:
448,192,95523,128,0,95813:0:0:0:0:
64,192,95717,1,0,0:0:0:0:
320,192,95813,1,0,0:0:0:0:
192,192,95910,128,0,96104:0:0:0:0:
448,192,95910,128,0,96104:0:0:0:0:
64,192,96007,128,0,96104:0:0:0:0:
320,192,96104,128,0,96297:0:0:0:0:
448,192,96201,128,0,96297:0:0:0:0:
192,192,96297,1,0,0:0:0:0:
64,192,96297,128,0,96362:0:0:0:0:
320,192,96362,128,0,96426:0:0:0:0:
448,192,96426,128,0,96491:0:0:0:0:
192,192,96491,128,0,96684:0:0:0:0:
320,192,96588,128,0,96684:0:0:0:0:
448,192,96684,1,0,0:0:0:0:
64,192,96684,1,0,0:0:0:0:
192,192,96781,1,0,0:0:0:0:
320,192,96878,1,0,0:0:0:0:
192,192,96975,1,0,0:0:0:0:
320,192,97071,128,0,97201:0:0:0:0:
448,192,97071,128,0,97136:0:0:0:0:
192,192,97136,128,0,97265:0:0:0:0:
448,192,97201,128,0,97265:0:0:0:0:
320,192,97265,128,0,97330:0:0:0:0:
64,192,97330,1,0,0:0:0:0:
448,192,97394,1,0,0:0:0:0:
64,192,97459,128,0,97523:0:0:0:0:
192,192,97459,128,0,97588:0:0:0:0:
320,192,97523,128,0,97652:0:0:0:0:
64,192,97588,128,0,97652:0:0:0:0:
192,192,97652,128,0,97717:0:0:0:0:
448,192,97717,1,0,0:0:0:0:
64,192,97781,1,0,0:0:0:0:
448,192,97846,1,0,0:0:0:0:
192,192,97846,128,0,97942:0:0:0:0:
320,192,97846,128,0,98039:0:0:0:0:
192,192,98039,1,0,0:0:0:0:
448,192,98104,1,0,0:0:0:0:
192,192,98168,1,0,0:0:0:0:
320,192,98233,1,0,0:0:0:0:
64,192,98233,1,0,0:0:0:0:
448,192,98297,1,0,0:0:0:0:
192,192,98362,1,0,0:0:0:0:
320,192,98426,1,0,0:0:0:0:
64,192,98620,128,0,98717:0:0:0:0:
448,192,98620,128,0,98717:0:0:0:0:
320,192,98620,128,0,99007:0:0:0:0:
448,192,98813,128,0,98910:0:0:0:0:
64,192,98813,128,0,98910:0:0:0:0:
64,192,99007,128,0,99136:0:0:0:0:
448,192,99071,128,0,99201:0:0:0:0:
192,192,99136,128,0,99201:0:0:0:0:
320,192,99201,128,0,99265:0:0:0:0:
64,192,99265,128,0,99330:0:0:0:0:
192,192,99330,128,0,99394:0:0:0:0:
448,192,99394,1,0,0:0:0:0:
320,192,99394,1,0,0:0:0:0:
320,192,99491,1,0,0:0:0:0:
64,192,99588,1,0,0:0:0:0:
320,192,99684,1,0,0:0:0:0:
448,192,99781,1,0,0:0:0:0:
320,192,99781,1,0,0:0:0:0:
64,192,99878,1,0,0:0:0:0:
320,192,99975,1,0,0:0:0:0:
320,192,100071,1,0,0:0:0:0:
64,192,100168,128,0,100265:0:0:0:0:
192,192,100168,128,0,100362:0:0:0:0:
448,192,100168,128,0,100362:0:0:0:0:
64,192,100362,1,0,0:0:0:0:
192,192,100426,1,0,0:0:0:0:
320,192,100491,1,0,0:0:0:0:
64,192,100555,1,0,0:0:0:0:
448,192,100555,128,0,100652:0:0:0:0:
320,192,100652,128,0,100749:0:0:0:0:
192,192,100749,128,0,100846:0:0:0:0:
64,192,100846,128,0,100942:0:0:0:0:
448,192,100942,1,0,0:0:0:0:
320,192,100942,1,0,0:0:0:0:
192,192,101007,1,0,0:0:0:0:
448,192,101071,1,0,0:0:0:0:
64,192,101136,1,0,0:0:0:0:
320,192,101201,1,0,0:0:0:0:
192,192,101265,1,0,0:0:0:0:
448,192,101330,1,0,0:0:0:0:
64,192,101330,1,0,0:0:0:0:
192,192,101426,128,0,101523:0:0:0:0:
448,192,101426,128,0,101523:0:0:0:0:
320,192,101620,128,0,101910:0:0:0:0:
448,192,101620,128,0,101910:0:0:0:0:
64,192,101717,1,0,0:0:0:0:
192,192,101717,128,0,101910:0:0:0:0:
64,192,101910,5,0,0:0:0:0:
192,192,101975,1,0,0:0:0:0:
320,192,102039,1,0,0:0:0:0:
448,192,102104,1,0,0:0:0:0:
64,192,102104,128,0,102201:0:0:0:0:
192,192,102201,128,0,102297:0:0:0:0:
64,192,102297,1,0,0:0:0:0:
320,192,102297,128,0,102394:0:0:0:0:
448,192,102394,128,0,102491:0:0:0:0:
64,192,102491,128,0,102588:0:0:0:0:
192,192,102491,128,0,102684:0:0:0:0:
320,192,102491,128,0,102684:0:0:0:0:
448,192,102588,1,0,0:0:0:0:
64,192,102684,1,0,0:0:0:0:
192,192,102781,128,0,102878:0:0:0:0:
320,192,102781,128,0,102975:0:0:0:0:
448,192,102781,128,0,102975:0:0:0:0:
64,192,102878,1,0,0:0:0:0:
192,192,102975,1,0,0:0:0:0:
448,192,103071,128,0,103459:0:0:0:0:
320,192,103071,128,0,103459:0:0:0:0:
64,192,103071,128,0,103265:0:0:0:0:
192,192,103265,128,0,103459:0:0:0:0:
64,192,103459,1,0,0:0:0:0:
448,192,103523,1,0,0:0:0:0:
64,192,103588,1,0,0:0:0:0:
192,192,103652,5,0,0:0:0:0:
320,192,103652,1,0,0:0:0:0:
64,192,103749,1,0,0:0:0:0:
448,192,103846,1,0,0:0:0:0:
320,192,103846,1,0,0:0:0:0:
192,192,103942,1,0,0:0:0:0:
64,192,104039,5,0,0:0:0:0:
320,192,104039,1,0,0:0:0:0:
448,192,104104,1,0,0:0:0:0:
192,192,104168,1,0,0:0:0:0:
448,192,104233,1,0,0:0:0:0:
64,192,104297,1,0,0:0:0:0:
320,192,104362,1,0,0:0:0:0:
192,192,104426,5,0,0:0:0:0:
448,192,104426,1,0,0:0:0:0:
64,192,104491,1,0,0:0:0:0:
320,192,104555,1,0,0:0:0:0:
192,192,104620,1,0,0:0:0:0:
448,192,104684,1,0,0:0:0:0:
320,192,104749,1,0,0:0:0:0:
64,192,104813,128,0,104910:0:0:0:0:
192,192,104813,128,0,105201:0:0:0:0:
448,192,104813,128,0,104910:0:0:0:0:
64,192,105007,128,0,105104:0:0:0:0:
448,192,105007,128,0,105104:0:0:0:0:
64,192,105201,128,0,105394:0:0:0:0:
448,192,105201,1,0,0:0:0:0:
192,192,105297,128,0,105588:0:0:0:0:
320,192,105394,128,0,105588:0:0:0:0:
64,192,105491,128,0,105588:0:0:0:0:
448,192,105588,128,0,105717:0:0:0:0:
192,192,105652,128,0,105781:0:0:0:0:
320,192,105717,128,0,105846:0:0:0:0:
64,192,105781,128,0,105910:0:0:0:0:
448,192,105846,128,0,105975:0:0:0:0:
192,192,105910,1,0,0:0:0:0:
320,192,105975,5,0,0:0:0:0:
64,192,105975,1,0,0:0:0:0:
320,192,106071,128,0,106168:0:0:0:0:
448,192,106071,128,0,106168:0:0:0:0:
192,192,106168,128,0,106652:0:0:0:0:
64,192,106265,128,0,106846:0:0:0:0:
320,192,106265,128,0,106459:0:0:0:0:
448,192,106362,1,0,0:0:0:0:
320,192,106555,128,0,106652:0:0:0:0:
448,192,106555,128,0,106749:0:0:0:0:
320,192,106749,128,0,106942:0:0:0:0:
192,192,106749,128,0,106846:0:0:0:0:
192,192,106942,128,0,107136:0:0:0:0:
64,192,106942,128,0,107039:0:0:0:0:
448,192,107136,1,0,0:0:0:0:
64,192,107136,1,0,0:0:0:0:
192,192,107201,1,0,0:0:0:0:
448,192,107265,1,0,0:0:0:0:
192,192,107330,1,0,0:0:0:0:
448,192,107394,1,0,0:0:0:0:
192,192,107459,1,0,0:0:0:0:
448,192,107523,1,0,0:0:0:0:
64,192,107523,1,0,0:0:0:0:
320,192,107588,1,0,0:0:0:0:
192,192,107652,1,0,0:0:0:0:
448,192,107717,1,0,0:0:0:0:
64,192,107781,1,0,0:0:0:0:
320,192,107846,1,0,0:0:0:0:
64,192,107910,128,0,108007:0:0:0:0:
192,192,107910,128,0,108201:0:0:0:0:
448,192,107910,128,0,108201:0:0:0:0:
64,192,108104,1,0,0:0:0:0:
320,192,108201,1,0,0:0:0:0:
192,192,108297,128,0,108491:0:0:0:0:
448,192,108297,128,0,108491:0:0:0:0:
64,192,108394,128,0,108491:0:0:0:0:
320,192,108491,128,0,108684:0:0:0:0:
448,192,108588,128,0,108684:0:0:0:0:
192,192,108684,1,0,0:0:0:0:
64,192,108684,128,0,108749:0:0:0:0:
320,192,108749,128,0,108813:0:0:0:0:
448,192,108813,128,0,108878:0:0:0:0:
192,192,108878,128,0,109071:0:0:0:0:
320,192,108975,128,0,109071:0:0:0:0:
64,192,109071,1,0,0:0:0:0:
448,192,109071,1,0,0:0:0:0:
320,192,109168,1,0,0:0:0:0:
192,192,109265,1,0,0:0:0:0:
448,192,109362,1,0,0:0:0:0:
64,192,109459,128,0,109652:0:0:0:0:
320,192,109459,128,0,109652:0:0:0:0:
448,192,109652,128,0,109846:0:0:0:0:
192,192,109652,128,0,109749:0:0:0:0:
64,192,109846,1,0,0:0:0:0:
192,192,109846,128,0,110039:0:0:0:0:
320,192,109846,128,0,109942:0:0:0:0:
64,192,110039,1,0,0:0:0:0:
320,192,110039,1,0,0:0:0:0:
64,192,110136,1,0,0:0:0:0:
448,192,110233,1,0,0:0:0:0:
320,192,110233,1,0,0:0:0:0:
192,192,110233,1,0,0:0:0:0:
64,192,110330,128,0,110426:0:0:0:0:
320,192,110330,128,0,110426:0:0:0:0:
448,192,110330,128,0,110426:0:0:0:0:
448,192,110523,128,0,110620:0:0:0:0:
192,192,110523,128,0,110620:0:0:0:0:
64,192,110523,128,0,110620:0:0:0:0:
64,192,110717,128,0,110813:0:0:0:0:
192,192,110717,128,0,110813:0:0:0:0:
320,192,110717,128,0,110813:0:0:0:0:
448,192,110910,1,0,0:0:0:0:
320,192,110910,1,0,0:0:0:0:
64,192,111007,128,0,111104:0:0:0:0:
192,192,111007,128,0,111297:0:0:0:0:
448,192,111007,128,0,111104:0:0:0:0:
64,192,111201,128,0,111297:0:0:0:0:
448,192,111201,128,0,111297:0:0:0:0:
448,192,111394,1,0,0:0:0:0:
320,192,111459,1,0,0:0:0:0:
448,192,111523,1,0,0:0:0:0:
64,192,111588,1,0,0:0:0:0:
192,192,111652,1,0,0:0:0:0:
64,192,111717,1,0,0:0:0:0:
320,192,111781,128,0,112071:0:0:0:0:
448,192,111781,128,0,112071:0:0:0:0:
64,192,111975,1,0,0:0:0:0:
192,192,112071,1,0,0:0:0:0:
64,192,112168,128,0,112233:0:0:0:0:
448,192,112168,1,0,0:0:0:0:
320,192,112233,128,0,112297:0:0:0:0:
192,192,112297,128,0,112362:0:0:0:0:
64,192,112362,128,0,112555:0:0:0:0:
192,192,112555,128,0,112846:0:0:0:0:
320,192,112555,128,0,112846:0:0:0:0:
448,192,112555,128,0,112749:0:0:0:0:
64,192,112749,1,0,0:0:0:0:
448,192,112846,1,0,0:0:0:0:
64,192,112942,1,0,0:0:0:0:
192,192,112942,1,0,0:0:0:0:
448,192,113039,1,0,0:0:0:0:
64,192,113136,1,0,0:0:0:0:
320,192,113136,1,0,0:0:0:0:
192,192,113233,1,0,0:0:0:0:
64,192,113330,128,0,113426:0:0:0:0:
320,192,113330,128,0,113523:0:0:0:0:
448,192,113330,128,0,113523:0:0:0:0:
64,192,113523,5,0,0:0:0:0:
320,192,113588,1,0,0:0:0:0:
192,192,113652,1,0,0:0:0:0:
448,192,113717,1,0,0:0:0:0:
64,192,113717,1,0,0:0:0:0:
64,192,113813,128,0,113910:0:0:0:0:
320,192,113813,128,0,113910:0:0:0:0:
320,192,114007,128,0,114297:0:0:0:0:
64,192,114007,128,0,114201:0:0:0:0:
448,192,114007,128,0,114201:0:0:0:0:
64,192,114297,1,0,0:0:0:0:
448,192,114297,1,0,0:0:0:0:
320,192,114362,1,0,0:0:0:0:
64,192,114426,1,0,0:0:0:0:
448,192,114491,1,0,0:0:0:0:
192,192,114555,1,0,0:0:0:0:
448,192,114620,1,0,0:0:0:0:
64,192,114684,1,0,0:0:0:0:
320,192,114749,1,0,0:0:0:0:
192,192,114813,1,0,0:0:0:0:
64,192,114878,1,0,0:0:0:0:
448,192,114878,128,0,114975:0:0:0:0:
64,192,114975,128,0,115168:0:0:0:0:
320,192,114975,128,0,115071:0:0:0:0:
448,192,115071,128,0,115168:0:0:0:0:
320,192,115168,128,0,115362:0:0:0:0:
192,192,115168,128,0,115265:0:0:0:0:
64,192,115265,1,0,0:0:0:0:
192,192,115362,128,0,115555:0:0:0:0:
448,192,115362,128,0,115459:0:0:0:0:
64,192,115459,1,0,0:0:0:0:
448,192,115555,1,0,0:0:0:0:
320,192,115555,128,0,115652:0:0:0:0:
192,192,115652,5,0,0:0:0:0:
448,192,115652,128,0,115749:0:0:0:0:
192,192,115749,1,0,0:0:0:0:
320,192,115846,1,0,0:0:0:0:
64,192,115846,1,0,0:0:0:0:
320,192,115942,1,0,0:0:0:0:
192,192,116039,1,0,0:0:0:0:
64,192,116039,1,0,0:0:0:0:
64,192,116136,1,0,0:0:0:0:
448,192,116233,128,0,116330:0:0:0:0:
320,192,116233,1,0,0:0:0:0:
192,192,116330,128,0,116426:0:0:0:0:
448,192,116426,128,0,116620:0:0:0:0:
64,192,116523,128,0,116717:0:0:0:0:
320,192,116620,128,0,116813:0:0:0:0:
192,192,116717,128,0,116813:0:0:0:0:
448,192,116813,1,0,0:0:0:0:
64,192,116813,128,0,116910:0:0:0:0:
320,192,116878,1,0,0:0:0:0:
192,192,116942,1,0,0:0:0:0:
64,192,117007,1,0,0:0:0:0:
448,192,117007,1,0,0:0:0:0:
320,192,117071,1,0,0:0:0:0:
64,192,117136,1,0,0:0:0:0:
192,192,117136,1,0,0:0:0:0:
64,192,117394,128,0,117588:0:0:0:0:
192,192,117394,128,0,117781:0:0:0:0:
448,192,117394,128,0,118071:0:0:0:0:
320,192,117394,128,0,117684:0:0:0:0:
64,192,117684,128,0,117975:0:0:0:0:
320,192,117781,128,0,117878:0:0:0:0:
192,192,117878,128,0,118168:0:0:0:0:
320,192,117975,128,0,118265:0:0:0:0:
64,192,118071,128,0,118555:0:0:0:0:
448,192,118168,128,0,118459:0:0:0:0:
192,192,118265,128,0,118362:0:0:0:0:
320,192,118362,128,0,118749:0:0:0:0:
192,192,118459,128,0,118652:0:0:0:0:
448,192,118555,128,0,118749:0:0:0:0:
64,192,118652,128,0,120684:0:0:0:0:
192,192,118749,128,0,120684:0:0:0:0:
320,192,118846,128,0,120684:0:0:0:0:
448,192,118870,128,0,120684:0:0:0:0:
